  0
SECTION
  2
HEADER
  0
ENDSEC
  0
SECTION
  2
TABLES
  0
TABLE
  2
LTYPE
 70
     4
  0
LTYPE
  2
CONTINUOUS
 70
    64
  3
Solid line
 72
    65
 73
     0
 40
0.000000
  0
LTYPE
  2
DASHED
 70
    64
  3
__ __ __ __ __ __ __ __ __ __ __ __ __ __ __
 72
    65
 73
     2
 40
3.500000
 49
2.000000
 49
-1.500000
  0
LTYPE
  2
CENTER
 70
    64
  3
____ _ ____ _ ____ _ ____ _ ____ _ ____ _ ____
 72
    65
 73
     4
 40
17.500000
 49
13.000000
 49
-1.500000
 49
1.500000
 49
-1.500000
  0
LTYPE
  2
PHANTOM
 70
    64
  3
_____ _ _ _____ _ _ _____ _ _ _____ _ _ ____  
 72
    65
 73
     6
 40
15.500000
 49
8.000000
 49
-1.500000
 49
1.500000
 49
-1.500000
 49
1.500000
 49
-1.500000
  0
ENDTAB
  0
TABLE
  2
LAYER
 70
     1
  0
LAYER
  2
0
 70
     0
 62
     7
  6
CONTINUOUS
  0
ENDTAB
  0
TABLE
  2
STYLE
 70
     1
  0
STYLE
  2
STANDARD
 70
     0
 40
0.000000
 41
1.000000
 50
0.000000
 71
     0
 42
0.200000
  3
txt
  4
BIGFONT
  0
ENDTAB
  0
TABLE
  2
VIEW
 70
     0
  0
ENDTAB
  0
ENDSEC
  0
SECTION
  2
BLOCKS
  0
BLOCK
  8
0
 70
65
  2
*DIM0
 10
0.0
 20
0.0
 30
0.0
  0
ARC
  8
0
  6
BYBLOCK
 62
0
 10
78.500000
 20
-85.349998
 40
16.000000
 50
72.676056
 51
107.323944
  0
LINE
  8
0
  6
BYBLOCK
 62
0
 10
78.946899
 20
-76.821701
 11
79.415901
 21
-67.874001
  0
LINE
  8
0
  6
BYBLOCK
 62
0
 10
78.053001
 20
-76.821701
 11
77.584099
 21
-67.874001
  0
LINE
  8
0
  6
BYBLOCK
 62
0
 10
79.337372
 20
-69.371925
 11
81.872490
 21
-70.976036
  0
LINE
  8
0
  6
BYBLOCK
 62
0
 10
79.337372
 20
-69.371925
 11
82.334908
 21
-69.493568
  0
LINE
  8
0
  6
BYBLOCK
 62
0
 10
77.662628
 20
-69.371925
 11
74.665092
 21
-69.493568
  0
LINE
  8
0
  6
BYBLOCK
 62
0
 10
77.662628
 20
-69.371925
 11
75.127510
 21
-70.976036
  0
TEXT
  8
0
 62
2
 10
70.500000
 20
-68.150002
 40
3.200000
  1
ü}3üï
 50
0.000000
 41
1.500330
 51
0.000000
  7
STANDARD
  0
ENDBLK
  8
3
  0
BLOCK
  8
0
 70
65
  2
*DIM1
 10
0.0
 20
0.0
 30
0.0
  0
LINE
  8
0
  6
BYBLOCK
 62
2
 10
122.800003
 20
-79.349998
 11
94.000000
 21
-79.349998
  0
LINE
  8
0
  6
BYBLOCK
 62
2
 10
122.800003
 20
-91.349998
 11
94.000000
 21
-91.349998
  0
LINE
  8
0
  6
BYBLOCK
 62
2
 10
95.500000
 20
-79.349998
 11
95.500000
 21
-91.349998
  0
LINE
  8
0
  6
BYBLOCK
 62
2
 10
95.500000
 20
-79.349998
 11
94.723541
 21
-82.247772
  0
LINE
  8
0
  6
BYBLOCK
 62
2
 10
95.500000
 20
-79.349998
 11
96.276459
 21
-82.247772
  0
LINE
  8
0
  6
BYBLOCK
 62
2
 10
95.500000
 20
-91.349998
 11
96.276459
 21
-88.452225
  0
LINE
  8
0
  6
BYBLOCK
 62
2
 10
95.500000
 20
-91.349998
 11
94.723541
 21
-88.452225
  0
TEXT
  8
0
 62
2
 10
94.300003
 20
-96.549995
 40
3.200000
  1
âË12
 50
90.000000
 41
0.937977
 51
0.000000
  7
STANDARD
  0
TEXT
  8
0
 62
2
 10
92.700417
 20
-87.545349
 40
1.600000
  1
 0
 50
90.000000
 41
0.937977
 51
0.000000
  7
STANDARD
  0
TEXT
  8
0
 62
2
 10
94.300423
 20
-87.545418
 40
1.600000
  1
-0.011
 50
90.000000
 41
0.937977
 51
0.000000
  7
STANDARD
  0
ENDBLK
  8
0
  0
BLOCK
  8
0
 70
65
  2
*DIM2
 10
0.0
 20
0.0
 30
0.0
  0
LINE
  8
0
  6
BYBLOCK
 62
2
 10
132.000000
 20
-63.349998
 11
142.500000
 21
-63.349998
  0
LINE
  8
0
  6
BYBLOCK
 62
2
 10
132.000000
 20
-65.349998
 11
142.500000
 21
-65.349998
  0
LINE
  8
0
  6
BYBLOCK
 62
2
 10
141.000000
 20
-57.349998
 11
141.000000
 21
-71.349998
  0
LINE
  8
0
  6
BYBLOCK
 62
2
 10
141.000000
 20
-63.349998
 11
141.000000
 21
-48.101299
  0
LINE
  8
0
  6
BYBLOCK
 62
2
 10
141.000000
 20
-63.349998
 11
141.776459
 21
-60.452221
  0
LINE
  8
0
  6
BYBLOCK
 62
2
 10
141.000000
 20
-63.349998
 11
140.223541
 21
-60.452221
  0
LINE
  8
0
  6
BYBLOCK
 62
2
 10
141.000000
 20
-65.349998
 11
140.223541
 21
-68.247772
  0
LINE
  8
0
  6
BYBLOCK
 62
2
 10
141.000000
 20
-65.349998
 11
141.776459
 21
-68.247772
  0
TEXT
  8
0
 62
2
 10
139.800003
 20
-60.044201
 40
3.200000
  1
2
 50
90.000000
 41
0.873629
 51
0.000000
  7
STANDARD
  0
TEXT
  8
0
 62
2
 10
138.200134
 20
-57.248516
 40
1.600000
  1
+0.014
 50
90.000000
 41
0.873629
 51
0.000000
  7
STANDARD
  0
TEXT
  8
0
 62
2
 10
139.800125
 20
-57.248589
 40
1.600000
  1
 0
 50
90.000000
 41
0.873629
 51
0.000000
  7
STANDARD
  0
ENDBLK
  8
0
  0
BLOCK
  8
0
 70
65
  2
*DIM3
 10
0.0
 20
0.0
 30
0.0
  0
LINE
  8
0
  6
BYBLOCK
 62
2
 10
161.934998
 20
-64.927399
 11
163.934998
 21
-64.927399
  0
LINE
  8
0
  6
BYBLOCK
 62
2
 10
161.934998
 20
-56.927399
 11
161.934998
 21
-66.427399
  0
LINE
  8
0
  6
BYBLOCK
 62
2
 10
161.934998
 20
-64.927399
 11
163.934998
 21
-64.927399
  0
LINE
  8
0
  6
BYBLOCK
 62
2
 10
161.934998
 20
-64.927399
 11
148.524002
 21
-64.927399
  0
TEXT
  8
0
 62
2
 10
147.667007
 20
-63.727398
 40
3.200000
  1
2
 50
0.000000
 41
0.906835
 51
0.000000
  7
STANDARD
  0
TEXT
  8
0
 62
2
 10
150.568878
 20
-62.127399
 40
1.600000
  1
+0.016
 50
0.000000
 41
0.906835
 51
0.000000
  7
STANDARD
  0
TEXT
  8
0
 62
2
 10
150.568878
 20
-63.727398
 40
1.600000
  1
+0.006
 50
0.000000
 41
0.906835
 51
0.000000
  7
STANDARD
  0
ENDBLK
  8
0
  0
ENDSEC
  0
SECTION
  2
ENTITIES
  0
POINT
  8
0
  62
7
  10
-21.500000
  20
85.650002
  30
0.0
  0
POINT
  8
0
  62
7
  10
-1.500000
  20
85.650002
  30
0.0
  0
POINT
  8
0
  62
7
  10
18.500000
  20
85.650002
  30
0.0
  0
POINT
  8
0
  62
7
  10
38.500000
  20
85.650002
  30
0.0
  0
POINT
  8
0
  62
7
  10
58.500000
  20
85.650002
  30
0.0
  0
LINE
  8
0
  6
CONTINUOUS
 62
7
 10
-194.250000
 20
132.600006
 11
194.800003
 21
132.600006
  0
LINE
  8
0
  6
CONTINUOUS
 62
7
 10
194.800003
 20
132.600006
 11
194.800003
 21
-133.500000
  0
LINE
  8
0
  6
CONTINUOUS
 62
7
 10
-194.250000
 20
132.600006
 11
-194.250000
 21
-133.500000
  0
LINE
  8
0
  6
CONTINUOUS
 62
7
 10
-194.250000
 20
-133.500000
 11
194.800003
 21
-133.500000
  0
LINE
  8
0
  6
CONTINUOUS
 62
7
 10
109.800003
 20
-118.500000
 11
109.800003
 21
-133.500000
  0
LINE
  8
0
  6
CONTINUOUS
 62
7
 10
109.800003
 20
-118.500000
 11
194.800003
 21
-118.500000
  0
LINE
  8
0
  6
CONTINUOUS
 62
7
 10
109.800003
 20
132.600006
 11
109.800003
 21
117.599998
  0
LINE
  8
0
  6
CONTINUOUS
 62
7
 10
109.800003
 20
117.599998
 11
194.800003
 21
117.599998
  0
LINE
  8
0
  6
CONTINUOUS
 62
7
 10
-194.250000
 20
117.599998
 11
-109.250000
 21
117.599998
  0
LINE
  8
0
  6
CONTINUOUS
 62
7
 10
-109.250000
 20
132.600006
 11
-109.250000
 21
117.599998
  0
LINE
  8
0
  6
CONTINUOUS
 62
7
 10
-104.500000
 20
1.650010
 11
-104.500000
 21
27.650000
  0
LINE
  8
0
  6
CONTINUOUS
 62
7
 10
-21.500000
 20
27.650000
 11
-21.500000
 21
1.650010
  0
LINE
  8
0
  6
CENTER
 62
2
 10
-136.500000
 20
14.650000
 11
-19.500000
 21
14.650000
  0
LINE
  8
0
  6
CONTINUOUS
 62
7
 10
-104.500000
 20
27.650000
 11
-21.500000
 21
27.650000
  0
LINE
  8
0
  6
CONTINUOUS
 62
2
 10
-104.500000
 20
23.950001
 11
-95.493301
 21
23.950001
  0
LINE
  8
0
  6
CONTINUOUS
 62
2
 10
-104.500000
 20
21.350000
 11
-93.577003
 21
21.350000
  0
LINE
  8
0
  6
CONTINUOUS
 62
2
 10
-104.500000
 20
7.950030
 11
-93.577003
 21
7.950030
  0
LINE
  8
0
  6
CONTINUOUS
 62
2
 10
-104.500000
 20
5.350020
 11
-95.493301
 21
5.350020
  0
LINE
  8
0
  6
CONTINUOUS
 62
7
 10
-104.500000
 20
1.650010
 11
-21.500000
 21
1.650010
  0
LINE
  8
0
  6
CONTINUOUS
 62
2
 10
-89.506699
 20
5.350020
 11
-79.493301
 21
5.350020
  0
LINE
  8
0
  6
CONTINUOUS
 62
2
 10
-73.506699
 20
5.350020
 11
-21.500000
 21
5.350020
  0
LINE
  8
0
  6
CONTINUOUS
 62
2
 10
-75.422997
 20
7.950030
 11
-21.500000
 21
7.950030
  0
LINE
  8
0
  6
CONTINUOUS
 62
2
 10
-91.422997
 20
7.950030
 11
-77.577003
 21
7.950030
  0
LINE
  8
0
  6
CONTINUOUS
 62
2
 10
-89.506699
 20
23.950001
 11
-79.493301
 21
23.950001
  0
LINE
  8
0
  6
CONTINUOUS
 62
2
 10
-91.422997
 20
21.350000
 11
-77.577003
 21
21.350000
  0
LINE
  8
0
  6
CONTINUOUS
 62
2
 10
-73.506699
 20
23.950001
 11
-21.500000
 21
23.950001
  0
LINE
  8
0
  6
CONTINUOUS
 62
2
 10
-75.422997
 20
21.350000
 11
-21.500000
 21
21.350000
  0
LINE
  8
0
  6
CONTINUOUS
 62
7
 10
-134.500000
 20
17.650000
 11
-134.500000
 21
11.650000
  0
LINE
  8
0
  6
CONTINUOUS
 62
7
 10
-104.500000
 20
17.650000
 11
-134.500000
 21
17.650000
  0
LINE
  8
0
  6
CONTINUOUS
 62
7
 10
-104.500000
 20
11.650000
 11
-134.500000
 21
11.650000
  0
LINE
  8
0
  6
CONTINUOUS
 62
7
 10
113.500000
 20
-29.350000
 11
113.500000
 21
-11.350000
  0
LINE
  8
0
  6
CONTINUOUS
 62
7
 10
-21.500000
 20
-56.349998
 11
-21.500000
 21
-38.349998
  0
LINE
  8
0
  6
CENTER
 62
2
 10
-136.500000
 20
-47.349998
 11
-19.500000
 21
-47.349998
  0
LINE
  8
0
  6
CONTINUOUS
 62
7
 10
113.500000
 20
-29.350000
 11
123.500000
 21
-29.350000
  0
LINE
  8
0
  6
CONTINUOUS
 62
7
 10
113.500000
 20
-11.350000
 11
123.500000
 21
-11.350000
  0
LINE
  8
0
  6
CONTINUOUS
 62
4
 10
83.500000
 20
-17.850000
 11
83.500000
 21
-22.850000
  0
LINE
  8
0
  6
CONTINUOUS
 62
4
 10
113.500000
 20
-17.350000
 11
94.865997
 21
-17.350000
  0
LINE
  8
0
  6
CONTINUOUS
 62
4
 10
113.500000
 20
-23.350000
 11
94.865997
 21
-23.350000
  0
LINE
  8
0
  6
CONTINUOUS
 62
7
 10
-104.500000
 20
67.650002
 11
-104.500000
 21
85.650002
  0
LINE
  8
0
  6
CONTINUOUS
 62
7
 10
-21.500000
 20
67.650002
 11
-21.500000
 21
85.650002
  0
LINE
  8
0
  6
CENTER
 62
2
 10
-136.500000
 20
76.650002
 11
-19.500000
 21
76.650002
  0
LINE
  8
0
  6
CONTINUOUS
 62
7
 10
-104.500000
 20
67.650002
 11
-21.500000
 21
67.650002
  0
LINE
  8
0
  6
CONTINUOUS
 62
7
 10
-104.500000
 20
85.650002
 11
-21.500000
 21
85.650002
  0
LINE
  8
0
  6
CENTER
 62
2
 10
-34.500000
 20
80.150002
 11
-34.500000
 21
73.150002
  0
LINE
  8
0
  6
CENTER
 62
2
 10
-71.000000
 20
80.150002
 11
-71.000000
 21
73.150002
  0
LINE
  8
0
  6
CONTINUOUS
 62
7
 10
-134.500000
 20
79.650002
 11
-134.500000
 21
73.650002
  0
LINE
  8
0
  6
CONTINUOUS
 62
7
 10
-104.500000
 20
79.650002
 11
-134.500000
 21
79.650002
  0
LINE
  8
0
  6
CONTINUOUS
 62
7
 10
-104.500000
 20
73.650002
 11
-134.500000
 21
73.650002
  0
LINE
  8
0
  6
CENTER
 62
2
 10
3.500000
 20
14.650000
 11
25.500000
 21
14.650000
  0
LINE
  8
0
  6
CONTINUOUS
 62
7
 10
23.500000
 20
27.650000
 11
5.500000
 21
27.650000
  0
LINE
  8
0
  6
CONTINUOUS
 62
7
 10
23.500000
 20
1.650010
 11
5.500000
 21
1.650010
  0
LINE
  8
0
  6
CONTINUOUS
 62
2
 10
17.200001
 20
23.299999
 11
17.200001
 21
22.000000
  0
LINE
  8
0
  6
CONTINUOUS
 62
2
 10
18.700001
 20
20.500000
 11
22.500000
 21
20.500000
  0
LINE
  8
0
  6
CONTINUOUS
 62
2
 10
22.500000
 20
21.350000
 11
22.500000
 21
20.500000
  0
LINE
  8
0
  6
CONTINUOUS
 62
2
 10
22.500000
 20
21.350000
 11
23.500000
 21
21.350000
  0
LINE
  8
0
  6
CONTINUOUS
 62
2
 10
22.500000
 20
23.950001
 11
23.500000
 21
23.950001
  0
LINE
  8
0
  6
CONTINUOUS
 62
2
 10
22.500000
 20
24.799999
 11
22.500000
 21
23.950001
  0
LINE
  8
0
  6
CONTINUOUS
 62
2
 10
18.700001
 20
24.799999
 11
22.500000
 21
24.799999
  0
LINE
  8
0
  6
CONTINUOUS
 62
7
 10
5.500000
 20
27.650000
 11
5.500000
 21
1.650010
  0
LINE
  8
0
  6
CONTINUOUS
 62
7
 10
23.500000
 20
27.650000
 11
23.500000
 21
1.650010
  0
LINE
  8
0
  6
CENTER
 62
2
 10
14.500000
 20
-0.349991
 11
14.500000
 21
29.650000
  0
LINE
  8
0
  6
CENTER
 62
2
 10
15.200000
 20
22.650000
 11
25.500000
 21
22.650000
  0
LINE
  8
0
  6
CENTER
 62
2
 10
-174.500000
 20
14.650000
 11
-152.500000
 21
14.650000
  0
LINE
  8
0
  6
CONTINUOUS
 62
7
 10
-154.500000
 20
27.650000
 11
-172.500000
 21
27.650000
  0
LINE
  8
0
  6
CONTINUOUS
 62
7
 10
-154.500000
 20
1.650010
 11
-172.500000
 21
1.650010
  0
LINE
  8
0
  6
CONTINUOUS
 62
2
 10
-160.800003
 20
23.299999
 11
-160.800003
 21
22.000000
  0
LINE
  8
0
  6
CONTINUOUS
 62
2
 10
-159.300003
 20
20.500000
 11
-155.500000
 21
20.500000
  0
LINE
  8
0
  6
CONTINUOUS
 62
2
 10
-155.500000
 20
21.350000
 11
-155.500000
 21
20.500000
  0
LINE
  8
0
  6
CONTINUOUS
 62
2
 10
-155.500000
 20
21.350000
 11
-154.500000
 21
21.350000
  0
LINE
  8
0
  6
CONTINUOUS
 62
2
 10
-155.500000
 20
23.950001
 11
-154.500000
 21
23.950001
  0
LINE
  8
0
  6
CONTINUOUS
 62
2
 10
-155.500000
 20
24.799999
 11
-155.500000
 21
23.950001
  0
LINE
  8
0
  6
CONTINUOUS
 62
2
 10
-159.300003
 20
24.799999
 11
-155.500000
 21
24.799999
  0
LINE
  8
0
  6
CONTINUOUS
 62
7
 10
-172.500000
 20
27.650000
 11
-172.500000
 21
1.650010
  0
LINE
  8
0
  6
CONTINUOUS
 62
7
 10
-154.500000
 20
27.650000
 11
-154.500000
 21
1.650010
  0
LINE
  8
0
  6
CENTER
 62
2
 10
-159.500000
 20
4.650010
 11
-167.500000
 21
4.650010
  0
LINE
  8
0
  6
CENTER
 62
2
 10
-159.500000
 20
24.650000
 11
-167.500000
 21
24.650000
  0
LINE
  8
0
  6
CENTER
 62
2
 10
-163.500000
 20
-0.349991
 11
-163.500000
 21
29.650000
  0
LINE
  8
0
  6
CENTER
 62
2
 10
-164.850006
 20
22.650000
 11
-174.500000
 21
22.650000
  0
LINE
  8
0
  6
CENTER
 62
2
 10
-164.850006
 20
6.650010
 11
-174.500000
 21
6.650010
  0
LINE
  8
0
  6
CENTER
 62
2
 10
-162.149994
 20
6.650010
 11
-152.500000
 21
6.650010
  0
LINE
  8
0
  6
CENTER
 62
2
 10
-162.149994
 20
22.650000
 11
-152.500000
 21
22.650000
  0
LINE
  8
0
  6
CONTINUOUS
 62
4
 10
81.500000
 20
81.650002
 11
112.500000
 21
81.650002
  0
LINE
  8
0
  6
CONTINUOUS
 62
4
 10
81.500000
 20
92.949997
 11
81.500000
 21
81.650002
  0
LINE
  8
0
  6
CONTINUOUS
 62
4
 10
112.500000
 20
92.949997
 11
112.500000
 21
81.650002
  0
LINE
  8
0
  6
CONTINUOUS
 62
4
 10
88.000000
 20
96.650002
 11
106.000000
 21
96.650002
  0
LINE
  8
0
  6
CONTINUOUS
 62
4
 10
81.500000
 20
73.650002
 11
81.500000
 21
58.650002
  0
LINE
  8
0
  6
CONTINUOUS
 62
4
 10
120.500000
 20
73.650002
 11
135.500000
 21
73.650002
  0
LINE
  8
0
  6
CONTINUOUS
 62
4
 10
135.500000
 20
73.650002
 11
135.500000
 21
58.650002
  0
LINE
  8
0
  6
CONTINUOUS
 62
4
 10
120.500000
 20
58.650002
 11
135.500000
 21
58.650002
  0
LINE
  8
0
  6
CONTINUOUS
 62
4
 10
81.500000
 20
92.949997
 11
88.000000
 21
92.949997
  0
LINE
  8
0
  6
CENTER
 62
1
 10
97.000000
 20
98.650002
 11
97.000000
 21
79.650002
  0
LINE
  8
0
  6
CONTINUOUS
 62
4
 10
88.000000
 20
96.650002
 11
88.000000
 21
92.949997
  0
LINE
  8
0
  6
CONTINUOUS
 62
4
 10
106.000000
 20
96.650002
 11
106.000000
 21
92.949997
  0
LINE
  8
0
  6
CONTINUOUS
 62
4
 10
106.000000
 20
92.949997
 11
112.500000
 21
92.949997
  0
LINE
  8
0
  6
CENTER
 62
1
 10
84.500000
 20
94.949997
 11
84.500000
 21
79.650002
  0
LINE
  8
0
  6
CENTER
 62
1
 10
109.500000
 20
94.949997
 11
109.500000
 21
79.650002
  0
LINE
  8
0
  6
DASHED
 62
1
 10
107.699997
 20
92.949997
 11
107.699997
 21
81.650002
  0
LINE
  8
0
  6
DASHED
 62
1
 10
111.300003
 20
92.949997
 11
111.300003
 21
81.650002
  0
LINE
  8
0
  6
CONTINUOUS
 62
4
 10
81.500000
 20
73.650002
 11
112.500000
 21
73.650002
  0
LINE
  8
0
  6
CONTINUOUS
 62
4
 10
81.500000
 20
58.650002
 11
112.500000
 21
58.650002
  0
LINE
  8
0
  6
CONTINUOUS
 62
4
 10
112.500000
 20
73.650002
 11
112.500000
 21
58.650002
  0
LINE
  8
0
  6
CONTINUOUS
 62
4
 10
120.500000
 20
73.650002
 11
120.500000
 21
58.650002
  0
LINE
  8
0
  6
CONTINUOUS
 62
4
 10
131.800003
 20
73.650002
 11
131.800003
 21
58.650002
  0
LINE
  8
0
  6
CENTER
 62
1
 10
118.500000
 20
66.150002
 11
137.500000
 21
66.150002
  0
LINE
  8
0
  6
CENTER
 62
1
 10
81.500000
 20
-20.350000
 11
125.500000
 21
-20.350000
  0
LINE
  8
0
  6
CONTINUOUS
 62
7
 10
-104.500000
 20
-56.349998
 11
-104.500000
 21
-38.349998
  0
LINE
  8
0
  6
CONTINUOUS
 62
7
 10
-104.500000
 20
-50.349998
 11
-134.500000
 21
-50.349998
  0
LINE
  8
0
  6
CONTINUOUS
 62
7
 10
-104.500000
 20
-56.349998
 11
-21.500000
 21
-56.349998
  0
LINE
  8
0
  6
CONTINUOUS
 62
7
 10
-104.500000
 20
-38.349998
 11
-21.500000
 21
-38.349998
  0
LINE
  8
0
  6
CONTINUOUS
 62
7
 10
-134.500000
 20
-44.349998
 11
-134.500000
 21
-50.349998
  0
LINE
  8
0
  6
CONTINUOUS
 62
7
 10
-104.500000
 20
-44.349998
 11
-134.500000
 21
-44.349998
  0
LINE
  8
0
  6
CENTER
 62
1
 10
100.432999
 20
-7.850000
 11
92.432999
 21
-7.850000
  0
LINE
  8
0
  6
CENTER
 62
1
 10
96.432999
 20
-3.850000
 11
96.432999
 21
-11.850000
  0
LINE
  8
0
  6
CONTINUOUS
 62
4
 10
93.932999
 20
-6.191670
 11
93.932999
 21
-9.508320
  0
LINE
  8
0
  6
CONTINUOUS
 62
4
 10
98.932999
 20
-6.191670
 11
98.932999
 21
-9.508320
  0
LINE
  8
0
  6
CONTINUOUS
 62
7
 10
113.500000
 20
15.650000
 11
113.500000
 21
33.650002
  0
LINE
  8
0
  6
CONTINUOUS
 62
7
 10
113.500000
 20
15.650000
 11
123.500000
 21
15.650000
  0
LINE
  8
0
  6
CONTINUOUS
 62
7
 10
113.500000
 20
33.650002
 11
123.500000
 21
33.650002
  0
LINE
  8
0
  6
CONTINUOUS
 62
4
 10
83.500000
 20
27.650000
 11
83.500000
 21
21.650000
  0
LINE
  8
0
  6
CONTINUOUS
 62
4
 10
113.500000
 20
27.650000
 11
94.500000
 21
27.650000
  0
LINE
  8
0
  6
CONTINUOUS
 62
4
 10
113.500000
 20
21.650000
 11
94.500000
 21
21.650000
  0
LINE
  8
0
  6
CENTER
 62
1
 10
81.500000
 20
24.650000
 11
125.500000
 21
24.650000
  0
LINE
  8
0
  6
CONTINUOUS
 62
4
 10
90.500000
 20
27.650000
 11
90.500000
 21
27.150000
  0
LINE
  8
0
  6
CONTINUOUS
 62
4
 10
94.500000
 20
27.650000
 11
94.500000
 21
27.150000
  0
LINE
  8
0
  6
CONTINUOUS
 62
4
 10
90.500000
 20
22.150000
 11
94.500000
 21
22.150000
  0
LINE
  8
0
  6
CONTINUOUS
 62
4
 10
90.500000
 20
27.150000
 11
94.500000
 21
27.150000
  0
LINE
  8
0
  6
CONTINUOUS
 62
4
 10
90.500000
 20
27.650000
 11
83.500000
 21
27.650000
  0
LINE
  8
0
  6
CONTINUOUS
 62
4
 10
90.500000
 20
21.650000
 11
83.500000
 21
21.650000
  0
LINE
  8
0
  6
CONTINUOUS
 62
4
 10
90.500000
 20
22.150000
 11
90.500000
 21
21.650000
  0
LINE
  8
0
  6
CONTINUOUS
 62
4
 10
94.500000
 20
22.150000
 11
94.500000
 21
21.650000
  0
LINE
  8
0
  6
DASHED
 62
1
 10
89.500000
 20
26.150000
 11
89.500000
 21
23.150000
  0
LINE
  8
0
  6
DASHED
 62
1
 10
91.000000
 20
25.900000
 11
91.000000
 21
23.400000
  0
LINE
  8
0
  6
DASHED
 62
1
 10
83.500000
 20
26.150000
 11
89.500000
 21
26.150000
  0
LINE
  8
0
  6
DASHED
 62
1
 10
83.500000
 20
23.150000
 11
89.500000
 21
23.150000
  0
LINE
  8
0
  6
DASHED
 62
1
 10
83.500000
 20
25.900000
 11
91.000000
 21
25.900000
  0
LINE
  8
0
  6
DASHED
 62
1
 10
83.500000
 20
23.400000
 11
91.000000
 21
23.400000
  0
LINE
  8
0
  6
CENTER
 62
1
 10
96.500000
 20
37.150002
 11
88.500000
 21
37.150002
  0
LINE
  8
0
  6
CENTER
 62
1
 10
92.500000
 20
41.150002
 11
92.500000
 21
33.150002
  0
LINE
  8
0
  6
CONTINUOUS
 62
4
 10
94.158302
 20
39.650002
 11
90.841698
 21
39.650002
  0
LINE
  8
0
  6
CONTINUOUS
 62
4
 10
94.158302
 20
34.650002
 11
90.841698
 21
34.650002
  0
LINE
  8
0
  6
CONTINUOUS
 62
4
 10
83.500000
 20
-22.850000
 11
87.300003
 21
-22.850000
  0
LINE
  8
0
  6
CONTINUOUS
 62
4
 10
83.500000
 20
-17.850000
 11
87.300003
 21
-17.850000
  0
LINE
  8
0
  6
CONTINUOUS
 62
4
 10
92.500000
 20
-17.850000
 11
92.500000
 21
-22.850000
  0
LINE
  8
0
  6
CONTINUOUS
 62
4
 10
94.000000
 20
-17.850000
 11
94.000000
 21
-22.850000
  0
LINE
  8
0
  6
CONTINUOUS
 62
4
 10
94.000000
 20
-17.850000
 11
94.865997
 21
-17.350000
  0
LINE
  8
0
  6
CONTINUOUS
 62
4
 10
94.000000
 20
-22.850000
 11
94.865997
 21
-23.350000
  0
LINE
  8
0
  6
CONTINUOUS
 62
4
 10
94.865997
 20
-17.350000
 11
94.865997
 21
-18.691700
  0
LINE
  8
0
  6
CONTINUOUS
 62
4
 10
98.000000
 20
-18.691700
 11
98.000000
 21
-22.008301
  0
LINE
  8
0
  6
CONTINUOUS
 62
4
 10
94.000000
 20
-18.691700
 11
98.000000
 21
-18.691700
  0
LINE
  8
0
  6
CONTINUOUS
 62
4
 10
94.000000
 20
-22.008301
 11
98.000000
 21
-22.008301
  0
LINE
  8
0
  6
CONTINUOUS
 62
1
 10
83.500000
 20
-22.350000
 11
87.300003
 21
-22.350000
  0
LINE
  8
0
  6
CONTINUOUS
 62
1
 10
83.500000
 20
-18.350000
 11
87.300003
 21
-18.350000
  0
LINE
  8
0
  6
DASHED
 62
2
 10
-95.500000
 20
-38.349998
 11
-95.500000
 21
-44.849998
  0
LINE
  8
0
  6
DASHED
 62
2
 10
-89.500000
 20
-38.349998
 11
-89.500000
 21
-44.849998
  0
LINE
  8
0
  6
DASHED
 62
2
 10
-90.500000
 20
-44.849998
 11
-90.500000
 21
-49.849998
  0
LINE
  8
0
  6
DASHED
 62
2
 10
-90.800003
 20
-44.849998
 11
-90.800003
 21
-49.849998
  0
LINE
  8
0
  6
DASHED
 62
2
 10
-94.500000
 20
-44.849998
 11
-94.500000
 21
-49.849998
  0
LINE
  8
0
  6
DASHED
 62
2
 10
-94.199997
 20
-44.849998
 11
-94.199997
 21
-49.849998
  0
LINE
  8
0
  6
DASHED
 62
2
 10
-79.500000
 20
-38.349998
 11
-79.500000
 21
-44.849998
  0
LINE
  8
0
  6
DASHED
 62
2
 10
-73.500000
 20
-38.349998
 11
-73.500000
 21
-44.849998
  0
LINE
  8
0
  6
DASHED
 62
2
 10
-74.500000
 20
-44.849998
 11
-74.500000
 21
-49.849998
  0
LINE
  8
0
  6
DASHED
 62
2
 10
-74.800003
 20
-44.849998
 11
-74.800003
 21
-49.849998
  0
LINE
  8
0
  6
DASHED
 62
2
 10
-78.500000
 20
-44.849998
 11
-78.500000
 21
-49.849998
  0
LINE
  8
0
  6
DASHED
 62
2
 10
-78.199997
 20
-44.849998
 11
-78.199997
 21
-49.849998
  0
LINE
  8
0
  6
DASHED
 62
2
 10
-95.500000
 20
-44.849998
 11
-89.500000
 21
-44.849998
  0
LINE
  8
0
  6
DASHED
 62
2
 10
-95.500000
 20
-49.849998
 11
-89.500000
 21
-49.849998
  0
LINE
  8
0
  6
DASHED
 62
2
 10
-95.500000
 20
-49.849998
 11
-95.500000
 21
-56.349998
  0
LINE
  8
0
  6
DASHED
 62
2
 10
-89.500000
 20
-49.849998
 11
-89.500000
 21
-56.349998
  0
LINE
  8
0
  6
DASHED
 62
2
 10
-79.500000
 20
-49.849998
 11
-73.500000
 21
-49.849998
  0
LINE
  8
0
  6
DASHED
 62
2
 10
-79.500000
 20
-44.849998
 11
-73.500000
 21
-44.849998
  0
LINE
  8
0
  6
DASHED
 62
2
 10
-79.500000
 20
-49.849998
 11
-79.500000
 21
-56.349998
  0
LINE
  8
0
  6
DASHED
 62
2
 10
-73.500000
 20
-49.849998
 11
-73.500000
 21
-56.349998
  0
LINE
  8
0
  6
CONTINUOUS
 62
4
 10
94.865997
 20
-22.008301
 11
94.865997
 21
-23.350000
  0
LINE
  8
0
  6
CONTINUOUS
 62
1
 10
94.000099
 20
-22.008301
 11
98.000099
 21
-18.691799
  0
LINE
  8
0
  6
CONTINUOUS
 62
1
 10
98.000000
 20
-22.008301
 11
94.000000
 21
-18.691799
  0
LINE
  8
0
  6
CONTINUOUS
 62
4
 10
90.500000
 20
-15.731200
 11
90.500000
 21
-24.968800
  0
LINE
  8
0
  6
CONTINUOUS
 62
1
 10
90.500000
 20
-22.350000
 11
92.500000
 21
-22.350000
  0
LINE
  8
0
  6
CONTINUOUS
 62
4
 10
90.500000
 20
-22.850000
 11
94.000000
 21
-22.850000
  0
LINE
  8
0
  6
CONTINUOUS
 62
1
 10
90.500000
 20
-18.350000
 11
92.500000
 21
-18.350000
  0
LINE
  8
0
  6
CONTINUOUS
 62
4
 10
90.500000
 20
-17.850000
 11
94.000000
 21
-17.850000
  0
LINE
  8
0
  6
CONTINUOUS
 62
4
 10
87.300003
 20
-24.968800
 11
90.500000
 21
-24.968800
  0
LINE
  8
0
  6
CONTINUOUS
 62
4
 10
87.300003
 20
-22.659401
 11
90.500000
 21
-22.659401
  0
LINE
  8
0
  6
CONTINUOUS
 62
4
 10
87.300003
 20
-15.731200
 11
90.500000
 21
-15.731200
  0
LINE
  8
0
  6
CONTINUOUS
 62
4
 10
87.300003
 20
-18.040600
 11
90.500000
 21
-18.040600
  0
LINE
  8
0
  6
CENTER
 62
2
 10
-76.500000
 20
-36.349998
 11
-76.500000
 21
-58.349998
  0
LINE
  8
0
  6
CENTER
 62
2
 10
-92.500000
 20
-36.349998
 11
-92.500000
 21
-58.349998
  0
LINE
  8
0
  6
CONTINUOUS
 62
4
 10
87.300003
 20
-15.731200
 11
87.300003
 21
-24.968800
  0
LINE
  8
0
  6
CENTER
 62
2
 10
-76.500000
 20
10.150000
 11
-76.500000
 21
0.150009
  0
LINE
  8
0
  6
CENTER
 62
2
 10
-81.500000
 20
5.150010
 11
-71.500000
 21
5.150010
  0
LINE
  8
0
  6
CENTER
 62
2
 10
-92.500000
 20
10.150000
 11
-92.500000
 21
0.150009
  0
LINE
  8
0
  6
CENTER
 62
2
 10
-97.500000
 20
5.150010
 11
-87.500000
 21
5.150010
  0
LINE
  8
0
  6
CENTER
 62
2
 10
-92.500000
 20
29.150000
 11
-92.500000
 21
19.150000
  0
LINE
  8
0
  6
CENTER
 62
2
 10
-97.500000
 20
24.150000
 11
-87.500000
 21
24.150000
  0
LINE
  8
0
  6
CENTER
 62
2
 10
-76.500000
 20
29.150000
 11
-76.500000
 21
19.150000
  0
LINE
  8
0
  6
CENTER
 62
2
 10
-81.500000
 20
24.150000
 11
-71.500000
 21
24.150000
  0
LINE
  8
0
  6
CENTER
 62
2
 10
15.200000
 20
6.649980
 11
25.500000
 21
6.649980
  0
LINE
  8
0
  6
CENTER
 62
2
 10
13.800000
 20
22.650000
 11
3.500000
 21
22.650000
  0
LINE
  8
0
  6
CENTER
 62
2
 10
13.800000
 20
6.649980
 11
3.500000
 21
6.649980
  0
LINE
  8
0
  6
CENTER
 62
2
 10
-86.500000
 20
-37.349998
 11
-86.500000
 21
-45.349998
  0
LINE
  8
0
  6
CENTER
 62
2
 10
-90.500000
 20
-41.349998
 11
-82.500000
 21
-41.349998
  0
LINE
  8
0
  6
CENTER
 62
2
 10
-86.500000
 20
-49.349998
 11
-86.500000
 21
-57.349998
  0
LINE
  8
0
  6
CENTER
 62
2
 10
-90.500000
 20
-53.349998
 11
-82.500000
 21
-53.349998
  0
LINE
  8
0
  6
CENTER
 62
2
 10
-70.500000
 20
-49.349998
 11
-70.500000
 21
-57.349998
  0
LINE
  8
0
  6
CENTER
 62
2
 10
-74.500000
 20
-53.349998
 11
-66.500000
 21
-53.349998
  0
LINE
  8
0
  6
CENTER
 62
2
 10
-70.500000
 20
-37.349998
 11
-70.500000
 21
-45.349998
  0
LINE
  8
0
  6
CENTER
 62
2
 10
-74.500000
 20
-41.349998
 11
-66.500000
 21
-41.349998
  0
LINE
  8
0
  6
CENTER
 62
1
 10
109.500000
 20
65.699997
 11
109.500000
 21
58.099998
  0
LINE
  8
0
  6
CENTER
 62
1
 10
105.699997
 20
61.900002
 11
113.300003
 21
61.900002
  0
LINE
  8
0
  6
CENTER
 62
1
 10
109.500000
 20
74.199997
 11
109.500000
 21
66.599998
  0
LINE
  8
0
  6
CENTER
 62
1
 10
105.699997
 20
70.400002
 11
113.300003
 21
70.400002
  0
LINE
  8
0
  6
CENTER
 62
1
 10
97.000000
 20
71.150002
 11
97.000000
 21
61.150002
  0
LINE
  8
0
  6
CENTER
 62
1
 10
92.000000
 20
66.150002
 11
102.000000
 21
66.150002
  0
LINE
  8
0
  6
CENTER
 62
1
 10
84.500000
 20
74.199997
 11
84.500000
 21
66.599998
  0
LINE
  8
0
  6
CENTER
 62
1
 10
80.699997
 20
70.400002
 11
88.300003
 21
70.400002
  0
LINE
  8
0
  6
CENTER
 62
1
 10
84.500000
 20
65.699997
 11
84.500000
 21
58.099998
  0
LINE
  8
0
  6
CENTER
 62
1
 10
80.699997
 20
61.900002
 11
88.300003
 21
61.900002
  0
LINE
  8
0
  6
CONTINUOUS
 62
7
 10
153.500000
 20
-98.349998
 11
153.500000
 21
-72.349998
  0
LINE
  8
0
  6
CENTER
 62
1
 10
101.500000
 20
-85.349998
 11
163.500000
 21
-85.349998
  0
LINE
  8
0
  6
CONTINUOUS
 62
7
 10
153.500000
 20
-72.349998
 11
163.500000
 21
-72.349998
  0
LINE
  8
0
  6
CONTINUOUS
 62
2
 10
153.500000
 20
-76.050003
 11
163.500000
 21
-76.050003
  0
LINE
  8
0
  6
CONTINUOUS
 62
2
 10
153.500000
 20
-78.650002
 11
163.500000
 21
-78.650002
  0
LINE
  8
0
  6
CONTINUOUS
 62
2
 10
153.500000
 20
-92.050003
 11
163.500000
 21
-92.050003
  0
LINE
  8
0
  6
CONTINUOUS
 62
2
 10
153.500000
 20
-94.650002
 11
163.500000
 21
-94.650002
  0
LINE
  8
0
  6
CONTINUOUS
 62
7
 10
153.500000
 20
-98.349998
 11
163.500000
 21
-98.349998
  0
LINE
  8
0
  6
CONTINUOUS
 62
4
 10
103.500000
 20
-82.349998
 11
103.500000
 21
-88.349998
  0
LINE
  8
0
  6
CONTINUOUS
 62
4
 10
122.800003
 20
-79.349998
 11
135.199997
 21
-79.349998
  0
LINE
  8
0
  6
CONTINUOUS
 62
4
 10
135.199997
 20
-79.349998
 11
135.199997
 21
-91.349998
  0
LINE
  8
0
  6
CONTINUOUS
 62
4
 10
122.800003
 20
-79.349998
 11
122.800003
 21
-91.349998
  0
LINE
  8
0
  6
CONTINUOUS
 62
4
 10
139.500000
 20
-79.400002
 11
139.500000
 21
-91.300003
  0
LINE
  8
0
  6
CONTINUOUS
 62
4
 10
118.500000
 20
-79.400002
 11
118.500000
 21
-91.300003
  0
LINE
  8
0
  6
CONTINUOUS
 62
4
 10
118.500000
 20
-79.400002
 11
122.800003
 21
-79.400002
  0
LINE
  8
0
  6
CONTINUOUS
 62
4
 10
135.199997
 20
-79.400002
 11
139.500000
 21
-79.400002
  0
LINE
  8
0
  6
DASHED
 62
1
 10
125.000000
 20
-80.550003
 11
133.000000
 21
-80.550003
  0
LINE
  8
0
  6
DASHED
 62
1
 10
133.000000
 20
-79.349998
 11
133.000000
 21
-80.550003
  0
LINE
  8
0
  6
DASHED
 62
1
 10
125.000000
 20
-79.349998
 11
125.000000
 21
-80.550003
  0
LINE
  8
0
  6
CONTINUOUS
 62
4
 10
122.800003
 20
-91.349998
 11
135.199997
 21
-91.349998
  0
LINE
  8
0
  6
CONTINUOUS
 62
4
 10
118.500000
 20
-91.300003
 11
122.800003
 21
-91.300003
  0
LINE
  8
0
  6
CONTINUOUS
 62
4
 10
135.199997
 20
-91.300003
 11
139.500000
 21
-91.300003
  0
LINE
  8
0
  6
DASHED
 62
1
 10
109.500000
 20
-83.849998
 11
109.500000
 21
-86.849998
  0
LINE
  8
0
  6
DASHED
 62
1
 10
111.500000
 20
-84.120499
 11
111.500000
 21
-86.579498
  0
LINE
  8
0
  6
DASHED
 62
1
 10
103.500000
 20
-86.579498
 11
111.500000
 21
-86.579498
  0
LINE
  8
0
  6
DASHED
 62
1
 10
103.500000
 20
-84.120499
 11
111.500000
 21
-84.120499
  0
LINE
  8
0
  6
DASHED
 62
1
 10
77.500000
 20
-79.433899
 11
77.500000
 21
-80.550003
  0
LINE
  8
0
  6
DASHED
 62
1
 10
77.500000
 20
-80.550003
 11
79.500000
 21
-80.550003
  0
LINE
  8
0
  6
DASHED
 62
1
 10
79.500000
 20
-79.433899
 11
79.500000
 21
-80.550003
  0
LINE
  8
0
  6
CENTER
 62
1
 10
78.946899
 20
-76.821701
 11
78.500000
 21
-85.349998
  0
LINE
  8
0
  6
CENTER
 62
1
 10
69.959999
 20
-85.349998
 11
87.040001
 21
-85.349998
  0
LINE
  8
0
  6
CENTER
 62
1
 10
78.500000
 20
-76.809998
 11
78.500000
 21
-93.889999
  0
LINE
  8
0
  6
CENTER
 62
1
 10
78.053001
 20
-76.821701
 11
78.500000
 21
-85.349998
  0
LINE
  8
0
  6
CENTER
 62
1
 10
123.000000
 20
-64.349998
 11
135.000000
 21
-64.349998
  0
LINE
  8
0
  6
CONTINUOUS
 62
4
 10
126.000000
 20
-65.349998
 11
132.000000
 21
-65.349998
  0
LINE
  8
0
  6
CONTINUOUS
 62
4
 10
126.000000
 20
-63.349998
 11
132.000000
 21
-63.349998
  0
LINE
  8
0
  6
CONTINUOUS
 62
4
 10
161.934998
 20
-54.927399
 11
161.934998
 21
-56.927399
  0
LINE
  8
0
  6
CONTINUOUS
 62
4
 10
163.934998
 20
-54.927399
 11
163.934998
 21
-56.927399
  0
LINE
  8
0
  6
CONTINUOUS
 62
4
 10
169.184998
 20
-47.927399
 11
174.985001
 21
-47.927399
  0
LINE
  8
0
  6
CONTINUOUS
 62
4
 10
169.184998
 20
-49.927399
 11
174.985001
 21
-49.927399
  0
LINE
  8
0
  6
CONTINUOUS
 62
4
 10
161.934998
 20
-56.927399
 11
163.934998
 21
-56.927399
  0
LINE
  8
0
  6
CONTINUOUS
 62
4
 10
161.934998
 20
-54.927399
 11
163.934998
 21
-54.927399
  0
LINE
  8
0
  6
CENTER
 62
1
 10
176.985001
 20
-48.927399
 11
167.184998
 21
-48.927399
  0
LINE
  8
0
  6
CENTER
 62
1
 10
162.934998
 20
-53.927399
 11
162.934998
 21
-57.927399
  0
LINE
  8
0
  6
CONTINUOUS
 62
4
 10
168.184998
 20
-56.927399
 11
175.985001
 21
-56.927399
  0
LINE
  8
0
  6
CONTINUOUS
 62
4
 10
168.184998
 20
-54.927399
 11
175.985001
 21
-54.927399
  0
LINE
  8
0
  6
CONTINUOUS
 62
4
 10
168.184998
 20
-54.927399
 11
168.184998
 21
-56.927399
  0
LINE
  8
0
  6
CONTINUOUS
 62
4
 10
175.985001
 20
-54.927399
 11
175.985001
 21
-56.927399
  0
LINE
  8
0
  6
DASHED
 62
1
 10
103.500000
 20
-86.849998
 11
109.500000
 21
-86.849998
  0
LINE
  8
0
  6
DASHED
 62
1
 10
103.500000
 20
-83.849998
 11
109.500000
 21
-83.849998
  0
LINE
  8
0
  6
CONTINUOUS
 62
4
 10
103.500000
 20
-82.349998
 11
118.500000
 21
-82.349998
  0
LINE
  8
0
  6
CONTINUOUS
 62
4
 10
103.500000
 20
-88.349998
 11
118.500000
 21
-88.349998
  0
LINE
  8
0
  6
CONTINUOUS
 62
4
 10
139.500000
 20
-82.349998
 11
153.500000
 21
-82.349998
  0
LINE
  8
0
  6
CONTINUOUS
 62
4
 10
139.500000
 20
-88.349998
 11
153.500000
 21
-88.349998
  0
CIRCLE
  8
0
  6
CONTINUOUS
 62
7
 10
-92.500000
 20
5.150010
 40
3.000000
  0
CIRCLE
  8
0
  6
CONTINUOUS
 62
2
 10
-92.500000
 20
5.150010
 40
2.000000
  0
CIRCLE
  8
0
  6
CONTINUOUS
 62
7
 10
-76.500000
 20
24.150000
 40
3.000000
  0
CIRCLE
  8
0
  6
CONTINUOUS
 62
2
 10
-76.500000
 20
24.150000
 40
2.000000
  0
CIRCLE
  8
0
  6
CONTINUOUS
 62
7
 10
-92.500000
 20
24.150000
 40
3.000000
  0
CIRCLE
  8
0
  6
CONTINUOUS
 62
2
 10
-92.500000
 20
24.150000
 40
2.000000
  0
CIRCLE
  8
0
  6
CONTINUOUS
 62
7
 10
-76.500000
 20
5.150010
 40
3.000000
  0
CIRCLE
  8
0
  6
CONTINUOUS
 62
2
 10
-76.500000
 20
5.150010
 40
2.000000
  0
CIRCLE
  8
0
  6
CONTINUOUS
 62
2
 10
-86.500000
 20
-53.349998
 40
2.000000
  0
CIRCLE
  8
0
  6
CONTINUOUS
 62
7
 10
-86.500000
 20
-53.349998
 40
1.500000
  0
CIRCLE
  8
0
  6
CONTINUOUS
 62
2
 10
-86.500000
 20
-41.349998
 40
2.000000
  0
CIRCLE
  8
0
  6
CONTINUOUS
 62
7
 10
-86.500000
 20
-41.349998
 40
1.500000
  0
CIRCLE
  8
0
  6
CONTINUOUS
 62
2
 10
-70.500000
 20
-41.349998
 40
2.000000
  0
CIRCLE
  8
0
  6
CONTINUOUS
 62
7
 10
-70.500000
 20
-41.349998
 40
1.500000
  0
CIRCLE
  8
0
  6
CONTINUOUS
 62
2
 10
-70.500000
 20
-53.349998
 40
2.000000
  0
CIRCLE
  8
0
  6
CONTINUOUS
 62
7
 10
-70.500000
 20
-53.349998
 40
1.500000
  0
CIRCLE
  8
0
  6
CONTINUOUS
 62
2
 10
-34.500000
 20
76.650002
 40
1.500000
  0
CIRCLE
  8
0
  6
CONTINUOUS
 62
7
 10
-34.500000
 20
76.650002
 40
1.100000
  0
CIRCLE
  8
0
  6
CONTINUOUS
 62
2
 10
-71.000000
 20
76.650002
 40
1.500000
  0
CIRCLE
  8
0
  6
CONTINUOUS
 62
7
 10
-71.000000
 20
76.650002
 40
1.100000
  0
ARC
  8
0
  6
CONTINUOUS
 62
2
 10
18.700001
 20
22.000000
 40
1.500000
 50
180.000000
 51
270.000000
  0
ARC
  8
0
  6
CONTINUOUS
 62
2
 10
18.700001
 20
23.299999
 40
1.500000
 50
90.000298
 51
180.000000
  0
ARC
  8
0
  6
CONTINUOUS
 62
2
 10
-159.300003
 20
22.000000
 40
1.500000
 50
180.000000
 51
270.000000
  0
ARC
  8
0
  6
CONTINUOUS
 62
2
 10
-159.300003
 20
23.299999
 40
1.500000
 50
90.000000
 51
180.000000
  0
CIRCLE
  8
0
  6
CONTINUOUS
 62
2
 10
-163.500000
 20
4.650010
 40
2.000000
  0
CIRCLE
  8
0
  6
CONTINUOUS
 62
7
 10
-163.500000
 20
4.650010
 40
1.600000
  0
CIRCLE
  8
0
  6
CONTINUOUS
 62
7
 10
-163.500000
 20
24.650000
 40
1.600000
  0
CIRCLE
  8
0
  6
CONTINUOUS
 62
2
 10
-163.500000
 20
24.650000
 40
2.000000
  0
CIRCLE
  8
0
  6
CONTINUOUS
 62
7
 10
-163.500000
 20
14.650000
 40
3.000000
  0
CIRCLE
  8
0
  6
CONTINUOUS
 62
4
 10
97.000000
 20
66.150002
 40
3.000000
  0
CIRCLE
  8
0
  6
CONTINUOUS
 62
4
 10
84.500000
 20
70.400002
 40
1.800000
  0
CIRCLE
  8
0
  6
CONTINUOUS
 62
4
 10
84.500000
 20
61.900002
 40
1.800000
  0
CIRCLE
  8
0
  6
CONTINUOUS
 62
4
 10
109.500000
 20
61.900002
 40
1.800000
  0
CIRCLE
  8
0
  6
CONTINUOUS
 62
4
 10
109.500000
 20
70.400002
 40
1.800000
  0
CIRCLE
  8
0
  6
CONTINUOUS
 62
4
 10
96.432999
 20
-7.850000
 40
3.000000
  0
CIRCLE
  8
0
  6
CONTINUOUS
 62
4
 10
92.500000
 20
37.150002
 40
3.000000
  0
CIRCLE
  8
0
  6
CONTINUOUS
 62
7
 10
-92.500000
 20
5.150010
 40
1.700000
  0
CIRCLE
  8
0
  6
CONTINUOUS
 62
7
 10
-76.500000
 20
5.150010
 40
1.700000
  0
CIRCLE
  8
0
  6
CONTINUOUS
 62
7
 10
-76.500000
 20
24.150000
 40
1.700000
  0
CIRCLE
  8
0
  6
CONTINUOUS
 62
7
 10
-92.500000
 20
24.150000
 40
1.700000
  0
CIRCLE
  8
0
  6
CONTINUOUS
 62
4
 10
78.500000
 20
-85.349998
 40
3.000000
  0
CIRCLE
  8
0
  6
CONTINUOUS
 62
1
 10
78.500000
 20
-85.349998
 40
1.500000
  0
CIRCLE
  8
0
  6
CONTINUOUS
 62
4
 10
78.500000
 20
-85.349998
 40
6.000000
  0
ARC
  8
0
  6
CONTINUOUS
 62
4
 10
126.000000
 20
-64.349998
 40
1.000000
 50
89.999100
 51
269.997986
  0
ARC
  8
0
  6
CONTINUOUS
 62
4
 10
132.000000
 20
-64.349998
 40
1.000000
 50
269.997986
 51
89.997398
  0
ARC
  8
0
  6
CONTINUOUS
 62
4
 10
169.184998
 20
-48.927399
 40
1.000000
 50
90.000000
 51
270.000000
  0
ARC
  8
0
  6
CONTINUOUS
 62
4
 10
174.985001
 20
-48.927399
 40
1.000000
 50
270.000000
 51
90.000000
  0
CIRCLE
  8
0
  6
CONTINUOUS
 62
4
 10
78.500000
 20
-85.349998
 40
1.229500
  0
TEXT
  8
0
 62
7
 10
138.607147
 20
123.974998
 40
4.500000
  1
Ver.1.0
 50
0.000000
 41
1.010205
 51
0.000000
  7
STANDARD
  0
TEXT
  8
0
 62
7
 10
117.230011
 20
-127.574997
 40
6.300000
  1
KOGANEI CORP.
 50
0.000000
 41
0.771430
 51
0.000000
  7
STANDARD
  0
TEXT
  8
0
 62
7
 10
-174.442856
 20
123.974998
 40
4.500000
  1
AX CYLINDER
 50
0.000000
 41
0.783252
 51
0.000000
  7
STANDARD
  0
TEXT
  8
0
 62
7
 10
-186.500290
 20
106.474998
 40
4.500000
  1
MODEL:AXAS-SD10-20-R***
 50
0.000000
 41
0.781204
 51
0.000000
  7
STANDARD
  0
TEXT
  8
0
 62
7
 10
-19.900000
 20
85.650002
 40
3.200000
  1
20st
 50
90.000000
 41
0.907676
 51
0.000000
  7
STANDARD
  0
TEXT
  8
0
 62
7
 10
0.100000
 20
85.650002
 40
3.200000
  1
40st
 50
90.000000
 41
0.907676
 51
0.000000
  7
STANDARD
  0
TEXT
  8
0
 62
7
 10
20.100000
 20
85.650002
 40
3.200000
  1
60st
 50
90.000000
 41
0.907676
 51
0.000000
  7
STANDARD
  0
TEXT
  8
0
 62
7
 10
40.099998
 20
85.650002
 40
3.200000
  1
80st
 50
90.000000
 41
0.907676
 51
0.000000
  7
STANDARD
  0
TEXT
  8
0
 62
7
 10
60.099998
 20
85.650002
 40
3.200000
  1
100st
 50
90.000000
 41
0.985838
 51
0.000000
  7
STANDARD
  0
TEXT
  8
0
 62
7
 10
70.949783
 20
103.324997
 40
3.500000
  1
OPTION
 50
0.000000
 41
0.857249
 51
0.000000
  7
STANDARD
  0
TEXT
  8
0
 62
7
 10
81.163002
 20
47.850002
 40
3.200000
  1
ZT(FLANGE ROD END)
 50
0.000000
 41
0.754380
 51
0.000000
  7
STANDARD
  0
TEXT
  8
0
 62
7
 10
79.563004
 20
4.850010
 40
3.200000
  1
WS(INTERNAL THREAD)
 50
0.000000
 41
0.752116
 51
0.000000
  7
STANDARD
  0
TEXT
  8
0
 62
7
 10
79.563004
 20
-40.149998
 40
3.200000
  1
WT(EXTERNAL THREAD)
 50
0.000000
 41
0.738187
 51
0.000000
  7
STANDARD
  0
TEXT
  8
0
 62
7
 10
68.899994
 20
-52.749996
 40
3.200000
  1
(KEYWAY
 50
0.000000
 41
0.766485
 51
0.000000
  7
STANDARD
  0
TEXT
  8
0
 62
7
 10
68.899994
 20
-55.949997
 40
3.200000
  1
  POSITION)
 50
0.000000
 41
0.766485
 51
0.000000
  7
STANDARD
  0
TEXT
  8
0
 62
7
 10
150.209000
 20
-49.508698
 40
3.200000
  1
KEY
 50
0.000000
 41
0.928574
 51
0.000000
  7
STANDARD
  0
TEXT
  8
0
 62
7
 10
74.562859
 20
-109.949997
 40
3.200000
  1
FN(WITH BEARING NUT
 50
0.000000
 41
0.766485
 51
0.000000
  7
STANDARD
  0
TEXT
  8
0
 62
7
 10
76.562859
 20
-115.949997
 40
3.200000
  1
      FOR FLOATING UNIT)
 50
0.000000
 41
0.754799
 51
0.000000
  7
STANDARD
  0
DIMENSION
  8
0
  2
*DIM0
 62
0
 10
77.584099
 20
-67.874001
 30
0.0
 11
70.500000
 21
-68.150002
 31
0.0
 13
79.415901
 23
-67.874001
 33
0.0
 14
78.946899
 24
-76.821701
 34
0.0
  15
78.053001
 25
-76.821701
 35
0.0
 16
79.337372
 26
-69.371925
 36
0.0
 70
2
  0
DIMENSION
  8
0
  2
*DIM1
 62
2
  10
95.500000
 20
-79.349998
 30
0.0
 11
95.500000
 21
-85.349998
 31
0.0
  13
122.800003
 23
-79.349998
 33
0.0
14
122.800003
 24
-91.349998
 34
0.0
 70
1
 50
90
  0
DIMENSION
  8
0
  2
*DIM2
 62
2
  10
141.000000
 20
-57.349998
 30
0.0
 11
141.000000
 21
-53.644199
 31
0.0
  13
132.000000
 23
-63.349998
 33
0.0
14
132.000000
 24
-65.349998
 34
0.0
 70
1
 50
90
  0
DIMENSION
  8
0
  2
*DIM3
 62
2
  10
161.934998
 20
-64.927399
 30
0.0
 11
154.067001
 21
-64.927399
 31
0.0
  13
161.934998
 23
-64.927399
 33
0.0
14
161.934998
 24
-56.927399
 34
0.0
 70
1
 50
0
  0
ENDSEC
  0
EOF
