  0
SECTION
  2
HEADER
  0
ENDSEC
  0
SECTION
  2
TABLES
  0
TABLE
  2
LTYPE
 70
     4
  0
LTYPE
  2
CONTINUOUS
 70
    64
  3
Solid line
 72
    65
 73
     0
 40
0.000000
  0
LTYPE
  2
DASHED
 70
    64
  3
__ __ __ __ __ __ __ __ __ __ __ __ __ __ __
 72
    65
 73
     2
 40
3.500000
 49
2.000000
 49
-1.500000
  0
LTYPE
  2
CENTER
 70
    64
  3
____ _ ____ _ ____ _ ____ _ ____ _ ____ _ ____
 72
    65
 73
     4
 40
17.500000
 49
13.000000
 49
-1.500000
 49
1.500000
 49
-1.500000
  0
LTYPE
  2
PHANTOM
 70
    64
  3
_____ _ _ _____ _ _ _____ _ _ _____ _ _ ____  
 72
    65
 73
     6
 40
15.500000
 49
8.000000
 49
-1.500000
 49
1.500000
 49
-1.500000
 49
1.500000
 49
-1.500000
  0
ENDTAB
  0
TABLE
  2
LAYER
 70
     1
  0
LAYER
  2
0
 70
     0
 62
     7
  6
CONTINUOUS
  0
ENDTAB
  0
TABLE
  2
STYLE
 70
     1
  0
STYLE
  2
STANDARD
 70
     0
 40
0.000000
 41
1.000000
 50
0.000000
 71
     0
 42
0.200000
  3
txt
  4
BIGFONT
  0
ENDTAB
  0
TABLE
  2
VIEW
 70
     0
  0
ENDTAB
  0
ENDSEC
  0
SECTION
  2
BLOCKS
  0
BLOCK
  8
0
 70
65
  2
*DIM0
 10
0.0
 20
0.0
 30
0.0
  0
ARC
  8
0
  6
BYBLOCK
 62
0
 10
152.500000
 20
-86.000000
 40
16.000000
 50
72.676056
 51
107.323944
  0
LINE
  8
0
  6
BYBLOCK
 62
0
 10
152.947006
 20
-77.471703
 11
153.416000
 21
-68.524002
  0
LINE
  8
0
  6
BYBLOCK
 62
0
 10
152.052994
 20
-77.471703
 11
151.584000
 21
-68.524002
  0
LINE
  8
0
  6
BYBLOCK
 62
0
 10
153.337372
 20
-70.021927
 11
155.872482
 21
-71.626038
  0
LINE
  8
0
  6
BYBLOCK
 62
0
 10
153.337372
 20
-70.021927
 11
156.334900
 21
-70.143570
  0
LINE
  8
0
  6
BYBLOCK
 62
0
 10
151.662628
 20
-70.021927
 11
148.665100
 21
-70.143570
  0
LINE
  8
0
  6
BYBLOCK
 62
0
 10
151.662628
 20
-70.021927
 11
149.127518
 21
-71.626038
  0
TEXT
  8
0
 62
2
 10
144.500000
 20
-68.800003
 40
3.200000
  1
ü}3üï
 50
0.000000
 41
1.500330
 51
0.000000
  7
STANDARD
  0
ENDBLK
  8
3
  0
BLOCK
  8
0
 70
65
  2
*DIM1
 10
0.0
 20
0.0
 30
0.0
  0
LINE
  8
0
  6
BYBLOCK
 62
2
 10
196.800003
 20
-80.000000
 11
168.000000
 21
-80.000000
  0
LINE
  8
0
  6
BYBLOCK
 62
2
 10
196.800003
 20
-92.000000
 11
168.000000
 21
-92.000000
  0
LINE
  8
0
  6
BYBLOCK
 62
2
 10
169.500000
 20
-80.000000
 11
169.500000
 21
-92.000000
  0
LINE
  8
0
  6
BYBLOCK
 62
2
 10
169.500000
 20
-80.000000
 11
168.723541
 21
-82.897774
  0
LINE
  8
0
  6
BYBLOCK
 62
2
 10
169.500000
 20
-80.000000
 11
170.276459
 21
-82.897774
  0
LINE
  8
0
  6
BYBLOCK
 62
2
 10
169.500000
 20
-92.000000
 11
170.276459
 21
-89.102226
  0
LINE
  8
0
  6
BYBLOCK
 62
2
 10
169.500000
 20
-92.000000
 11
168.723541
 21
-89.102226
  0
TEXT
  8
0
 62
2
 10
168.300003
 20
-97.199997
 40
3.200000
  1
âË12
 50
90.000000
 41
0.937977
 51
0.000000
  7
STANDARD
  0
TEXT
  8
0
 62
2
 10
166.700424
 20
-88.195351
 40
1.600000
  1
 0
 50
90.000000
 41
0.937977
 51
0.000000
  7
STANDARD
  0
TEXT
  8
0
 62
2
 10
168.300415
 20
-88.195419
 40
1.600000
  1
-0.011
 50
90.000000
 41
0.937977
 51
0.000000
  7
STANDARD
  0
ENDBLK
  8
0
  0
BLOCK
  8
0
 70
65
  2
*DIM2
 10
0.0
 20
0.0
 30
0.0
  0
LINE
  8
0
  6
BYBLOCK
 62
2
 10
206.000000
 20
-64.000000
 11
216.500000
 21
-64.000000
  0
LINE
  8
0
  6
BYBLOCK
 62
2
 10
206.000000
 20
-66.000000
 11
216.500000
 21
-66.000000
  0
LINE
  8
0
  6
BYBLOCK
 62
2
 10
215.000000
 20
-58.000000
 11
215.000000
 21
-72.000000
  0
LINE
  8
0
  6
BYBLOCK
 62
2
 10
215.000000
 20
-64.000000
 11
215.000000
 21
-48.751301
  0
LINE
  8
0
  6
BYBLOCK
 62
2
 10
215.000000
 20
-64.000000
 11
215.776459
 21
-61.102222
  0
LINE
  8
0
  6
BYBLOCK
 62
2
 10
215.000000
 20
-64.000000
 11
214.223541
 21
-61.102222
  0
LINE
  8
0
  6
BYBLOCK
 62
2
 10
215.000000
 20
-66.000000
 11
214.223541
 21
-68.897774
  0
LINE
  8
0
  6
BYBLOCK
 62
2
 10
215.000000
 20
-66.000000
 11
215.776459
 21
-68.897774
  0
TEXT
  8
0
 62
2
 10
213.800003
 20
-60.694202
 40
3.200000
  1
2
 50
90.000000
 41
0.873629
 51
0.000000
  7
STANDARD
  0
TEXT
  8
0
 62
2
 10
212.200134
 20
-57.898518
 40
1.600000
  1
+0.014
 50
90.000000
 41
0.873629
 51
0.000000
  7
STANDARD
  0
TEXT
  8
0
 62
2
 10
213.800125
 20
-57.898590
 40
1.600000
  1
 0
 50
90.000000
 41
0.873629
 51
0.000000
  7
STANDARD
  0
ENDBLK
  8
0
  0
BLOCK
  8
0
 70
65
  2
*DIM3
 10
0.0
 20
0.0
 30
0.0
  0
LINE
  8
0
  6
BYBLOCK
 62
2
 10
235.934998
 20
-65.577301
 11
237.934998
 21
-65.577301
  0
LINE
  8
0
  6
BYBLOCK
 62
2
 10
235.934998
 20
-57.577301
 11
235.934998
 21
-67.077301
  0
LINE
  8
0
  6
BYBLOCK
 62
2
 10
235.934998
 20
-65.577301
 11
237.934998
 21
-65.577301
  0
LINE
  8
0
  6
BYBLOCK
 62
2
 10
235.934998
 20
-65.577301
 11
222.524002
 21
-65.577301
  0
TEXT
  8
0
 62
2
 10
221.667007
 20
-64.377304
 40
3.200000
  1
2
 50
0.000000
 41
0.906835
 51
0.000000
  7
STANDARD
  0
TEXT
  8
0
 62
2
 10
224.568878
 20
-62.777306
 40
1.600000
  1
+0.016
 50
0.000000
 41
0.906835
 51
0.000000
  7
STANDARD
  0
TEXT
  8
0
 62
2
 10
224.568878
 20
-64.377304
 40
1.600000
  1
+0.006
 50
0.000000
 41
0.906835
 51
0.000000
  7
STANDARD
  0
ENDBLK
  8
0
  0
ENDSEC
  0
SECTION
  2
ENTITIES
  0
POINT
  8
0
  62
7
  10
-110.500000
  20
89.500000
  30
0.0
  0
POINT
  8
0
  62
7
  10
-90.500000
  20
89.500000
  30
0.0
  0
POINT
  8
0
  62
7
  10
-70.500000
  20
89.500000
  30
0.0
  0
POINT
  8
0
  62
7
  10
-60.499901
  20
82.500000
  30
0.0
  0
POINT
  8
0
  62
7
  10
-50.500000
  20
89.500000
  30
0.0
  0
POINT
  8
0
  62
7
  10
-30.500000
  20
89.500000
  30
0.0
  0
POINT
  8
0
  62
7
  10
-20.499901
  20
82.500000
  30
0.0
  0
POINT
  8
0
  62
7
  10
19.500099
  20
82.500000
  30
0.0
  0
POINT
  8
0
  62
7
  10
59.500099
  20
82.500000
  30
0.0
  0
POINT
  8
0
  62
7
  10
99.500099
  20
82.500000
  30
0.0
  0
LINE
  8
0
  6
CONTINUOUS
 62
7
 10
-281.250000
 20
195.500000
 11
282.100006
 21
195.500000
  0
LINE
  8
0
  6
CONTINUOUS
 62
7
 10
-281.250000
 20
195.500000
 11
-281.250000
 21
-195.000000
  0
LINE
  8
0
  6
CONTINUOUS
 62
7
 10
282.100006
 20
195.500000
 11
282.100006
 21
-195.000000
  0
LINE
  8
0
  6
CONTINUOUS
 62
7
 10
-281.250000
 20
-195.000000
 11
282.100006
 21
-195.000000
  0
LINE
  8
0
  6
CONTINUOUS
 62
7
 10
162.100006
 20
-175.000000
 11
162.100006
 21
-195.000000
  0
LINE
  8
0
  6
CONTINUOUS
 62
7
 10
162.100006
 20
-175.000000
 11
282.100006
 21
-175.000000
  0
LINE
  8
0
  6
CONTINUOUS
 62
7
 10
162.100006
 20
175.500000
 11
282.100006
 21
175.500000
  0
LINE
  8
0
  6
CONTINUOUS
 62
7
 10
-281.250000
 20
175.500000
 11
-161.250000
 21
175.500000
  0
LINE
  8
0
  6
CONTINUOUS
 62
7
 10
162.100006
 20
195.500000
 11
162.100006
 21
175.500000
  0
LINE
  8
0
  6
CONTINUOUS
 62
7
 10
-161.250000
 20
195.500000
 11
-161.250000
 21
175.500000
  0
LINE
  8
0
  6
CONTINUOUS
 62
7
 10
-193.500000
 20
15.500000
 11
-193.500000
 21
41.500000
  0
LINE
  8
0
  6
CONTINUOUS
 62
7
 10
-110.500000
 20
41.500000
 11
-110.500000
 21
15.500000
  0
LINE
  8
0
  6
CENTER
 62
2
 10
-225.500000
 20
28.500000
 11
-58.499901
 21
28.500000
  0
LINE
  8
0
  6
CONTINUOUS
 62
7
 10
-193.500000
 20
41.500000
 11
-110.500000
 21
41.500000
  0
LINE
  8
0
  6
CONTINUOUS
 62
2
 10
-193.500000
 20
37.799999
 11
-184.492996
 21
37.799999
  0
LINE
  8
0
  6
CONTINUOUS
 62
2
 10
-193.500000
 20
35.200001
 11
-182.576996
 21
35.200001
  0
LINE
  8
0
  6
CONTINUOUS
 62
2
 10
-193.500000
 20
21.799999
 11
-182.576996
 21
21.799999
  0
LINE
  8
0
  6
CONTINUOUS
 62
2
 10
-193.500000
 20
19.200001
 11
-184.492996
 21
19.200001
  0
LINE
  8
0
  6
CONTINUOUS
 62
7
 10
-193.500000
 20
15.500000
 11
-110.500000
 21
15.500000
  0
LINE
  8
0
  6
CONTINUOUS
 62
2
 10
-178.507004
 20
19.200001
 11
-168.492996
 21
19.200001
  0
LINE
  8
0
  6
CONTINUOUS
 62
2
 10
-162.507004
 20
19.200001
 11
-110.500000
 21
19.200001
  0
LINE
  8
0
  6
CONTINUOUS
 62
2
 10
-164.423004
 20
21.799999
 11
-110.500000
 21
21.799999
  0
LINE
  8
0
  6
CONTINUOUS
 62
2
 10
-180.423004
 20
21.799999
 11
-166.576996
 21
21.799999
  0
LINE
  8
0
  6
CONTINUOUS
 62
2
 10
-178.507004
 20
37.799999
 11
-168.492996
 21
37.799999
  0
LINE
  8
0
  6
CONTINUOUS
 62
2
 10
-180.423004
 20
35.200001
 11
-166.576996
 21
35.200001
  0
LINE
  8
0
  6
CONTINUOUS
 62
2
 10
-162.507004
 20
37.799999
 11
-110.500000
 21
37.799999
  0
LINE
  8
0
  6
CONTINUOUS
 62
2
 10
-164.423004
 20
35.200001
 11
-110.500000
 21
35.200001
  0
LINE
  8
0
  6
CONTINUOUS
 62
7
 10
-223.500000
 20
31.500000
 11
-223.500000
 21
25.500000
  0
LINE
  8
0
  6
CONTINUOUS
 62
7
 10
-193.500000
 20
31.500000
 11
-223.500000
 21
31.500000
  0
LINE
  8
0
  6
CONTINUOUS
 62
7
 10
-193.500000
 20
25.500000
 11
-223.500000
 21
25.500000
  0
LINE
  8
0
  6
CONTINUOUS
 62
7
 10
-87.000000
 20
31.000000
 11
-107.000000
 21
31.000000
  0
LINE
  8
0
  6
CONTINUOUS
 62
7
 10
-107.000000
 20
24.000000
 11
-109.000000
 21
24.000000
  0
LINE
  8
0
  6
CONTINUOUS
 62
7
 10
-107.000000
 20
24.000000
 11
-107.000000
 21
33.000000
  0
LINE
  8
0
  6
CONTINUOUS
 62
7
 10
-109.000000
 20
33.000000
 11
-107.000000
 21
33.000000
  0
LINE
  8
0
  6
CONTINUOUS
 62
7
 10
-60.499901
 20
30.500000
 11
-60.499901
 21
26.500000
  0
LINE
  8
0
  6
CONTINUOUS
 62
7
 10
-66.000000
 20
33.500000
 11
-66.000000
 21
23.500000
  0
LINE
  8
0
  6
CONTINUOUS
 62
7
 10
-87.000000
 20
33.500000
 11
-66.000000
 21
33.500000
  0
LINE
  8
0
  6
CONTINUOUS
 62
7
 10
-87.000000
 20
23.500000
 11
-66.000000
 21
23.500000
  0
LINE
  8
0
  6
CONTINUOUS
 62
7
 10
-87.000000
 20
33.500000
 11
-87.000000
 21
23.500000
  0
LINE
  8
0
  6
CONTINUOUS
 62
7
 10
-60.499901
 20
30.500000
 11
-62.799999
 21
30.500000
  0
LINE
  8
0
  6
CONTINUOUS
 62
7
 10
-87.000000
 20
26.000000
 11
-107.000000
 21
26.000000
  0
LINE
  8
0
  6
CONTINUOUS
 62
7
 10
-60.499901
 20
26.500000
 11
-62.799999
 21
26.500000
  0
LINE
  8
0
  6
CONTINUOUS
 62
2
 10
-62.799999
 20
27.000000
 11
-60.499901
 21
27.000000
  0
LINE
  8
0
  6
CONTINUOUS
 62
2
 10
-62.799999
 20
30.000000
 11
-60.499901
 21
30.000000
  0
LINE
  8
0
  6
CONTINUOUS
 62
7
 10
-109.000000
 20
21.500000
 11
-109.000000
 21
35.500000
  0
LINE
  8
0
  6
CONTINUOUS
 62
7
 10
-71.000000
 20
31.500000
 11
-66.000000
 21
31.500000
  0
LINE
  8
0
  6
CONTINUOUS
 62
7
 10
-71.000000
 20
25.500000
 11
-66.000000
 21
25.500000
  0
LINE
  8
0
  6
CONTINUOUS
 62
7
 10
-71.000000
 20
31.500000
 11
-71.000000
 21
25.500000
  0
LINE
  8
0
  6
CONTINUOUS
 62
2
 10
-70.999901
 20
31.500000
 11
-65.999901
 21
25.500000
  0
LINE
  8
0
  6
CONTINUOUS
 62
2
 10
-70.999901
 20
25.499901
 11
-65.999901
 21
31.499901
  0
LINE
  8
0
  6
CONTINUOUS
 62
7
 10
-62.799999
 20
32.541401
 11
-62.799999
 21
24.458500
  0
LINE
  8
0
  6
CONTINUOUS
 62
7
 10
-66.000000
 20
84.000000
 11
-62.799999
 21
84.000000
  0
LINE
  8
0
  6
CONTINUOUS
 62
7
 10
-66.000000
 20
77.000000
 11
-62.799999
 21
77.000000
  0
LINE
  8
0
  6
CONTINUOUS
 62
7
 10
-110.500000
 20
-32.500000
 11
-110.500000
 21
-14.500000
  0
LINE
  8
0
  6
CENTER
 62
2
 10
-225.500000
 20
-23.500000
 11
-58.499901
 21
-23.500000
  0
LINE
  8
0
  6
CONTINUOUS
 62
7
 10
-107.000000
 20
-28.000000
 11
-109.000000
 21
-28.000000
  0
LINE
  8
0
  6
CONTINUOUS
 62
7
 10
-107.000000
 20
-19.000000
 11
-107.000000
 21
-28.000000
  0
LINE
  8
0
  6
CONTINUOUS
 62
7
 10
-109.000000
 20
-16.500000
 11
-110.500000
 21
-16.500000
  0
LINE
  8
0
  6
CONTINUOUS
 62
7
 10
-109.000000
 20
-30.500000
 11
-110.500000
 21
-30.500000
  0
LINE
  8
0
  6
CONTINUOUS
 62
7
 10
-60.499901
 20
-21.500000
 11
-60.499901
 21
-25.500000
  0
LINE
  8
0
  6
CONTINUOUS
 62
7
 10
-60.499901
 20
-21.500000
 11
-62.799999
 21
-21.500000
  0
LINE
  8
0
  6
CONTINUOUS
 62
7
 10
-60.499901
 20
-25.500000
 11
-62.799999
 21
-25.500000
  0
LINE
  8
0
  6
CONTINUOUS
 62
2
 10
-62.799999
 20
-25.000000
 11
-60.499901
 21
-25.000000
  0
LINE
  8
0
  6
CONTINUOUS
 62
2
 10
-62.799999
 20
-22.000000
 11
-60.499901
 21
-22.000000
  0
LINE
  8
0
  6
CONTINUOUS
 62
7
 10
-87.000000
 20
-21.000000
 11
-107.000000
 21
-21.000000
  0
LINE
  8
0
  6
CONTINUOUS
 62
7
 10
-87.000000
 20
-18.500000
 11
-71.000000
 21
-18.500000
  0
LINE
  8
0
  6
CONTINUOUS
 62
7
 10
-87.000000
 20
-18.500000
 11
-87.000000
 21
-28.500000
  0
LINE
  8
0
  6
CONTINUOUS
 62
7
 10
-87.000000
 20
-26.000000
 11
-107.000000
 21
-26.000000
  0
LINE
  8
0
  6
CONTINUOUS
 62
7
 10
-66.000000
 20
-19.500000
 11
-66.000000
 21
-27.500000
  0
LINE
  8
0
  6
CONTINUOUS
 62
7
 10
-71.000000
 20
-18.500000
 11
-71.000000
 21
-19.500000
  0
LINE
  8
0
  6
CONTINUOUS
 62
7
 10
-71.000000
 20
-19.500000
 11
-66.000000
 21
-19.500000
  0
LINE
  8
0
  6
CONTINUOUS
 62
7
 10
-71.000000
 20
-28.500000
 11
-71.000000
 21
-27.500000
  0
LINE
  8
0
  6
CONTINUOUS
 62
7
 10
-71.000000
 20
-27.500000
 11
-66.000000
 21
-27.500000
  0
LINE
  8
0
  6
CONTINUOUS
 62
7
 10
-87.000000
 20
-28.500000
 11
-71.000000
 21
-28.500000
  0
LINE
  8
0
  6
CONTINUOUS
 62
7
 10
-62.799999
 20
-20.000000
 11
-62.799999
 21
-27.000000
  0
LINE
  8
0
  6
CONTINUOUS
 62
7
 10
-66.000000
 20
32.541401
 11
-62.799999
 21
32.541401
  0
LINE
  8
0
  6
CONTINUOUS
 62
7
 10
-66.000000
 20
24.458500
 11
-62.799999
 21
24.458500
  0
LINE
  8
0
  6
CONTINUOUS
 62
7
 10
-193.500000
 20
71.500000
 11
-193.500000
 21
89.500000
  0
LINE
  8
0
  6
CONTINUOUS
 62
7
 10
-110.500000
 20
71.500000
 11
-110.500000
 21
89.500000
  0
LINE
  8
0
  6
CENTER
 62
2
 10
-225.500000
 20
80.500000
 11
-58.499901
 21
80.500000
  0
LINE
  8
0
  6
CONTINUOUS
 62
7
 10
-193.500000
 20
71.500000
 11
-110.500000
 21
71.500000
  0
LINE
  8
0
  6
CONTINUOUS
 62
7
 10
-193.500000
 20
89.500000
 11
-110.500000
 21
89.500000
  0
LINE
  8
0
  6
CONTINUOUS
 62
7
 10
-223.500000
 20
83.500000
 11
-223.500000
 21
77.500000
  0
LINE
  8
0
  6
CONTINUOUS
 62
7
 10
-193.500000
 20
83.500000
 11
-223.500000
 21
83.500000
  0
LINE
  8
0
  6
CONTINUOUS
 62
7
 10
-193.500000
 20
77.500000
 11
-223.500000
 21
77.500000
  0
LINE
  8
0
  6
CONTINUOUS
 62
7
 10
-87.000000
 20
83.000000
 11
-107.000000
 21
83.000000
  0
LINE
  8
0
  6
CONTINUOUS
 62
7
 10
-66.000000
 20
84.500000
 11
-66.000000
 21
76.500000
  0
LINE
  8
0
  6
CONTINUOUS
 62
7
 10
-87.000000
 20
85.500000
 11
-71.000000
 21
85.500000
  0
LINE
  8
0
  6
CONTINUOUS
 62
7
 10
-87.000000
 20
85.500000
 11
-87.000000
 21
75.500000
  0
LINE
  8
0
  6
CONTINUOUS
 62
7
 10
-87.000000
 20
78.000000
 11
-107.000000
 21
78.000000
  0
LINE
  8
0
  6
CONTINUOUS
 62
7
 10
-71.000000
 20
85.500000
 11
-71.000000
 21
84.500000
  0
LINE
  8
0
  6
CONTINUOUS
 62
7
 10
-107.000000
 20
76.000000
 11
-107.000000
 21
85.000000
  0
LINE
  8
0
  6
CONTINUOUS
 62
7
 10
-109.000000
 20
85.000000
 11
-107.000000
 21
85.000000
  0
LINE
  8
0
  6
CONTINUOUS
 62
7
 10
-109.000000
 20
87.500000
 11
-110.500000
 21
87.500000
  0
LINE
  8
0
  6
CONTINUOUS
 62
7
 10
-109.000000
 20
73.500000
 11
-110.500000
 21
73.500000
  0
LINE
  8
0
  6
CONTINUOUS
 62
7
 10
-71.000000
 20
84.500000
 11
-66.000000
 21
84.500000
  0
LINE
  8
0
  6
CONTINUOUS
 62
7
 10
-71.000000
 20
75.500000
 11
-71.000000
 21
76.500000
  0
LINE
  8
0
  6
CONTINUOUS
 62
7
 10
-71.000000
 20
76.500000
 11
-66.000000
 21
76.500000
  0
LINE
  8
0
  6
CONTINUOUS
 62
7
 10
-87.000000
 20
75.500000
 11
-71.000000
 21
75.500000
  0
LINE
  8
0
  6
CONTINUOUS
 62
7
 10
-60.499901
 20
82.500000
 11
-60.499901
 21
78.500000
  0
LINE
  8
0
  6
CONTINUOUS
 62
7
 10
-60.499901
 20
82.500000
 11
-62.799999
 21
82.500000
  0
LINE
  8
0
  6
CONTINUOUS
 62
7
 10
-60.499901
 20
78.500000
 11
-62.799999
 21
78.500000
  0
LINE
  8
0
  6
CONTINUOUS
 62
2
 10
-62.799999
 20
79.000000
 11
-60.499901
 21
79.000000
  0
LINE
  8
0
  6
CONTINUOUS
 62
2
 10
-62.799999
 20
82.000000
 11
-60.499901
 21
82.000000
  0
LINE
  8
0
  6
CONTINUOUS
 62
7
 10
-62.799999
 20
84.000000
 11
-62.799999
 21
77.000000
  0
LINE
  8
0
  6
CENTER
 62
2
 10
-30.500000
 20
28.500000
 11
-52.500000
 21
28.500000
  0
LINE
  8
0
  6
CONTINUOUS
 62
7
 10
-50.500000
 20
41.500000
 11
-32.500000
 21
41.500000
  0
LINE
  8
0
  6
CONTINUOUS
 62
7
 10
-50.500000
 20
15.500000
 11
-32.500000
 21
15.500000
  0
LINE
  8
0
  6
CONTINUOUS
 62
2
 10
-38.799999
 20
37.150002
 11
-38.799999
 21
35.849998
  0
LINE
  8
0
  6
CONTINUOUS
 62
2
 10
-37.299999
 20
34.349998
 11
-33.500000
 21
34.349998
  0
LINE
  8
0
  6
CONTINUOUS
 62
2
 10
-33.500000
 20
35.200001
 11
-33.500000
 21
34.349998
  0
LINE
  8
0
  6
CONTINUOUS
 62
2
 10
-33.500000
 20
35.200001
 11
-32.500000
 21
35.200001
  0
LINE
  8
0
  6
CONTINUOUS
 62
2
 10
-33.500000
 20
37.799999
 11
-32.500000
 21
37.799999
  0
LINE
  8
0
  6
CONTINUOUS
 62
2
 10
-33.500000
 20
38.650002
 11
-33.500000
 21
37.799999
  0
LINE
  8
0
  6
CONTINUOUS
 62
2
 10
-37.299999
 20
38.650002
 11
-33.500000
 21
38.650002
  0
LINE
  8
0
  6
CONTINUOUS
 62
7
 10
-32.500000
 20
41.500000
 11
-32.500000
 21
15.500000
  0
LINE
  8
0
  6
CONTINUOUS
 62
7
 10
-50.500000
 20
41.500000
 11
-50.500000
 21
15.500000
  0
LINE
  8
0
  6
CENTER
 62
2
 10
-41.500000
 20
13.500000
 11
-41.500000
 21
43.500000
  0
LINE
  8
0
  6
CONTINUOUS
 62
7
 10
-109.000000
 20
-16.500000
 11
-109.000000
 21
-30.500000
  0
LINE
  8
0
  6
CONTINUOUS
 62
7
 10
-109.000000
 20
73.500000
 11
-109.000000
 21
87.500000
  0
LINE
  8
0
  6
CONTINUOUS
 62
7
 10
-110.500000
 20
21.500000
 11
-109.000000
 21
21.500000
  0
LINE
  8
0
  6
CONTINUOUS
 62
7
 10
-110.500000
 20
35.500000
 11
-109.000000
 21
35.500000
  0
LINE
  8
0
  6
CONTINUOUS
 62
7
 10
-107.000000
 20
-19.000000
 11
-109.000000
 21
-19.000000
  0
LINE
  8
0
  6
CONTINUOUS
 62
7
 10
-109.000000
 20
76.000000
 11
-107.000000
 21
76.000000
  0
LINE
  8
0
  6
CENTER
 62
2
 10
-40.150002
 20
36.500000
 11
-30.500000
 21
36.500000
  0
LINE
  8
0
  6
CENTER
 62
2
 10
-40.150002
 20
20.500000
 11
-30.500000
 21
20.500000
  0
LINE
  8
0
  6
CENTER
 62
2
 10
-42.849899
 20
20.500000
 11
-52.500000
 21
20.500000
  0
LINE
  8
0
  6
CENTER
 62
2
 10
-42.849899
 20
36.500000
 11
-52.500000
 21
36.500000
  0
LINE
  8
0
  6
CENTER
 62
2
 10
-258.500000
 20
28.500000
 11
-236.500000
 21
28.500000
  0
LINE
  8
0
  6
CONTINUOUS
 62
7
 10
-238.500000
 20
41.500000
 11
-256.500000
 21
41.500000
  0
LINE
  8
0
  6
CONTINUOUS
 62
7
 10
-238.500000
 20
15.500000
 11
-256.500000
 21
15.500000
  0
LINE
  8
0
  6
CONTINUOUS
 62
2
 10
-244.800003
 20
37.150002
 11
-244.800003
 21
35.849998
  0
LINE
  8
0
  6
CONTINUOUS
 62
2
 10
-243.300003
 20
34.349998
 11
-239.500000
 21
34.349998
  0
LINE
  8
0
  6
CONTINUOUS
 62
2
 10
-239.500000
 20
35.200001
 11
-239.500000
 21
34.349998
  0
LINE
  8
0
  6
CONTINUOUS
 62
2
 10
-239.500000
 20
35.200001
 11
-238.500000
 21
35.200001
  0
LINE
  8
0
  6
CONTINUOUS
 62
2
 10
-239.500000
 20
37.799999
 11
-238.500000
 21
37.799999
  0
LINE
  8
0
  6
CONTINUOUS
 62
2
 10
-239.500000
 20
38.650002
 11
-239.500000
 21
37.799999
  0
LINE
  8
0
  6
CONTINUOUS
 62
2
 10
-243.300003
 20
38.650002
 11
-239.500000
 21
38.650002
  0
LINE
  8
0
  6
CONTINUOUS
 62
7
 10
-256.500000
 20
41.500000
 11
-256.500000
 21
15.500000
  0
LINE
  8
0
  6
CONTINUOUS
 62
7
 10
-238.500000
 20
41.500000
 11
-238.500000
 21
15.500000
  0
LINE
  8
0
  6
CENTER
 62
2
 10
-247.500000
 20
13.500000
 11
-247.500000
 21
43.500000
  0
LINE
  8
0
  6
CENTER
 62
2
 10
-248.850006
 20
36.500000
 11
-258.500000
 21
36.500000
  0
LINE
  8
0
  6
CENTER
 62
2
 10
-248.850006
 20
20.500000
 11
-258.500000
 21
20.500000
  0
LINE
  8
0
  6
CENTER
 62
2
 10
-246.149994
 20
20.500000
 11
-236.500000
 21
20.500000
  0
LINE
  8
0
  6
CENTER
 62
2
 10
-246.149994
 20
36.500000
 11
-236.500000
 21
36.500000
  0
LINE
  8
0
  6
CONTINUOUS
 62
7
 10
-38.000000
 20
26.479200
 11
-38.000000
 21
30.520800
  0
LINE
  8
0
  6
CONTINUOUS
 62
7
 10
-45.000000
 20
26.479200
 11
-45.000000
 21
30.520800
  0
LINE
  8
0
  6
CONTINUOUS
 62
7
 10
-41.499901
 20
24.458500
 11
-38.000000
 21
26.479200
  0
LINE
  8
0
  6
CONTINUOUS
 62
7
 10
-41.499901
 20
32.541500
 11
-37.999901
 21
30.520800
  0
LINE
  8
0
  6
CONTINUOUS
 62
7
 10
-41.500000
 20
24.458500
 11
-45.000000
 21
26.479200
  0
LINE
  8
0
  6
CONTINUOUS
 62
7
 10
-41.500000
 20
32.541500
 11
-45.000000
 21
30.520800
  0
LINE
  8
0
  6
CONTINUOUS
 62
7
 10
-193.500000
 20
-32.500000
 11
-193.500000
 21
-14.500000
  0
LINE
  8
0
  6
CONTINUOUS
 62
7
 10
-193.500000
 20
-26.500000
 11
-223.500000
 21
-26.500000
  0
LINE
  8
0
  6
CONTINUOUS
 62
7
 10
-193.500000
 20
-32.500000
 11
-110.500000
 21
-32.500000
  0
LINE
  8
0
  6
CONTINUOUS
 62
7
 10
-193.500000
 20
-14.500000
 11
-110.500000
 21
-14.500000
  0
LINE
  8
0
  6
CONTINUOUS
 62
7
 10
-223.500000
 20
-20.500000
 11
-223.500000
 21
-26.500000
  0
LINE
  8
0
  6
CONTINUOUS
 62
7
 10
-193.500000
 20
-20.500000
 11
-223.500000
 21
-20.500000
  0
LINE
  8
0
  6
DASHED
 62
2
 10
-184.500000
 20
-14.500000
 11
-184.500000
 21
-21.000000
  0
LINE
  8
0
  6
DASHED
 62
2
 10
-178.500000
 20
-14.500000
 11
-178.500000
 21
-21.000000
  0
LINE
  8
0
  6
DASHED
 62
2
 10
-179.500000
 20
-21.000000
 11
-179.500000
 21
-26.000000
  0
LINE
  8
0
  6
DASHED
 62
2
 10
-179.800003
 20
-21.000000
 11
-179.800003
 21
-26.000000
  0
LINE
  8
0
  6
DASHED
 62
2
 10
-183.500000
 20
-21.000000
 11
-183.500000
 21
-26.000000
  0
LINE
  8
0
  6
DASHED
 62
2
 10
-183.199997
 20
-21.000000
 11
-183.199997
 21
-26.000000
  0
LINE
  8
0
  6
DASHED
 62
2
 10
-168.500000
 20
-14.500000
 11
-168.500000
 21
-21.000000
  0
LINE
  8
0
  6
DASHED
 62
2
 10
-162.500000
 20
-14.500000
 11
-162.500000
 21
-21.000000
  0
LINE
  8
0
  6
DASHED
 62
2
 10
-163.500000
 20
-21.000000
 11
-163.500000
 21
-26.000000
  0
LINE
  8
0
  6
DASHED
 62
2
 10
-163.800003
 20
-21.000000
 11
-163.800003
 21
-26.000000
  0
LINE
  8
0
  6
DASHED
 62
2
 10
-167.500000
 20
-21.000000
 11
-167.500000
 21
-26.000000
  0
LINE
  8
0
  6
DASHED
 62
2
 10
-167.199997
 20
-21.000000
 11
-167.199997
 21
-26.000000
  0
LINE
  8
0
  6
DASHED
 62
2
 10
-184.500000
 20
-21.000000
 11
-178.500000
 21
-21.000000
  0
LINE
  8
0
  6
DASHED
 62
2
 10
-184.500000
 20
-26.000000
 11
-178.500000
 21
-26.000000
  0
LINE
  8
0
  6
DASHED
 62
2
 10
-184.500000
 20
-26.000000
 11
-184.500000
 21
-32.500000
  0
LINE
  8
0
  6
DASHED
 62
2
 10
-178.500000
 20
-26.000000
 11
-178.500000
 21
-32.500000
  0
LINE
  8
0
  6
DASHED
 62
2
 10
-168.500000
 20
-26.000000
 11
-162.500000
 21
-26.000000
  0
LINE
  8
0
  6
DASHED
 62
2
 10
-168.500000
 20
-21.000000
 11
-162.500000
 21
-21.000000
  0
LINE
  8
0
  6
DASHED
 62
2
 10
-168.500000
 20
-26.000000
 11
-168.500000
 21
-32.500000
  0
LINE
  8
0
  6
DASHED
 62
2
 10
-162.500000
 20
-26.000000
 11
-162.500000
 21
-32.500000
  0
LINE
  8
0
  6
CONTINUOUS
 62
7
 10
-66.000000
 20
80.500000
 11
-62.799999
 21
80.500000
  0
LINE
  8
0
  6
CONTINUOUS
 62
7
 10
-66.000000
 20
26.479300
 11
-62.799999
 21
26.479300
  0
LINE
  8
0
  6
CONTINUOUS
 62
7
 10
-66.000000
 20
30.520700
 11
-62.799999
 21
30.520700
  0
LINE
  8
0
  6
CONTINUOUS
 62
7
 10
-37.500000
 20
25.500000
 11
-37.500000
 21
31.500000
  0
LINE
  8
0
  6
CONTINUOUS
 62
7
 10
-45.500000
 20
25.500000
 11
-45.500000
 21
31.500000
  0
LINE
  8
0
  6
CENTER
 62
2
 10
-181.500000
 20
-12.500000
 11
-181.500000
 21
-34.500000
  0
LINE
  8
0
  6
CENTER
 62
2
 10
-165.500000
 20
-12.500000
 11
-165.500000
 21
-34.500000
  0
LINE
  8
0
  6
CONTINUOUS
 62
7
 10
-66.000000
 20
-27.000000
 11
-62.799999
 21
-27.000000
  0
LINE
  8
0
  6
CONTINUOUS
 62
7
 10
-66.000000
 20
-23.500000
 11
-62.799999
 21
-23.500000
  0
LINE
  8
0
  6
CONTINUOUS
 62
7
 10
-66.000000
 20
-20.000000
 11
-62.799999
 21
-20.000000
  0
LINE
  8
0
  6
CENTER
 62
2
 10
-123.500000
 20
84.000000
 11
-123.500000
 21
77.000000
  0
LINE
  8
0
  6
CENTER
 62
2
 10
-160.000000
 20
84.000000
 11
-160.000000
 21
77.000000
  0
LINE
  8
0
  6
CENTER
 62
2
 10
-181.500000
 20
24.000000
 11
-181.500000
 21
14.000000
  0
LINE
  8
0
  6
CENTER
 62
2
 10
-186.500000
 20
19.000000
 11
-176.500000
 21
19.000000
  0
LINE
  8
0
  6
CENTER
 62
2
 10
-165.500000
 20
24.000000
 11
-165.500000
 21
14.000000
  0
LINE
  8
0
  6
CENTER
 62
2
 10
-170.500000
 20
19.000000
 11
-160.500000
 21
19.000000
  0
LINE
  8
0
  6
CENTER
 62
2
 10
-165.500000
 20
43.000000
 11
-165.500000
 21
33.000000
  0
LINE
  8
0
  6
CENTER
 62
2
 10
-170.500000
 20
38.000000
 11
-160.500000
 21
38.000000
  0
LINE
  8
0
  6
CENTER
 62
2
 10
-181.500000
 20
43.000000
 11
-181.500000
 21
33.000000
  0
LINE
  8
0
  6
CENTER
 62
2
 10
-186.500000
 20
38.000000
 11
-176.500000
 21
38.000000
  0
LINE
  8
0
  6
CENTER
 62
2
 10
-175.500000
 20
-25.500000
 11
-175.500000
 21
-33.500000
  0
LINE
  8
0
  6
CENTER
 62
2
 10
-179.500000
 20
-29.500000
 11
-171.500000
 21
-29.500000
  0
LINE
  8
0
  6
CENTER
 62
2
 10
-175.500000
 20
-13.500000
 11
-175.500000
 21
-21.500000
  0
LINE
  8
0
  6
CENTER
 62
2
 10
-179.500000
 20
-17.500000
 11
-171.500000
 21
-17.500000
  0
LINE
  8
0
  6
CENTER
 62
2
 10
-159.500000
 20
-13.500000
 11
-159.500000
 21
-21.500000
  0
LINE
  8
0
  6
CENTER
 62
2
 10
-163.500000
 20
-17.500000
 11
-155.500000
 21
-17.500000
  0
LINE
  8
0
  6
CENTER
 62
2
 10
-159.500000
 20
-25.500000
 11
-159.500000
 21
-33.500000
  0
LINE
  8
0
  6
CENTER
 62
2
 10
-163.500000
 20
-29.500000
 11
-155.500000
 21
-29.500000
  0
LINE
  8
0
  6
CENTER
 62
2
 10
-251.500000
 20
38.500000
 11
-243.500000
 21
38.500000
  0
LINE
  8
0
  6
CENTER
 62
2
 10
-251.500000
 20
18.500000
 11
-243.500000
 21
18.500000
  0
LINE
  8
0
  6
CONTINUOUS
 62
7
 10
187.500000
 20
-20.000000
 11
187.500000
 21
-2.000000
  0
LINE
  8
0
  6
CONTINUOUS
 62
7
 10
187.500000
 20
-20.000000
 11
197.500000
 21
-20.000000
  0
LINE
  8
0
  6
CONTINUOUS
 62
7
 10
187.500000
 20
-2.000000
 11
197.500000
 21
-2.000000
  0
LINE
  8
0
  6
CONTINUOUS
 62
4
 10
157.500000
 20
-8.500000
 11
157.500000
 21
-13.500000
  0
LINE
  8
0
  6
CONTINUOUS
 62
4
 10
187.500000
 20
-8.000000
 11
168.865997
 21
-8.000000
  0
LINE
  8
0
  6
CONTINUOUS
 62
4
 10
187.500000
 20
-14.000000
 11
168.865997
 21
-14.000000
  0
LINE
  8
0
  6
CONTINUOUS
 62
4
 10
155.500000
 20
116.000000
 11
186.500000
 21
116.000000
  0
LINE
  8
0
  6
CONTINUOUS
 62
4
 10
155.500000
 20
127.300003
 11
155.500000
 21
116.000000
  0
LINE
  8
0
  6
CONTINUOUS
 62
4
 10
186.500000
 20
127.300003
 11
186.500000
 21
116.000000
  0
LINE
  8
0
  6
CONTINUOUS
 62
4
 10
162.000000
 20
131.000000
 11
180.000000
 21
131.000000
  0
LINE
  8
0
  6
CONTINUOUS
 62
4
 10
155.500000
 20
103.000000
 11
155.500000
 21
88.000000
  0
LINE
  8
0
  6
CONTINUOUS
 62
4
 10
194.500000
 20
103.000000
 11
209.500000
 21
103.000000
  0
LINE
  8
0
  6
CONTINUOUS
 62
4
 10
209.500000
 20
103.000000
 11
209.500000
 21
88.000000
  0
LINE
  8
0
  6
CONTINUOUS
 62
4
 10
194.500000
 20
88.000000
 11
209.500000
 21
88.000000
  0
LINE
  8
0
  6
CONTINUOUS
 62
4
 10
155.500000
 20
127.300003
 11
162.000000
 21
127.300003
  0
LINE
  8
0
  6
CENTER
 62
1
 10
171.000000
 20
133.000000
 11
171.000000
 21
114.000000
  0
LINE
  8
0
  6
CONTINUOUS
 62
4
 10
162.000000
 20
131.000000
 11
162.000000
 21
127.300003
  0
LINE
  8
0
  6
CONTINUOUS
 62
4
 10
180.000000
 20
131.000000
 11
180.000000
 21
127.300003
  0
LINE
  8
0
  6
CONTINUOUS
 62
4
 10
180.000000
 20
127.300003
 11
186.500000
 21
127.300003
  0
LINE
  8
0
  6
CENTER
 62
1
 10
158.500000
 20
129.300003
 11
158.500000
 21
114.000000
  0
LINE
  8
0
  6
CENTER
 62
1
 10
183.500000
 20
129.300003
 11
183.500000
 21
114.000000
  0
LINE
  8
0
  6
DASHED
 62
1
 10
181.699997
 20
127.300003
 11
181.699997
 21
116.000000
  0
LINE
  8
0
  6
DASHED
 62
1
 10
185.300003
 20
127.300003
 11
185.300003
 21
116.000000
  0
LINE
  8
0
  6
CONTINUOUS
 62
4
 10
155.500000
 20
103.000000
 11
186.500000
 21
103.000000
  0
LINE
  8
0
  6
CONTINUOUS
 62
4
 10
155.500000
 20
88.000000
 11
186.500000
 21
88.000000
  0
LINE
  8
0
  6
CONTINUOUS
 62
4
 10
186.500000
 20
103.000000
 11
186.500000
 21
88.000000
  0
LINE
  8
0
  6
CONTINUOUS
 62
4
 10
194.500000
 20
103.000000
 11
194.500000
 21
88.000000
  0
LINE
  8
0
  6
CONTINUOUS
 62
4
 10
205.800003
 20
103.000000
 11
205.800003
 21
88.000000
  0
LINE
  8
0
  6
CENTER
 62
1
 10
192.500000
 20
95.500000
 11
211.500000
 21
95.500000
  0
LINE
  8
0
  6
CENTER
 62
1
 10
155.500000
 20
-11.000000
 11
199.500000
 21
-11.000000
  0
LINE
  8
0
  6
CENTER
 62
1
 10
174.432999
 20
1.500000
 11
166.432999
 21
1.500000
  0
LINE
  8
0
  6
CENTER
 62
1
 10
170.432999
 20
5.500000
 11
170.432999
 21
-2.500000
  0
LINE
  8
0
  6
CONTINUOUS
 62
4
 10
167.932999
 20
3.158330
 11
167.932999
 21
-0.158321
  0
LINE
  8
0
  6
CONTINUOUS
 62
4
 10
172.932999
 20
3.158330
 11
172.932999
 21
-0.158321
  0
LINE
  8
0
  6
CONTINUOUS
 62
7
 10
187.500000
 20
35.000000
 11
187.500000
 21
53.000000
  0
LINE
  8
0
  6
CONTINUOUS
 62
7
 10
187.500000
 20
35.000000
 11
197.500000
 21
35.000000
  0
LINE
  8
0
  6
CONTINUOUS
 62
7
 10
187.500000
 20
53.000000
 11
197.500000
 21
53.000000
  0
LINE
  8
0
  6
CONTINUOUS
 62
4
 10
157.500000
 20
47.000000
 11
157.500000
 21
41.000000
  0
LINE
  8
0
  6
CONTINUOUS
 62
4
 10
187.500000
 20
47.000000
 11
168.500000
 21
47.000000
  0
LINE
  8
0
  6
CONTINUOUS
 62
4
 10
187.500000
 20
41.000000
 11
168.500000
 21
41.000000
  0
LINE
  8
0
  6
CENTER
 62
1
 10
155.500000
 20
44.000000
 11
199.500000
 21
44.000000
  0
LINE
  8
0
  6
CONTINUOUS
 62
4
 10
164.500000
 20
47.000000
 11
164.500000
 21
46.500000
  0
LINE
  8
0
  6
CONTINUOUS
 62
4
 10
168.500000
 20
47.000000
 11
168.500000
 21
46.500000
  0
LINE
  8
0
  6
CONTINUOUS
 62
4
 10
164.500000
 20
41.500000
 11
168.500000
 21
41.500000
  0
LINE
  8
0
  6
CONTINUOUS
 62
4
 10
164.500000
 20
46.500000
 11
168.500000
 21
46.500000
  0
LINE
  8
0
  6
CONTINUOUS
 62
4
 10
164.500000
 20
47.000000
 11
157.500000
 21
47.000000
  0
LINE
  8
0
  6
CONTINUOUS
 62
4
 10
164.500000
 20
41.000000
 11
157.500000
 21
41.000000
  0
LINE
  8
0
  6
CONTINUOUS
 62
4
 10
164.500000
 20
41.500000
 11
164.500000
 21
41.000000
  0
LINE
  8
0
  6
CONTINUOUS
 62
4
 10
168.500000
 20
41.500000
 11
168.500000
 21
41.000000
  0
LINE
  8
0
  6
DASHED
 62
1
 10
163.500000
 20
45.500000
 11
163.500000
 21
42.500000
  0
LINE
  8
0
  6
DASHED
 62
1
 10
165.000000
 20
45.250000
 11
165.000000
 21
42.750000
  0
LINE
  8
0
  6
DASHED
 62
1
 10
157.500000
 20
45.500000
 11
163.500000
 21
45.500000
  0
LINE
  8
0
  6
DASHED
 62
1
 10
157.500000
 20
42.500000
 11
163.500000
 21
42.500000
  0
LINE
  8
0
  6
DASHED
 62
1
 10
157.500000
 20
45.250000
 11
165.000000
 21
45.250000
  0
LINE
  8
0
  6
DASHED
 62
1
 10
157.500000
 20
42.750000
 11
165.000000
 21
42.750000
  0
LINE
  8
0
  6
CENTER
 62
1
 10
170.500000
 20
56.500000
 11
162.500000
 21
56.500000
  0
LINE
  8
0
  6
CENTER
 62
1
 10
166.500000
 20
60.500000
 11
166.500000
 21
52.500000
  0
LINE
  8
0
  6
CONTINUOUS
 62
4
 10
168.158005
 20
59.000000
 11
164.841995
 21
59.000000
  0
LINE
  8
0
  6
CONTINUOUS
 62
4
 10
168.158005
 20
54.000000
 11
164.841995
 21
54.000000
  0
LINE
  8
0
  6
CONTINUOUS
 62
4
 10
157.500000
 20
-13.500000
 11
161.300003
 21
-13.500000
  0
LINE
  8
0
  6
CONTINUOUS
 62
4
 10
157.500000
 20
-8.500000
 11
161.300003
 21
-8.500000
  0
LINE
  8
0
  6
CONTINUOUS
 62
4
 10
166.500000
 20
-8.500000
 11
166.500000
 21
-13.500000
  0
LINE
  8
0
  6
CONTINUOUS
 62
4
 10
168.000000
 20
-8.500000
 11
168.000000
 21
-13.500000
  0
LINE
  8
0
  6
CONTINUOUS
 62
4
 10
168.000000
 20
-8.499980
 11
168.865997
 21
-7.999980
  0
LINE
  8
0
  6
CONTINUOUS
 62
4
 10
168.000000
 20
-13.500000
 11
168.865997
 21
-14.000000
  0
LINE
  8
0
  6
CONTINUOUS
 62
4
 10
168.865997
 20
-8.000000
 11
168.865997
 21
-9.341730
  0
LINE
  8
0
  6
CONTINUOUS
 62
4
 10
172.000000
 20
-9.341730
 11
172.000000
 21
-12.658300
  0
LINE
  8
0
  6
CONTINUOUS
 62
4
 10
168.000000
 20
-9.341730
 11
172.000000
 21
-9.341730
  0
LINE
  8
0
  6
CONTINUOUS
 62
4
 10
168.000000
 20
-12.658300
 11
172.000000
 21
-12.658300
  0
LINE
  8
0
  6
CONTINUOUS
 62
1
 10
157.500000
 20
-13.000000
 11
161.300003
 21
-13.000000
  0
LINE
  8
0
  6
CONTINUOUS
 62
1
 10
157.500000
 20
-9.000000
 11
161.300003
 21
-9.000000
  0
LINE
  8
0
  6
CONTINUOUS
 62
4
 10
168.865997
 20
-12.658300
 11
168.865997
 21
-14.000000
  0
LINE
  8
0
  6
CONTINUOUS
 62
1
 10
168.000000
 20
-12.658300
 11
172.000000
 21
-9.341800
  0
LINE
  8
0
  6
CONTINUOUS
 62
1
 10
172.000000
 20
-12.658300
 11
168.000000
 21
-9.341790
  0
LINE
  8
0
  6
CONTINUOUS
 62
4
 10
164.500000
 20
-6.381190
 11
164.500000
 21
-15.618800
  0
LINE
  8
0
  6
CONTINUOUS
 62
1
 10
164.500000
 20
-13.000000
 11
166.500000
 21
-13.000000
  0
LINE
  8
0
  6
CONTINUOUS
 62
4
 10
164.500000
 20
-13.500000
 11
168.000000
 21
-13.500000
  0
LINE
  8
0
  6
CONTINUOUS
 62
1
 10
164.500000
 20
-9.000000
 11
166.500000
 21
-9.000000
  0
LINE
  8
0
  6
CONTINUOUS
 62
4
 10
164.500000
 20
-8.500000
 11
168.000000
 21
-8.500000
  0
LINE
  8
0
  6
CONTINUOUS
 62
4
 10
161.300003
 20
-15.618800
 11
164.500000
 21
-15.618800
  0
LINE
  8
0
  6
CONTINUOUS
 62
4
 10
161.300003
 20
-13.309400
 11
164.500000
 21
-13.309400
  0
LINE
  8
0
  6
CONTINUOUS
 62
4
 10
161.300003
 20
-6.381190
 11
164.500000
 21
-6.381190
  0
LINE
  8
0
  6
CONTINUOUS
 62
4
 10
161.300003
 20
-8.690590
 11
164.500000
 21
-8.690590
  0
LINE
  8
0
  6
CONTINUOUS
 62
4
 10
161.300003
 20
-6.381190
 11
161.300003
 21
-15.618800
  0
LINE
  8
0
  6
CENTER
 62
1
 10
183.500000
 20
95.050003
 11
183.500000
 21
87.449997
  0
LINE
  8
0
  6
CENTER
 62
1
 10
179.699997
 20
91.250000
 11
187.300003
 21
91.250000
  0
LINE
  8
0
  6
CENTER
 62
1
 10
183.500000
 20
103.550003
 11
183.500000
 21
95.949997
  0
LINE
  8
0
  6
CENTER
 62
1
 10
179.699997
 20
99.750000
 11
187.300003
 21
99.750000
  0
LINE
  8
0
  6
CENTER
 62
1
 10
171.000000
 20
100.500000
 11
171.000000
 21
90.500000
  0
LINE
  8
0
  6
CENTER
 62
1
 10
166.000000
 20
95.500000
 11
176.000000
 21
95.500000
  0
LINE
  8
0
  6
CENTER
 62
1
 10
158.500000
 20
103.550003
 11
158.500000
 21
95.949997
  0
LINE
  8
0
  6
CENTER
 62
1
 10
154.699997
 20
99.750000
 11
162.300003
 21
99.750000
  0
LINE
  8
0
  6
CENTER
 62
1
 10
158.500000
 20
95.050003
 11
158.500000
 21
87.449997
  0
LINE
  8
0
  6
CENTER
 62
1
 10
154.699997
 20
91.250000
 11
162.300003
 21
91.250000
  0
LINE
  8
0
  6
CONTINUOUS
 62
7
 10
227.500000
 20
-99.000000
 11
227.500000
 21
-73.000000
  0
LINE
  8
0
  6
CENTER
 62
1
 10
175.500000
 20
-86.000000
 11
237.500000
 21
-86.000000
  0
LINE
  8
0
  6
CONTINUOUS
 62
7
 10
227.500000
 20
-73.000000
 11
237.500000
 21
-73.000000
  0
LINE
  8
0
  6
CONTINUOUS
 62
2
 10
227.500000
 20
-76.699997
 11
237.500000
 21
-76.699997
  0
LINE
  8
0
  6
CONTINUOUS
 62
2
 10
227.500000
 20
-79.300003
 11
237.500000
 21
-79.300003
  0
LINE
  8
0
  6
CONTINUOUS
 62
2
 10
227.500000
 20
-92.699997
 11
237.500000
 21
-92.699997
  0
LINE
  8
0
  6
CONTINUOUS
 62
2
 10
227.500000
 20
-95.300003
 11
237.500000
 21
-95.300003
  0
LINE
  8
0
  6
CONTINUOUS
 62
7
 10
227.500000
 20
-99.000000
 11
237.500000
 21
-99.000000
  0
LINE
  8
0
  6
CONTINUOUS
 62
4
 10
177.500000
 20
-83.000000
 11
177.500000
 21
-89.000000
  0
LINE
  8
0
  6
CONTINUOUS
 62
4
 10
196.800003
 20
-80.000000
 11
209.199997
 21
-80.000000
  0
LINE
  8
0
  6
CONTINUOUS
 62
4
 10
209.199997
 20
-80.000000
 11
209.199997
 21
-92.000000
  0
LINE
  8
0
  6
CONTINUOUS
 62
4
 10
196.800003
 20
-80.000000
 11
196.800003
 21
-92.000000
  0
LINE
  8
0
  6
CONTINUOUS
 62
4
 10
213.500000
 20
-80.050003
 11
213.500000
 21
-91.949997
  0
LINE
  8
0
  6
CONTINUOUS
 62
4
 10
192.500000
 20
-80.050003
 11
192.500000
 21
-91.949997
  0
LINE
  8
0
  6
CONTINUOUS
 62
4
 10
192.500000
 20
-80.050003
 11
196.800003
 21
-80.050003
  0
LINE
  8
0
  6
CONTINUOUS
 62
4
 10
209.199997
 20
-80.050003
 11
213.500000
 21
-80.050003
  0
LINE
  8
0
  6
DASHED
 62
1
 10
199.000000
 20
-81.199997
 11
207.000000
 21
-81.199997
  0
LINE
  8
0
  6
DASHED
 62
1
 10
207.000000
 20
-80.000000
 11
207.000000
 21
-81.199997
  0
LINE
  8
0
  6
DASHED
 62
1
 10
199.000000
 20
-80.000000
 11
199.000000
 21
-81.199997
  0
LINE
  8
0
  6
CONTINUOUS
 62
4
 10
196.800003
 20
-92.000000
 11
209.199997
 21
-92.000000
  0
LINE
  8
0
  6
CONTINUOUS
 62
4
 10
192.500000
 20
-91.949997
 11
196.800003
 21
-91.949997
  0
LINE
  8
0
  6
CONTINUOUS
 62
4
 10
209.199997
 20
-91.949997
 11
213.500000
 21
-91.949997
  0
LINE
  8
0
  6
DASHED
 62
1
 10
183.500000
 20
-84.500000
 11
183.500000
 21
-87.500000
  0
LINE
  8
0
  6
DASHED
 62
1
 10
185.500000
 20
-84.770500
 11
185.500000
 21
-87.229500
  0
LINE
  8
0
  6
DASHED
 62
1
 10
177.500000
 20
-87.229500
 11
185.500000
 21
-87.229500
  0
LINE
  8
0
  6
DASHED
 62
1
 10
177.500000
 20
-84.770500
 11
185.500000
 21
-84.770500
  0
LINE
  8
0
  6
DASHED
 62
1
 10
151.500000
 20
-80.083900
 11
151.500000
 21
-81.199997
  0
LINE
  8
0
  6
DASHED
 62
1
 10
151.500000
 20
-81.199997
 11
153.500000
 21
-81.199997
  0
LINE
  8
0
  6
DASHED
 62
1
 10
153.500000
 20
-80.083900
 11
153.500000
 21
-81.199997
  0
LINE
  8
0
  6
CENTER
 62
1
 10
152.947006
 20
-77.471703
 11
152.500000
 21
-86.000000
  0
LINE
  8
0
  6
CENTER
 62
1
 10
143.960007
 20
-86.000000
 11
161.039993
 21
-86.000000
  0
LINE
  8
0
  6
CENTER
 62
1
 10
152.500000
 20
-77.459999
 11
152.500000
 21
-94.540001
  0
LINE
  8
0
  6
CENTER
 62
1
 10
152.052994
 20
-77.471703
 11
152.500000
 21
-86.000000
  0
LINE
  8
0
  6
CENTER
 62
1
 10
197.000000
 20
-65.000000
 11
209.000000
 21
-65.000000
  0
LINE
  8
0
  6
CONTINUOUS
 62
4
 10
200.000000
 20
-66.000000
 11
206.000000
 21
-66.000000
  0
LINE
  8
0
  6
CONTINUOUS
 62
4
 10
200.000000
 20
-64.000000
 11
206.000000
 21
-64.000000
  0
LINE
  8
0
  6
CONTINUOUS
 62
4
 10
235.934998
 20
-55.577301
 11
235.934998
 21
-57.577301
  0
LINE
  8
0
  6
CONTINUOUS
 62
4
 10
237.934998
 20
-55.577301
 11
237.934998
 21
-57.577301
  0
LINE
  8
0
  6
CONTINUOUS
 62
4
 10
243.184998
 20
-48.577301
 11
248.985001
 21
-48.577301
  0
LINE
  8
0
  6
CONTINUOUS
 62
4
 10
243.184998
 20
-50.577301
 11
248.985001
 21
-50.577301
  0
LINE
  8
0
  6
CONTINUOUS
 62
4
 10
235.934998
 20
-57.577301
 11
237.934998
 21
-57.577301
  0
LINE
  8
0
  6
CONTINUOUS
 62
4
 10
235.934998
 20
-55.577301
 11
237.934998
 21
-55.577301
  0
LINE
  8
0
  6
CENTER
 62
1
 10
250.985001
 20
-49.577301
 11
241.184998
 21
-49.577301
  0
LINE
  8
0
  6
CENTER
 62
1
 10
236.934998
 20
-54.577301
 11
236.934998
 21
-58.577301
  0
LINE
  8
0
  6
CONTINUOUS
 62
4
 10
242.184998
 20
-57.577301
 11
249.985001
 21
-57.577301
  0
LINE
  8
0
  6
CONTINUOUS
 62
4
 10
242.184998
 20
-55.577301
 11
249.985001
 21
-55.577301
  0
LINE
  8
0
  6
CONTINUOUS
 62
4
 10
242.184998
 20
-55.577301
 11
242.184998
 21
-57.577301
  0
LINE
  8
0
  6
CONTINUOUS
 62
4
 10
249.985001
 20
-55.577301
 11
249.985001
 21
-57.577301
  0
LINE
  8
0
  6
DASHED
 62
1
 10
177.500000
 20
-87.500000
 11
183.500000
 21
-87.500000
  0
LINE
  8
0
  6
DASHED
 62
1
 10
177.500000
 20
-84.500000
 11
183.500000
 21
-84.500000
  0
LINE
  8
0
  6
CONTINUOUS
 62
4
 10
177.500000
 20
-83.000000
 11
192.500000
 21
-83.000000
  0
LINE
  8
0
  6
CONTINUOUS
 62
4
 10
177.500000
 20
-89.000000
 11
192.500000
 21
-89.000000
  0
LINE
  8
0
  6
CONTINUOUS
 62
4
 10
213.500000
 20
-83.000000
 11
227.500000
 21
-83.000000
  0
LINE
  8
0
  6
CONTINUOUS
 62
4
 10
213.500000
 20
-89.000000
 11
227.500000
 21
-89.000000
  0
CIRCLE
  8
0
  6
CONTINUOUS
 62
7
 10
-181.500000
 20
19.000000
 40
3.000000
  0
CIRCLE
  8
0
  6
CONTINUOUS
 62
2
 10
-181.500000
 20
19.000000
 40
2.000000
  0
CIRCLE
  8
0
  6
CONTINUOUS
 62
7
 10
-165.500000
 20
38.000000
 40
3.000000
  0
CIRCLE
  8
0
  6
CONTINUOUS
 62
2
 10
-165.500000
 20
38.000000
 40
2.000000
  0
CIRCLE
  8
0
  6
CONTINUOUS
 62
7
 10
-181.500000
 20
38.000000
 40
3.000000
  0
CIRCLE
  8
0
  6
CONTINUOUS
 62
2
 10
-181.500000
 20
38.000000
 40
2.000000
  0
CIRCLE
  8
0
  6
CONTINUOUS
 62
7
 10
-165.500000
 20
19.000000
 40
3.000000
  0
CIRCLE
  8
0
  6
CONTINUOUS
 62
2
 10
-165.500000
 20
19.000000
 40
2.000000
  0
CIRCLE
  8
0
  6
CONTINUOUS
 62
2
 10
-175.500000
 20
-29.500000
 40
2.000000
  0
CIRCLE
  8
0
  6
CONTINUOUS
 62
7
 10
-175.500000
 20
-29.500000
 40
1.500000
  0
CIRCLE
  8
0
  6
CONTINUOUS
 62
2
 10
-175.500000
 20
-17.500000
 40
2.000000
  0
CIRCLE
  8
0
  6
CONTINUOUS
 62
7
 10
-175.500000
 20
-17.500000
 40
1.500000
  0
CIRCLE
  8
0
  6
CONTINUOUS
 62
2
 10
-159.500000
 20
-17.500000
 40
2.000000
  0
CIRCLE
  8
0
  6
CONTINUOUS
 62
7
 10
-159.500000
 20
-17.500000
 40
1.500000
  0
CIRCLE
  8
0
  6
CONTINUOUS
 62
2
 10
-159.500000
 20
-29.500000
 40
2.000000
  0
CIRCLE
  8
0
  6
CONTINUOUS
 62
7
 10
-159.500000
 20
-29.500000
 40
1.500000
  0
CIRCLE
  8
0
  6
CONTINUOUS
 62
2
 10
-123.500000
 20
80.500000
 40
1.500000
  0
CIRCLE
  8
0
  6
CONTINUOUS
 62
7
 10
-123.500000
 20
80.500000
 40
1.100000
  0
CIRCLE
  8
0
  6
CONTINUOUS
 62
2
 10
-160.000000
 20
80.500000
 40
1.500000
  0
CIRCLE
  8
0
  6
CONTINUOUS
 62
7
 10
-160.000000
 20
80.500000
 40
1.100000
  0
ARC
  8
0
  6
CONTINUOUS
 62
2
 10
-37.299999
 20
35.849998
 40
1.500000
 50
180.000000
 51
270.000000
  0
ARC
  8
0
  6
CONTINUOUS
 62
2
 10
-37.299999
 20
37.150002
 40
1.500000
 50
90.000298
 51
180.000000
  0
ARC
  8
0
  6
CONTINUOUS
 62
2
 10
-243.300003
 20
35.849998
 40
1.500000
 50
180.000000
 51
270.000000
  0
ARC
  8
0
  6
CONTINUOUS
 62
2
 10
-243.300003
 20
37.150002
 40
1.500000
 50
90.000000
 51
180.000000
  0
CIRCLE
  8
0
  6
CONTINUOUS
 62
2
 10
-247.500000
 20
18.500000
 40
2.000000
  0
CIRCLE
  8
0
  6
CONTINUOUS
 62
7
 10
-247.500000
 20
18.500000
 40
1.600000
  0
CIRCLE
  8
0
  6
CONTINUOUS
 62
7
 10
-247.500000
 20
38.500000
 40
1.600000
  0
CIRCLE
  8
0
  6
CONTINUOUS
 62
2
 10
-247.500000
 20
38.500000
 40
2.000000
  0
CIRCLE
  8
0
  6
CONTINUOUS
 62
7
 10
-247.500000
 20
28.500000
 40
3.000000
  0
CIRCLE
  8
0
  6
CONTINUOUS
 62
7
 10
-41.500000
 20
28.500000
 40
5.000000
  0
CIRCLE
  8
0
  6
CONTINUOUS
 62
7
 10
-41.500000
 20
28.500000
 40
2.000000
  0
CIRCLE
  8
0
  6
CONTINUOUS
 62
2
 10
-41.500000
 20
28.500000
 40
1.500000
  0
CIRCLE
  8
0
  6
CONTINUOUS
 62
7
 10
-181.500000
 20
38.000000
 40
1.700000
  0
CIRCLE
  8
0
  6
CONTINUOUS
 62
7
 10
-165.500000
 20
38.000000
 40
1.700000
  0
CIRCLE
  8
0
  6
CONTINUOUS
 62
7
 10
-165.500000
 20
19.000000
 40
1.700000
  0
CIRCLE
  8
0
  6
CONTINUOUS
 62
7
 10
-181.500000
 20
19.000000
 40
1.700000
  0
CIRCLE
  8
0
  6
CONTINUOUS
 62
4
 10
171.000000
 20
95.500000
 40
3.000000
  0
CIRCLE
  8
0
  6
CONTINUOUS
 62
4
 10
158.500000
 20
99.750000
 40
1.800000
  0
CIRCLE
  8
0
  6
CONTINUOUS
 62
4
 10
158.500000
 20
91.250000
 40
1.800000
  0
CIRCLE
  8
0
  6
CONTINUOUS
 62
4
 10
183.500000
 20
91.250000
 40
1.800000
  0
CIRCLE
  8
0
  6
CONTINUOUS
 62
4
 10
183.500000
 20
99.750000
 40
1.800000
  0
CIRCLE
  8
0
  6
CONTINUOUS
 62
4
 10
170.432999
 20
1.500000
 40
3.000000
  0
CIRCLE
  8
0
  6
CONTINUOUS
 62
4
 10
166.500000
 20
56.500000
 40
3.000000
  0
CIRCLE
  8
0
  6
CONTINUOUS
 62
4
 10
152.500000
 20
-86.000000
 40
3.000000
  0
CIRCLE
  8
0
  6
CONTINUOUS
 62
1
 10
152.500000
 20
-86.000000
 40
1.500000
  0
CIRCLE
  8
0
  6
CONTINUOUS
 62
4
 10
152.500000
 20
-86.000000
 40
6.000000
  0
ARC
  8
0
  6
CONTINUOUS
 62
4
 10
200.000000
 20
-65.000000
 40
1.000000
 50
89.999100
 51
269.997986
  0
ARC
  8
0
  6
CONTINUOUS
 62
4
 10
206.000000
 20
-65.000000
 40
1.000000
 50
269.997986
 51
89.997398
  0
ARC
  8
0
  6
CONTINUOUS
 62
4
 10
243.184998
 20
-49.577301
 40
1.000000
 50
90.000000
 51
270.000000
  0
ARC
  8
0
  6
CONTINUOUS
 62
4
 10
248.985001
 20
-49.577301
 40
1.000000
 50
270.000000
 51
90.000000
  0
CIRCLE
  8
0
  6
CONTINUOUS
 62
4
 10
152.500000
 20
-86.000000
 40
1.229500
  0
TEXT
  8
0
 62
7
 10
202.930283
 20
183.925003
 40
6.300000
  1
Ver.1.0
 50
0.000000
 41
1.010330
 51
0.000000
  7
STANDARD
  0
TEXT
  8
0
 62
7
 10
172.714691
 20
-187.250000
 40
9.000000
  1
KOGANEI CORP.
 50
0.000000
 41
0.771524
 51
0.000000
  7
STANDARD
  0
TEXT
  8
0
 62
7
 10
-253.019714
 20
183.925003
 40
6.300000
  1
AX CYLINDER
 50
0.000000
 41
0.783349
 51
0.000000
  7
STANDARD
  0
TEXT
  8
0
 62
7
 10
-269.400391
 20
158.925003
 40
6.300000
  1
MODEL:AXAS-SD10-20-ZE-R***
 50
0.000000
 41
0.772732
 51
0.000000
  7
STANDARD
  0
TEXT
  8
0
 62
7
 10
-108.900002
 20
89.500000
 40
3.200000
  1
20st
 50
90.000000
 41
0.907676
 51
0.000000
  7
STANDARD
  0
TEXT
  8
0
 62
7
 10
-88.900002
 20
89.500000
 40
3.200000
  1
40st
 50
90.000000
 41
0.907676
 51
0.000000
  7
STANDARD
  0
TEXT
  8
0
 62
7
 10
-68.900002
 20
89.500000
 40
3.200000
  1
60st
 50
90.000000
 41
0.907676
 51
0.000000
  7
STANDARD
  0
TEXT
  8
0
 62
7
 10
-48.900002
 20
89.500000
 40
3.200000
  1
80st
 50
90.000000
 41
0.907676
 51
0.000000
  7
STANDARD
  0
TEXT
  8
0
 62
7
 10
-28.900000
 20
89.500000
 40
3.200000
  1
100st
 50
90.000000
 41
0.985838
 51
0.000000
  7
STANDARD
  0
TEXT
  8
0
 62
7
 10
-58.899902
 20
82.500000
 40
3.200000
  1
20st
 50
90.000000
 41
0.907676
 51
0.000000
  7
STANDARD
  0
TEXT
  8
0
 62
7
 10
101.100098
 20
82.500000
 40
3.200000
  1
100st
 50
90.000000
 41
0.985838
 51
0.000000
  7
STANDARD
  0
TEXT
  8
0
 62
7
 10
61.100098
 20
82.500000
 40
3.200000
  1
80st
 50
90.000000
 41
0.907676
 51
0.000000
  7
STANDARD
  0
TEXT
  8
0
 62
7
 10
21.100100
 20
82.500000
 40
3.200000
  1
60st
 50
90.000000
 41
0.907676
 51
0.000000
  7
STANDARD
  0
TEXT
  8
0
 62
7
 10
-18.899900
 20
82.500000
 40
3.200000
  1
40st
 50
90.000000
 41
0.907676
 51
0.000000
  7
STANDARD
  0
TEXT
  8
0
 62
7
 10
145.749786
 20
142.625000
 40
3.500000
  1
OPTION
 50
0.000000
 41
0.857249
 51
0.000000
  7
STANDARD
  0
TEXT
  8
0
 62
7
 10
155.162994
 20
77.199997
 40
3.200000
  1
ZT(FLANGE ROD END)
 50
0.000000
 41
0.754380
 51
0.000000
  7
STANDARD
  0
TEXT
  8
0
 62
7
 10
153.563004
 20
24.200001
 40
3.200000
  1
WS(INTERNAL THREAD)
 50
0.000000
 41
0.752116
 51
0.000000
  7
STANDARD
  0
TEXT
  8
0
 62
7
 10
153.563004
 20
-30.799999
 40
3.200000
  1
WT(EXTERNAL THREAD)
 50
0.000000
 41
0.738187
 51
0.000000
  7
STANDARD
  0
TEXT
  8
0
 62
7
 10
224.209000
 20
-50.158699
 40
3.200000
  1
KEY
 50
0.000000
 41
0.928574
 51
0.000000
  7
STANDARD
  0
TEXT
  8
0
 62
7
 10
148.562866
 20
-110.599998
 40
3.200000
  1
FN(WITH BEARING NUT
 50
0.000000
 41
0.766485
 51
0.000000
  7
STANDARD
  0
TEXT
  8
0
 62
7
 10
150.562866
 20
-116.599998
 40
3.200000
  1
      FOR FLOATING UNIT)
 50
0.000000
 41
0.754799
 51
0.000000
  7
STANDARD
  0
TEXT
  8
0
 62
7
 10
142.899994
 20
-53.399998
 40
3.200000
  1
(KEYWAY
 50
0.000000
 41
0.766485
 51
0.000000
  7
STANDARD
  0
TEXT
  8
0
 62
7
 10
142.899994
 20
-56.599998
 40
3.200000
  1
  POSITION)
 50
0.000000
 41
0.766485
 51
0.000000
  7
STANDARD
  0
DIMENSION
  8
0
  2
*DIM0
 62
0
 10
151.584000
 20
-68.524002
 30
0.0
 11
144.500000
 21
-68.800003
 31
0.0
 13
153.416000
 23
-68.524002
 33
0.0
 14
152.947006
 24
-77.471703
 34
0.0
  15
152.052994
 25
-77.471703
 35
0.0
 16
153.337372
 26
-70.021927
 36
0.0
 70
2
  0
DIMENSION
  8
0
  2
*DIM1
 62
2
  10
169.500000
 20
-80.000000
 30
0.0
 11
169.500000
 21
-86.000000
 31
0.0
  13
196.800003
 23
-80.000000
 33
0.0
14
196.800003
 24
-92.000000
 34
0.0
 70
1
 50
90
  0
DIMENSION
  8
0
  2
*DIM2
 62
2
  10
215.000000
 20
-58.000000
 30
0.0
 11
215.000000
 21
-54.294201
 31
0.0
  13
206.000000
 23
-64.000000
 33
0.0
14
206.000000
 24
-66.000000
 34
0.0
 70
1
 50
90
  0
DIMENSION
  8
0
  2
*DIM3
 62
2
  10
235.934998
 20
-65.577301
 30
0.0
 11
228.067001
 21
-65.577301
 31
0.0
  13
235.934998
 23
-65.577301
 33
0.0
14
235.934998
 24
-57.577301
 34
0.0
 70
1
 50
0
  0
ENDSEC
  0
EOF
