  0
SECTION
  2
HEADER
  0
ENDSEC
  0
SECTION
  2
TABLES
  0
TABLE
  2
LTYPE
 70
     4
  0
LTYPE
  2
CONTINUOUS
 70
    64
  3
Solid line
 72
    65
 73
     0
 40
0.000000
  0
LTYPE
  2
DASHED
 70
    64
  3
__ __ __ __ __ __ __ __ __ __ __ __ __ __ __
 72
    65
 73
     2
 40
3.500000
 49
2.000000
 49
-1.500000
  0
LTYPE
  2
CENTER
 70
    64
  3
____ _ ____ _ ____ _ ____ _ ____ _ ____ _ ____
 72
    65
 73
     4
 40
17.500000
 49
13.000000
 49
-1.500000
 49
1.500000
 49
-1.500000
  0
LTYPE
  2
PHANTOM
 70
    64
  3
_____ _ _ _____ _ _ _____ _ _ _____ _ _ ____  
 72
    65
 73
     6
 40
15.500000
 49
8.000000
 49
-1.500000
 49
1.500000
 49
-1.500000
 49
1.500000
 49
-1.500000
  0
ENDTAB
  0
TABLE
  2
LAYER
 70
     1
  0
LAYER
  2
0
 70
     0
 62
     7
  6
CONTINUOUS
  0
ENDTAB
  0
TABLE
  2
STYLE
 70
     1
  0
STYLE
  2
STANDARD
 70
     0
 40
0.000000
 41
1.000000
 50
0.000000
 71
     0
 42
0.200000
  3
txt
  4
BIGFONT
  0
ENDTAB
  0
TABLE
  2
VIEW
 70
     0
  0
ENDTAB
  0
ENDSEC
  0
SECTION
  2
BLOCKS
  0
BLOCK
  8
0
 70
65
  2
*DIM0
 10
0.0
 20
0.0
 30
0.0
  0
ARC
  8
0
  6
BYBLOCK
 62
0
 10
107.500000
 20
-103.724998
 40
18.000000
 50
74.267609
 51
105.732391
  0
LINE
  8
0
  6
BYBLOCK
 62
0
 10
108.023003
 20
-93.738701
 11
108.521004
 21
-84.251701
  0
LINE
  8
0
  6
BYBLOCK
 62
0
 10
106.976997
 20
-93.738701
 11
106.478996
 21
-84.251701
  0
LINE
  8
0
  6
BYBLOCK
 62
0
 10
108.442047
 20
-85.749664
 11
111.020737
 21
-87.282745
  0
LINE
  8
0
  6
BYBLOCK
 62
0
 10
108.442047
 20
-85.749664
 11
111.441803
 21
-85.788010
  0
LINE
  8
0
  6
BYBLOCK
 62
0
 10
106.557953
 20
-85.749664
 11
103.558197
 21
-85.788010
  0
LINE
  8
0
  6
BYBLOCK
 62
0
 10
106.557953
 20
-85.749664
 11
103.979263
 21
-87.282745
  0
TEXT
  8
0
 62
2
 10
99.500000
 20
-84.525002
 40
3.200000
  1
ü}3üï
 50
0.000000
 41
1.500330
 51
0.000000
  7
STANDARD
  0
ENDBLK
  8
3
  0
BLOCK
  8
0
 70
65
  2
*DIM1
 10
0.0
 20
0.0
 30
0.0
  0
LINE
  8
0
  6
BYBLOCK
 62
2
 10
153.862000
 20
-95.724998
 11
128.362000
 21
-95.724998
  0
LINE
  8
0
  6
BYBLOCK
 62
2
 10
153.862000
 20
-111.724998
 11
128.362000
 21
-111.724998
  0
LINE
  8
0
  6
BYBLOCK
 62
2
 10
129.862000
 20
-95.724998
 11
129.862000
 21
-111.724998
  0
LINE
  8
0
  6
BYBLOCK
 62
2
 10
129.862000
 20
-95.724998
 11
129.085541
 21
-98.622772
  0
LINE
  8
0
  6
BYBLOCK
 62
2
 10
129.862000
 20
-95.724998
 11
130.638458
 21
-98.622772
  0
LINE
  8
0
  6
BYBLOCK
 62
2
 10
129.862000
 20
-111.724998
 11
130.638458
 21
-108.827225
  0
LINE
  8
0
  6
BYBLOCK
 62
2
 10
129.862000
 20
-111.724998
 11
129.085541
 21
-108.827225
  0
TEXT
  8
0
 62
2
 10
128.662003
 20
-114.924995
 40
3.200000
  1
âË16
 50
90.000000
 41
0.937977
 51
0.000000
  7
STANDARD
  0
TEXT
  8
0
 62
2
 10
127.062416
 20
-105.920349
 40
1.600000
  1
 0
 50
90.000000
 41
0.937977
 51
0.000000
  7
STANDARD
  0
TEXT
  8
0
 62
2
 10
128.662415
 20
-105.920418
 40
1.600000
  1
-0.011
 50
90.000000
 41
0.937977
 51
0.000000
  7
STANDARD
  0
ENDBLK
  8
0
  0
BLOCK
  8
0
 70
65
  2
*DIM2
 10
0.0
 20
0.0
 30
0.0
  0
LINE
  8
0
  6
BYBLOCK
 62
2
 10
170.362000
 20
-84.474998
 11
181.112000
 21
-84.474998
  0
LINE
  8
0
  6
BYBLOCK
 62
2
 10
170.362000
 20
-86.974998
 11
181.112000
 21
-86.974998
  0
LINE
  8
0
  6
BYBLOCK
 62
2
 10
179.612000
 20
-78.474998
 11
179.612000
 21
-92.974998
  0
LINE
  8
0
  6
BYBLOCK
 62
2
 10
179.612000
 20
-84.474998
 11
179.612000
 21
-63.960400
  0
LINE
  8
0
  6
BYBLOCK
 62
2
 10
179.612000
 20
-84.474998
 11
180.388458
 21
-81.577225
  0
LINE
  8
0
  6
BYBLOCK
 62
2
 10
179.612000
 20
-84.474998
 11
178.835541
 21
-81.577225
  0
LINE
  8
0
  6
BYBLOCK
 62
2
 10
179.612000
 20
-86.974998
 11
178.835541
 21
-89.872772
  0
LINE
  8
0
  6
BYBLOCK
 62
2
 10
179.612000
 20
-86.974998
 11
180.388458
 21
-89.872772
  0
TEXT
  8
0
 62
2
 10
178.412003
 20
-81.503296
 40
3.200000
  1
2.5
 50
90.000000
 41
0.900002
 51
0.000000
  7
STANDARD
  0
TEXT
  8
0
 62
2
 10
176.812408
 20
-72.863197
 40
1.600000
  1
+0.014
 50
90.000000
 41
0.900002
 51
0.000000
  7
STANDARD
  0
TEXT
  8
0
 62
2
 10
178.412399
 20
-72.863274
 40
1.600000
  1
 0
 50
90.000000
 41
0.900002
 51
0.000000
  7
STANDARD
  0
ENDBLK
  8
0
  0
BLOCK
  8
0
 70
65
  2
*DIM3
 10
0.0
 20
0.0
 30
0.0
  0
LINE
  8
0
  6
BYBLOCK
 62
2
 10
206.046997
 20
-76.552399
 11
208.546997
 21
-76.552399
  0
LINE
  8
0
  6
BYBLOCK
 62
2
 10
206.046997
 20
-68.552399
 11
206.046997
 21
-78.052399
  0
LINE
  8
0
  6
BYBLOCK
 62
2
 10
206.046997
 20
-76.552399
 11
208.546997
 21
-76.552399
  0
LINE
  8
0
  6
BYBLOCK
 62
2
 10
206.046997
 20
-76.552399
 11
185.490997
 21
-76.552399
  0
TEXT
  8
0
 62
2
 10
183.834000
 20
-75.352402
 40
3.200000
  1
2.5
 50
0.000000
 41
0.923936
 51
0.000000
  7
STANDARD
  0
TEXT
  8
0
 62
2
 10
192.703781
 20
-73.752403
 40
1.600000
  1
+0.016
 50
0.000000
 41
0.923936
 51
0.000000
  7
STANDARD
  0
TEXT
  8
0
 62
2
 10
192.703781
 20
-75.352402
 40
1.600000
  1
+0.006
 50
0.000000
 41
0.923936
 51
0.000000
  7
STANDARD
  0
ENDBLK
  8
0
  0
ENDSEC
  0
SECTION
  2
ENTITIES
  0
POINT
  8
0
  62
7
  10
-53.500000
  20
86.949997
  30
0.0
  0
POINT
  8
0
  62
7
  10
-33.500000
  20
86.949997
  30
0.0
  0
POINT
  8
0
  62
7
  10
-13.500000
  20
86.949997
  30
0.0
  0
POINT
  8
0
  62
7
  10
6.500000
  20
86.949997
  30
0.0
  0
POINT
  8
0
  62
7
  10
26.500000
  20
86.949997
  30
0.0
  0
LINE
  8
0
  6
CONTINUOUS
 62
7
 10
-281.250000
 20
195.500000
 11
282.100006
 21
195.500000
  0
LINE
  8
0
  6
CONTINUOUS
 62
7
 10
-281.250000
 20
195.500000
 11
-281.250000
 21
-195.000000
  0
LINE
  8
0
  6
CONTINUOUS
 62
7
 10
282.100006
 20
195.500000
 11
282.100006
 21
-195.000000
  0
LINE
  8
0
  6
CONTINUOUS
 62
7
 10
-281.250000
 20
-195.000000
 11
282.100006
 21
-195.000000
  0
LINE
  8
0
  6
CONTINUOUS
 62
7
 10
162.100006
 20
-175.000000
 11
162.100006
 21
-195.000000
  0
LINE
  8
0
  6
CONTINUOUS
 62
7
 10
162.100006
 20
-175.000000
 11
282.100006
 21
-175.000000
  0
LINE
  8
0
  6
CONTINUOUS
 62
7
 10
162.100006
 20
175.500000
 11
282.100006
 21
175.500000
  0
LINE
  8
0
  6
CONTINUOUS
 62
7
 10
-281.250000
 20
175.500000
 11
-161.250000
 21
175.500000
  0
LINE
  8
0
  6
CONTINUOUS
 62
7
 10
162.100006
 20
195.500000
 11
162.100006
 21
175.500000
  0
LINE
  8
0
  6
CONTINUOUS
 62
7
 10
-161.250000
 20
195.500000
 11
-161.250000
 21
175.500000
  0
LINE
  8
0
  6
CONTINUOUS
 62
7
 10
-148.500000
 20
-5.049990
 11
-148.500000
 21
26.950001
  0
LINE
  8
0
  6
CONTINUOUS
 62
7
 10
-53.500000
 20
26.950001
 11
-53.500000
 21
-5.049990
  0
LINE
  8
0
  6
CENTER
 62
2
 10
-182.500000
 20
10.950000
 11
-51.500000
 21
10.950000
  0
LINE
  8
0
  6
CONTINUOUS
 62
7
 10
-148.500000
 20
-5.049990
 11
-53.500000
 21
-5.049990
  0
LINE
  8
0
  6
CONTINUOUS
 62
7
 10
-148.500000
 20
26.950001
 11
-53.500000
 21
26.950001
  0
LINE
  8
0
  6
CONTINUOUS
 62
2
 10
-148.500000
 20
-0.850002
 11
-140.244995
 21
-0.850002
  0
LINE
  8
0
  6
CONTINUOUS
 62
2
 10
-148.500000
 20
1.750020
 11
-138.994003
 21
1.750020
  0
LINE
  8
0
  6
CONTINUOUS
 62
7
 10
-117.250000
 20
-1.050000
 11
-117.250000
 21
-5.049990
  0
LINE
  8
0
  6
CONTINUOUS
 62
7
 10
-109.750000
 20
-0.850002
 11
-109.750000
 21
-5.049990
  0
LINE
  8
0
  6
CONTINUOUS
 62
2
 10
-132.755005
 20
-0.850002
 11
-117.245003
 21
-0.850002
  0
LINE
  8
0
  6
CONTINUOUS
 62
2
 10
-134.005997
 20
1.750020
 11
-115.994003
 21
1.750020
  0
LINE
  8
0
  6
CONTINUOUS
 62
7
 10
-140.250000
 20
-1.050000
 11
-140.250000
 21
-5.049990
  0
LINE
  8
0
  6
CONTINUOUS
 62
7
 10
-132.750000
 20
-0.850002
 11
-132.750000
 21
-5.049990
  0
LINE
  8
0
  6
CONTINUOUS
 62
2
 10
-111.005997
 20
1.750020
 11
-53.500000
 21
1.750020
  0
LINE
  8
0
  6
CONTINUOUS
 62
2
 10
-109.750000
 20
-0.850002
 11
-53.500000
 21
-0.850002
  0
LINE
  8
0
  6
CONTINUOUS
 62
2
 10
-148.500000
 20
22.750000
 11
-140.244995
 21
22.750000
  0
LINE
  8
0
  6
CONTINUOUS
 62
2
 10
-148.500000
 20
20.150000
 11
-138.994003
 21
20.150000
  0
LINE
  8
0
  6
CONTINUOUS
 62
7
 10
-117.250000
 20
22.950001
 11
-117.250000
 21
26.950001
  0
LINE
  8
0
  6
CONTINUOUS
 62
7
 10
-109.750000
 20
22.750000
 11
-109.750000
 21
26.950001
  0
LINE
  8
0
  6
CONTINUOUS
 62
2
 10
-132.750000
 20
22.750000
 11
-117.245003
 21
22.750000
  0
LINE
  8
0
  6
CONTINUOUS
 62
2
 10
-134.005997
 20
20.150000
 11
-115.994003
 21
20.150000
  0
LINE
  8
0
  6
CONTINUOUS
 62
7
 10
-140.250000
 20
22.950001
 11
-140.250000
 21
26.950001
  0
LINE
  8
0
  6
CONTINUOUS
 62
7
 10
-132.750000
 20
22.750000
 11
-132.750000
 21
26.950001
  0
LINE
  8
0
  6
CONTINUOUS
 62
2
 10
-111.005997
 20
20.150000
 11
-53.500000
 21
20.150000
  0
LINE
  8
0
  6
CONTINUOUS
 62
2
 10
-109.754997
 20
22.750000
 11
-53.500000
 21
22.750000
  0
LINE
  8
0
  6
CONTINUOUS
 62
7
 10
-180.500000
 20
14.950000
 11
-148.500000
 21
14.950000
  0
LINE
  8
0
  6
CONTINUOUS
 62
7
 10
-180.500000
 20
6.950000
 11
-148.500000
 21
6.950000
  0
LINE
  8
0
  6
CONTINUOUS
 62
7
 10
-180.500000
 20
14.950000
 11
-180.500000
 21
6.950000
  0
LINE
  8
0
  6
CENTER
 62
2
 10
-182.500000
 20
-55.049999
 11
-51.500000
 21
-55.049999
  0
LINE
  8
0
  6
CONTINUOUS
 62
7
 10
-53.500000
 20
-65.050003
 11
-53.500000
 21
-45.049999
  0
LINE
  8
0
  6
CONTINUOUS
 62
7
 10
132.862000
 20
-38.724998
 11
132.862000
 21
-18.725000
  0
LINE
  8
0
  6
CONTINUOUS
 62
7
 10
132.862000
 20
-18.725000
 11
142.862000
 21
-18.725000
  0
LINE
  8
0
  6
CONTINUOUS
 62
7
 10
132.862000
 20
-38.724998
 11
142.862000
 21
-38.724998
  0
LINE
  8
0
  6
CONTINUOUS
 62
7
 10
-140.250000
 20
-51.549999
 11
-132.750000
 21
-51.549999
  0
LINE
  8
0
  6
CONTINUOUS
 62
7
 10
-140.250000
 20
-58.549999
 11
-132.750000
 21
-58.549999
  0
LINE
  8
0
  6
CONTINUOUS
 62
7
 10
-140.250000
 20
-58.549999
 11
-140.250000
 21
-65.050003
  0
LINE
  8
0
  6
CONTINUOUS
 62
7
 10
-132.750000
 20
-58.549999
 11
-132.750000
 21
-65.050003
  0
LINE
  8
0
  6
CONTINUOUS
 62
7
 10
-117.250000
 20
-58.549999
 11
-117.250000
 21
-65.050003
  0
LINE
  8
0
  6
CONTINUOUS
 62
7
 10
-117.250000
 20
-58.549999
 11
-109.750000
 21
-58.549999
  0
LINE
  8
0
  6
CONTINUOUS
 62
7
 10
-109.750000
 20
-58.549999
 11
-109.750000
 21
-65.050003
  0
LINE
  8
0
  6
CONTINUOUS
 62
7
 10
-117.250000
 20
-51.549999
 11
-109.750000
 21
-51.549999
  0
LINE
  8
0
  6
CONTINUOUS
 62
7
 10
-117.250000
 20
-45.049999
 11
-117.250000
 21
-51.549999
  0
LINE
  8
0
  6
CONTINUOUS
 62
7
 10
-109.750000
 20
-45.049999
 11
-109.750000
 21
-51.549999
  0
LINE
  8
0
  6
CONTINUOUS
 62
7
 10
-132.750000
 20
-45.049999
 11
-132.750000
 21
-51.549999
  0
LINE
  8
0
  6
CONTINUOUS
 62
7
 10
-140.250000
 20
-45.049999
 11
-140.250000
 21
-51.549999
  0
LINE
  8
0
  6
CONTINUOUS
 62
4
 10
116.594002
 20
-24.725000
 11
132.862000
 21
-24.725000
  0
LINE
  8
0
  6
CONTINUOUS
 62
4
 10
116.594002
 20
-32.724998
 11
132.862000
 21
-32.724998
  0
LINE
  8
0
  6
CONTINUOUS
 62
4
 10
100.862000
 20
-25.725000
 11
100.862000
 21
-31.725000
  0
LINE
  8
0
  6
CONTINUOUS
 62
7
 10
-148.500000
 20
66.949997
 11
-148.500000
 21
86.949997
  0
LINE
  8
0
  6
CONTINUOUS
 62
7
 10
-53.500000
 20
66.949997
 11
-53.500000
 21
86.949997
  0
LINE
  8
0
  6
CENTER
 62
2
 10
-182.500000
 20
76.949997
 11
-51.500000
 21
76.949997
  0
LINE
  8
0
  6
CONTINUOUS
 62
7
 10
-148.500000
 20
86.949997
 11
-53.500000
 21
86.949997
  0
LINE
  8
0
  6
CONTINUOUS
 62
7
 10
-148.500000
 20
66.949997
 11
-53.500000
 21
66.949997
  0
LINE
  8
0
  6
CONTINUOUS
 62
7
 10
-140.250000
 20
86.949997
 11
-140.250000
 21
80.449997
  0
LINE
  8
0
  6
CONTINUOUS
 62
7
 10
-132.750000
 20
86.949997
 11
-132.750000
 21
80.449997
  0
LINE
  8
0
  6
CONTINUOUS
 62
7
 10
-117.250000
 20
86.949997
 11
-117.250000
 21
80.449997
  0
LINE
  8
0
  6
CONTINUOUS
 62
7
 10
-109.750000
 20
86.949997
 11
-109.750000
 21
80.449997
  0
LINE
  8
0
  6
CONTINUOUS
 62
7
 10
-140.250000
 20
80.449997
 11
-132.750000
 21
80.449997
  0
LINE
  8
0
  6
CONTINUOUS
 62
7
 10
-140.250000
 20
73.449997
 11
-132.750000
 21
73.449997
  0
LINE
  8
0
  6
CONTINUOUS
 62
7
 10
-140.250000
 20
73.449997
 11
-140.250000
 21
66.949997
  0
LINE
  8
0
  6
CONTINUOUS
 62
7
 10
-132.750000
 20
73.449997
 11
-132.750000
 21
66.949997
  0
LINE
  8
0
  6
CONTINUOUS
 62
7
 10
-117.250000
 20
73.449997
 11
-117.250000
 21
66.949997
  0
LINE
  8
0
  6
CONTINUOUS
 62
7
 10
-109.750000
 20
73.449997
 11
-109.750000
 21
66.949997
  0
LINE
  8
0
  6
CONTINUOUS
 62
7
 10
-117.250000
 20
73.449997
 11
-109.750000
 21
73.449997
  0
LINE
  8
0
  6
CONTINUOUS
 62
7
 10
-117.250000
 20
80.449997
 11
-109.750000
 21
80.449997
  0
LINE
  8
0
  6
CONTINUOUS
 62
7
 10
-180.500000
 20
80.949997
 11
-148.500000
 21
80.949997
  0
LINE
  8
0
  6
CONTINUOUS
 62
7
 10
-180.500000
 20
72.949997
 11
-148.500000
 21
72.949997
  0
LINE
  8
0
  6
CONTINUOUS
 62
7
 10
-180.500000
 20
80.949997
 11
-180.500000
 21
72.949997
  0
LINE
  8
0
  6
CENTER
 62
2
 10
-222.500000
 20
10.950000
 11
-198.500000
 21
10.950000
  0
LINE
  8
0
  6
CONTINUOUS
 62
7
 10
-220.500000
 20
-5.049990
 11
-220.500000
 21
26.950001
  0
LINE
  8
0
  6
CONTINUOUS
 62
2
 10
-200.500000
 20
22.750000
 11
-201.500000
 21
22.750000
  0
LINE
  8
0
  6
CONTINUOUS
 62
2
 10
-201.500000
 20
22.750000
 11
-201.500000
 21
23.600000
  0
LINE
  8
0
  6
CONTINUOUS
 62
2
 10
-201.500000
 20
23.600000
 11
-205.300003
 21
23.600000
  0
LINE
  8
0
  6
CONTINUOUS
 62
2
 10
-206.800003
 20
20.799999
 11
-206.800003
 21
22.100000
  0
LINE
  8
0
  6
CONTINUOUS
 62
2
 10
-201.500000
 20
19.299999
 11
-205.300003
 21
19.299999
  0
LINE
  8
0
  6
CONTINUOUS
 62
2
 10
-201.500000
 20
19.299999
 11
-201.500000
 21
20.150000
  0
LINE
  8
0
  6
CONTINUOUS
 62
2
 10
-200.500000
 20
20.150000
 11
-201.500000
 21
20.150000
  0
LINE
  8
0
  6
CONTINUOUS
 62
7
 10
-220.500000
 20
-5.049990
 11
-200.500000
 21
-5.049990
  0
LINE
  8
0
  6
CONTINUOUS
 62
7
 10
-200.500000
 20
26.950001
 11
-200.500000
 21
-5.049990
  0
LINE
  8
0
  6
CONTINUOUS
 62
7
 10
-220.500000
 20
26.950001
 11
-200.500000
 21
26.950001
  0
LINE
  8
0
  6
CENTER
 62
2
 10
-213.910004
 20
-1.050000
 11
-207.126999
 21
-1.050000
  0
LINE
  8
0
  6
CENTER
 62
2
 10
-214.119003
 20
22.950001
 11
-207.283997
 21
22.950001
  0
LINE
  8
0
  6
CENTER
 62
2
 10
-210.500000
 20
-8.511480
 11
-210.500000
 21
28.950001
  0
LINE
  8
0
  6
CENTER
 62
2
 10
-222.500000
 20
0.450001
 11
-212.940002
 21
0.450001
  0
LINE
  8
0
  6
CENTER
 62
2
 10
-222.500000
 20
21.450001
 11
-212.845001
 21
21.450001
  0
LINE
  8
0
  6
CENTER
 62
2
 10
-198.500000
 20
21.450001
 11
-208.216995
 21
21.450001
  0
LINE
  8
0
  6
CENTER
 62
2
 10
-198.500000
 20
0.450001
 11
-208.216995
 21
0.450001
  0
LINE
  8
0
  6
DASHED
 62
2
 10
-139.000000
 20
-51.549999
 11
-139.000000
 21
-58.549999
  0
LINE
  8
0
  6
DASHED
 62
2
 10
-138.699997
 20
-51.549999
 11
-138.699997
 21
-58.549999
  0
LINE
  8
0
  6
DASHED
 62
2
 10
-134.300003
 20
-51.549999
 11
-134.300003
 21
-58.549999
  0
LINE
  8
0
  6
DASHED
 62
2
 10
-134.000000
 20
-51.549999
 11
-134.000000
 21
-58.549999
  0
LINE
  8
0
  6
DASHED
 62
2
 10
-116.000000
 20
-51.549999
 11
-116.000000
 21
-58.549999
  0
LINE
  8
0
  6
DASHED
 62
2
 10
-115.699997
 20
-51.549999
 11
-115.699997
 21
-58.549999
  0
LINE
  8
0
  6
DASHED
 62
2
 10
-111.300003
 20
-51.549999
 11
-111.300003
 21
-58.549999
  0
LINE
  8
0
  6
DASHED
 62
2
 10
-111.000000
 20
-51.549999
 11
-111.000000
 21
-58.549999
  0
LINE
  8
0
  6
CENTER
 62
2
 10
-136.500000
 20
-43.049999
 11
-136.500000
 21
-67.050003
  0
LINE
  8
0
  6
CENTER
 62
2
 10
-113.500000
 20
-43.049999
 11
-113.500000
 21
-67.050003
  0
LINE
  8
0
  6
CENTER
 62
2
 10
-25.500000
 20
10.950000
 11
-1.500000
 21
10.950000
  0
LINE
  8
0
  6
CONTINUOUS
 62
7
 10
-23.500000
 20
-5.049990
 11
-23.500000
 21
26.950001
  0
LINE
  8
0
  6
CONTINUOUS
 62
2
 10
-3.500000
 20
22.750000
 11
-4.500000
 21
22.750000
  0
LINE
  8
0
  6
CONTINUOUS
 62
2
 10
-4.500000
 20
22.750000
 11
-4.500000
 21
23.600000
  0
LINE
  8
0
  6
CONTINUOUS
 62
2
 10
-4.500000
 20
23.600000
 11
-8.300050
 21
23.600000
  0
LINE
  8
0
  6
CONTINUOUS
 62
2
 10
-9.800050
 20
20.799999
 11
-9.800050
 21
22.100000
  0
LINE
  8
0
  6
CONTINUOUS
 62
2
 10
-4.500000
 20
19.299999
 11
-8.300050
 21
19.299999
  0
LINE
  8
0
  6
CONTINUOUS
 62
2
 10
-4.500000
 20
19.299999
 11
-4.500000
 21
20.150000
  0
LINE
  8
0
  6
CONTINUOUS
 62
2
 10
-3.500000
 20
20.150000
 11
-4.500000
 21
20.150000
  0
LINE
  8
0
  6
CONTINUOUS
 62
7
 10
-23.500000
 20
-5.049990
 11
-3.500000
 21
-5.049990
  0
LINE
  8
0
  6
CONTINUOUS
 62
7
 10
-3.500000
 20
26.950001
 11
-3.500000
 21
-5.049990
  0
LINE
  8
0
  6
CONTINUOUS
 62
7
 10
-23.500000
 20
26.950001
 11
-3.500000
 21
26.950001
  0
LINE
  8
0
  6
CENTER
 62
2
 10
-13.500000
 20
-7.049990
 11
-13.500000
 21
28.950001
  0
LINE
  8
0
  6
CENTER
 62
2
 10
-25.500000
 20
0.450001
 11
-15.939900
 21
0.450001
  0
LINE
  8
0
  6
CENTER
 62
2
 10
-25.500000
 20
21.450001
 11
-15.845500
 21
21.450001
  0
LINE
  8
0
  6
CENTER
 62
2
 10
-1.500000
 20
21.450001
 11
-11.217000
 21
21.450001
  0
LINE
  8
0
  6
CENTER
 62
2
 10
-1.500000
 20
0.450001
 11
-11.217000
 21
0.450001
  0
LINE
  8
0
  6
CENTER
 62
1
 10
98.862000
 20
-28.725000
 11
142.862000
 21
-28.725000
  0
LINE
  8
0
  6
CONTINUOUS
 62
4
 10
105.500000
 20
84.025002
 11
138.500000
 21
84.025002
  0
LINE
  8
0
  6
CONTINUOUS
 62
4
 10
105.500000
 20
95.324997
 11
105.500000
 21
84.025002
  0
LINE
  8
0
  6
CONTINUOUS
 62
4
 10
112.500000
 20
99.025002
 11
131.500000
 21
99.025002
  0
LINE
  8
0
  6
CONTINUOUS
 62
4
 10
105.500000
 20
95.324997
 11
112.500000
 21
95.324997
  0
LINE
  8
0
  6
CONTINUOUS
 62
4
 10
138.500000
 20
95.324997
 11
138.500000
 21
84.025002
  0
LINE
  8
0
  6
CONTINUOUS
 62
4
 10
112.500000
 20
99.025002
 11
112.500000
 21
95.324997
  0
LINE
  8
0
  6
CONTINUOUS
 62
4
 10
131.500000
 20
99.025002
 11
131.500000
 21
95.324997
  0
LINE
  8
0
  6
CONTINUOUS
 62
4
 10
131.500000
 20
95.324997
 11
138.500000
 21
95.324997
  0
LINE
  8
0
  6
CENTER
 62
1
 10
122.000000
 20
101.025002
 11
122.000000
 21
82.025002
  0
LINE
  8
0
  6
CENTER
 62
1
 10
109.000000
 20
97.324997
 11
109.000000
 21
82.025002
  0
LINE
  8
0
  6
CENTER
 62
1
 10
135.000000
 20
97.324997
 11
135.000000
 21
82.025002
  0
LINE
  8
0
  6
DASHED
 62
1
 10
136.800003
 20
95.324997
 11
136.800003
 21
84.025002
  0
LINE
  8
0
  6
DASHED
 62
1
 10
133.199997
 20
95.324997
 11
133.199997
 21
84.025002
  0
LINE
  8
0
  6
CONTINUOUS
 62
4
 10
105.500000
 20
78.025002
 11
138.500000
 21
78.025002
  0
LINE
  8
0
  6
CONTINUOUS
 62
4
 10
105.500000
 20
61.025002
 11
138.500000
 21
61.025002
  0
LINE
  8
0
  6
CONTINUOUS
 62
4
 10
138.500000
 20
78.025002
 11
138.500000
 21
61.025002
  0
LINE
  8
0
  6
CONTINUOUS
 62
4
 10
105.500000
 20
61.025002
 11
105.500000
 21
78.025002
  0
LINE
  8
0
  6
CONTINUOUS
 62
4
 10
154.500000
 20
78.025002
 11
154.500000
 21
61.025002
  0
LINE
  8
0
  6
CONTINUOUS
 62
4
 10
169.500000
 20
78.025002
 11
169.500000
 21
61.025002
  0
LINE
  8
0
  6
CONTINUOUS
 62
4
 10
165.800003
 20
78.025002
 11
165.800003
 21
61.025002
  0
LINE
  8
0
  6
CONTINUOUS
 62
4
 10
154.500000
 20
78.025002
 11
169.500000
 21
78.025002
  0
LINE
  8
0
  6
CONTINUOUS
 62
4
 10
169.500000
 20
61.025002
 11
154.500000
 21
61.025002
  0
LINE
  8
0
  6
CENTER
 62
1
 10
171.500000
 20
69.525002
 11
152.500000
 21
69.525002
  0
LINE
  8
0
  6
CONTINUOUS
 62
7
 10
-180.500000
 20
-59.049999
 11
-148.500000
 21
-59.049999
  0
LINE
  8
0
  6
CONTINUOUS
 62
7
 10
-180.500000
 20
-51.049999
 11
-180.500000
 21
-59.049999
  0
LINE
  8
0
  6
CONTINUOUS
 62
7
 10
-148.500000
 20
-65.050003
 11
-148.500000
 21
-45.049999
  0
LINE
  8
0
  6
CONTINUOUS
 62
7
 10
-148.500000
 20
-45.049999
 11
-53.500000
 21
-45.049999
  0
LINE
  8
0
  6
CONTINUOUS
 62
7
 10
-148.500000
 20
-65.050003
 11
-53.500000
 21
-65.050003
  0
LINE
  8
0
  6
CONTINUOUS
 62
7
 10
-180.500000
 20
-51.049999
 11
-148.500000
 21
-51.049999
  0
LINE
  8
0
  6
CONTINUOUS
 62
4
 10
100.862000
 20
25.275000
 11
100.862000
 21
17.275000
  0
LINE
  8
0
  6
CONTINUOUS
 62
7
 10
132.862000
 20
11.275000
 11
132.862000
 21
31.275000
  0
LINE
  8
0
  6
CONTINUOUS
 62
7
 10
132.862000
 20
31.275000
 11
142.862000
 21
31.275000
  0
LINE
  8
0
  6
CONTINUOUS
 62
7
 10
132.862000
 20
11.275000
 11
142.862000
 21
11.275000
  0
LINE
  8
0
  6
CONTINUOUS
 62
4
 10
100.862000
 20
25.275000
 11
107.862000
 21
25.275000
  0
LINE
  8
0
  6
CONTINUOUS
 62
4
 10
100.862000
 20
17.275000
 11
107.862000
 21
17.275000
  0
LINE
  8
0
  6
CENTER
 62
1
 10
98.862000
 20
21.275000
 11
142.862000
 21
21.275000
  0
LINE
  8
0
  6
CONTINUOUS
 62
4
 10
107.862000
 20
25.275000
 11
107.862000
 21
24.775000
  0
LINE
  8
0
  6
CONTINUOUS
 62
4
 10
112.362000
 20
25.275000
 11
112.362000
 21
24.775000
  0
LINE
  8
0
  6
CONTINUOUS
 62
4
 10
107.862000
 20
24.775000
 11
112.362000
 21
24.775000
  0
LINE
  8
0
  6
CONTINUOUS
 62
4
 10
107.862000
 20
17.775000
 11
112.362000
 21
17.775000
  0
LINE
  8
0
  6
CONTINUOUS
 62
4
 10
112.362000
 20
25.275000
 11
132.862000
 21
25.275000
  0
LINE
  8
0
  6
CONTINUOUS
 62
4
 10
112.362000
 20
17.275000
 11
132.862000
 21
17.275000
  0
LINE
  8
0
  6
CONTINUOUS
 62
4
 10
107.862000
 20
17.775000
 11
107.862000
 21
17.275000
  0
LINE
  8
0
  6
CONTINUOUS
 62
4
 10
112.362000
 20
17.775000
 11
112.362000
 21
17.275000
  0
LINE
  8
0
  6
DASHED
 62
1
 10
110.862000
 20
23.775000
 11
110.862000
 21
18.775000
  0
LINE
  8
0
  6
DASHED
 62
1
 10
113.362000
 20
23.341999
 11
113.362000
 21
19.208000
  0
LINE
  8
0
  6
DASHED
 62
1
 10
100.862000
 20
23.775000
 11
110.862000
 21
23.775000
  0
LINE
  8
0
  6
DASHED
 62
1
 10
100.862000
 20
18.775000
 11
110.862000
 21
18.775000
  0
LINE
  8
0
  6
DASHED
 62
1
 10
100.862000
 20
19.208000
 11
113.362000
 21
19.208000
  0
LINE
  8
0
  6
DASHED
 62
1
 10
100.862000
 20
23.341999
 11
113.362000
 21
23.341999
  0
LINE
  8
0
  6
CONTINUOUS
 62
4
 10
112.862000
 20
-25.725000
 11
112.862000
 21
-31.725000
  0
LINE
  8
0
  6
CONTINUOUS
 62
4
 10
114.862000
 20
-25.725000
 11
114.862000
 21
-31.725000
  0
LINE
  8
0
  6
CONTINUOUS
 62
4
 10
100.862000
 20
-31.725000
 11
106.262001
 21
-31.725000
  0
LINE
  8
0
  6
CONTINUOUS
 62
4
 10
100.862000
 20
-25.725000
 11
106.262001
 21
-25.725000
  0
LINE
  8
0
  6
CONTINUOUS
 62
1
 10
100.862000
 20
-31.183500
 11
106.262001
 21
-31.183500
  0
LINE
  8
0
  6
CONTINUOUS
 62
1
 10
100.862000
 20
-26.266500
 11
106.262001
 21
-26.266500
  0
LINE
  8
0
  6
CONTINUOUS
 62
4
 10
114.862000
 20
-25.724800
 11
116.594002
 21
-24.724800
  0
LINE
  8
0
  6
CONTINUOUS
 62
4
 10
114.862000
 20
-31.725000
 11
116.594002
 21
-32.724998
  0
LINE
  8
0
  6
CONTINUOUS
 62
4
 10
116.594002
 20
-24.725000
 11
116.594002
 21
-26.788500
  0
LINE
  8
0
  6
CONTINUOUS
 62
4
 10
119.362000
 20
-26.788500
 11
119.362000
 21
-30.661501
  0
LINE
  8
0
  6
CONTINUOUS
 62
4
 10
109.862000
 20
-22.951500
 11
109.862000
 21
-34.498501
  0
LINE
  8
0
  6
CONTINUOUS
 62
1
 10
109.862000
 20
-31.183500
 11
112.862000
 21
-31.183500
  0
LINE
  8
0
  6
CONTINUOUS
 62
4
 10
109.862000
 20
-31.725000
 11
114.862000
 21
-31.725000
  0
LINE
  8
0
  6
CONTINUOUS
 62
1
 10
109.862000
 20
-26.266500
 11
112.862000
 21
-26.266500
  0
LINE
  8
0
  6
CONTINUOUS
 62
4
 10
109.862000
 20
-25.725000
 11
114.862000
 21
-25.725000
  0
LINE
  8
0
  6
CENTER
 62
1
 10
117.112000
 20
-9.725010
 11
117.112000
 21
-19.725000
  0
LINE
  8
0
  6
CENTER
 62
1
 10
112.112000
 20
-14.725000
 11
122.112000
 21
-14.725000
  0
LINE
  8
0
  6
CONTINUOUS
 62
4
 10
113.612000
 20
-12.788500
 11
113.612000
 21
-16.661501
  0
LINE
  8
0
  6
CONTINUOUS
 62
4
 10
120.612000
 20
-12.788500
 11
120.612000
 21
-16.661501
  0
LINE
  8
0
  6
CONTINUOUS
 62
4
 10
114.862000
 20
-26.788500
 11
119.362000
 21
-26.788500
  0
LINE
  8
0
  6
CONTINUOUS
 62
4
 10
114.862000
 20
-30.661501
 11
119.362000
 21
-30.661501
  0
LINE
  8
0
  6
CONTINUOUS
 62
4
 10
116.594002
 20
-30.661501
 11
116.594002
 21
-32.724998
  0
LINE
  8
0
  6
CONTINUOUS
 62
1
 10
114.862000
 20
-30.661800
 11
119.362000
 21
-26.788799
  0
LINE
  8
0
  6
CONTINUOUS
 62
1
 10
119.362000
 20
-30.661400
 11
114.862000
 21
-26.788500
  0
LINE
  8
0
  6
CONTINUOUS
 62
4
 10
106.262001
 20
-34.498501
 11
109.862000
 21
-34.498501
  0
LINE
  8
0
  6
CONTINUOUS
 62
4
 10
106.262001
 20
-31.611799
 11
109.862000
 21
-31.611799
  0
LINE
  8
0
  6
CONTINUOUS
 62
4
 10
106.262001
 20
-22.951500
 11
109.862000
 21
-22.951500
  0
LINE
  8
0
  6
CONTINUOUS
 62
4
 10
106.262001
 20
-25.838301
 11
109.862000
 21
-25.838301
  0
LINE
  8
0
  6
CENTER
 62
1
 10
110.112000
 20
40.275002
 11
110.112000
 21
30.275000
  0
LINE
  8
0
  6
CENTER
 62
1
 10
105.112000
 20
35.275002
 11
115.112000
 21
35.275002
  0
LINE
  8
0
  6
CONTINUOUS
 62
4
 10
108.176003
 20
38.775002
 11
112.049004
 21
38.775002
  0
LINE
  8
0
  6
CONTINUOUS
 62
4
 10
108.176003
 20
31.775000
 11
112.049004
 21
31.775000
  0
LINE
  8
0
  6
CENTER
 62
2
 10
-106.500000
 20
81.449997
 11
-106.500000
 21
72.449997
  0
LINE
  8
0
  6
CENTER
 62
2
 10
-68.500000
 20
81.449997
 11
-68.500000
 21
72.449997
  0
LINE
  8
0
  6
CENTER
 62
2
 10
-136.500000
 20
4.700000
 11
-136.500000
 21
-6.800000
  0
LINE
  8
0
  6
CENTER
 62
2
 10
-142.250000
 20
-1.050000
 11
-130.750000
 21
-1.050000
  0
LINE
  8
0
  6
CENTER
 62
2
 10
-136.500000
 20
28.700001
 11
-136.500000
 21
17.200001
  0
LINE
  8
0
  6
CENTER
 62
2
 10
-142.250000
 20
22.950001
 11
-130.750000
 21
22.950001
  0
LINE
  8
0
  6
CENTER
 62
2
 10
-113.500000
 20
28.700001
 11
-113.500000
 21
17.200001
  0
LINE
  8
0
  6
CENTER
 62
2
 10
-119.250000
 20
22.950001
 11
-107.750000
 21
22.950001
  0
LINE
  8
0
  6
CENTER
 62
2
 10
-113.500000
 20
4.700000
 11
-113.500000
 21
-6.800000
  0
LINE
  8
0
  6
CENTER
 62
2
 10
-119.250000
 20
-1.050000
 11
-107.750000
 21
-1.050000
  0
LINE
  8
0
  6
CENTER
 62
2
 10
-129.500000
 20
-57.049999
 11
-129.500000
 21
-65.050003
  0
LINE
  8
0
  6
CENTER
 62
2
 10
-133.500000
 20
-61.049999
 11
-125.500000
 21
-61.049999
  0
LINE
  8
0
  6
CENTER
 62
2
 10
-129.500000
 20
-45.049999
 11
-129.500000
 21
-53.049999
  0
LINE
  8
0
  6
CENTER
 62
2
 10
-133.500000
 20
-49.049999
 11
-125.500000
 21
-49.049999
  0
LINE
  8
0
  6
CENTER
 62
2
 10
-106.500000
 20
-45.049999
 11
-106.500000
 21
-53.049999
  0
LINE
  8
0
  6
CENTER
 62
2
 10
-110.500000
 20
-49.049999
 11
-102.500000
 21
-49.049999
  0
LINE
  8
0
  6
CENTER
 62
2
 10
-106.500000
 20
-57.049999
 11
-106.500000
 21
-65.050003
  0
LINE
  8
0
  6
CENTER
 62
2
 10
-110.500000
 20
-61.049999
 11
-102.500000
 21
-61.049999
  0
LINE
  8
0
  6
CENTER
 62
1
 10
135.000000
 20
78.324997
 11
135.000000
 21
70.724998
  0
LINE
  8
0
  6
CENTER
 62
1
 10
131.199997
 20
74.525002
 11
138.800003
 21
74.525002
  0
LINE
  8
0
  6
CENTER
 62
1
 10
135.000000
 20
68.324997
 11
135.000000
 21
60.724998
  0
LINE
  8
0
  6
CENTER
 62
1
 10
131.199997
 20
64.525002
 11
138.800003
 21
64.525002
  0
LINE
  8
0
  6
CENTER
 62
1
 10
122.000000
 20
75.525002
 11
122.000000
 21
63.525002
  0
LINE
  8
0
  6
CENTER
 62
1
 10
116.000000
 20
69.525002
 11
128.000000
 21
69.525002
  0
LINE
  8
0
  6
CENTER
 62
1
 10
109.000000
 20
78.324997
 11
109.000000
 21
70.724998
  0
LINE
  8
0
  6
CENTER
 62
1
 10
105.199997
 20
74.525002
 11
112.800003
 21
74.525002
  0
LINE
  8
0
  6
CENTER
 62
1
 10
109.000000
 20
68.324997
 11
109.000000
 21
60.724998
  0
LINE
  8
0
  6
CENTER
 62
1
 10
105.199997
 20
64.525002
 11
112.800003
 21
64.525002
  0
LINE
  8
0
  6
CONTINUOUS
 62
4
 10
106.262001
 20
-22.951500
 11
106.262001
 21
-34.498501
  0
LINE
  8
0
  6
CONTINUOUS
 62
7
 10
192.862000
 20
-119.724998
 11
192.862000
 21
-87.724998
  0
LINE
  8
0
  6
CENTER
 62
1
 10
134.996994
 20
-103.724998
 11
202.862000
 21
-103.724998
  0
LINE
  8
0
  6
CONTINUOUS
 62
7
 10
192.862000
 20
-119.724998
 11
202.862000
 21
-119.724998
  0
LINE
  8
0
  6
CONTINUOUS
 62
7
 10
192.862000
 20
-87.724998
 11
202.862000
 21
-87.724998
  0
LINE
  8
0
  6
CONTINUOUS
 62
2
 10
192.862000
 20
-112.925003
 11
202.862000
 21
-112.925003
  0
LINE
  8
0
  6
CONTINUOUS
 62
2
 10
192.862000
 20
-94.525002
 11
202.862000
 21
-94.525002
  0
LINE
  8
0
  6
CONTINUOUS
 62
4
 10
137.862000
 20
-99.724998
 11
153.862000
 21
-99.724998
  0
LINE
  8
0
  6
CONTINUOUS
 62
4
 10
137.862000
 20
-107.724998
 11
153.862000
 21
-107.724998
  0
LINE
  8
0
  6
CONTINUOUS
 62
4
 10
137.862000
 20
-99.724998
 11
137.862000
 21
-107.724998
  0
LINE
  8
0
  6
CONTINUOUS
 62
4
 10
153.862000
 20
-95.724998
 11
153.862000
 21
-111.724998
  0
LINE
  8
0
  6
CONTINUOUS
 62
4
 10
178.862000
 20
-95.724998
 11
178.862000
 21
-111.724998
  0
LINE
  8
0
  6
CONTINUOUS
 62
4
 10
153.862000
 20
-95.724998
 11
178.862000
 21
-95.724998
  0
LINE
  8
0
  6
CONTINUOUS
 62
4
 10
178.862000
 20
-111.724998
 11
153.862000
 21
-111.724998
  0
LINE
  8
0
  6
DASHED
 62
1
 10
161.112000
 20
-96.925003
 11
171.612000
 21
-96.925003
  0
LINE
  8
0
  6
DASHED
 62
1
 10
161.112000
 20
-95.724998
 11
161.112000
 21
-96.925003
  0
LINE
  8
0
  6
DASHED
 62
1
 10
171.612000
 20
-95.724998
 11
171.612000
 21
-96.925003
  0
LINE
  8
0
  6
CONTINUOUS
 62
4
 10
178.862000
 20
-99.724998
 11
192.862000
 21
-99.724998
  0
LINE
  8
0
  6
CONTINUOUS
 62
4
 10
178.862000
 20
-107.724998
 11
192.862000
 21
-107.724998
  0
LINE
  8
0
  6
DASHED
 62
1
 10
145.862000
 20
-101.724998
 11
145.862000
 21
-105.724998
  0
LINE
  8
0
  6
DASHED
 62
1
 10
147.862000
 20
-102.103996
 11
147.862000
 21
-105.346001
  0
LINE
  8
0
  6
DASHED
 62
1
 10
137.862000
 20
-105.724998
 11
145.862000
 21
-105.724998
  0
LINE
  8
0
  6
DASHED
 62
1
 10
137.862000
 20
-101.724998
 11
145.862000
 21
-101.724998
  0
LINE
  8
0
  6
CONTINUOUS
 62
2
 10
192.862000
 20
-115.525002
 11
202.862000
 21
-115.525002
  0
LINE
  8
0
  6
CONTINUOUS
 62
2
 10
192.862000
 20
-91.925003
 11
202.862000
 21
-91.925003
  0
LINE
  8
0
  6
DASHED
 62
1
 10
108.750000
 20
-95.823303
 11
108.750000
 21
-96.925003
  0
LINE
  8
0
  6
DASHED
 62
1
 10
106.250000
 20
-95.823303
 11
106.250000
 21
-96.925003
  0
LINE
  8
0
  6
DASHED
 62
1
 10
106.250000
 20
-96.925003
 11
108.750000
 21
-96.925003
  0
LINE
  8
0
  6
CENTER
 62
1
 10
117.500000
 20
-103.724998
 11
97.500000
 21
-103.724998
  0
LINE
  8
0
  6
CENTER
 62
1
 10
108.023003
 20
-93.738701
 11
107.500000
 21
-103.724998
  0
LINE
  8
0
  6
DASHED
 62
1
 10
137.862000
 20
-102.103996
 11
147.862000
 21
-102.103996
  0
LINE
  8
0
  6
DASHED
 62
1
 10
137.862000
 20
-105.346001
 11
147.862000
 21
-105.346001
  0
LINE
  8
0
  6
CENTER
 62
1
 10
107.500000
 20
-93.724998
 11
107.500000
 21
-113.724998
  0
LINE
  8
0
  6
CENTER
 62
1
 10
106.976997
 20
-93.738701
 11
107.500000
 21
-103.724998
  0
LINE
  8
0
  6
CENTER
 62
1
 10
159.112000
 20
-85.724998
 11
173.612000
 21
-85.724998
  0
LINE
  8
0
  6
CONTINUOUS
 62
4
 10
162.362000
 20
-84.474998
 11
170.362000
 21
-84.474998
  0
LINE
  8
0
  6
CONTINUOUS
 62
4
 10
162.362000
 20
-86.974998
 11
170.362000
 21
-86.974998
  0
LINE
  8
0
  6
CONTINUOUS
 62
4
 10
206.046997
 20
-66.052399
 11
208.546997
 21
-66.052399
  0
LINE
  8
0
  6
CONTINUOUS
 62
4
 10
206.046997
 20
-68.552399
 11
208.546997
 21
-68.552399
  0
LINE
  8
0
  6
CONTINUOUS
 62
4
 10
208.546997
 20
-66.052399
 11
208.546997
 21
-68.552399
  0
LINE
  8
0
  6
CONTINUOUS
 62
4
 10
206.046997
 20
-66.052399
 11
206.046997
 21
-68.552399
  0
LINE
  8
0
  6
CONTINUOUS
 62
4
 10
213.796997
 20
-59.052399
 11
221.796997
 21
-59.052399
  0
LINE
  8
0
  6
CONTINUOUS
 62
4
 10
213.796997
 20
-61.552399
 11
221.796997
 21
-61.552399
  0
LINE
  8
0
  6
CONTINUOUS
 62
4
 10
212.546997
 20
-66.052399
 11
212.546997
 21
-68.552399
  0
LINE
  8
0
  6
CONTINUOUS
 62
4
 10
223.046997
 20
-66.052399
 11
223.046997
 21
-68.552399
  0
LINE
  8
0
  6
CONTINUOUS
 62
4
 10
212.546997
 20
-66.052399
 11
223.046997
 21
-66.052399
  0
LINE
  8
0
  6
CONTINUOUS
 62
4
 10
212.546997
 20
-68.552399
 11
223.046997
 21
-68.552399
  0
LINE
  8
0
  6
CENTER
 62
1
 10
210.546997
 20
-60.302399
 11
225.046997
 21
-60.302399
  0
LINE
  8
0
  6
CENTER
 62
1
 10
207.296997
 20
-64.052399
 11
207.296997
 21
-70.552399
  0
ARC
  8
0
  6
CONTINUOUS
 62
7
 10
-136.500000
 20
-1.050000
 40
3.750000
 50
0.000000
 51
180.000000
  0
ARC
  8
0
  6
CONTINUOUS
 62
7
 10
-136.500000
 20
22.950001
 40
3.750000
 50
180.000000
 51
0.000000
  0
CIRCLE
  8
0
  6
CONTINUOUS
 62
2
 10
-136.500000
 20
22.950001
 40
2.500000
  0
ARC
  8
0
  6
CONTINUOUS
 62
7
 10
-113.500000
 20
22.950001
 40
3.750000
 50
180.000000
 51
0.000000
  0
CIRCLE
  8
0
  6
CONTINUOUS
 62
2
 10
-113.500000
 20
22.950001
 40
2.500000
  0
ARC
  8
0
  6
CONTINUOUS
 62
7
 10
-113.500000
 20
-1.050000
 40
3.750000
 50
0.000000
 51
180.000000
  0
CIRCLE
  8
0
  6
CONTINUOUS
 62
2
 10
-113.500000
 20
-1.050000
 40
2.500000
  0
CIRCLE
  8
0
  6
CONTINUOUS
 62
2
 10
-136.500000
 20
-1.050000
 40
2.500000
  0
CIRCLE
  8
0
  6
CONTINUOUS
 62
2
 10
-106.500000
 20
-49.049999
 40
2.000000
  0
CIRCLE
  8
0
  6
CONTINUOUS
 62
7
 10
-106.500000
 20
-49.049999
 40
1.500000
  0
CIRCLE
  8
0
  6
CONTINUOUS
 62
2
 10
-129.500000
 20
-49.049999
 40
2.000000
  0
CIRCLE
  8
0
  6
CONTINUOUS
 62
7
 10
-129.500000
 20
-49.049999
 40
1.500000
  0
CIRCLE
  8
0
  6
CONTINUOUS
 62
2
 10
-106.500000
 20
-61.049999
 40
2.000000
  0
CIRCLE
  8
0
  6
CONTINUOUS
 62
7
 10
-106.500000
 20
-61.049999
 40
1.500000
  0
CIRCLE
  8
0
  6
CONTINUOUS
 62
2
 10
-129.500000
 20
-61.049999
 40
2.000000
  0
CIRCLE
  8
0
  6
CONTINUOUS
 62
7
 10
-129.500000
 20
-61.049999
 40
1.500000
  0
CIRCLE
  8
0
  6
CONTINUOUS
 62
2
 10
-68.500000
 20
76.949997
 40
2.500000
  0
CIRCLE
  8
0
  6
CONTINUOUS
 62
7
 10
-68.500000
 20
76.949997
 40
2.000000
  0
CIRCLE
  8
0
  6
CONTINUOUS
 62
7
 10
-106.500000
 20
76.949997
 40
2.000000
  0
CIRCLE
  8
0
  6
CONTINUOUS
 62
2
 10
-106.500000
 20
76.949997
 40
2.500000
  0
ARC
  8
0
  6
CONTINUOUS
 62
2
 10
-205.300003
 20
22.100000
 40
1.500000
 50
90.000000
 51
180.000000
  0
ARC
  8
0
  6
CONTINUOUS
 62
2
 10
-205.300003
 20
20.799999
 40
1.500000
 50
180.000000
 51
270.000000
  0
CIRCLE
  8
0
  6
CONTINUOUS
 62
2
 10
-210.500000
 20
22.950001
 40
2.000000
  0
CIRCLE
  8
0
  6
CONTINUOUS
 62
7
 10
-210.500000
 20
22.950001
 40
1.500000
  0
CIRCLE
  8
0
  6
CONTINUOUS
 62
7
 10
-210.500000
 20
-1.050000
 40
1.500000
  0
CIRCLE
  8
0
  6
CONTINUOUS
 62
2
 10
-210.500000
 20
-1.050000
 40
2.000000
  0
CIRCLE
  8
0
  6
CONTINUOUS
 62
7
 10
-210.500000
 20
10.950000
 40
4.000000
  0
ARC
  8
0
  6
CONTINUOUS
 62
2
 10
-8.300050
 20
22.100000
 40
1.500000
 50
90.000099
 51
180.000000
  0
ARC
  8
0
  6
CONTINUOUS
 62
2
 10
-8.300050
 20
20.799999
 40
1.500000
 50
180.000000
 51
270.000000
  0
CIRCLE
  8
0
  6
CONTINUOUS
 62
4
 10
122.000000
 20
69.525002
 40
4.000000
  0
CIRCLE
  8
0
  6
CONTINUOUS
 62
4
 10
135.000000
 20
64.525002
 40
1.800000
  0
CIRCLE
  8
0
  6
CONTINUOUS
 62
4
 10
135.000000
 20
74.525002
 40
1.800000
  0
CIRCLE
  8
0
  6
CONTINUOUS
 62
4
 10
109.000000
 20
64.525002
 40
1.800000
  0
CIRCLE
  8
0
  6
CONTINUOUS
 62
4
 10
109.000000
 20
74.525002
 40
1.800000
  0
CIRCLE
  8
0
  6
CONTINUOUS
 62
4
 10
117.112000
 20
-14.725000
 40
4.000000
  0
CIRCLE
  8
0
  6
CONTINUOUS
 62
4
 10
110.112000
 20
35.275002
 40
4.000000
  0
CIRCLE
  8
0
  6
CONTINUOUS
 62
7
 10
-136.500000
 20
-1.050000
 40
2.200000
  0
CIRCLE
  8
0
  6
CONTINUOUS
 62
7
 10
-113.500000
 20
-1.050000
 40
2.200000
  0
CIRCLE
  8
0
  6
CONTINUOUS
 62
7
 10
-113.500000
 20
22.950001
 40
2.200000
  0
CIRCLE
  8
0
  6
CONTINUOUS
 62
7
 10
-136.500000
 20
22.950001
 40
2.200000
  0
CIRCLE
  8
0
  6
CONTINUOUS
 62
4
 10
107.500000
 20
-103.724998
 40
4.000000
  0
CIRCLE
  8
0
  6
CONTINUOUS
 62
4
 10
107.500000
 20
-103.724998
 40
8.000000
  0
CIRCLE
  8
0
  6
CONTINUOUS
 62
1
 10
107.500000
 20
-103.724998
 40
2.000000
  0
CIRCLE
  8
0
  6
CONTINUOUS
 62
4
 10
107.500000
 20
-103.724998
 40
1.621000
  0
ARC
  8
0
  6
CONTINUOUS
 62
4
 10
162.362000
 20
-85.724998
 40
1.250000
 50
90.000000
 51
270.000000
  0
ARC
  8
0
  6
CONTINUOUS
 62
4
 10
170.362000
 20
-85.724998
 40
1.250000
 50
270.000000
 51
90.000000
  0
ARC
  8
0
  6
CONTINUOUS
 62
4
 10
213.796997
 20
-60.302399
 40
1.250000
 50
90.000000
 51
270.000000
  0
ARC
  8
0
  6
CONTINUOUS
 62
4
 10
221.796997
 20
-60.302399
 40
1.250000
 50
270.000000
 51
90.000000
  0
TEXT
  8
0
 62
7
 10
202.930283
 20
183.925003
 40
6.300000
  1
Ver.1.0
 50
0.000000
 41
1.010330
 51
0.000000
  7
STANDARD
  0
TEXT
  8
0
 62
7
 10
172.714691
 20
-187.250000
 40
9.000000
  1
KOGANEI CORP.
 50
0.000000
 41
0.771524
 51
0.000000
  7
STANDARD
  0
TEXT
  8
0
 62
7
 10
-253.019714
 20
183.925003
 40
6.300000
  1
AX CYLINDER
 50
0.000000
 41
0.783349
 51
0.000000
  7
STANDARD
  0
TEXT
  8
0
 62
7
 10
-269.400391
 20
158.925003
 40
6.300000
  1
MODEL:AXAS-SD15-20-R***
 50
0.000000
 41
0.774953
 51
0.000000
  7
STANDARD
  0
TEXT
  8
0
 62
7
 10
-52.700001
 20
86.949997
 40
3.200000
  1
20st
 50
90.000000
 41
0.907676
 51
0.000000
  7
STANDARD
  0
TEXT
  8
0
 62
7
 10
-32.700001
 20
86.949997
 40
3.200000
  1
40st
 50
90.000000
 41
0.907676
 51
0.000000
  7
STANDARD
  0
TEXT
  8
0
 62
7
 10
-12.700000
 20
86.949997
 40
3.200000
  1
60st
 50
90.000000
 41
0.907676
 51
0.000000
  7
STANDARD
  0
TEXT
  8
0
 62
7
 10
7.300000
 20
86.949997
 40
3.200000
  1
80st
 50
90.000000
 41
0.907676
 51
0.000000
  7
STANDARD
  0
TEXT
  8
0
 62
7
 10
27.299999
 20
86.949997
 40
3.200000
  1
100st
 50
90.000000
 41
0.985838
 51
0.000000
  7
STANDARD
  0
TEXT
  8
0
 62
7
 10
95.349762
 20
111.425003
 40
3.900000
  1
OPTION
 50
0.000000
 41
0.857249
 51
0.000000
  7
STANDARD
  0
TEXT
  8
0
 62
7
 10
105.163002
 20
50.225002
 40
3.200000
  1
ZT(FLANGE ROD END)
 50
0.000000
 41
0.754380
 51
0.000000
  7
STANDARD
  0
TEXT
  8
0
 62
7
 10
103.563004
 20
0.475000
 40
3.200000
  1
WS(INTERNAL THREAD)
 50
0.000000
 41
0.752116
 51
0.000000
  7
STANDARD
  0
TEXT
  8
0
 62
7
 10
103.563004
 20
-49.524998
 40
3.200000
  1
WT(EXTERNAL THREAD)
 50
0.000000
 41
0.738187
 51
0.000000
  7
STANDARD
  0
TEXT
  8
0
 62
7
 10
192.570999
 20
-58.883698
 40
3.200000
  1
KEY
 50
0.000000
 41
0.928574
 51
0.000000
  7
STANDARD
  0
TEXT
  8
0
 62
7
 10
98.562859
 20
-131.325012
 40
3.200000
  1
FN(WITH BEARING NUT
 50
0.000000
 41
0.766485
 51
0.000000
  7
STANDARD
  0
TEXT
  8
0
 62
7
 10
100.562859
 20
-137.325012
 40
3.200000
  1
      FOR FLOATING UNIT)
 50
0.000000
 41
0.754799
 51
0.000000
  7
STANDARD
  0
TEXT
  8
0
 62
7
 10
97.899994
 20
-69.125000
 40
3.200000
  1
(KEYWAY
 50
0.000000
 41
0.766485
 51
0.000000
  7
STANDARD
  0
TEXT
  8
0
 62
7
 10
97.899994
 20
-72.324997
 40
3.200000
  1
  POSITION)
 50
0.000000
 41
0.766485
 51
0.000000
  7
STANDARD
  0
DIMENSION
  8
0
  2
*DIM0
 62
0
 10
106.478996
 20
-84.251701
 30
0.0
 11
99.500000
 21
-84.525002
 31
0.0
 13
108.521004
 23
-84.251701
 33
0.0
 14
108.023003
 24
-93.738701
 34
0.0
  15
106.976997
 25
-93.738701
 35
0.0
 16
108.442047
 26
-85.749664
 36
0.0
 70
2
  0
DIMENSION
  8
0
  2
*DIM1
 62
2
  10
129.862000
 20
-95.724998
 30
0.0
 11
129.862000
 21
-103.724998
 31
0.0
  13
153.862000
 23
-95.724998
 33
0.0
14
153.862000
 24
-111.724998
 34
0.0
 70
1
 50
90
  0
DIMENSION
  8
0
  2
*DIM2
 62
2
  10
179.612000
 20
-78.474998
 30
0.0
 11
179.612000
 21
-71.903297
 31
0.0
  13
170.362000
 23
-84.474998
 33
0.0
14
170.362000
 24
-86.974998
 34
0.0
 70
1
 50
90
  0
DIMENSION
  8
0
  2
*DIM3
 62
2
  10
206.046997
 20
-76.552399
 30
0.0
 11
193.434006
 21
-76.552399
 31
0.0
  13
206.046997
 23
-76.552399
 33
0.0
14
206.046997
 24
-68.552399
 34
0.0
 70
1
 50
0
  0
ENDSEC
  0
EOF
