  0
SECTION
  2
HEADER
  0
ENDSEC
  0
SECTION
  2
TABLES
  0
TABLE
  2
LTYPE
 70
     4
  0
LTYPE
  2
CONTINUOUS
 70
    64
  3
Solid line
 72
    65
 73
     0
 40
0.000000
  0
LTYPE
  2
DASHED
 70
    64
  3
__ __ __ __ __ __ __ __ __ __ __ __ __ __ __
 72
    65
 73
     2
 40
3.500000
 49
2.000000
 49
-1.500000
  0
LTYPE
  2
CENTER
 70
    64
  3
____ _ ____ _ ____ _ ____ _ ____ _ ____ _ ____
 72
    65
 73
     4
 40
17.500000
 49
13.000000
 49
-1.500000
 49
1.500000
 49
-1.500000
  0
LTYPE
  2
PHANTOM
 70
    64
  3
_____ _ _ _____ _ _ _____ _ _ _____ _ _ ____  
 72
    65
 73
     6
 40
15.500000
 49
8.000000
 49
-1.500000
 49
1.500000
 49
-1.500000
 49
1.500000
 49
-1.500000
  0
ENDTAB
  0
TABLE
  2
LAYER
 70
     1
  0
LAYER
  2
0
 70
     0
 62
     7
  6
CONTINUOUS
  0
ENDTAB
  0
TABLE
  2
STYLE
 70
     1
  0
STYLE
  2
STANDARD
 70
     0
 40
0.000000
 41
1.000000
 50
0.000000
 71
     0
 42
0.200000
  3
txt
  4
BIGFONT
  0
ENDTAB
  0
TABLE
  2
VIEW
 70
     0
  0
ENDTAB
  0
ENDSEC
  0
SECTION
  2
BLOCKS
  0
BLOCK
  8
0
 70
65
  2
*DIM0
 10
0.0
 20
0.0
 30
0.0
  0
ARC
  8
0
  6
BYBLOCK
 62
0
 10
176.431000
 20
-172.949997
 40
23.000000
 50
77.035515
 51
102.964485
  0
LINE
  8
0
  6
BYBLOCK
 62
0
 10
177.216003
 20
-157.970993
 11
177.712997
 21
-148.483994
  0
LINE
  8
0
  6
BYBLOCK
 62
0
 10
175.645996
 20
-157.970993
 11
175.147995
 21
-148.483994
  0
LINE
  8
0
  6
BYBLOCK
 62
0
 10
177.634720
 20
-149.981522
 11
180.284439
 21
-151.388290
  0
LINE
  8
0
  6
BYBLOCK
 62
0
 10
177.634720
 20
-149.981522
 11
180.632828
 21
-149.874954
  0
LINE
  8
0
  6
BYBLOCK
 62
0
 10
175.227280
 20
-149.981522
 11
172.229172
 21
-149.874954
  0
LINE
  8
0
  6
BYBLOCK
 62
0
 10
175.227280
 20
-149.981522
 11
172.577560
 21
-151.388290
  0
TEXT
  8
0
 62
2
 10
168.431000
 20
-148.750000
 40
3.200000
  1
ü}3üï
 50
0.000000
 41
1.500330
 51
0.000000
  7
STANDARD
  0
ENDBLK
  8
3
  0
BLOCK
  8
0
 70
65
  2
*DIM1
 10
0.0
 20
0.0
 30
0.0
  0
LINE
  8
0
  6
BYBLOCK
 62
2
 10
231.431000
 20
-159.949997
 11
201.931000
 21
-159.949997
  0
LINE
  8
0
  6
BYBLOCK
 62
2
 10
231.431000
 20
-185.949997
 11
201.931000
 21
-185.949997
  0
LINE
  8
0
  6
BYBLOCK
 62
2
 10
203.431000
 20
-159.949997
 11
203.431000
 21
-185.949997
  0
LINE
  8
0
  6
BYBLOCK
 62
2
 10
203.431000
 20
-159.949997
 11
202.654541
 21
-162.847778
  0
LINE
  8
0
  6
BYBLOCK
 62
2
 10
203.431000
 20
-159.949997
 11
204.207458
 21
-162.847778
  0
LINE
  8
0
  6
BYBLOCK
 62
2
 10
203.431000
 20
-185.949997
 11
204.207458
 21
-183.052216
  0
LINE
  8
0
  6
BYBLOCK
 62
2
 10
203.431000
 20
-185.949997
 11
202.654541
 21
-183.052216
  0
TEXT
  8
0
 62
2
 10
202.231003
 20
-184.149994
 40
3.200000
  1
âË26
 50
90.000000
 41
0.908729
 51
0.000000
  7
STANDARD
  0
TEXT
  8
0
 62
2
 10
200.631409
 20
-175.426117
 40
1.600000
  1
 0
 50
90.000000
 41
0.908729
 51
0.000000
  7
STANDARD
  0
TEXT
  8
0
 62
2
 10
202.231400
 20
-175.426193
 40
1.600000
  1
-0.013
 50
90.000000
 41
0.908729
 51
0.000000
  7
STANDARD
  0
ENDBLK
  8
0
  0
BLOCK
  8
0
 70
65
  2
*DIM2
 10
0.0
 20
0.0
 30
0.0
  0
LINE
  8
0
  6
BYBLOCK
 62
2
 10
255.431000
 20
-143.449997
 11
266.431000
 21
-143.449997
  0
LINE
  8
0
  6
BYBLOCK
 62
2
 10
255.431000
 20
-146.449997
 11
266.431000
 21
-146.449997
  0
LINE
  8
0
  6
BYBLOCK
 62
2
 10
264.931000
 20
-137.449997
 11
264.931000
 21
-152.449997
  0
LINE
  8
0
  6
BYBLOCK
 62
2
 10
264.931000
 20
-143.449997
 11
264.931000
 21
-128.007004
  0
LINE
  8
0
  6
BYBLOCK
 62
2
 10
264.931000
 20
-143.449997
 11
265.707458
 21
-140.552216
  0
LINE
  8
0
  6
BYBLOCK
 62
2
 10
264.931000
 20
-143.449997
 11
264.154541
 21
-140.552216
  0
LINE
  8
0
  6
BYBLOCK
 62
2
 10
264.931000
 20
-146.449997
 11
264.154541
 21
-149.347778
  0
LINE
  8
0
  6
BYBLOCK
 62
2
 10
264.931000
 20
-146.449997
 11
265.707458
 21
-149.347778
  0
TEXT
  8
0
 62
2
 10
263.730988
 20
-139.949997
 40
3.200000
  1
3
 50
90.000000
 41
0.873629
 51
0.000000
  7
STANDARD
  0
TEXT
  8
0
 62
2
 10
262.131104
 20
-137.154312
 40
1.600000
  1
+0.014
 50
90.000000
 41
0.873629
 51
0.000000
  7
STANDARD
  0
TEXT
  8
0
 62
2
 10
263.731110
 20
-137.154388
 40
1.600000
  1
 0
 50
90.000000
 41
0.873629
 51
0.000000
  7
STANDARD
  0
ENDBLK
  8
0
  0
BLOCK
  8
0
 70
65
  2
*DIM3
 10
0.0
 20
0.0
 30
0.0
  0
LINE
  8
0
  6
BYBLOCK
 62
2
 10
287.557007
 20
-134.968994
 11
290.557007
 21
-134.968994
  0
LINE
  8
0
  6
BYBLOCK
 62
2
 10
287.557007
 20
-126.969002
 11
287.557007
 21
-136.468994
  0
LINE
  8
0
  6
BYBLOCK
 62
2
 10
287.557007
 20
-134.968994
 11
290.557007
 21
-134.968994
  0
LINE
  8
0
  6
BYBLOCK
 62
2
 10
287.557007
 20
-134.968994
 11
272.299011
 21
-134.968994
  0
TEXT
  8
0
 62
2
 10
271.442017
 20
-133.768997
 40
3.200000
  1
3
 50
0.000000
 41
0.906835
 51
0.000000
  7
STANDARD
  0
TEXT
  8
0
 62
2
 10
274.343872
 20
-132.168991
 40
1.600000
  1
+0.016
 50
0.000000
 41
0.906835
 51
0.000000
  7
STANDARD
  0
TEXT
  8
0
 62
2
 10
274.343872
 20
-133.768997
 40
1.600000
  1
+0.006
 50
0.000000
 41
0.906835
 51
0.000000
  7
STANDARD
  0
ENDBLK
  8
0
  0
ENDSEC
  0
SECTION
  2
ENTITIES
  0
POINT
  8
0
  62
7
  10
-106.500000
  20
189.699997
  30
0.0
  0
POINT
  8
0
  62
7
  10
-81.500000
  20
189.699997
  30
0.0
  0
POINT
  8
0
  62
7
  10
-56.500000
  20
189.699997
  30
0.0
  0
POINT
  8
0
  62
7
  10
-31.500000
  20
189.699997
  30
0.0
  0
POINT
  8
0
  62
7
  10
-6.500000
  20
-36.200001
  30
0.0
  0
POINT
  8
0
  62
7
  10
18.500000
  20
-36.200001
  30
0.0
  0
POINT
  8
0
  62
7
  10
43.500000
  20
-36.200001
  30
0.0
  0
POINT
  8
0
  62
7
  10
68.500000
  20
-36.200001
  30
0.0
  0
LINE
  8
0
  6
CONTINUOUS
 62
7
 10
399.799988
 20
276.250000
 11
399.799988
 21
-276.750000
  0
LINE
  8
0
  6
CONTINUOUS
 62
7
 10
-399.250000
 20
276.250000
 11
-399.250000
 21
-276.750000
  0
LINE
  8
0
  6
CONTINUOUS
 62
7
 10
-399.250000
 20
276.250000
 11
399.799988
 21
276.250000
  0
LINE
  8
0
  6
CONTINUOUS
 62
7
 10
-399.250000
 20
-276.750000
 11
399.799988
 21
-276.750000
  0
LINE
  8
0
  6
CONTINUOUS
 62
7
 10
239.800003
 20
-251.750000
 11
399.799988
 21
-251.750000
  0
LINE
  8
0
  6
CONTINUOUS
 62
7
 10
239.800003
 20
251.250000
 11
399.799988
 21
251.250000
  0
LINE
  8
0
  6
CONTINUOUS
 62
7
 10
-399.250000
 20
251.250000
 11
-239.250000
 21
251.250000
  0
LINE
  8
0
  6
CONTINUOUS
 62
7
 10
239.800003
 20
-251.750000
 11
239.800003
 21
-276.750000
  0
LINE
  8
0
  6
CONTINUOUS
 62
7
 10
239.800003
 20
251.250000
 11
239.800003
 21
276.250000
  0
LINE
  8
0
  6
CONTINUOUS
 62
7
 10
-239.250000
 20
276.250000
 11
-239.250000
 21
251.250000
  0
LINE
  8
0
  6
CONTINUOUS
 62
7
 10
-213.500000
 20
-203.199997
 11
-213.500000
 21
-172.199997
  0
LINE
  8
0
  6
CONTINUOUS
 62
7
 10
-213.500000
 20
-203.199997
 11
-6.500000
 21
-203.199997
  0
LINE
  8
0
  6
CONTINUOUS
 62
7
 10
-213.500000
 20
-172.199997
 11
-6.500000
 21
-172.199997
  0
LINE
  8
0
  6
CONTINUOUS
 62
7
 10
-213.500000
 20
-142.199997
 11
-6.500000
 21
-142.199997
  0
LINE
  8
0
  6
CONTINUOUS
 62
7
 10
-213.500000
 20
-97.199997
 11
-6.500000
 21
-97.199997
  0
LINE
  8
0
  6
CONTINUOUS
 62
7
 10
-213.500000
 20
-142.199997
 11
-213.500000
 21
-97.199997
  0
LINE
  8
0
  6
CONTINUOUS
 62
2
 10
-213.500000
 20
-104.400002
 11
-205.425995
 21
-104.400002
  0
LINE
  8
0
  6
CONTINUOUS
 62
2
 10
-197.574005
 20
-104.400002
 11
-178.425995
 21
-104.400002
  0
LINE
  8
0
  6
CONTINUOUS
 62
2
 10
-213.500000
 20
-135.000000
 11
-205.425995
 21
-135.000000
  0
LINE
  8
0
  6
CONTINUOUS
 62
2
 10
-213.500000
 20
-132.399994
 11
-6.500000
 21
-132.399994
  0
LINE
  8
0
  6
CONTINUOUS
 62
2
 10
-197.574005
 20
-135.000000
 11
-178.425995
 21
-135.000000
  0
LINE
  8
0
  6
CONTINUOUS
 62
2
 10
-170.574005
 20
-135.000000
 11
-90.425598
 21
-135.000000
  0
LINE
  8
0
  6
CONTINUOUS
 62
2
 10
-170.574005
 20
-104.400002
 11
-90.425598
 21
-104.400002
  0
LINE
  8
0
  6
CENTER
 62
2
 10
-255.500000
 20
-187.699997
 11
-4.500000
 21
-187.699997
  0
LINE
  8
0
  6
CENTER
 62
2
 10
-255.500000
 20
-119.699997
 11
-4.500000
 21
-119.699997
  0
LINE
  8
0
  6
CONTINUOUS
 62
7
 10
-6.500000
 20
-203.199997
 11
-6.500000
 21
-172.199997
  0
LINE
  8
0
  6
CONTINUOUS
 62
7
 10
-6.500000
 20
-67.199997
 11
-6.500000
 21
-36.200001
  0
LINE
  8
0
  6
CONTINUOUS
 62
7
 10
-253.500000
 20
-194.199997
 11
-213.500000
 21
-194.199997
  0
LINE
  8
0
  6
CONTINUOUS
 62
7
 10
-253.500000
 20
-194.199997
 11
-253.500000
 21
-181.199997
  0
LINE
  8
0
  6
CONTINUOUS
 62
7
 10
-253.500000
 20
-181.199997
 11
-213.500000
 21
-181.199997
  0
LINE
  8
0
  6
CONTINUOUS
 62
7
 10
-253.500000
 20
-113.199997
 11
-213.500000
 21
-113.199997
  0
LINE
  8
0
  6
CONTINUOUS
 62
7
 10
-253.500000
 20
-113.199997
 11
-253.500000
 21
-126.199997
  0
LINE
  8
0
  6
CONTINUOUS
 62
7
 10
-253.500000
 20
-126.199997
 11
-213.500000
 21
-126.199997
  0
LINE
  8
0
  6
CONTINUOUS
 62
7
 10
-6.500000
 20
-142.199997
 11
-6.500000
 21
-97.199997
  0
LINE
  8
0
  6
CONTINUOUS
 62
2
 10
43.500000
 20
-104.400002
 11
44.500000
 21
-104.400002
  0
LINE
  8
0
  6
CONTINUOUS
 62
2
 10
39.700001
 20
-103.550003
 11
43.500000
 21
-103.550003
  0
LINE
  8
0
  6
CONTINUOUS
 62
2
 10
43.500000
 20
-103.550003
 11
43.500000
 21
-104.400002
  0
LINE
  8
0
  6
CONTINUOUS
 62
2
 10
38.200001
 20
-105.050003
 11
38.200001
 21
-106.349998
  0
LINE
  8
0
  6
CONTINUOUS
 62
2
 10
39.700001
 20
-107.849998
 11
43.500000
 21
-107.849998
  0
LINE
  8
0
  6
CONTINUOUS
 62
2
 10
43.500000
 20
-107.000000
 11
43.500000
 21
-107.849998
  0
LINE
  8
0
  6
CONTINUOUS
 62
2
 10
43.500000
 20
-107.000000
 11
44.500000
 21
-107.000000
  0
LINE
  8
0
  6
CONTINUOUS
 62
7
 10
44.500000
 20
-142.199997
 11
44.500000
 21
-97.199997
  0
LINE
  8
0
  6
CONTINUOUS
 62
7
 10
13.500000
 20
-142.199997
 11
44.500000
 21
-142.199997
  0
LINE
  8
0
  6
CONTINUOUS
 62
7
 10
13.500000
 20
-142.199997
 11
13.500000
 21
-97.199997
  0
LINE
  8
0
  6
CONTINUOUS
 62
7
 10
13.500000
 20
-97.199997
 11
44.500000
 21
-97.199997
  0
LINE
  8
0
  6
CENTER
 62
2
 10
11.500000
 20
-119.699997
 11
46.500000
 21
-119.699997
  0
LINE
  8
0
  6
CENTER
 62
2
 10
29.000099
 20
-144.199997
 11
29.000099
 21
-95.199997
  0
LINE
  8
0
  6
CONTINUOUS
 62
2
 10
-213.500000
 20
-107.000000
 11
-6.500000
 21
-107.000000
  0
LINE
  8
0
  6
CENTER
 62
2
 10
35.776299
 20
-133.699997
 11
46.500000
 21
-133.699997
  0
LINE
  8
0
  6
CENTER
 62
2
 10
35.776299
 20
-105.699997
 11
46.500000
 21
-105.699997
  0
LINE
  8
0
  6
CENTER
 62
2
 10
22.223801
 20
-133.699997
 11
11.500000
 21
-133.699997
  0
LINE
  8
0
  6
CENTER
 62
2
 10
22.223801
 20
-105.699997
 11
11.500000
 21
-105.699997
  0
LINE
  8
0
  6
DASHED
 62
2
 10
-91.000000
 20
-172.199997
 11
-91.000000
 21
-178.699997
  0
LINE
  8
0
  6
DASHED
 62
2
 10
-89.500000
 20
-178.699997
 11
-89.500000
 21
-196.699997
  0
LINE
  8
0
  6
DASHED
 62
2
 10
-89.199997
 20
-178.699997
 11
-89.199997
 21
-196.699997
  0
LINE
  8
0
  6
CENTER
 62
2
 10
-86.500000
 20
-170.199997
 11
-86.500000
 21
-205.199997
  0
LINE
  8
0
  6
DASHED
 62
2
 10
-91.000000
 20
-178.699997
 11
-82.000000
 21
-178.699997
  0
LINE
  8
0
  6
DASHED
 62
2
 10
-82.000000
 20
-172.199997
 11
-82.000000
 21
-178.699997
  0
LINE
  8
0
  6
DASHED
 62
2
 10
-91.000000
 20
-203.199997
 11
-91.000000
 21
-196.699997
  0
LINE
  8
0
  6
DASHED
 62
2
 10
-91.000000
 20
-196.699997
 11
-82.000000
 21
-196.699997
  0
LINE
  8
0
  6
DASHED
 62
2
 10
-82.000000
 20
-203.199997
 11
-82.000000
 21
-196.699997
  0
LINE
  8
0
  6
DASHED
 62
2
 10
-83.800003
 20
-178.699997
 11
-83.800003
 21
-196.699997
  0
LINE
  8
0
  6
DASHED
 62
2
 10
-83.500000
 20
-178.699997
 11
-83.500000
 21
-196.699997
  0
LINE
  8
0
  6
DASHED
 62
2
 10
-206.000000
 20
-203.199997
 11
-206.000000
 21
-196.699997
  0
LINE
  8
0
  6
DASHED
 62
2
 10
-206.000000
 20
-196.699997
 11
-197.000000
 21
-196.699997
  0
LINE
  8
0
  6
DASHED
 62
2
 10
-197.000000
 20
-203.199997
 11
-197.000000
 21
-196.699997
  0
LINE
  8
0
  6
DASHED
 62
2
 10
-198.500000
 20
-178.699997
 11
-198.500000
 21
-196.699997
  0
LINE
  8
0
  6
DASHED
 62
2
 10
-198.800003
 20
-178.699997
 11
-198.800003
 21
-196.699997
  0
LINE
  8
0
  6
DASHED
 62
2
 10
-204.199997
 20
-178.699997
 11
-204.199997
 21
-196.699997
  0
LINE
  8
0
  6
DASHED
 62
2
 10
-204.500000
 20
-178.699997
 11
-204.500000
 21
-196.699997
  0
LINE
  8
0
  6
CENTER
 62
2
 10
-201.500000
 20
-170.199997
 11
-201.500000
 21
-205.199997
  0
LINE
  8
0
  6
DASHED
 62
2
 10
-197.000000
 20
-172.199997
 11
-197.000000
 21
-178.699997
  0
LINE
  8
0
  6
DASHED
 62
2
 10
-206.000000
 20
-178.699997
 11
-197.000000
 21
-178.699997
  0
LINE
  8
0
  6
DASHED
 62
2
 10
-206.000000
 20
-172.199997
 11
-206.000000
 21
-178.699997
  0
LINE
  8
0
  6
CONTINUOUS
 62
2
 10
-274.500000
 20
-104.400002
 11
-273.500000
 21
-104.400002
  0
LINE
  8
0
  6
CONTINUOUS
 62
2
 10
-278.299988
 20
-103.550003
 11
-274.500000
 21
-103.550003
  0
LINE
  8
0
  6
CONTINUOUS
 62
2
 10
-274.500000
 20
-103.550003
 11
-274.500000
 21
-104.400002
  0
LINE
  8
0
  6
CONTINUOUS
 62
2
 10
-279.799988
 20
-105.050003
 11
-279.799988
 21
-106.349998
  0
LINE
  8
0
  6
CONTINUOUS
 62
2
 10
-278.299988
 20
-107.849998
 11
-274.500000
 21
-107.849998
  0
LINE
  8
0
  6
CONTINUOUS
 62
2
 10
-274.500000
 20
-107.000000
 11
-274.500000
 21
-107.849998
  0
LINE
  8
0
  6
CONTINUOUS
 62
2
 10
-274.500000
 20
-107.000000
 11
-273.500000
 21
-107.000000
  0
LINE
  8
0
  6
CONTINUOUS
 62
7
 10
-273.500000
 20
-142.199997
 11
-273.500000
 21
-97.199997
  0
LINE
  8
0
  6
CONTINUOUS
 62
7
 10
-304.500000
 20
-142.199997
 11
-273.500000
 21
-142.199997
  0
LINE
  8
0
  6
CONTINUOUS
 62
7
 10
-304.500000
 20
-142.199997
 11
-304.500000
 21
-97.199997
  0
LINE
  8
0
  6
CONTINUOUS
 62
7
 10
-304.500000
 20
-97.199997
 11
-273.500000
 21
-97.199997
  0
LINE
  8
0
  6
CENTER
 62
2
 10
-306.500000
 20
-119.699997
 11
-271.500000
 21
-119.699997
  0
LINE
  8
0
  6
CENTER
 62
2
 10
-289.000000
 20
-144.199997
 11
-289.000000
 21
-95.199997
  0
LINE
  8
0
  6
CENTER
 62
2
 10
-282.223999
 20
-133.699997
 11
-271.500000
 21
-133.699997
  0
LINE
  8
0
  6
CENTER
 62
2
 10
-282.223999
 20
-105.699997
 11
-271.500000
 21
-105.699997
  0
LINE
  8
0
  6
CENTER
 62
2
 10
-295.776001
 20
-133.699997
 11
-306.500000
 21
-133.699997
  0
LINE
  8
0
  6
CENTER
 62
2
 10
-295.776001
 20
-105.699997
 11
-306.500000
 21
-105.699997
  0
LINE
  8
0
  6
CONTINUOUS
 62
7
 10
-213.500000
 20
-36.200001
 11
-213.500000
 21
-67.199997
  0
LINE
  8
0
  6
CONTINUOUS
 62
7
 10
-213.500000
 20
-36.200001
 11
-6.500000
 21
-36.200001
  0
LINE
  8
0
  6
CONTINUOUS
 62
7
 10
-213.500000
 20
-67.199997
 11
-6.500000
 21
-67.199997
  0
LINE
  8
0
  6
CENTER
 62
2
 10
-255.500000
 20
-51.700001
 11
-4.500000
 21
-51.700001
  0
LINE
  8
0
  6
CONTINUOUS
 62
7
 10
-253.500000
 20
-58.200001
 11
-213.500000
 21
-58.200001
  0
LINE
  8
0
  6
CONTINUOUS
 62
7
 10
-253.500000
 20
-58.200001
 11
-253.500000
 21
-45.200001
  0
LINE
  8
0
  6
CONTINUOUS
 62
7
 10
-253.500000
 20
-45.200001
 11
-213.500000
 21
-45.200001
  0
LINE
  8
0
  6
DASHED
 62
2
 10
-171.500000
 20
-178.699997
 11
-171.500000
 21
-196.699997
  0
LINE
  8
0
  6
DASHED
 62
2
 10
-171.800003
 20
-178.699997
 11
-171.800003
 21
-196.699997
  0
LINE
  8
0
  6
DASHED
 62
2
 10
-177.199997
 20
-178.699997
 11
-177.199997
 21
-196.699997
  0
LINE
  8
0
  6
DASHED
 62
2
 10
-177.500000
 20
-178.699997
 11
-177.500000
 21
-196.699997
  0
LINE
  8
0
  6
CENTER
 62
2
 10
-174.500000
 20
-170.199997
 11
-174.500000
 21
-205.199997
  0
LINE
  8
0
  6
DASHED
 62
2
 10
-179.000000
 20
-178.699997
 11
-170.000000
 21
-178.699997
  0
LINE
  8
0
  6
DASHED
 62
2
 10
-170.000000
 20
-172.199997
 11
-170.000000
 21
-178.699997
  0
LINE
  8
0
  6
DASHED
 62
2
 10
-179.000000
 20
-172.199997
 11
-179.000000
 21
-178.699997
  0
LINE
  8
0
  6
DASHED
 62
2
 10
-179.000000
 20
-196.699997
 11
-170.000000
 21
-196.699997
  0
LINE
  8
0
  6
DASHED
 62
2
 10
-179.000000
 20
-203.199997
 11
-179.000000
 21
-196.699997
  0
LINE
  8
0
  6
DASHED
 62
2
 10
-170.000000
 20
-203.199997
 11
-170.000000
 21
-196.699997
  0
LINE
  8
0
  6
CONTINUOUS
 62
2
 10
-82.574501
 20
-135.000000
 11
-6.500000
 21
-135.000000
  0
LINE
  8
0
  6
CONTINUOUS
 62
2
 10
-82.574501
 20
-104.400002
 11
-6.500000
 21
-104.400002
  0
LINE
  8
0
  6
CONTINUOUS
 62
7
 10
211.431000
 20
-33.450001
 11
211.431000
 21
-64.449997
  0
LINE
  8
0
  6
CONTINUOUS
 62
7
 10
211.431000
 20
-33.450001
 11
221.431000
 21
-33.450001
  0
LINE
  8
0
  6
CONTINUOUS
 62
7
 10
211.431000
 20
-64.449997
 11
221.431000
 21
-64.449997
  0
LINE
  8
0
  6
CENTER
 62
1
 10
169.431000
 20
-48.950001
 11
221.431000
 21
-48.950001
  0
LINE
  8
0
  6
CONTINUOUS
 62
4
 10
180.431000
 20
-39.134998
 11
180.431000
 21
-58.764999
  0
LINE
  8
0
  6
CONTINUOUS
 62
4
 10
186.431000
 20
-39.134998
 11
186.431000
 21
-58.764999
  0
LINE
  8
0
  6
CONTINUOUS
 62
4
 10
180.431000
 20
-44.042500
 11
186.431000
 21
-44.042500
  0
LINE
  8
0
  6
CONTINUOUS
 62
4
 10
180.431000
 20
-53.857498
 11
186.431000
 21
-53.857498
  0
LINE
  8
0
  6
CONTINUOUS
 62
4
 10
180.431000
 20
-39.134998
 11
186.431000
 21
-39.134998
  0
LINE
  8
0
  6
CONTINUOUS
 62
4
 10
180.431000
 20
-58.764999
 11
186.431000
 21
-58.764999
  0
LINE
  8
0
  6
CONTINUOUS
 62
4
 10
171.431000
 20
-53.950001
 11
171.431000
 21
-43.950001
  0
LINE
  8
0
  6
CONTINUOUS
 62
4
 10
237.250000
 20
159.800003
 11
237.250000
 21
134.800003
  0
LINE
  8
0
  6
CONTINUOUS
 62
4
 10
174.750000
 20
167.300003
 11
224.750000
 21
167.300003
  0
LINE
  8
0
  6
CENTER
 62
1
 10
199.750000
 20
189.300003
 11
199.750000
 21
165.300003
  0
LINE
  8
0
  6
CENTER
 62
1
 10
235.250000
 20
147.300003
 11
259.250000
 21
147.300003
  0
LINE
  8
0
  6
CONTINUOUS
 62
4
 10
174.750000
 20
159.800003
 11
174.750000
 21
134.800003
  0
LINE
  8
0
  6
CONTINUOUS
 62
4
 10
224.750000
 20
159.800003
 11
224.750000
 21
134.800003
  0
LINE
  8
0
  6
CONTINUOUS
 62
4
 10
224.750000
 20
159.800003
 11
174.750000
 21
159.800003
  0
LINE
  8
0
  6
CONTINUOUS
 62
4
 10
224.750000
 20
134.800003
 11
174.750000
 21
134.800003
  0
LINE
  8
0
  6
CONTINUOUS
 62
4
 10
185.750000
 20
187.300003
 11
213.750000
 21
187.300003
  0
LINE
  8
0
  6
CONTINUOUS
 62
4
 10
174.750000
 20
181.000000
 11
185.750000
 21
181.000000
  0
LINE
  8
0
  6
CONTINUOUS
 62
4
 10
174.750000
 20
181.000000
 11
174.750000
 21
167.300003
  0
LINE
  8
0
  6
CONTINUOUS
 62
4
 10
224.750000
 20
181.000000
 11
224.750000
 21
167.300003
  0
LINE
  8
0
  6
CONTINUOUS
 62
4
 10
213.750000
 20
181.000000
 11
224.750000
 21
181.000000
  0
LINE
  8
0
  6
CONTINUOUS
 62
4
 10
185.750000
 20
187.300003
 11
185.750000
 21
181.000000
  0
LINE
  8
0
  6
CONTINUOUS
 62
4
 10
213.750000
 20
187.300003
 11
213.750000
 21
181.000000
  0
LINE
  8
0
  6
CENTER
 62
1
 10
218.750000
 20
183.000000
 11
218.750000
 21
165.300003
  0
LINE
  8
0
  6
CENTER
 62
1
 10
180.750000
 20
183.000000
 11
180.750000
 21
165.300003
  0
LINE
  8
0
  6
DASHED
 62
1
 10
216.000000
 20
181.000000
 11
216.000000
 21
167.300003
  0
LINE
  8
0
  6
DASHED
 62
1
 10
221.500000
 20
181.000000
 11
221.500000
 21
167.300003
  0
LINE
  8
0
  6
CONTINUOUS
 62
4
 10
257.250000
 20
159.800003
 11
257.250000
 21
134.800003
  0
LINE
  8
0
  6
CONTINUOUS
 62
4
 10
250.949997
 20
159.800003
 11
250.949997
 21
134.800003
  0
LINE
  8
0
  6
CONTINUOUS
 62
4
 10
237.250000
 20
134.800003
 11
257.250000
 21
134.800003
  0
LINE
  8
0
  6
CONTINUOUS
 62
4
 10
237.250000
 20
159.800003
 11
257.250000
 21
159.800003
  0
LINE
  8
0
  6
CONTINUOUS
 62
4
 10
196.029007
 20
-55.450001
 11
211.431000
 21
-55.450001
  0
LINE
  8
0
  6
CONTINUOUS
 62
4
 10
196.029007
 20
-42.450001
 11
211.431000
 21
-42.450001
  0
LINE
  8
0
  6
CONTINUOUS
 62
7
 10
211.431000
 20
66.550003
 11
211.431000
 21
35.549999
  0
LINE
  8
0
  6
CONTINUOUS
 62
7
 10
211.431000
 20
66.550003
 11
221.431000
 21
66.550003
  0
LINE
  8
0
  6
CONTINUOUS
 62
7
 10
211.431000
 20
35.549999
 11
221.431000
 21
35.549999
  0
LINE
  8
0
  6
CENTER
 62
1
 10
169.431000
 20
51.049999
 11
221.431000
 21
51.049999
  0
LINE
  8
0
  6
CONTINUOUS
 62
4
 10
171.431000
 20
44.549999
 11
178.431000
 21
44.549999
  0
LINE
  8
0
  6
CONTINUOUS
 62
4
 10
171.431000
 20
44.549999
 11
171.431000
 21
57.549999
  0
LINE
  8
0
  6
CONTINUOUS
 62
4
 10
171.431000
 20
57.549999
 11
178.431000
 21
57.549999
  0
LINE
  8
0
  6
DASHED
 62
1
 10
184.431000
 20
47.049999
 11
184.431000
 21
55.049999
  0
LINE
  8
0
  6
DASHED
 62
1
 10
171.431000
 20
55.049999
 11
184.431000
 21
55.049999
  0
LINE
  8
0
  6
DASHED
 62
1
 10
171.431000
 20
47.049999
 11
184.431000
 21
47.049999
  0
LINE
  8
0
  6
DASHED
 62
1
 10
171.431000
 20
47.750000
 11
188.431000
 21
47.750000
  0
LINE
  8
0
  6
DASHED
 62
1
 10
171.431000
 20
54.349998
 11
188.431000
 21
54.349998
  0
LINE
  8
0
  6
DASHED
 62
1
 10
188.431000
 20
47.750000
 11
188.431000
 21
54.349998
  0
LINE
  8
0
  6
CONTINUOUS
 62
4
 10
178.431000
 20
44.549999
 11
178.431000
 21
46.049999
  0
LINE
  8
0
  6
CONTINUOUS
 62
4
 10
183.931000
 20
44.549999
 11
183.931000
 21
46.049999
  0
LINE
  8
0
  6
CONTINUOUS
 62
4
 10
183.931000
 20
44.549999
 11
211.431000
 21
44.549999
  0
LINE
  8
0
  6
CONTINUOUS
 62
4
 10
183.931000
 20
57.549999
 11
211.431000
 21
57.549999
  0
LINE
  8
0
  6
CONTINUOUS
 62
4
 10
178.431000
 20
56.049999
 11
178.431000
 21
57.549999
  0
LINE
  8
0
  6
CONTINUOUS
 62
4
 10
183.931000
 20
56.049999
 11
183.931000
 21
57.549999
  0
LINE
  8
0
  6
CONTINUOUS
 62
4
 10
178.431000
 20
46.049999
 11
183.931000
 21
46.049999
  0
LINE
  8
0
  6
CONTINUOUS
 62
4
 10
178.431000
 20
56.049999
 11
183.931000
 21
56.049999
  0
LINE
  8
0
  6
CONTINUOUS
 62
4
 10
171.431000
 20
-43.950001
 11
180.431000
 21
-43.950001
  0
LINE
  8
0
  6
CONTINUOUS
 62
4
 10
171.431000
 20
-53.950001
 11
180.431000
 21
-53.950001
  0
LINE
  8
0
  6
CONTINUOUS
 62
1
 10
171.431000
 20
-53.049999
 11
180.431000
 21
-53.049999
  0
LINE
  8
0
  6
CONTINUOUS
 62
1
 10
171.431000
 20
-44.849998
 11
180.431000
 21
-44.849998
  0
LINE
  8
0
  6
CONTINUOUS
 62
4
 10
190.931000
 20
-53.950001
 11
190.931000
 21
-43.950001
  0
LINE
  8
0
  6
CONTINUOUS
 62
4
 10
193.431000
 20
-53.950001
 11
193.431000
 21
-43.950001
  0
LINE
  8
0
  6
CONTINUOUS
 62
4
 10
198.931000
 20
-53.103298
 11
198.931000
 21
-44.796700
  0
LINE
  8
0
  6
CENTER
 62
1
 10
188.681000
 20
72.550003
 11
173.681000
 21
72.550003
  0
LINE
  8
0
  6
CENTER
 62
1
 10
181.181000
 20
80.050003
 11
181.181000
 21
65.050003
  0
LINE
  8
0
  6
CONTINUOUS
 62
4
 10
177.026993
 20
67.550003
 11
185.334000
 21
67.550003
  0
LINE
  8
0
  6
CONTINUOUS
 62
4
 10
177.026993
 20
77.550003
 11
185.334000
 21
77.550003
  0
LINE
  8
0
  6
CONTINUOUS
 62
4
 10
193.431000
 20
-53.103298
 11
198.931000
 21
-53.103298
  0
LINE
  8
0
  6
CONTINUOUS
 62
4
 10
193.431000
 20
-44.796700
 11
198.931000
 21
-44.796700
  0
LINE
  8
0
  6
CONTINUOUS
 62
1
 10
193.431000
 20
-53.103600
 11
198.931000
 21
-44.797001
  0
LINE
  8
0
  6
CONTINUOUS
 62
1
 10
193.431000
 20
-44.796501
 11
198.931000
 21
-53.103199
  0
LINE
  8
0
  6
CONTINUOUS
 62
4
 10
193.431000
 20
-43.949902
 11
196.029007
 21
-42.449902
  0
LINE
  8
0
  6
CONTINUOUS
 62
4
 10
193.431000
 20
-53.950001
 11
196.029007
 21
-55.450001
  0
LINE
  8
0
  6
CONTINUOUS
 62
4
 10
196.029007
 20
-42.450001
 11
196.029007
 21
-44.796700
  0
LINE
  8
0
  6
CONTINUOUS
 62
4
 10
196.029007
 20
-53.103298
 11
196.029007
 21
-55.450001
  0
LINE
  8
0
  6
CENTER
 62
1
 10
203.681000
 20
-27.450001
 11
188.681000
 21
-27.450001
  0
LINE
  8
0
  6
CENTER
 62
1
 10
196.181000
 20
-19.950001
 11
196.181000
 21
-34.950001
  0
LINE
  8
0
  6
CONTINUOUS
 62
4
 10
191.181000
 20
-23.296700
 11
191.181000
 21
-31.603300
  0
LINE
  8
0
  6
CONTINUOUS
 62
4
 10
201.181000
 20
-23.296700
 11
201.181000
 21
-31.603300
  0
LINE
  8
0
  6
CONTINUOUS
 62
4
 10
186.431000
 20
-53.950001
 11
193.431000
 21
-53.950001
  0
LINE
  8
0
  6
CONTINUOUS
 62
1
 10
186.431000
 20
-53.049999
 11
190.931000
 21
-53.049999
  0
LINE
  8
0
  6
CONTINUOUS
 62
1
 10
186.431000
 20
-44.849998
 11
190.931000
 21
-44.849998
  0
LINE
  8
0
  6
CONTINUOUS
 62
4
 10
186.431000
 20
-43.950001
 11
193.431000
 21
-43.950001
  0
LINE
  8
0
  6
CONTINUOUS
 62
7
 10
-213.500000
 20
22.700001
 11
-213.500000
 21
53.700001
  0
LINE
  8
0
  6
CONTINUOUS
 62
7
 10
-213.500000
 20
22.700001
 11
-106.500000
 21
22.700001
  0
LINE
  8
0
  6
CONTINUOUS
 62
7
 10
-213.500000
 20
53.700001
 11
-106.500000
 21
53.700001
  0
LINE
  8
0
  6
CONTINUOUS
 62
7
 10
-213.500000
 20
83.699997
 11
-106.500000
 21
83.699997
  0
LINE
  8
0
  6
CONTINUOUS
 62
7
 10
-213.500000
 20
128.699997
 11
-106.500000
 21
128.699997
  0
LINE
  8
0
  6
CONTINUOUS
 62
7
 10
-213.500000
 20
83.699997
 11
-213.500000
 21
128.699997
  0
LINE
  8
0
  6
CONTINUOUS
 62
2
 10
-213.500000
 20
121.500000
 11
-205.425995
 21
121.500000
  0
LINE
  8
0
  6
CONTINUOUS
 62
2
 10
-197.574005
 20
121.500000
 11
-178.425995
 21
121.500000
  0
LINE
  8
0
  6
CONTINUOUS
 62
2
 10
-213.500000
 20
90.900002
 11
-205.425995
 21
90.900002
  0
LINE
  8
0
  6
CONTINUOUS
 62
2
 10
-213.500000
 20
93.500000
 11
-106.500000
 21
93.500000
  0
LINE
  8
0
  6
CONTINUOUS
 62
2
 10
-197.574005
 20
90.900002
 11
-178.425995
 21
90.900002
  0
LINE
  8
0
  6
CONTINUOUS
 62
2
 10
-170.574005
 20
90.900002
 11
-106.500000
 21
90.900002
  0
LINE
  8
0
  6
CONTINUOUS
 62
2
 10
-170.574005
 20
121.500000
 11
-106.500000
 21
121.500000
  0
LINE
  8
0
  6
CENTER
 62
2
 10
-255.500000
 20
38.200001
 11
-104.500000
 21
38.200001
  0
LINE
  8
0
  6
CENTER
 62
2
 10
-255.500000
 20
106.199997
 11
-104.500000
 21
106.199997
  0
LINE
  8
0
  6
CONTINUOUS
 62
7
 10
-106.500000
 20
22.700001
 11
-106.500000
 21
53.700001
  0
LINE
  8
0
  6
CONTINUOUS
 62
7
 10
-106.500000
 20
158.699997
 11
-106.500000
 21
189.699997
  0
LINE
  8
0
  6
CONTINUOUS
 62
7
 10
-253.500000
 20
31.700001
 11
-213.500000
 21
31.700001
  0
LINE
  8
0
  6
CONTINUOUS
 62
7
 10
-253.500000
 20
31.700001
 11
-253.500000
 21
44.700001
  0
LINE
  8
0
  6
CONTINUOUS
 62
7
 10
-253.500000
 20
44.700001
 11
-213.500000
 21
44.700001
  0
LINE
  8
0
  6
CONTINUOUS
 62
7
 10
-253.500000
 20
112.699997
 11
-213.500000
 21
112.699997
  0
LINE
  8
0
  6
CONTINUOUS
 62
7
 10
-253.500000
 20
112.699997
 11
-253.500000
 21
99.699997
  0
LINE
  8
0
  6
CONTINUOUS
 62
7
 10
-253.500000
 20
99.699997
 11
-213.500000
 21
99.699997
  0
LINE
  8
0
  6
CONTINUOUS
 62
7
 10
-106.500000
 20
83.699997
 11
-106.500000
 21
128.699997
  0
LINE
  8
0
  6
CONTINUOUS
 62
2
 10
-56.500000
 20
121.500000
 11
-55.500000
 21
121.500000
  0
LINE
  8
0
  6
CONTINUOUS
 62
2
 10
-60.299999
 20
122.349998
 11
-56.499901
 21
122.349998
  0
LINE
  8
0
  6
CONTINUOUS
 62
2
 10
-56.500000
 20
122.349998
 11
-56.500000
 21
121.500000
  0
LINE
  8
0
  6
CONTINUOUS
 62
2
 10
-61.799999
 20
120.849998
 11
-61.799999
 21
119.550003
  0
LINE
  8
0
  6
CONTINUOUS
 62
2
 10
-60.299999
 20
118.050003
 11
-56.499901
 21
118.050003
  0
LINE
  8
0
  6
CONTINUOUS
 62
2
 10
-56.500000
 20
118.900002
 11
-56.500000
 21
118.050003
  0
LINE
  8
0
  6
CONTINUOUS
 62
2
 10
-56.499901
 20
118.900002
 11
-55.500000
 21
118.900002
  0
LINE
  8
0
  6
CONTINUOUS
 62
7
 10
-55.500000
 20
83.699997
 11
-55.500000
 21
128.699997
  0
LINE
  8
0
  6
CONTINUOUS
 62
7
 10
-86.500000
 20
83.699997
 11
-55.500000
 21
83.699997
  0
LINE
  8
0
  6
CONTINUOUS
 62
7
 10
-86.500000
 20
83.699997
 11
-86.500000
 21
128.699997
  0
LINE
  8
0
  6
CONTINUOUS
 62
7
 10
-86.500000
 20
128.699997
 11
-55.500000
 21
128.699997
  0
LINE
  8
0
  6
CENTER
 62
2
 10
-88.500000
 20
106.199997
 11
-53.500000
 21
106.199997
  0
LINE
  8
0
  6
CENTER
 62
2
 10
-70.999901
 20
81.699997
 11
-70.999901
 21
130.699997
  0
LINE
  8
0
  6
CONTINUOUS
 62
2
 10
-213.500000
 20
118.900002
 11
-106.500000
 21
118.900002
  0
LINE
  8
0
  6
CENTER
 62
2
 10
-64.223701
 20
92.199997
 11
-53.500000
 21
92.199997
  0
LINE
  8
0
  6
CENTER
 62
2
 10
-64.223701
 20
120.199997
 11
-53.500000
 21
120.199997
  0
LINE
  8
0
  6
CENTER
 62
2
 10
-77.776199
 20
92.199997
 11
-88.500000
 21
92.199997
  0
LINE
  8
0
  6
CENTER
 62
2
 10
-77.776199
 20
120.199997
 11
-88.500000
 21
120.199997
  0
LINE
  8
0
  6
DASHED
 62
2
 10
-179.000000
 20
53.700001
 11
-179.000000
 21
47.200001
  0
LINE
  8
0
  6
DASHED
 62
2
 10
-177.500000
 20
47.200001
 11
-177.500000
 21
29.200001
  0
LINE
  8
0
  6
DASHED
 62
2
 10
-177.199997
 20
47.200001
 11
-177.199997
 21
29.200001
  0
LINE
  8
0
  6
CENTER
 62
2
 10
-174.500000
 20
55.700001
 11
-174.500000
 21
20.700001
  0
LINE
  8
0
  6
DASHED
 62
2
 10
-179.000000
 20
47.200001
 11
-170.000000
 21
47.200001
  0
LINE
  8
0
  6
DASHED
 62
2
 10
-170.000000
 20
53.700001
 11
-170.000000
 21
47.200001
  0
LINE
  8
0
  6
DASHED
 62
2
 10
-179.000000
 20
22.700001
 11
-179.000000
 21
29.200001
  0
LINE
  8
0
  6
DASHED
 62
2
 10
-179.000000
 20
29.200001
 11
-170.000000
 21
29.200001
  0
LINE
  8
0
  6
DASHED
 62
2
 10
-170.000000
 20
22.700001
 11
-170.000000
 21
29.200001
  0
LINE
  8
0
  6
DASHED
 62
2
 10
-171.800003
 20
47.200001
 11
-171.800003
 21
29.200001
  0
LINE
  8
0
  6
DASHED
 62
2
 10
-171.500000
 20
47.200001
 11
-171.500000
 21
29.200001
  0
LINE
  8
0
  6
DASHED
 62
2
 10
-206.000000
 20
22.700001
 11
-206.000000
 21
29.200001
  0
LINE
  8
0
  6
DASHED
 62
2
 10
-206.000000
 20
29.200001
 11
-197.000000
 21
29.200001
  0
LINE
  8
0
  6
DASHED
 62
2
 10
-197.000000
 20
22.700001
 11
-197.000000
 21
29.200001
  0
LINE
  8
0
  6
DASHED
 62
2
 10
-198.500000
 20
47.200001
 11
-198.500000
 21
29.200001
  0
LINE
  8
0
  6
DASHED
 62
2
 10
-198.800003
 20
47.200001
 11
-198.800003
 21
29.200001
  0
LINE
  8
0
  6
DASHED
 62
2
 10
-204.199997
 20
47.200001
 11
-204.199997
 21
29.200001
  0
LINE
  8
0
  6
DASHED
 62
2
 10
-204.500000
 20
47.200001
 11
-204.500000
 21
29.200001
  0
LINE
  8
0
  6
CENTER
 62
2
 10
-201.500000
 20
55.700001
 11
-201.500000
 21
20.700001
  0
LINE
  8
0
  6
DASHED
 62
2
 10
-197.000000
 20
53.700001
 11
-197.000000
 21
47.200001
  0
LINE
  8
0
  6
DASHED
 62
2
 10
-206.000000
 20
47.200001
 11
-197.000000
 21
47.200001
  0
LINE
  8
0
  6
DASHED
 62
2
 10
-206.000000
 20
53.700001
 11
-206.000000
 21
47.200001
  0
LINE
  8
0
  6
CONTINUOUS
 62
2
 10
-274.500000
 20
121.500000
 11
-273.500000
 21
121.500000
  0
LINE
  8
0
  6
CONTINUOUS
 62
2
 10
-278.299988
 20
122.349998
 11
-274.500000
 21
122.349998
  0
LINE
  8
0
  6
CONTINUOUS
 62
2
 10
-274.500000
 20
122.349998
 11
-274.500000
 21
121.500000
  0
LINE
  8
0
  6
CONTINUOUS
 62
2
 10
-279.799988
 20
120.849998
 11
-279.799988
 21
119.550003
  0
LINE
  8
0
  6
CONTINUOUS
 62
2
 10
-278.299988
 20
118.050003
 11
-274.500000
 21
118.050003
  0
LINE
  8
0
  6
CONTINUOUS
 62
2
 10
-274.500000
 20
118.900002
 11
-274.500000
 21
118.050003
  0
LINE
  8
0
  6
CONTINUOUS
 62
2
 10
-274.500000
 20
118.900002
 11
-273.500000
 21
118.900002
  0
LINE
  8
0
  6
CONTINUOUS
 62
7
 10
-273.500000
 20
83.699997
 11
-273.500000
 21
128.699997
  0
LINE
  8
0
  6
CONTINUOUS
 62
7
 10
-304.500000
 20
83.699997
 11
-273.500000
 21
83.699997
  0
LINE
  8
0
  6
CONTINUOUS
 62
7
 10
-304.500000
 20
83.699997
 11
-304.500000
 21
128.699997
  0
LINE
  8
0
  6
CONTINUOUS
 62
7
 10
-304.500000
 20
128.699997
 11
-273.500000
 21
128.699997
  0
LINE
  8
0
  6
CENTER
 62
2
 10
-306.500000
 20
106.199997
 11
-271.500000
 21
106.199997
  0
LINE
  8
0
  6
CENTER
 62
2
 10
-289.000000
 20
81.699997
 11
-289.000000
 21
130.699997
  0
LINE
  8
0
  6
CENTER
 62
2
 10
-282.223999
 20
92.199997
 11
-271.500000
 21
92.199997
  0
LINE
  8
0
  6
CENTER
 62
2
 10
-282.223999
 20
120.199997
 11
-271.500000
 21
120.199997
  0
LINE
  8
0
  6
CENTER
 62
2
 10
-295.776001
 20
92.199997
 11
-306.500000
 21
92.199997
  0
LINE
  8
0
  6
CENTER
 62
2
 10
-295.776001
 20
120.199997
 11
-306.500000
 21
120.199997
  0
LINE
  8
0
  6
CONTINUOUS
 62
7
 10
-213.500000
 20
189.699997
 11
-213.500000
 21
158.699997
  0
LINE
  8
0
  6
CONTINUOUS
 62
7
 10
-213.500000
 20
189.699997
 11
-106.500000
 21
189.699997
  0
LINE
  8
0
  6
CONTINUOUS
 62
7
 10
-213.500000
 20
158.699997
 11
-106.500000
 21
158.699997
  0
LINE
  8
0
  6
CENTER
 62
2
 10
-255.500000
 20
174.199997
 11
-104.500000
 21
174.199997
  0
LINE
  8
0
  6
CONTINUOUS
 62
7
 10
-253.500000
 20
167.699997
 11
-213.500000
 21
167.699997
  0
LINE
  8
0
  6
CONTINUOUS
 62
7
 10
-253.500000
 20
167.699997
 11
-253.500000
 21
180.699997
  0
LINE
  8
0
  6
CONTINUOUS
 62
7
 10
-253.500000
 20
180.699997
 11
-213.500000
 21
180.699997
  0
LINE
  8
0
  6
CENTER
 62
2
 10
-293.500000
 20
123.699997
 11
-284.500000
 21
123.699997
  0
LINE
  8
0
  6
CENTER
 62
2
 10
-293.500000
 20
88.699997
 11
-284.500000
 21
88.699997
  0
LINE
  8
0
  6
CENTER
 62
2
 10
-121.500000
 20
175.699997
 11
-121.500000
 21
166.699997
  0
LINE
  8
0
  6
CENTER
 62
2
 10
-126.000000
 20
171.199997
 11
-117.000000
 21
171.199997
  0
LINE
  8
0
  6
CENTER
 62
2
 10
-165.500000
 20
181.699997
 11
-165.500000
 21
172.699997
  0
LINE
  8
0
  6
CENTER
 62
2
 10
-170.000000
 20
177.199997
 11
-161.000000
 21
177.199997
  0
LINE
  8
0
  6
CENTER
 62
2
 10
-201.500000
 20
130.199997
 11
-201.500000
 21
117.199997
  0
LINE
  8
0
  6
CENTER
 62
2
 10
-208.000000
 20
123.699997
 11
-195.000000
 21
123.699997
  0
LINE
  8
0
  6
CENTER
 62
2
 10
-174.500000
 20
130.199997
 11
-174.500000
 21
117.199997
  0
LINE
  8
0
  6
CENTER
 62
2
 10
-181.000000
 20
123.699997
 11
-168.000000
 21
123.699997
  0
LINE
  8
0
  6
CENTER
 62
2
 10
-174.500000
 20
95.199997
 11
-174.500000
 21
82.199997
  0
LINE
  8
0
  6
CENTER
 62
2
 10
-181.000000
 20
88.699997
 11
-168.000000
 21
88.699997
  0
LINE
  8
0
  6
CENTER
 62
2
 10
-201.500000
 20
95.199997
 11
-201.500000
 21
82.199997
  0
LINE
  8
0
  6
CENTER
 62
2
 10
-208.000000
 20
88.699997
 11
-195.000000
 21
88.699997
  0
LINE
  8
0
  6
CENTER
 62
2
 10
-193.500000
 20
53.200001
 11
-193.500000
 21
44.200001
  0
LINE
  8
0
  6
CENTER
 62
2
 10
-198.000000
 20
48.700001
 11
-189.000000
 21
48.700001
  0
LINE
  8
0
  6
CENTER
 62
2
 10
-166.500000
 20
53.200001
 11
-166.500000
 21
44.200001
  0
LINE
  8
0
  6
CENTER
 62
2
 10
-171.000000
 20
48.700001
 11
-162.000000
 21
48.700001
  0
LINE
  8
0
  6
CENTER
 62
2
 10
-166.500000
 20
32.200001
 11
-166.500000
 21
23.200001
  0
LINE
  8
0
  6
CENTER
 62
2
 10
-171.000000
 20
27.700001
 11
-162.000000
 21
27.700001
  0
LINE
  8
0
  6
CENTER
 62
2
 10
-193.500000
 20
32.200001
 11
-193.500000
 21
23.200001
  0
LINE
  8
0
  6
CENTER
 62
2
 10
-198.000000
 20
27.700001
 11
-189.000000
 21
27.700001
  0
LINE
  8
0
  6
CENTER
 62
2
 10
-293.500000
 20
-102.199997
 11
-284.500000
 21
-102.199997
  0
LINE
  8
0
  6
CENTER
 62
2
 10
-293.500000
 20
-137.199997
 11
-284.500000
 21
-137.199997
  0
LINE
  8
0
  6
CENTER
 62
2
 10
-165.500000
 20
-44.200001
 11
-165.500000
 21
-53.200001
  0
LINE
  8
0
  6
CENTER
 62
2
 10
-170.000000
 20
-48.700001
 11
-161.000000
 21
-48.700001
  0
LINE
  8
0
  6
CENTER
 62
2
 10
-21.500000
 20
-50.200001
 11
-21.500000
 21
-59.200001
  0
LINE
  8
0
  6
CENTER
 62
2
 10
-26.000000
 20
-54.700001
 11
-17.000000
 21
-54.700001
  0
LINE
  8
0
  6
CENTER
 62
2
 10
-201.500000
 20
-95.699997
 11
-201.500000
 21
-108.699997
  0
LINE
  8
0
  6
CENTER
 62
2
 10
-208.000000
 20
-102.199997
 11
-195.000000
 21
-102.199997
  0
LINE
  8
0
  6
CENTER
 62
2
 10
-174.500000
 20
-95.699997
 11
-174.500000
 21
-108.699997
  0
LINE
  8
0
  6
CENTER
 62
2
 10
-181.000000
 20
-102.199997
 11
-168.000000
 21
-102.199997
  0
LINE
  8
0
  6
CENTER
 62
2
 10
-174.500000
 20
-130.699997
 11
-174.500000
 21
-143.699997
  0
LINE
  8
0
  6
CENTER
 62
2
 10
-181.000000
 20
-137.199997
 11
-168.000000
 21
-137.199997
  0
LINE
  8
0
  6
CENTER
 62
2
 10
-201.500000
 20
-130.699997
 11
-201.500000
 21
-143.699997
  0
LINE
  8
0
  6
CENTER
 62
2
 10
-208.000000
 20
-137.199997
 11
-195.000000
 21
-137.199997
  0
LINE
  8
0
  6
CENTER
 62
2
 10
-86.500000
 20
-95.699997
 11
-86.500000
 21
-108.699997
  0
LINE
  8
0
  6
CENTER
 62
2
 10
-93.000000
 20
-102.199997
 11
-80.000000
 21
-102.199997
  0
LINE
  8
0
  6
CENTER
 62
2
 10
-86.500000
 20
-130.699997
 11
-86.500000
 21
-143.699997
  0
LINE
  8
0
  6
CENTER
 62
2
 10
-93.000000
 20
-137.199997
 11
-80.000000
 21
-137.199997
  0
LINE
  8
0
  6
CENTER
 62
2
 10
-193.500000
 20
-172.699997
 11
-193.500000
 21
-181.699997
  0
LINE
  8
0
  6
CENTER
 62
2
 10
-198.000000
 20
-177.199997
 11
-189.000000
 21
-177.199997
  0
LINE
  8
0
  6
CENTER
 62
2
 10
-193.500000
 20
-193.699997
 11
-193.500000
 21
-202.699997
  0
LINE
  8
0
  6
CENTER
 62
2
 10
-198.000000
 20
-198.199997
 11
-189.000000
 21
-198.199997
  0
LINE
  8
0
  6
CENTER
 62
2
 10
-166.500000
 20
-172.699997
 11
-166.500000
 21
-181.699997
  0
LINE
  8
0
  6
CENTER
 62
2
 10
-171.000000
 20
-177.199997
 11
-162.000000
 21
-177.199997
  0
LINE
  8
0
  6
CENTER
 62
2
 10
-166.500000
 20
-193.699997
 11
-166.500000
 21
-202.699997
  0
LINE
  8
0
  6
CENTER
 62
2
 10
-171.000000
 20
-198.199997
 11
-162.000000
 21
-198.199997
  0
LINE
  8
0
  6
CENTER
 62
2
 10
-78.500000
 20
-172.699997
 11
-78.500000
 21
-181.699997
  0
LINE
  8
0
  6
CENTER
 62
2
 10
-83.000000
 20
-177.199997
 11
-74.000000
 21
-177.199997
  0
LINE
  8
0
  6
CENTER
 62
2
 10
-78.500000
 20
-193.699997
 11
-78.500000
 21
-202.699997
  0
LINE
  8
0
  6
CENTER
 62
2
 10
-83.000000
 20
-198.199997
 11
-74.000000
 21
-198.199997
  0
LINE
  8
0
  6
CENTER
 62
1
 10
218.750000
 20
159.050003
 11
218.750000
 21
149.550003
  0
LINE
  8
0
  6
CENTER
 62
1
 10
214.000000
 20
154.300003
 11
223.500000
 21
154.300003
  0
LINE
  8
0
  6
CENTER
 62
1
 10
218.750000
 20
145.050003
 11
218.750000
 21
135.550003
  0
LINE
  8
0
  6
CENTER
 62
1
 10
214.000000
 20
140.300003
 11
223.500000
 21
140.300003
  0
LINE
  8
0
  6
CENTER
 62
1
 10
199.750000
 20
155.800003
 11
199.750000
 21
138.800003
  0
LINE
  8
0
  6
CENTER
 62
1
 10
191.250000
 20
147.300003
 11
208.250000
 21
147.300003
  0
LINE
  8
0
  6
CENTER
 62
1
 10
180.750000
 20
159.050003
 11
180.750000
 21
149.550003
  0
LINE
  8
0
  6
CENTER
 62
1
 10
176.000000
 20
154.300003
 11
185.500000
 21
154.300003
  0
LINE
  8
0
  6
CENTER
 62
1
 10
180.750000
 20
145.050003
 11
180.750000
 21
135.550003
  0
LINE
  8
0
  6
CENTER
 62
1
 10
176.000000
 20
140.300003
 11
185.500000
 21
140.300003
  0
LINE
  8
0
  6
CONTINUOUS
 62
2
 10
286.431000
 20
-157.649994
 11
296.431000
 21
-157.649994
  0
LINE
  8
0
  6
CONTINUOUS
 62
2
 10
286.431000
 20
-188.250000
 11
296.431000
 21
-188.250000
  0
LINE
  8
0
  6
CENTER
 62
1
 10
239.931000
 20
-144.949997
 11
258.931000
 21
-144.949997
  0
LINE
  8
0
  6
CENTER
 62
1
 10
209.431000
 20
-172.949997
 11
296.431000
 21
-172.949997
  0
LINE
  8
0
  6
CONTINUOUS
 62
4
 10
211.431000
 20
-166.449997
 11
231.431000
 21
-166.449997
  0
LINE
  8
0
  6
CONTINUOUS
 62
4
 10
211.431000
 20
-166.449997
 11
211.431000
 21
-179.449997
  0
LINE
  8
0
  6
CONTINUOUS
 62
4
 10
211.431000
 20
-179.449997
 11
231.431000
 21
-179.449997
  0
LINE
  8
0
  6
CONTINUOUS
 62
7
 10
286.431000
 20
-150.449997
 11
296.431000
 21
-150.449997
  0
LINE
  8
0
  6
CONTINUOUS
 62
2
 10
286.431000
 20
-185.649994
 11
296.431000
 21
-185.649994
  0
LINE
  8
0
  6
CONTINUOUS
 62
7
 10
286.431000
 20
-195.449997
 11
296.431000
 21
-195.449997
  0
LINE
  8
0
  6
CONTINUOUS
 62
2
 10
286.431000
 20
-160.250000
 11
296.431000
 21
-160.250000
  0
LINE
  8
0
  6
CONTINUOUS
 62
4
 10
267.431000
 20
-166.449997
 11
286.431000
 21
-166.449997
  0
LINE
  8
0
  6
CONTINUOUS
 62
4
 10
267.431000
 20
-179.449997
 11
286.431000
 21
-179.449997
  0
LINE
  8
0
  6
DASHED
 62
1
 10
223.431000
 20
-169.949997
 11
223.431000
 21
-175.949997
  0
LINE
  8
0
  6
DASHED
 62
1
 10
226.431000
 20
-170.490997
 11
226.431000
 21
-175.408005
  0
LINE
  8
0
  6
DASHED
 62
1
 10
211.431000
 20
-175.949997
 11
223.431000
 21
-175.949997
  0
LINE
  8
0
  6
DASHED
 62
1
 10
211.431000
 20
-169.949997
 11
223.431000
 21
-169.949997
  0
LINE
  8
0
  6
CONTINUOUS
 62
4
 10
231.431000
 20
-159.949997
 11
231.431000
 21
-185.949997
  0
LINE
  8
0
  6
CONTINUOUS
 62
4
 10
267.431000
 20
-159.949997
 11
267.431000
 21
-185.449997
  0
LINE
  8
0
  6
DASHED
 62
1
 10
241.931000
 20
-159.949997
 11
241.931000
 21
-161.449997
  0
LINE
  8
0
  6
DASHED
 62
1
 10
256.931000
 20
-161.449997
 11
256.931000
 21
-159.949997
  0
LINE
  8
0
  6
CONTINUOUS
 62
4
 10
231.431000
 20
-185.949997
 11
266.931000
 21
-185.949997
  0
LINE
  8
0
  6
CONTINUOUS
 62
4
 10
231.431000
 20
-159.949997
 11
267.431000
 21
-159.949997
  0
LINE
  8
0
  6
DASHED
 62
1
 10
241.931000
 20
-161.449997
 11
256.931000
 21
-161.449997
  0
LINE
  8
0
  6
CONTINUOUS
 62
4
 10
243.431000
 20
-143.449997
 11
255.431000
 21
-143.449997
  0
LINE
  8
0
  6
CONTINUOUS
 62
4
 10
243.440002
 20
-146.449997
 11
255.431000
 21
-146.449997
  0
LINE
  8
0
  6
CENTER
 62
1
 10
191.431000
 20
-172.949997
 11
161.431000
 21
-172.949997
  0
LINE
  8
0
  6
CENTER
 62
1
 10
177.216003
 20
-157.970993
 11
176.431000
 21
-172.949997
  0
LINE
  8
0
  6
DASHED
 62
1
 10
211.431000
 20
-170.490997
 11
226.431000
 21
-170.490997
  0
LINE
  8
0
  6
DASHED
 62
1
 10
211.431000
 20
-175.408005
 11
226.431000
 21
-175.408005
  0
LINE
  8
0
  6
CENTER
 62
1
 10
176.431000
 20
-157.949997
 11
176.431000
 21
-187.949997
  0
LINE
  8
0
  6
CENTER
 62
1
 10
175.645996
 20
-157.970993
 11
176.431000
 21
-172.949997
  0
LINE
  8
0
  6
CONTINUOUS
 62
4
 10
287.557007
 20
-123.969002
 11
287.557007
 21
-126.969002
  0
LINE
  8
0
  6
CONTINUOUS
 62
4
 10
287.557007
 20
-123.969002
 11
290.557007
 21
-123.969002
  0
LINE
  8
0
  6
CONTINUOUS
 62
4
 10
287.557007
 20
-126.969002
 11
290.557007
 21
-126.969002
  0
LINE
  8
0
  6
CONTINUOUS
 62
4
 10
290.557007
 20
-123.969002
 11
290.557007
 21
-126.969002
  0
LINE
  8
0
  6
CENTER
 62
1
 10
289.057007
 20
-121.969002
 11
289.057007
 21
-128.968994
  0
LINE
  8
0
  6
CONTINUOUS
 62
4
 10
302.057007
 20
-123.969002
 11
302.057007
 21
-126.969002
  0
LINE
  8
0
  6
CONTINUOUS
 62
4
 10
302.057007
 20
-123.969002
 11
317.057007
 21
-123.969002
  0
LINE
  8
0
  6
CONTINUOUS
 62
4
 10
302.057007
 20
-126.969002
 11
317.057007
 21
-126.969002
  0
LINE
  8
0
  6
CONTINUOUS
 62
4
 10
317.057007
 20
-123.969002
 11
317.057007
 21
-126.969002
  0
LINE
  8
0
  6
CONTINUOUS
 62
4
 10
303.557007
 20
-116.969002
 11
315.557007
 21
-116.969002
  0
LINE
  8
0
  6
CONTINUOUS
 62
4
 10
303.557007
 20
-113.969002
 11
315.557007
 21
-113.969002
  0
LINE
  8
0
  6
CENTER
 62
1
 10
319.057007
 20
-115.469002
 11
300.057007
 21
-115.469002
  0
LINE
  8
0
  6
CONTINUOUS
 62
7
 10
286.431000
 20
-150.449997
 11
286.431000
 21
-195.449997
  0
LINE
  8
0
  6
DASHED
 62
1
 10
174.931000
 20
-160.037003
 11
174.931000
 21
-161.179993
  0
LINE
  8
0
  6
DASHED
 62
1
 10
177.931000
 20
-160.037003
 11
177.931000
 21
-161.449997
  0
LINE
  8
0
  6
DASHED
 62
1
 10
174.931000
 20
-161.449997
 11
177.931000
 21
-161.449997
  0
CIRCLE
  8
0
  6
CONTINUOUS
 62
7
 10
-165.500000
 20
-48.700001
 40
2.100000
  0
CIRCLE
  8
0
  6
CONTINUOUS
 62
7
 10
-21.500000
 20
-54.700001
 40
2.100000
  0
CIRCLE
  8
0
  6
CONTINUOUS
 62
7
 10
-201.500000
 20
-102.199997
 40
4.500000
  0
CIRCLE
  8
0
  6
CONTINUOUS
 62
7
 10
-201.500000
 20
-102.199997
 40
2.700000
  0
CIRCLE
  8
0
  6
CONTINUOUS
 62
7
 10
-201.500000
 20
-137.199997
 40
2.700000
  0
CIRCLE
  8
0
  6
CONTINUOUS
 62
7
 10
-201.500000
 20
-137.199997
 40
4.500000
  0
CIRCLE
  8
0
  6
CONTINUOUS
 62
7
 10
-174.500000
 20
-102.199997
 40
2.700000
  0
CIRCLE
  8
0
  6
CONTINUOUS
 62
7
 10
-174.500000
 20
-137.199997
 40
2.700000
  0
CIRCLE
  8
0
  6
CONTINUOUS
 62
7
 10
-86.500000
 20
-102.199997
 40
4.500000
  0
CIRCLE
  8
0
  6
CONTINUOUS
 62
7
 10
-86.500000
 20
-137.199997
 40
4.500000
  0
CIRCLE
  8
0
  6
CONTINUOUS
 62
2
 10
-165.500000
 20
-48.700001
 40
2.500000
  0
CIRCLE
  8
0
  6
CONTINUOUS
 62
2
 10
-21.500000
 20
-54.700001
 40
2.500000
  0
CIRCLE
  8
0
  6
CONTINUOUS
 62
2
 10
-201.500000
 20
-137.199997
 40
3.000000
  0
CIRCLE
  8
0
  6
CONTINUOUS
 62
2
 10
-201.500000
 20
-102.199997
 40
3.000000
  0
CIRCLE
  8
0
  6
CONTINUOUS
 62
2
 10
-86.500000
 20
-137.199997
 40
3.000000
  0
CIRCLE
  8
0
  6
CONTINUOUS
 62
2
 10
-86.500000
 20
-102.199997
 40
3.000000
  0
ARC
  8
0
  6
CONTINUOUS
 62
2
 10
39.700001
 20
-105.050003
 40
1.500000
 50
90.000000
 51
180.000000
  0
CIRCLE
  8
0
  6
CONTINUOUS
 62
2
 10
-193.500000
 20
-198.199997
 40
2.500000
  0
CIRCLE
  8
0
  6
CONTINUOUS
 62
2
 10
-193.500000
 20
-177.199997
 40
2.500000
  0
CIRCLE
  8
0
  6
CONTINUOUS
 62
2
 10
-78.500000
 20
-177.199997
 40
2.500000
  0
CIRCLE
  8
0
  6
CONTINUOUS
 62
2
 10
-78.500000
 20
-198.199997
 40
2.500000
  0
CIRCLE
  8
0
  6
CONTINUOUS
 62
7
 10
-78.500000
 20
-198.199997
 40
2.100000
  0
CIRCLE
  8
0
  6
CONTINUOUS
 62
7
 10
-193.500000
 20
-198.199997
 40
2.100000
  0
CIRCLE
  8
0
  6
CONTINUOUS
 62
7
 10
-193.500000
 20
-177.199997
 40
2.100000
  0
CIRCLE
  8
0
  6
CONTINUOUS
 62
7
 10
-78.500000
 20
-177.199997
 40
2.100000
  0
ARC
  8
0
  6
CONTINUOUS
 62
2
 10
-278.299988
 20
-105.050003
 40
1.500000
 50
90.000000
 51
180.000000
  0
CIRCLE
  8
0
  6
CONTINUOUS
 62
7
 10
-289.000000
 20
-102.199997
 40
2.100000
  0
CIRCLE
  8
0
  6
CONTINUOUS
 62
7
 10
-289.000000
 20
-137.199997
 40
2.100000
  0
ARC
  8
0
  6
CONTINUOUS
 62
2
 10
-278.299988
 20
-106.349998
 40
1.500000
 50
180.000000
 51
270.000000
  0
CIRCLE
  8
0
  6
CONTINUOUS
 62
2
 10
-289.000000
 20
-102.199997
 40
2.500000
  0
CIRCLE
  8
0
  6
CONTINUOUS
 62
2
 10
-289.000000
 20
-137.199997
 40
2.500000
  0
CIRCLE
  8
0
  6
CONTINUOUS
 62
7
 10
-289.000000
 20
-119.699997
 40
6.500000
  0
ARC
  8
0
  6
CONTINUOUS
 62
2
 10
39.700001
 20
-106.349998
 40
1.500000
 50
180.000000
 51
270.000000
  0
CIRCLE
  8
0
  6
CONTINUOUS
 62
2
 10
-166.500000
 20
-198.199997
 40
2.500000
  0
CIRCLE
  8
0
  6
CONTINUOUS
 62
7
 10
-166.500000
 20
-198.199997
 40
2.100000
  0
CIRCLE
  8
0
  6
CONTINUOUS
 62
2
 10
-166.500000
 20
-177.199997
 40
2.500000
  0
CIRCLE
  8
0
  6
CONTINUOUS
 62
7
 10
-166.500000
 20
-177.199997
 40
2.100000
  0
CIRCLE
  8
0
  6
CONTINUOUS
 62
7
 10
-174.500000
 20
-137.199997
 40
4.500000
  0
CIRCLE
  8
0
  6
CONTINUOUS
 62
2
 10
-174.500000
 20
-137.199997
 40
3.000000
  0
CIRCLE
  8
0
  6
CONTINUOUS
 62
7
 10
-174.500000
 20
-102.199997
 40
4.500000
  0
CIRCLE
  8
0
  6
CONTINUOUS
 62
2
 10
-174.500000
 20
-102.199997
 40
3.000000
  0
CIRCLE
  8
0
  6
CONTINUOUS
 62
4
 10
218.750000
 20
140.300003
 40
2.750000
  0
CIRCLE
  8
0
  6
CONTINUOUS
 62
4
 10
218.750000
 20
154.300003
 40
2.750000
  0
CIRCLE
  8
0
  6
CONTINUOUS
 62
4
 10
180.750000
 20
154.300003
 40
2.750000
  0
CIRCLE
  8
0
  6
CONTINUOUS
 62
4
 10
180.750000
 20
140.300003
 40
2.750000
  0
CIRCLE
  8
0
  6
CONTINUOUS
 62
4
 10
199.750000
 20
147.300003
 40
6.500000
  0
CIRCLE
  8
0
  6
CONTINUOUS
 62
4
 10
181.181000
 20
72.550003
 40
6.500000
  0
CIRCLE
  8
0
  6
CONTINUOUS
 62
4
 10
196.181000
 20
-27.450001
 40
6.500000
  0
CIRCLE
  8
0
  6
CONTINUOUS
 62
7
 10
-165.500000
 20
177.199997
 40
2.100000
  0
CIRCLE
  8
0
  6
CONTINUOUS
 62
7
 10
-121.500000
 20
171.199997
 40
2.100000
  0
CIRCLE
  8
0
  6
CONTINUOUS
 62
7
 10
-201.500000
 20
123.699997
 40
4.500000
  0
CIRCLE
  8
0
  6
CONTINUOUS
 62
7
 10
-201.500000
 20
123.699997
 40
2.700000
  0
CIRCLE
  8
0
  6
CONTINUOUS
 62
7
 10
-201.500000
 20
88.699997
 40
2.700000
  0
CIRCLE
  8
0
  6
CONTINUOUS
 62
7
 10
-201.500000
 20
88.699997
 40
4.500000
  0
CIRCLE
  8
0
  6
CONTINUOUS
 62
7
 10
-174.500000
 20
123.699997
 40
2.700000
  0
CIRCLE
  8
0
  6
CONTINUOUS
 62
7
 10
-174.500000
 20
88.699997
 40
2.700000
  0
CIRCLE
  8
0
  6
CONTINUOUS
 62
7
 10
-174.500000
 20
123.699997
 40
4.500000
  0
CIRCLE
  8
0
  6
CONTINUOUS
 62
7
 10
-174.500000
 20
88.699997
 40
4.500000
  0
CIRCLE
  8
0
  6
CONTINUOUS
 62
2
 10
-165.500000
 20
177.199997
 40
2.500000
  0
CIRCLE
  8
0
  6
CONTINUOUS
 62
2
 10
-121.500000
 20
171.199997
 40
2.500000
  0
CIRCLE
  8
0
  6
CONTINUOUS
 62
2
 10
-201.500000
 20
88.699997
 40
3.000000
  0
CIRCLE
  8
0
  6
CONTINUOUS
 62
2
 10
-201.500000
 20
123.699997
 40
3.000000
  0
CIRCLE
  8
0
  6
CONTINUOUS
 62
2
 10
-174.500000
 20
88.699997
 40
3.000000
  0
CIRCLE
  8
0
  6
CONTINUOUS
 62
2
 10
-174.500000
 20
123.699997
 40
3.000000
  0
ARC
  8
0
  6
CONTINUOUS
 62
2
 10
-60.299999
 20
120.849998
 40
1.500000
 50
90.000000
 51
180.000000
  0
CIRCLE
  8
0
  6
CONTINUOUS
 62
2
 10
-193.500000
 20
27.700001
 40
2.500000
  0
CIRCLE
  8
0
  6
CONTINUOUS
 62
2
 10
-193.500000
 20
48.700001
 40
2.500000
  0
CIRCLE
  8
0
  6
CONTINUOUS
 62
2
 10
-166.500000
 20
48.700001
 40
2.500000
  0
CIRCLE
  8
0
  6
CONTINUOUS
 62
2
 10
-166.500000
 20
27.700001
 40
2.500000
  0
CIRCLE
  8
0
  6
CONTINUOUS
 62
7
 10
-166.500000
 20
27.700001
 40
2.100000
  0
CIRCLE
  8
0
  6
CONTINUOUS
 62
7
 10
-193.500000
 20
27.700001
 40
2.100000
  0
CIRCLE
  8
0
  6
CONTINUOUS
 62
7
 10
-193.500000
 20
48.700001
 40
2.100000
  0
CIRCLE
  8
0
  6
CONTINUOUS
 62
7
 10
-166.500000
 20
48.700001
 40
2.100000
  0
ARC
  8
0
  6
CONTINUOUS
 62
2
 10
-278.299988
 20
120.849998
 40
1.500000
 50
90.000000
 51
180.000000
  0
CIRCLE
  8
0
  6
CONTINUOUS
 62
7
 10
-289.000000
 20
123.699997
 40
2.100000
  0
CIRCLE
  8
0
  6
CONTINUOUS
 62
7
 10
-289.000000
 20
88.699997
 40
2.100000
  0
ARC
  8
0
  6
CONTINUOUS
 62
2
 10
-278.299988
 20
119.550003
 40
1.500000
 50
180.000000
 51
270.000000
  0
CIRCLE
  8
0
  6
CONTINUOUS
 62
2
 10
-289.000000
 20
123.699997
 40
2.500000
  0
CIRCLE
  8
0
  6
CONTINUOUS
 62
2
 10
-289.000000
 20
88.699997
 40
2.500000
  0
CIRCLE
  8
0
  6
CONTINUOUS
 62
7
 10
-289.000000
 20
106.199997
 40
6.500000
  0
ARC
  8
0
  6
CONTINUOUS
 62
2
 10
-60.299999
 20
119.550003
 40
1.500000
 50
180.000000
 51
270.000000
  0
CIRCLE
  8
0
  6
CONTINUOUS
 62
7
 10
-86.500000
 20
-137.199997
 40
2.700000
  0
CIRCLE
  8
0
  6
CONTINUOUS
 62
7
 10
-86.500000
 20
-102.199997
 40
2.700000
  0
ARC
  8
0
  6
CONTINUOUS
 62
4
 10
255.431000
 20
-144.949997
 40
1.500000
 50
270.000000
 51
90.000000
  0
ARC
  8
0
  6
CONTINUOUS
 62
4
 10
243.431000
 20
-144.949997
 40
1.500000
 50
90.000000
 51
270.000000
  0
CIRCLE
  8
0
  6
CONTINUOUS
 62
1
 10
176.431000
 20
-172.949997
 40
3.000000
  0
CIRCLE
  8
0
  6
CONTINUOUS
 62
4
 10
176.431000
 20
-172.949997
 40
6.500000
  0
CIRCLE
  8
0
  6
CONTINUOUS
 62
4
 10
176.431000
 20
-172.949997
 40
13.000000
  0
CIRCLE
  8
0
  6
CONTINUOUS
 62
4
 10
176.431000
 20
-172.949997
 40
2.458500
  0
ARC
  8
0
  6
CONTINUOUS
 62
4
 10
315.557007
 20
-115.469002
 40
1.500000
 50
270.000000
 51
90.000000
  0
ARC
  8
0
  6
CONTINUOUS
 62
4
 10
303.557007
 20
-115.469002
 40
1.500000
 50
90.000000
 51
270.000000
  0
TEXT
  8
0
 62
7
 10
249.264832
 20
-267.375000
 40
12.500000
  1
KOGANEI CORP.
 50
0.000000
 41
0.771525
 51
0.000000
  7
STANDARD
  0
TEXT
  8
0
 62
7
 10
292.414673
 20
261.500000
 40
9.000000
  1
Ver.1.0
 50
0.000000
 41
1.010331
 51
0.000000
  7
STANDARD
  0
TEXT
  8
0
 62
7
 10
-383.750580
 20
229.000000
 40
9.000000
  1
MODEL:AXAS-SD25-25-R***
 50
0.000000
 41
0.756792
 51
0.000000
  7
STANDARD
  0
TEXT
  8
0
 62
7
 10
-364.635315
 20
261.500000
 40
9.000000
  1
AX CYLINDER
 50
0.000000
 41
0.783349
 51
0.000000
  7
STANDARD
  0
TEXT
  8
0
 62
7
 10
180.057343
 20
117.550003
 40
4.500000
  1
ZT(FLANGE ROD END)
 50
0.000000
 41
0.754381
 51
0.000000
  7
STANDARD
  0
TEXT
  8
0
 62
7
 10
177.807343
 20
18.299999
 40
4.500000
  1
WS(INTERNAL THREAD)
 50
0.000000
 41
0.752116
 51
0.000000
  7
STANDARD
  0
TEXT
  8
0
 62
7
 10
177.807343
 20
-81.699997
 40
4.500000
  1
WT(EXTERNAL THREAD)
 50
0.000000
 41
0.738188
 51
0.000000
  7
STANDARD
  0
TEXT
  8
0
 62
7
 10
-4.900000
 20
-36.200001
 40
3.200000
  1
125st
 50
90.000000
 41
0.896216
 51
0.000000
  7
STANDARD
  0
TEXT
  8
0
 62
7
 10
45.099998
 20
-36.200001
 40
3.200000
  1
175st
 50
90.000000
 41
0.896216
 51
0.000000
  7
STANDARD
  0
TEXT
  8
0
 62
7
 10
20.100000
 20
-36.200001
 40
3.200000
  1
150st
 50
90.000000
 41
0.938893
 51
0.000000
  7
STANDARD
  0
TEXT
  8
0
 62
7
 10
70.099998
 20
-36.200001
 40
3.200000
  1
200st
 50
90.000000
 41
0.896216
 51
0.000000
  7
STANDARD
  0
TEXT
  8
0
 62
7
 10
-104.900002
 20
189.699997
 40
3.200000
  1
25st
 50
90.000000
 41
0.857250
 51
0.000000
  7
STANDARD
  0
TEXT
  8
0
 62
7
 10
-79.900002
 20
189.699997
 40
3.200000
  1
50st
 50
90.000000
 41
0.907676
 51
0.000000
  7
STANDARD
  0
TEXT
  8
0
 62
7
 10
-54.900002
 20
189.699997
 40
3.200000
  1
75st
 50
90.000000
 41
0.857250
 51
0.000000
  7
STANDARD
  0
TEXT
  8
0
 62
7
 10
-29.900000
 20
189.699997
 40
3.200000
  1
100st
 50
90.000000
 41
0.985838
 51
0.000000
  7
STANDARD
  0
TEXT
  8
0
 62
7
 10
153.549576
 20
198.799988
 40
6.700000
  1
OPTION
 50
0.000000
 41
0.857250
 51
0.000000
  7
STANDARD
  0
TEXT
  8
0
 62
7
 10
273.530701
 20
-117.849998
 40
4.800000
  1
KEY
 50
0.000000
 41
0.928687
 51
0.000000
  7
STANDARD
  0
TEXT
  8
0
 62
7
 10
171.557144
 20
-213.699997
 40
4.500000
  1
      FOR FLOATING UNIT)
 50
0.000000
 41
0.754798
 51
0.000000
  7
STANDARD
  0
TEXT
  8
0
 62
7
 10
172.807144
 20
-205.699997
 40
4.500000
  1
FN(WITH BEARING NUT
 50
0.000000
 41
0.766484
 51
0.000000
  7
STANDARD
  0
TEXT
  8
0
 62
7
 10
158.830994
 20
-133.350006
 40
3.200000
  1
(KEYWAY
 50
0.000000
 41
0.766485
 51
0.000000
  7
STANDARD
  0
TEXT
  8
0
 62
7
 10
158.830994
 20
-136.550003
 40
3.200000
  1
  POSITION)
 50
0.000000
 41
0.766485
 51
0.000000
  7
STANDARD
  0
DIMENSION
  8
0
  2
*DIM0
 62
0
 10
175.147995
 20
-148.483994
 30
0.0
 11
168.431000
 21
-148.750000
 31
0.0
 13
177.712997
 23
-148.483994
 33
0.0
 14
177.216003
 24
-157.970993
 34
0.0
  15
175.645996
 25
-157.970993
 35
0.0
 16
177.634720
 26
-149.981522
 36
0.0
 70
2
  0
DIMENSION
  8
0
  2
*DIM1
 62
2
  10
203.431000
 20
-159.949997
 30
0.0
 11
203.431000
 21
-172.949997
 31
0.0
  13
231.431000
 23
-159.949997
 33
0.0
14
231.431000
 24
-185.949997
 34
0.0
 70
1
 50
90
  0
DIMENSION
  8
0
  2
*DIM2
 62
2
  10
264.931000
 20
-137.449997
 30
0.0
 11
264.931000
 21
-133.550003
 31
0.0
  13
255.431000
 23
-143.449997
 33
0.0
14
255.431000
 24
-146.449997
 34
0.0
 70
1
 50
90
  0
DIMENSION
  8
0
  2
*DIM3
 62
2
  10
287.557007
 20
-134.968994
 30
0.0
 11
277.842010
 21
-134.968994
 31
0.0
  13
287.557007
 23
-134.968994
 33
0.0
14
287.557007
 24
-126.969002
 34
0.0
 70
1
 50
0
  0
ENDSEC
  0
EOF
