  0
SECTION
  2
HEADER
  0
ENDSEC
  0
SECTION
  2
TABLES
  0
TABLE
  2
LTYPE
 70
     4
  0
LTYPE
  2
CONTINUOUS
 70
    64
  3
Solid line
 72
    65
 73
     0
 40
0.000000
  0
LTYPE
  2
DASHED
 70
    64
  3
__ __ __ __ __ __ __ __ __ __ __ __ __ __ __
 72
    65
 73
     2
 40
3.500000
 49
2.000000
 49
-1.500000
  0
LTYPE
  2
CENTER
 70
    64
  3
____ _ ____ _ ____ _ ____ _ ____ _ ____ _ ____
 72
    65
 73
     4
 40
17.500000
 49
13.000000
 49
-1.500000
 49
1.500000
 49
-1.500000
  0
LTYPE
  2
PHANTOM
 70
    64
  3
_____ _ _ _____ _ _ _____ _ _ _____ _ _ ____  
 72
    65
 73
     6
 40
15.500000
 49
8.000000
 49
-1.500000
 49
1.500000
 49
-1.500000
 49
1.500000
 49
-1.500000
  0
ENDTAB
  0
TABLE
  2
LAYER
 70
     1
  0
LAYER
  2
0
 70
     0
 62
     7
  6
CONTINUOUS
  0
ENDTAB
  0
TABLE
  2
STYLE
 70
     1
  0
STYLE
  2
STANDARD
 70
     0
 40
0.000000
 41
1.000000
 50
0.000000
 71
     0
 42
0.200000
  3
txt
  4
BIGFONT
  0
ENDTAB
  0
TABLE
  2
VIEW
 70
     0
  0
ENDTAB
  0
ENDSEC
  0
SECTION
  2
BLOCKS
  0
BLOCK
  8
0
 70
65
  2
*DIM0
 10
0.0
 20
0.0
 30
0.0
  0
LINE
  8
0
  6
BYBLOCK
 62
2
 10
326.431000
 20
-176.500000
 11
292.931000
 21
-176.500000
  0
LINE
  8
0
  6
BYBLOCK
 62
2
 10
326.431000
 20
-207.500000
 11
292.931000
 21
-207.500000
  0
LINE
  8
0
  6
BYBLOCK
 62
2
 10
294.431000
 20
-176.500000
 11
294.431000
 21
-207.500000
  0
LINE
  8
0
  6
BYBLOCK
 62
2
 10
294.431000
 20
-176.500000
 11
293.654541
 21
-179.397781
  0
LINE
  8
0
  6
BYBLOCK
 62
2
 10
294.431000
 20
-176.500000
 11
295.207458
 21
-179.397781
  0
LINE
  8
0
  6
BYBLOCK
 62
2
 10
294.431000
 20
-207.500000
 11
295.207458
 21
-204.602219
  0
LINE
  8
0
  6
BYBLOCK
 62
2
 10
294.431000
 20
-207.500000
 11
293.654541
 21
-204.602219
  0
TEXT
  8
0
 62
2
 10
293.230988
 20
-203.199997
 40
3.200000
  1
âË31
 50
90.000000
 41
0.937977
 51
0.000000
  7
STANDARD
  0
TEXT
  8
0
 62
2
 10
291.631409
 20
-194.195343
 40
1.600000
  1
 0
 50
90.000000
 41
0.937977
 51
0.000000
  7
STANDARD
  0
TEXT
  8
0
 62
2
 10
293.231415
 20
-194.195419
 40
1.600000
  1
-0.013
 50
90.000000
 41
0.937977
 51
0.000000
  7
STANDARD
  0
ENDBLK
  8
0
  0
BLOCK
  8
0
 70
65
  2
*DIM1
 10
0.0
 20
0.0
 30
0.0
  0
ARC
  8
0
  6
BYBLOCK
 62
2
 10
262.431000
 20
-192.000000
 40
25.500000
 50
78.012428
 51
101.987572
  0
LINE
  8
0
  6
BYBLOCK
 62
2
 10
263.375000
 20
-173.985001
 11
263.843994
 21
-165.037003
  0
LINE
  8
0
  6
BYBLOCK
 62
2
 10
261.485992
 20
-173.985001
 11
261.018005
 21
-165.037003
  0
LINE
  8
0
  6
BYBLOCK
 62
2
 10
263.765564
 20
-166.534943
 11
266.438873
 21
-167.896332
  0
LINE
  8
0
  6
BYBLOCK
 62
2
 10
263.765564
 20
-166.534943
 11
266.761414
 21
-166.377274
  0
LINE
  8
0
  6
BYBLOCK
 62
2
 10
261.096436
 20
-166.534943
 11
258.100586
 21
-166.377274
  0
LINE
  8
0
  6
BYBLOCK
 62
2
 10
261.096436
 20
-166.534943
 11
258.423126
 21
-167.896332
  0
TEXT
  8
0
 62
2
 10
254.431000
 20
-165.300003
 40
3.200000
  1
ü}3üï
 50
0.000000
 41
1.500330
 51
0.000000
  7
STANDARD
  0
ENDBLK
  8
3
  0
BLOCK
  8
0
 70
65
  2
*DIM2
 10
0.0
 20
0.0
 30
0.0
  0
LINE
  8
0
  6
BYBLOCK
 62
2
 10
358.431000
 20
-154.750000
 11
371.681000
 21
-154.750000
  0
LINE
  8
0
  6
BYBLOCK
 62
2
 10
358.431000
 20
-158.250000
 11
371.681000
 21
-158.250000
  0
LINE
  8
0
  6
BYBLOCK
 62
2
 10
370.181000
 20
-148.750000
 11
370.181000
 21
-164.250000
  0
LINE
  8
0
  6
BYBLOCK
 62
2
 10
370.181000
 20
-154.750000
 11
370.181000
 21
-134.651001
  0
LINE
  8
0
  6
BYBLOCK
 62
2
 10
370.181000
 20
-154.750000
 11
370.957458
 21
-151.852219
  0
LINE
  8
0
  6
BYBLOCK
 62
2
 10
370.181000
 20
-154.750000
 11
369.404541
 21
-151.852219
  0
LINE
  8
0
  6
BYBLOCK
 62
2
 10
370.181000
 20
-158.250000
 11
369.404541
 21
-161.147781
  0
LINE
  8
0
  6
BYBLOCK
 62
2
 10
370.181000
 20
-158.250000
 11
370.957458
 21
-161.147781
  0
TEXT
  8
0
 62
2
 10
368.980988
 20
-152.194000
 40
3.200000
  1
3.5
 50
90.000000
 41
0.900002
 51
0.000000
  7
STANDARD
  0
TEXT
  8
0
 62
2
 10
367.381378
 20
-143.553909
 40
1.600000
  1
+0.018
 50
90.000000
 41
0.900002
 51
0.000000
  7
STANDARD
  0
TEXT
  8
0
 62
2
 10
368.981384
 20
-143.553970
 40
1.600000
  1
 0
 50
90.000000
 41
0.900002
 51
0.000000
  7
STANDARD
  0
ENDBLK
  8
0
  0
BLOCK
  8
0
 70
65
  2
*DIM3
 10
0.0
 20
0.0
 30
0.0
  0
LINE
  8
0
  6
BYBLOCK
 62
2
 10
398.307007
 20
-149.768997
 11
401.807007
 21
-149.768997
  0
LINE
  8
0
  6
BYBLOCK
 62
2
 10
398.307007
 20
-141.768997
 11
398.307007
 21
-151.268997
  0
LINE
  8
0
  6
BYBLOCK
 62
2
 10
398.307007
 20
-149.768997
 11
401.807007
 21
-149.768997
  0
LINE
  8
0
  6
BYBLOCK
 62
2
 10
398.307007
 20
-149.768997
 11
377.750000
 21
-149.768997
  0
TEXT
  8
0
 62
2
 10
376.092987
 20
-148.569000
 40
3.200000
  1
3.5
 50
0.000000
 41
0.912090
 51
0.000000
  7
STANDARD
  0
TEXT
  8
0
 62
2
 10
384.849060
 20
-146.968994
 40
1.600000
  1
+0.024
 50
0.000000
 41
0.912090
 51
0.000000
  7
STANDARD
  0
TEXT
  8
0
 62
2
 10
384.849060
 20
-148.569000
 40
1.600000
  1
+0.012
 50
0.000000
 41
0.912090
 51
0.000000
  7
STANDARD
  0
ENDBLK
  8
0
  0
ENDSEC
  0
SECTION
  2
ENTITIES
  0
POINT
  8
0
  62
7
  10
-233.500000
  20
230.750000
  30
0.0
  0
POINT
  8
0
  62
7
  10
-208.500000
  20
230.750000
  30
0.0
  0
POINT
  8
0
  62
7
  10
-183.500000
  20
230.750000
  30
0.0
  0
POINT
  8
0
  62
7
  10
-158.500000
  20
230.750000
  30
0.0
  0
POINT
  8
0
  62
7
  10
-116.500000
  20
219.750000
  30
0.0
  0
POINT
  8
0
  62
7
  10
-166.500000
  20
219.750000
  30
0.0
  0
POINT
  8
0
  62
7
  10
-66.500099
  20
219.750000
  30
0.0
  0
POINT
  8
0
  62
7
  10
-16.500099
  20
219.750000
  30
0.0
  0
POINT
  8
0
  62
7
  10
-133.500000
  20
-34.250000
  30
0.0
  0
POINT
  8
0
  62
7
  10
-108.500000
  20
-34.250000
  30
0.0
  0
POINT
  8
0
  62
7
  10
-83.500099
  20
-34.250000
  30
0.0
  0
POINT
  8
0
  62
7
  10
-58.500099
  20
-34.250000
  30
0.0
  0
POINT
  8
0
  62
7
  10
83.499901
  20
-45.250000
  30
0.0
  0
POINT
  8
0
  62
7
  10
133.500000
  20
-45.250000
  30
0.0
  0
POINT
  8
0
  62
7
  10
183.500000
  20
-45.250000
  30
0.0
  0
LINE
  8
0
  6
CONTINUOUS
 62
7
 10
574.500000
 20
400.500000
 11
574.500000
 21
-400.500000
  0
LINE
  8
0
  6
CONTINUOUS
 62
7
 10
-564.500000
 20
400.500000
 11
574.500000
 21
400.500000
  0
LINE
  8
0
  6
CONTINUOUS
 62
7
 10
-564.500000
 20
-400.500000
 11
574.500000
 21
-400.500000
  0
LINE
  8
0
  6
CONTINUOUS
 62
7
 10
-564.500000
 20
400.500000
 11
-564.500000
 21
-400.500000
  0
LINE
  8
0
  6
CONTINUOUS
 62
7
 10
-564.500000
 20
370.500000
 11
-334.500000
 21
370.500000
  0
LINE
  8
0
  6
CONTINUOUS
 62
7
 10
344.500000
 20
370.500000
 11
574.500000
 21
370.500000
  0
LINE
  8
0
  6
CONTINUOUS
 62
7
 10
344.500000
 20
-370.500000
 11
574.500000
 21
-370.500000
  0
LINE
  8
0
  6
CONTINUOUS
 62
7
 10
344.500000
 20
-370.500000
 11
344.500000
 21
-400.500000
  0
LINE
  8
0
  6
CONTINUOUS
 62
7
 10
344.500000
 20
400.500000
 11
344.500000
 21
370.500000
  0
LINE
  8
0
  6
CONTINUOUS
 62
7
 10
-334.500000
 20
400.500000
 11
-334.500000
 21
370.500000
  0
LINE
  8
0
  6
CONTINUOUS
 62
7
 10
-358.500000
 20
70.750000
 11
-233.500000
 21
70.750000
  0
LINE
  8
0
  6
CONTINUOUS
 62
7
 10
-358.500000
 20
34.750000
 11
-233.500000
 21
34.750000
  0
LINE
  8
0
  6
CONTINUOUS
 62
7
 10
-358.500000
 20
70.750000
 11
-358.500000
 21
34.750000
  0
LINE
  8
0
  6
CENTER
 62
2
 10
-405.500000
 20
52.750000
 11
-164.500000
 21
52.750000
  0
LINE
  8
0
  6
CONTINUOUS
 62
7
 10
-403.500000
 20
44.750000
 11
-358.500000
 21
44.750000
  0
LINE
  8
0
  6
CONTINUOUS
 62
7
 10
-403.500000
 20
60.750000
 11
-358.500000
 21
60.750000
  0
LINE
  8
0
  6
CONTINUOUS
 62
7
 10
-403.500000
 20
60.750000
 11
-403.500000
 21
44.750000
  0
LINE
  8
0
  6
CONTINUOUS
 62
7
 10
-358.500000
 20
230.750000
 11
-233.500000
 21
230.750000
  0
LINE
  8
0
  6
CONTINUOUS
 62
7
 10
-358.500000
 20
194.750000
 11
-233.500000
 21
194.750000
  0
LINE
  8
0
  6
CONTINUOUS
 62
7
 10
-358.500000
 20
230.750000
 11
-358.500000
 21
194.750000
  0
LINE
  8
0
  6
CENTER
 62
2
 10
-405.500000
 20
212.750000
 11
-164.500000
 21
212.750000
  0
LINE
  8
0
  6
CENTER
 62
2
 10
-289.600006
 20
218.750000
 11
-303.399994
 21
218.750000
  0
LINE
  8
0
  6
CENTER
 62
2
 10
-296.500000
 20
225.649994
 11
-296.500000
 21
211.850006
  0
LINE
  8
0
  6
CONTINUOUS
 62
7
 10
-403.500000
 20
204.750000
 11
-358.500000
 21
204.750000
  0
LINE
  8
0
  6
CONTINUOUS
 62
7
 10
-403.500000
 20
220.750000
 11
-358.500000
 21
220.750000
  0
LINE
  8
0
  6
CONTINUOUS
 62
7
 10
-403.500000
 20
220.750000
 11
-403.500000
 21
204.750000
  0
LINE
  8
0
  6
CONTINUOUS
 62
7
 10
-408.500000
 20
105.750000
 11
-444.500000
 21
105.750000
  0
LINE
  8
0
  6
CONTINUOUS
 62
7
 10
-408.500000
 20
159.750000
 11
-444.500000
 21
159.750000
  0
LINE
  8
0
  6
CENTER
 62
2
 10
-426.500000
 20
103.750000
 11
-426.500000
 21
161.750000
  0
LINE
  8
0
  6
CONTINUOUS
 62
2
 10
-408.500000
 20
150.050003
 11
-409.500000
 21
150.050003
  0
LINE
  8
0
  6
CONTINUOUS
 62
2
 10
-408.500000
 20
147.449997
 11
-409.500000
 21
147.449997
  0
LINE
  8
0
  6
CONTINUOUS
 62
2
 10
-409.500000
 20
150.899994
 11
-413.299988
 21
150.899994
  0
LINE
  8
0
  6
CONTINUOUS
 62
2
 10
-409.500000
 20
146.600006
 11
-413.299988
 21
146.600006
  0
LINE
  8
0
  6
CONTINUOUS
 62
2
 10
-414.799988
 20
148.100006
 11
-414.799988
 21
149.399994
  0
LINE
  8
0
  6
CONTINUOUS
 62
2
 10
-409.500000
 20
150.050003
 11
-409.500000
 21
150.899994
  0
LINE
  8
0
  6
CONTINUOUS
 62
2
 10
-409.500000
 20
147.449997
 11
-409.500000
 21
146.600006
  0
LINE
  8
0
  6
CONTINUOUS
 62
7
 10
-408.500000
 20
159.750000
 11
-408.500000
 21
105.750000
  0
LINE
  8
0
  6
CONTINUOUS
 62
7
 10
-444.500000
 20
159.750000
 11
-444.500000
 21
105.750000
  0
LINE
  8
0
  6
CENTER
 62
2
 10
-446.500000
 20
132.750000
 11
-406.500000
 21
132.750000
  0
LINE
  8
0
  6
CONTINUOUS
 62
7
 10
-358.500000
 20
105.750000
 11
-358.500000
 21
159.750000
  0
LINE
  8
0
  6
CONTINUOUS
 62
7
 10
-358.500000
 20
105.750000
 11
-233.500000
 21
105.750000
  0
LINE
  8
0
  6
CONTINUOUS
 62
7
 10
-358.500000
 20
159.750000
 11
-233.500000
 21
159.750000
  0
LINE
  8
0
  6
CONTINUOUS
 62
2
 10
-358.500000
 20
150.050003
 11
-350.225006
 21
150.050003
  0
LINE
  8
0
  6
CONTINUOUS
 62
2
 10
-358.500000
 20
147.449997
 11
-233.500000
 21
147.449997
  0
LINE
  8
0
  6
CONTINUOUS
 62
2
 10
-342.774994
 20
150.050003
 11
-313.225006
 21
150.050003
  0
LINE
  8
0
  6
CONTINUOUS
 62
2
 10
-305.776001
 20
150.050003
 11
-233.500000
 21
150.050003
  0
LINE
  8
0
  6
CONTINUOUS
 62
2
 10
-358.500000
 20
118.050003
 11
-233.500000
 21
118.050003
  0
LINE
  8
0
  6
CONTINUOUS
 62
2
 10
-358.500000
 20
115.449997
 11
-350.225006
 21
115.449997
  0
LINE
  8
0
  6
CONTINUOUS
 62
2
 10
-342.774994
 20
115.449997
 11
-313.225006
 21
115.449997
  0
LINE
  8
0
  6
CONTINUOUS
 62
2
 10
-305.776001
 20
115.449997
 11
-233.500000
 21
115.449997
  0
LINE
  8
0
  6
CONTINUOUS
 62
7
 10
-403.500000
 20
124.750000
 11
-358.500000
 21
124.750000
  0
LINE
  8
0
  6
CONTINUOUS
 62
7
 10
-403.500000
 20
140.750000
 11
-358.500000
 21
140.750000
  0
LINE
  8
0
  6
CONTINUOUS
 62
7
 10
-403.500000
 20
140.750000
 11
-403.500000
 21
124.750000
  0
LINE
  8
0
  6
CENTER
 62
2
 10
-253.500000
 20
213.649994
 11
-253.500000
 21
199.850006
  0
LINE
  8
0
  6
CENTER
 62
2
 10
-260.399994
 20
206.750000
 11
-246.600006
 21
206.750000
  0
LINE
  8
0
  6
CENTER
 62
2
 10
-346.500000
 20
119.000000
 11
-346.500000
 21
104.500000
  0
LINE
  8
0
  6
CENTER
 62
2
 10
-353.750000
 20
111.750000
 11
-339.250000
 21
111.750000
  0
LINE
  8
0
  6
CENTER
 62
2
 10
-309.500000
 20
119.000000
 11
-309.500000
 21
104.500000
  0
LINE
  8
0
  6
CENTER
 62
2
 10
-316.750000
 20
111.750000
 11
-302.250000
 21
111.750000
  0
LINE
  8
0
  6
CENTER
 62
2
 10
-309.500000
 20
161.000000
 11
-309.500000
 21
146.500000
  0
LINE
  8
0
  6
CENTER
 62
2
 10
-316.750000
 20
153.750000
 11
-302.250000
 21
153.750000
  0
LINE
  8
0
  6
CENTER
 62
2
 10
-346.500000
 20
161.000000
 11
-346.500000
 21
146.500000
  0
LINE
  8
0
  6
CENTER
 62
2
 10
-353.750000
 20
153.750000
 11
-339.250000
 21
153.750000
  0
LINE
  8
0
  6
CENTER
 62
2
 10
-446.500000
 20
148.750000
 11
-434.500000
 21
148.750000
  0
LINE
  8
0
  6
CENTER
 62
2
 10
-418.500000
 20
148.750000
 11
-406.500000
 21
148.750000
  0
LINE
  8
0
  6
CENTER
 62
2
 10
-446.500000
 20
116.750000
 11
-434.500000
 21
116.750000
  0
LINE
  8
0
  6
CENTER
 62
2
 10
-418.500000
 20
116.750000
 11
-406.500000
 21
116.750000
  0
LINE
  8
0
  6
CONTINUOUS
 62
7
 10
-233.500000
 20
105.750000
 11
-233.500000
 21
159.750000
  0
LINE
  8
0
  6
CONTINUOUS
 62
7
 10
-233.500000
 20
70.750000
 11
-233.500000
 21
34.750000
  0
LINE
  8
0
  6
CONTINUOUS
 62
7
 10
-233.500000
 20
230.750000
 11
-233.500000
 21
194.750000
  0
LINE
  8
0
  6
CONTINUOUS
 62
7
 10
79.499901
 20
-159.250000
 11
43.499901
 21
-159.250000
  0
LINE
  8
0
  6
CONTINUOUS
 62
7
 10
79.499901
 20
-105.250000
 11
43.499901
 21
-105.250000
  0
LINE
  8
0
  6
CENTER
 62
2
 10
81.499901
 20
-132.250000
 11
41.499901
 21
-132.250000
  0
LINE
  8
0
  6
CENTER
 62
2
 10
61.499901
 20
-161.250000
 11
61.499901
 21
-103.250000
  0
LINE
  8
0
  6
CONTINUOUS
 62
2
 10
79.499901
 20
-114.949997
 11
78.499901
 21
-114.949997
  0
LINE
  8
0
  6
CONTINUOUS
 62
2
 10
79.499901
 20
-117.550003
 11
78.499901
 21
-117.550003
  0
LINE
  8
0
  6
CONTINUOUS
 62
2
 10
78.499901
 20
-114.099998
 11
74.699898
 21
-114.099998
  0
LINE
  8
0
  6
CONTINUOUS
 62
2
 10
78.499901
 20
-118.400002
 11
74.699898
 21
-118.400002
  0
LINE
  8
0
  6
CONTINUOUS
 62
2
 10
73.199898
 20
-116.900002
 11
73.199898
 21
-115.599998
  0
LINE
  8
0
  6
CONTINUOUS
 62
7
 10
79.499901
 20
-105.250000
 11
79.499901
 21
-159.250000
  0
LINE
  8
0
  6
CONTINUOUS
 62
7
 10
43.499901
 20
-105.250000
 11
43.499901
 21
-159.250000
  0
LINE
  8
0
  6
CONTINUOUS
 62
2
 10
78.499901
 20
-114.099998
 11
78.499901
 21
-114.949997
  0
LINE
  8
0
  6
CONTINUOUS
 62
2
 10
78.499901
 20
-117.550003
 11
78.499901
 21
-118.400002
  0
LINE
  8
0
  6
CENTER
 62
2
 10
41.499901
 20
-116.250000
 11
53.499901
 21
-116.250000
  0
LINE
  8
0
  6
CENTER
 62
2
 10
69.499901
 20
-116.250000
 11
81.499901
 21
-116.250000
  0
LINE
  8
0
  6
CENTER
 62
2
 10
41.499901
 20
-148.250000
 11
53.499901
 21
-148.250000
  0
LINE
  8
0
  6
CENTER
 62
2
 10
69.499901
 20
-148.250000
 11
81.499901
 21
-148.250000
  0
LINE
  8
0
  6
DASHED
 62
2
 10
-304.250000
 20
70.750000
 11
-304.250000
 21
64.250000
  0
LINE
  8
0
  6
DASHED
 62
2
 10
-341.250000
 20
70.750000
 11
-341.250000
 21
64.250000
  0
LINE
  8
0
  6
DASHED
 62
2
 10
-351.750000
 20
70.750000
 11
-351.750000
 21
64.250000
  0
LINE
  8
0
  6
DASHED
 62
2
 10
-314.750000
 20
70.750000
 11
-314.750000
 21
64.250000
  0
LINE
  8
0
  6
DASHED
 62
2
 10
-350.500000
 20
64.250000
 11
-350.500000
 21
41.250000
  0
LINE
  8
0
  6
DASHED
 62
2
 10
-342.500000
 20
64.250000
 11
-342.500000
 21
41.250000
  0
LINE
  8
0
  6
DASHED
 62
2
 10
-313.500000
 20
64.250000
 11
-313.500000
 21
41.250000
  0
LINE
  8
0
  6
DASHED
 62
2
 10
-305.500000
 20
64.250000
 11
-305.500000
 21
41.250000
  0
LINE
  8
0
  6
DASHED
 62
2
 10
-351.750000
 20
41.250000
 11
-341.250000
 21
41.250000
  0
LINE
  8
0
  6
DASHED
 62
2
 10
-351.750000
 20
64.250000
 11
-341.250000
 21
64.250000
  0
LINE
  8
0
  6
DASHED
 62
2
 10
-351.750000
 20
41.250000
 11
-351.750000
 21
34.750000
  0
LINE
  8
0
  6
DASHED
 62
2
 10
-341.250000
 20
41.250000
 11
-341.250000
 21
34.750000
  0
LINE
  8
0
  6
DASHED
 62
2
 10
-314.750000
 20
64.250000
 11
-304.250000
 21
64.250000
  0
LINE
  8
0
  6
DASHED
 62
2
 10
-314.750000
 20
41.250000
 11
-304.250000
 21
41.250000
  0
LINE
  8
0
  6
DASHED
 62
2
 10
-314.750000
 20
41.250000
 11
-314.750000
 21
34.750000
  0
LINE
  8
0
  6
DASHED
 62
2
 10
-304.250000
 20
41.250000
 11
-304.250000
 21
34.750000
  0
LINE
  8
0
  6
CENTER
 62
2
 10
-346.500000
 20
72.750000
 11
-346.500000
 21
32.750000
  0
LINE
  8
0
  6
CENTER
 62
2
 10
-309.500000
 20
72.750000
 11
-309.500000
 21
32.750000
  0
LINE
  8
0
  6
CONTINUOUS
 62
7
 10
-358.500000
 20
-194.250000
 11
-133.500000
 21
-194.250000
  0
LINE
  8
0
  6
CONTINUOUS
 62
7
 10
-358.500000
 20
-230.250000
 11
-133.500000
 21
-230.250000
  0
LINE
  8
0
  6
CONTINUOUS
 62
7
 10
-358.500000
 20
-194.250000
 11
-358.500000
 21
-230.250000
  0
LINE
  8
0
  6
CONTINUOUS
 62
7
 10
-133.500000
 20
-194.250000
 11
-133.500000
 21
-230.250000
  0
LINE
  8
0
  6
CENTER
 62
2
 10
-405.500000
 20
-212.250000
 11
35.499901
 21
-212.250000
  0
LINE
  8
0
  6
CONTINUOUS
 62
7
 10
-403.500000
 20
-220.250000
 11
-358.500000
 21
-220.250000
  0
LINE
  8
0
  6
CONTINUOUS
 62
7
 10
-403.500000
 20
-204.250000
 11
-358.500000
 21
-204.250000
  0
LINE
  8
0
  6
CONTINUOUS
 62
7
 10
-403.500000
 20
-204.250000
 11
-403.500000
 21
-220.250000
  0
LINE
  8
0
  6
CONTINUOUS
 62
7
 10
-408.500000
 20
-159.250000
 11
-444.500000
 21
-159.250000
  0
LINE
  8
0
  6
CONTINUOUS
 62
7
 10
-408.500000
 20
-105.250000
 11
-444.500000
 21
-105.250000
  0
LINE
  8
0
  6
CENTER
 62
2
 10
-426.500000
 20
-161.250000
 11
-426.500000
 21
-103.250000
  0
LINE
  8
0
  6
CONTINUOUS
 62
2
 10
-408.500000
 20
-114.949997
 11
-409.500000
 21
-114.949997
  0
LINE
  8
0
  6
CONTINUOUS
 62
2
 10
-408.500000
 20
-117.550003
 11
-409.500000
 21
-117.550003
  0
LINE
  8
0
  6
CONTINUOUS
 62
2
 10
-409.500000
 20
-114.099998
 11
-413.299988
 21
-114.099998
  0
LINE
  8
0
  6
CONTINUOUS
 62
2
 10
-409.500000
 20
-118.400002
 11
-413.299988
 21
-118.400002
  0
LINE
  8
0
  6
CONTINUOUS
 62
2
 10
-414.799988
 20
-116.900002
 11
-414.799988
 21
-115.599998
  0
LINE
  8
0
  6
CONTINUOUS
 62
2
 10
-409.500000
 20
-114.949997
 11
-409.500000
 21
-114.099998
  0
LINE
  8
0
  6
CONTINUOUS
 62
2
 10
-409.500000
 20
-117.550003
 11
-409.500000
 21
-118.400002
  0
LINE
  8
0
  6
CONTINUOUS
 62
7
 10
-444.500000
 20
-159.250000
 11
-444.500000
 21
-105.250000
  0
LINE
  8
0
  6
CONTINUOUS
 62
7
 10
-408.500000
 20
-105.250000
 11
-408.500000
 21
-159.250000
  0
LINE
  8
0
  6
CENTER
 62
2
 10
-446.500000
 20
-132.250000
 11
-406.500000
 21
-132.250000
  0
LINE
  8
0
  6
CONTINUOUS
 62
7
 10
-358.500000
 20
-159.250000
 11
-358.500000
 21
-105.250000
  0
LINE
  8
0
  6
CONTINUOUS
 62
7
 10
-133.500000
 20
-159.250000
 11
-133.500000
 21
-105.250000
  0
LINE
  8
0
  6
CONTINUOUS
 62
7
 10
-358.500000
 20
-159.250000
 11
-133.500000
 21
-159.250000
  0
LINE
  8
0
  6
CONTINUOUS
 62
7
 10
-358.500000
 20
-105.250000
 11
-133.500000
 21
-105.250000
  0
LINE
  8
0
  6
CONTINUOUS
 62
2
 10
-358.500000
 20
-114.949997
 11
-350.225006
 21
-114.949997
  0
LINE
  8
0
  6
CONTINUOUS
 62
2
 10
-358.500000
 20
-117.550003
 11
-133.500000
 21
-117.550003
  0
LINE
  8
0
  6
CONTINUOUS
 62
2
 10
-342.774994
 20
-114.949997
 11
-313.225006
 21
-114.949997
  0
LINE
  8
0
  6
CONTINUOUS
 62
2
 10
-305.774994
 20
-114.949997
 11
-227.225006
 21
-114.949997
  0
LINE
  8
0
  6
CONTINUOUS
 62
2
 10
-358.500000
 20
-146.949997
 11
-133.500000
 21
-146.949997
  0
LINE
  8
0
  6
CONTINUOUS
 62
2
 10
-358.500000
 20
-149.550003
 11
-350.225006
 21
-149.550003
  0
LINE
  8
0
  6
CONTINUOUS
 62
2
 10
-342.774994
 20
-149.550003
 11
-313.225006
 21
-149.550003
  0
LINE
  8
0
  6
CONTINUOUS
 62
2
 10
-305.774994
 20
-149.550003
 11
-227.225006
 21
-149.550003
  0
LINE
  8
0
  6
CONTINUOUS
 62
7
 10
-403.500000
 20
-140.250000
 11
-358.500000
 21
-140.250000
  0
LINE
  8
0
  6
CONTINUOUS
 62
7
 10
-403.500000
 20
-124.250000
 11
-358.500000
 21
-124.250000
  0
LINE
  8
0
  6
CONTINUOUS
 62
7
 10
-403.500000
 20
-124.250000
 11
-403.500000
 21
-140.250000
  0
LINE
  8
0
  6
CENTER
 62
2
 10
-346.500000
 20
-146.000000
 11
-346.500000
 21
-160.500000
  0
LINE
  8
0
  6
CENTER
 62
2
 10
-353.750000
 20
-153.250000
 11
-339.250000
 21
-153.250000
  0
LINE
  8
0
  6
CENTER
 62
2
 10
-223.500000
 20
-146.000000
 11
-223.500000
 21
-160.500000
  0
LINE
  8
0
  6
CENTER
 62
2
 10
-230.750000
 20
-153.250000
 11
-216.250000
 21
-153.250000
  0
LINE
  8
0
  6
CENTER
 62
2
 10
-223.500000
 20
-104.000000
 11
-223.500000
 21
-118.500000
  0
LINE
  8
0
  6
CENTER
 62
2
 10
-230.750000
 20
-111.250000
 11
-216.250000
 21
-111.250000
  0
LINE
  8
0
  6
CENTER
 62
2
 10
-346.500000
 20
-104.000000
 11
-346.500000
 21
-118.500000
  0
LINE
  8
0
  6
CENTER
 62
2
 10
-353.750000
 20
-111.250000
 11
-339.250000
 21
-111.250000
  0
LINE
  8
0
  6
CENTER
 62
2
 10
-309.500000
 20
-146.000000
 11
-309.500000
 21
-160.500000
  0
LINE
  8
0
  6
CENTER
 62
2
 10
-316.750000
 20
-153.250000
 11
-302.250000
 21
-153.250000
  0
LINE
  8
0
  6
CENTER
 62
2
 10
-309.500000
 20
-104.000000
 11
-309.500000
 21
-118.500000
  0
LINE
  8
0
  6
CENTER
 62
2
 10
-316.750000
 20
-111.250000
 11
-302.250000
 21
-111.250000
  0
LINE
  8
0
  6
CONTINUOUS
 62
2
 10
-219.774994
 20
-149.550003
 11
-133.500000
 21
-149.550003
  0
LINE
  8
0
  6
CONTINUOUS
 62
2
 10
-219.774994
 20
-114.949997
 11
-133.500000
 21
-114.949997
  0
LINE
  8
0
  6
CONTINUOUS
 62
7
 10
-133.500000
 20
-34.250000
 11
-133.500000
 21
-70.250000
  0
LINE
  8
0
  6
CENTER
 62
2
 10
-446.500000
 20
-116.250000
 11
-437.500000
 21
-116.250000
  0
LINE
  8
0
  6
CENTER
 62
2
 10
-446.500000
 20
-148.250000
 11
-437.500000
 21
-148.250000
  0
LINE
  8
0
  6
CENTER
 62
2
 10
-406.500000
 20
-148.250000
 11
-418.500000
 21
-148.250000
  0
LINE
  8
0
  6
CENTER
 62
2
 10
-406.500000
 20
-116.250000
 11
-418.500000
 21
-116.250000
  0
LINE
  8
0
  6
DASHED
 62
2
 10
-351.750000
 20
-194.250000
 11
-351.750000
 21
-200.750000
  0
LINE
  8
0
  6
DASHED
 62
2
 10
-341.250000
 20
-194.250000
 11
-341.250000
 21
-200.750000
  0
LINE
  8
0
  6
DASHED
 62
2
 10
-314.750000
 20
-194.250000
 11
-314.750000
 21
-200.750000
  0
LINE
  8
0
  6
DASHED
 62
2
 10
-304.250000
 20
-194.250000
 11
-304.250000
 21
-200.750000
  0
LINE
  8
0
  6
DASHED
 62
2
 10
-228.750000
 20
-194.250000
 11
-228.750000
 21
-200.750000
  0
LINE
  8
0
  6
DASHED
 62
2
 10
-218.250000
 20
-194.250000
 11
-218.250000
 21
-200.750000
  0
LINE
  8
0
  6
DASHED
 62
2
 10
-350.500000
 20
-200.750000
 11
-350.500000
 21
-223.750000
  0
LINE
  8
0
  6
DASHED
 62
2
 10
-342.500000
 20
-200.750000
 11
-342.500000
 21
-223.750000
  0
LINE
  8
0
  6
DASHED
 62
2
 10
-313.500000
 20
-200.750000
 11
-313.500000
 21
-223.750000
  0
LINE
  8
0
  6
DASHED
 62
2
 10
-305.500000
 20
-200.750000
 11
-305.500000
 21
-223.750000
  0
LINE
  8
0
  6
DASHED
 62
2
 10
-227.500000
 20
-200.750000
 11
-227.500000
 21
-223.750000
  0
LINE
  8
0
  6
DASHED
 62
2
 10
-219.500000
 20
-200.750000
 11
-219.500000
 21
-223.750000
  0
LINE
  8
0
  6
DASHED
 62
2
 10
-351.750000
 20
-200.750000
 11
-341.250000
 21
-200.750000
  0
LINE
  8
0
  6
DASHED
 62
2
 10
-351.750000
 20
-223.750000
 11
-341.250000
 21
-223.750000
  0
LINE
  8
0
  6
DASHED
 62
2
 10
-351.750000
 20
-223.750000
 11
-351.750000
 21
-230.250000
  0
LINE
  8
0
  6
DASHED
 62
2
 10
-341.250000
 20
-223.750000
 11
-341.250000
 21
-230.250000
  0
LINE
  8
0
  6
DASHED
 62
2
 10
-314.750000
 20
-200.750000
 11
-304.250000
 21
-200.750000
  0
LINE
  8
0
  6
DASHED
 62
2
 10
-314.750000
 20
-223.750000
 11
-304.250000
 21
-223.750000
  0
LINE
  8
0
  6
DASHED
 62
2
 10
-314.750000
 20
-223.750000
 11
-314.750000
 21
-230.250000
  0
LINE
  8
0
  6
DASHED
 62
2
 10
-304.250000
 20
-223.750000
 11
-304.250000
 21
-230.250000
  0
LINE
  8
0
  6
DASHED
 62
2
 10
-228.750000
 20
-223.750000
 11
-228.750000
 21
-230.250000
  0
LINE
  8
0
  6
DASHED
 62
2
 10
-218.250000
 20
-223.750000
 11
-218.250000
 21
-230.250000
  0
LINE
  8
0
  6
DASHED
 62
2
 10
-228.750000
 20
-200.750000
 11
-218.250000
 21
-200.750000
  0
LINE
  8
0
  6
DASHED
 62
2
 10
-228.750000
 20
-223.750000
 11
-218.250000
 21
-223.750000
  0
LINE
  8
0
  6
CENTER
 62
2
 10
-346.500000
 20
-192.250000
 11
-346.500000
 21
-232.250000
  0
LINE
  8
0
  6
CENTER
 62
2
 10
-309.500000
 20
-192.250000
 11
-309.500000
 21
-232.250000
  0
LINE
  8
0
  6
CENTER
 62
2
 10
-223.500000
 20
-192.250000
 11
-223.500000
 21
-232.250000
  0
LINE
  8
0
  6
CONTINUOUS
 62
7
 10
-358.500000
 20
-34.250000
 11
-133.500000
 21
-34.250000
  0
LINE
  8
0
  6
CONTINUOUS
 62
7
 10
-358.500000
 20
-70.250000
 11
-133.500000
 21
-70.250000
  0
LINE
  8
0
  6
CONTINUOUS
 62
7
 10
-358.500000
 20
-34.250000
 11
-358.500000
 21
-70.250000
  0
LINE
  8
0
  6
CENTER
 62
2
 10
-405.500000
 20
-52.250000
 11
35.499901
 21
-52.250000
  0
LINE
  8
0
  6
CONTINUOUS
 62
7
 10
-403.500000
 20
-60.250000
 11
-358.500000
 21
-60.250000
  0
LINE
  8
0
  6
CONTINUOUS
 62
7
 10
-403.500000
 20
-44.250000
 11
-358.500000
 21
-44.250000
  0
LINE
  8
0
  6
CONTINUOUS
 62
7
 10
-403.500000
 20
-44.250000
 11
-403.500000
 21
-60.250000
  0
LINE
  8
0
  6
CONTINUOUS
 62
7
 10
33.499901
 20
-45.250000
 11
33.499901
 21
-59.250000
  0
LINE
  8
0
  6
CONTINUOUS
 62
7
 10
-206.500000
 20
220.750000
 11
-231.500000
 21
220.750000
  0
LINE
  8
0
  6
CONTINUOUS
 62
7
 10
-206.500000
 20
200.250000
 11
-206.500000
 21
225.250000
  0
LINE
  8
0
  6
CONTINUOUS
 62
7
 10
23.499901
 20
-64.951698
 11
23.499901
 21
-39.548302
  0
LINE
  8
0
  6
CONTINUOUS
 62
7
 10
-6.500060
 20
-64.750000
 11
13.499900
 21
-64.750000
  0
LINE
  8
0
  6
CONTINUOUS
 62
7
 10
-6.500060
 20
-39.750000
 11
13.499900
 21
-39.750000
  0
LINE
  8
0
  6
CONTINUOUS
 62
7
 10
13.499900
 20
-64.750000
 11
13.499900
 21
-63.250000
  0
LINE
  8
0
  6
CONTINUOUS
 62
7
 10
31.499901
 20
-59.250000
 11
33.499901
 21
-59.250000
  0
LINE
  8
0
  6
CONTINUOUS
 62
7
 10
31.499901
 20
-45.250000
 11
33.499901
 21
-45.250000
  0
LINE
  8
0
  6
CONTINUOUS
 62
2
 10
31.499901
 20
-46.250000
 11
33.499901
 21
-46.250000
  0
LINE
  8
0
  6
CONTINUOUS
 62
7
 10
13.499900
 20
-41.250000
 11
23.499901
 21
-41.250000
  0
LINE
  8
0
  6
CONTINUOUS
 62
7
 10
13.499900
 20
-63.250000
 11
23.499901
 21
-63.250000
  0
LINE
  8
0
  6
CONTINUOUS
 62
7
 10
13.499900
 20
-41.250000
 11
13.499900
 21
-39.750000
  0
LINE
  8
0
  6
CONTINUOUS
 62
7
 10
31.499901
 20
-64.951698
 11
31.499901
 21
-39.548302
  0
LINE
  8
0
  6
CONTINUOUS
 62
7
 10
23.499901
 20
-64.951698
 11
31.499901
 21
-64.951698
  0
LINE
  8
0
  6
CONTINUOUS
 62
7
 10
23.499901
 20
-39.548302
 11
31.499901
 21
-39.548302
  0
LINE
  8
0
  6
CONTINUOUS
 62
7
 10
-232.000000
 20
230.250000
 11
-232.000000
 21
195.250000
  0
LINE
  8
0
  6
CONTINUOUS
 62
7
 10
-231.500000
 20
223.500000
 11
-231.500000
 21
202.000000
  0
LINE
  8
0
  6
CONTINUOUS
 62
7
 10
-233.500000
 20
195.250000
 11
-232.000000
 21
195.250000
  0
LINE
  8
0
  6
CONTINUOUS
 62
7
 10
-233.500000
 20
230.250000
 11
-232.000000
 21
230.250000
  0
LINE
  8
0
  6
CONTINUOUS
 62
7
 10
-232.000000
 20
223.500000
 11
-231.500000
 21
223.500000
  0
LINE
  8
0
  6
CONTINUOUS
 62
7
 10
-232.000000
 20
202.000000
 11
-231.500000
 21
202.000000
  0
LINE
  8
0
  6
CONTINUOUS
 62
7
 10
-206.500000
 20
204.750000
 11
-231.500000
 21
204.750000
  0
LINE
  8
0
  6
CONTINUOUS
 62
7
 10
-232.000000
 20
112.542999
 11
-232.000000
 21
152.957001
  0
LINE
  8
0
  6
CONTINUOUS
 62
7
 10
33.499901
 20
-139.250000
 11
33.499901
 21
-125.250000
  0
LINE
  8
0
  6
CONTINUOUS
 62
7
 10
-206.500000
 20
140.750000
 11
-231.500000
 21
140.750000
  0
LINE
  8
0
  6
CONTINUOUS
 62
7
 10
-206.500000
 20
124.750000
 11
-231.500000
 21
124.750000
  0
LINE
  8
0
  6
CONTINUOUS
 62
7
 10
-206.500000
 20
145.250000
 11
-206.500000
 21
120.250000
  0
LINE
  8
0
  6
CONTINUOUS
 62
7
 10
23.499901
 20
-119.750000
 11
23.499901
 21
-144.750000
  0
LINE
  8
0
  6
CONTINUOUS
 62
7
 10
-6.500060
 20
-119.750000
 11
23.499901
 21
-119.750000
  0
LINE
  8
0
  6
CONTINUOUS
 62
7
 10
-6.500060
 20
-144.750000
 11
23.499901
 21
-144.750000
  0
LINE
  8
0
  6
CONTINUOUS
 62
7
 10
13.499900
 20
-126.313004
 11
13.499900
 21
-138.186996
  0
LINE
  8
0
  6
CONTINUOUS
 62
7
 10
13.499900
 20
-126.313004
 11
23.499901
 21
-126.313004
  0
LINE
  8
0
  6
CONTINUOUS
 62
7
 10
13.499900
 20
-138.186996
 11
23.499901
 21
-138.186996
  0
LINE
  8
0
  6
CONTINUOUS
 62
2
 10
13.499900
 20
-138.186996
 11
23.499901
 21
-126.313004
  0
LINE
  8
0
  6
CONTINUOUS
 62
2
 10
13.500000
 20
-126.313004
 11
23.500000
 21
-138.186996
  0
LINE
  8
0
  6
CONTINUOUS
 62
7
 10
31.499901
 20
-121.750000
 11
31.499901
 21
-142.750000
  0
LINE
  8
0
  6
CONTINUOUS
 62
7
 10
23.788601
 20
-121.250000
 11
31.211201
 21
-121.250000
  0
LINE
  8
0
  6
CONTINUOUS
 62
7
 10
23.499901
 20
-132.250000
 11
31.499901
 21
-132.250000
  0
LINE
  8
0
  6
CONTINUOUS
 62
7
 10
23.788601
 20
-143.250000
 11
31.211201
 21
-143.250000
  0
LINE
  8
0
  6
CONTINUOUS
 62
7
 10
31.500000
 20
-121.750000
 11
31.211300
 21
-121.250000
  0
LINE
  8
0
  6
CONTINUOUS
 62
7
 10
31.499901
 20
-142.750000
 11
31.211201
 21
-143.250000
  0
LINE
  8
0
  6
CONTINUOUS
 62
7
 10
23.500000
 20
-142.750000
 11
23.788700
 21
-143.250000
  0
LINE
  8
0
  6
CONTINUOUS
 62
7
 10
23.500000
 20
-121.750000
 11
23.788700
 21
-121.250000
  0
LINE
  8
0
  6
CONTINUOUS
 62
7
 10
31.499901
 20
-125.250000
 11
33.499901
 21
-125.250000
  0
LINE
  8
0
  6
CONTINUOUS
 62
7
 10
31.499901
 20
-139.250000
 11
33.499901
 21
-139.250000
  0
LINE
  8
0
  6
CONTINUOUS
 62
2
 10
31.499901
 20
-138.250000
 11
33.499901
 21
-138.250000
  0
LINE
  8
0
  6
CONTINUOUS
 62
2
 10
31.499901
 20
-126.250000
 11
33.499901
 21
-126.250000
  0
LINE
  8
0
  6
CONTINUOUS
 62
7
 10
-232.000000
 20
122.000000
 11
-231.500000
 21
122.000000
  0
LINE
  8
0
  6
CONTINUOUS
 62
7
 10
-233.500000
 20
112.542999
 11
-232.000000
 21
112.542999
  0
LINE
  8
0
  6
CONTINUOUS
 62
7
 10
-233.500000
 20
122.646004
 11
-232.000000
 21
122.646004
  0
LINE
  8
0
  6
CONTINUOUS
 62
7
 10
-233.500000
 20
142.854004
 11
-232.000000
 21
142.854004
  0
LINE
  8
0
  6
CONTINUOUS
 62
7
 10
-233.500000
 20
152.957001
 11
-232.000000
 21
152.957001
  0
LINE
  8
0
  6
CONTINUOUS
 62
7
 10
-231.500000
 20
122.000000
 11
-231.500000
 21
143.500000
  0
LINE
  8
0
  6
CONTINUOUS
 62
7
 10
-232.000000
 20
143.500000
 11
-231.500000
 21
143.500000
  0
LINE
  8
0
  6
CONTINUOUS
 62
7
 10
33.499901
 20
-219.250000
 11
33.499901
 21
-205.250000
  0
LINE
  8
0
  6
CONTINUOUS
 62
7
 10
-206.500000
 20
60.750000
 11
-231.500000
 21
60.750000
  0
LINE
  8
0
  6
CONTINUOUS
 62
7
 10
-206.500000
 20
44.750000
 11
-231.500000
 21
44.750000
  0
LINE
  8
0
  6
CONTINUOUS
 62
7
 10
-206.500000
 20
65.250000
 11
-206.500000
 21
40.250000
  0
LINE
  8
0
  6
CONTINUOUS
 62
7
 10
23.499901
 20
-199.548004
 11
23.499901
 21
-224.951996
  0
LINE
  8
0
  6
CONTINUOUS
 62
7
 10
-6.500060
 20
-199.750000
 11
13.499900
 21
-199.750000
  0
LINE
  8
0
  6
CONTINUOUS
 62
7
 10
-6.500060
 20
-224.750000
 11
13.499900
 21
-224.750000
  0
LINE
  8
0
  6
CONTINUOUS
 62
7
 10
13.499900
 20
-199.750000
 11
13.499900
 21
-201.250000
  0
LINE
  8
0
  6
CONTINUOUS
 62
7
 10
31.499901
 20
-205.250000
 11
33.499901
 21
-205.250000
  0
LINE
  8
0
  6
CONTINUOUS
 62
7
 10
31.499901
 20
-219.250000
 11
33.499901
 21
-219.250000
  0
LINE
  8
0
  6
CONTINUOUS
 62
2
 10
31.499901
 20
-218.250000
 11
33.499901
 21
-218.250000
  0
LINE
  8
0
  6
CONTINUOUS
 62
2
 10
31.499901
 20
-206.250000
 11
33.499901
 21
-206.250000
  0
LINE
  8
0
  6
CONTINUOUS
 62
7
 10
-231.500000
 20
63.500000
 11
-231.500000
 21
42.000000
  0
LINE
  8
0
  6
CONTINUOUS
 62
7
 10
-233.500000
 20
70.250000
 11
-232.000000
 21
70.250000
  0
LINE
  8
0
  6
CONTINUOUS
 62
7
 10
-233.500000
 20
35.250000
 11
-232.000000
 21
35.250000
  0
LINE
  8
0
  6
CONTINUOUS
 62
7
 10
-233.500000
 20
52.750000
 11
-232.000000
 21
52.750000
  0
LINE
  8
0
  6
CONTINUOUS
 62
7
 10
-232.000000
 20
70.250000
 11
-232.000000
 21
35.250000
  0
LINE
  8
0
  6
CONTINUOUS
 62
7
 10
13.499900
 20
-223.250000
 11
23.499901
 21
-223.250000
  0
LINE
  8
0
  6
CONTINUOUS
 62
7
 10
13.499900
 20
-201.250000
 11
23.499901
 21
-201.250000
  0
LINE
  8
0
  6
CONTINUOUS
 62
7
 10
13.499900
 20
-223.250000
 11
13.499900
 21
-224.750000
  0
LINE
  8
0
  6
CONTINUOUS
 62
7
 10
31.499901
 20
-199.548004
 11
31.499901
 21
-224.951996
  0
LINE
  8
0
  6
CONTINUOUS
 62
7
 10
23.499901
 20
-205.899002
 11
31.499901
 21
-205.899002
  0
LINE
  8
0
  6
CONTINUOUS
 62
7
 10
23.499901
 20
-218.600998
 11
31.499901
 21
-218.600998
  0
LINE
  8
0
  6
CONTINUOUS
 62
7
 10
23.499901
 20
-199.548004
 11
31.499901
 21
-199.548004
  0
LINE
  8
0
  6
CONTINUOUS
 62
7
 10
23.499901
 20
-224.951996
 11
31.499901
 21
-224.951996
  0
LINE
  8
0
  6
CONTINUOUS
 62
7
 10
-232.000000
 20
63.500000
 11
-231.500000
 21
63.500000
  0
LINE
  8
0
  6
CONTINUOUS
 62
7
 10
-232.000000
 20
42.000000
 11
-231.500000
 21
42.000000
  0
LINE
  8
0
  6
CONTINUOUS
 62
7
 10
-6.500060
 20
-44.250000
 11
-131.500000
 21
-44.250000
  0
LINE
  8
0
  6
CONTINUOUS
 62
7
 10
-6.500060
 20
-64.750000
 11
-6.500060
 21
-39.750000
  0
LINE
  8
0
  6
CONTINUOUS
 62
7
 10
-132.000000
 20
-34.750000
 11
-132.000000
 21
-69.750000
  0
LINE
  8
0
  6
CONTINUOUS
 62
7
 10
-131.500000
 20
-41.500000
 11
-131.500000
 21
-63.000000
  0
LINE
  8
0
  6
CONTINUOUS
 62
7
 10
-133.500000
 20
-69.750000
 11
-132.000000
 21
-69.750000
  0
LINE
  8
0
  6
CONTINUOUS
 62
7
 10
-133.500000
 20
-34.750000
 11
-132.000000
 21
-34.750000
  0
LINE
  8
0
  6
CONTINUOUS
 62
7
 10
-132.000000
 20
-41.500000
 11
-131.500000
 21
-41.500000
  0
LINE
  8
0
  6
CONTINUOUS
 62
7
 10
-132.000000
 20
-63.000000
 11
-131.500000
 21
-63.000000
  0
LINE
  8
0
  6
CONTINUOUS
 62
7
 10
-6.500060
 20
-60.250000
 11
-131.500000
 21
-60.250000
  0
LINE
  8
0
  6
CONTINUOUS
 62
7
 10
-132.000000
 20
-152.457001
 11
-132.000000
 21
-112.042999
  0
LINE
  8
0
  6
CONTINUOUS
 62
7
 10
-6.500060
 20
-124.250000
 11
-131.500000
 21
-124.250000
  0
LINE
  8
0
  6
CONTINUOUS
 62
7
 10
-6.500060
 20
-140.250000
 11
-131.500000
 21
-140.250000
  0
LINE
  8
0
  6
CONTINUOUS
 62
7
 10
-6.500060
 20
-119.750000
 11
-6.500060
 21
-144.750000
  0
LINE
  8
0
  6
CONTINUOUS
 62
7
 10
-132.000000
 20
-143.000000
 11
-131.500000
 21
-143.000000
  0
LINE
  8
0
  6
CONTINUOUS
 62
7
 10
-133.500000
 20
-152.457001
 11
-132.000000
 21
-152.457001
  0
LINE
  8
0
  6
CONTINUOUS
 62
7
 10
-133.500000
 20
-142.354004
 11
-132.000000
 21
-142.354004
  0
LINE
  8
0
  6
CONTINUOUS
 62
7
 10
-133.500000
 20
-122.146004
 11
-132.000000
 21
-122.146004
  0
LINE
  8
0
  6
CONTINUOUS
 62
7
 10
-133.500000
 20
-112.042999
 11
-132.000000
 21
-112.042999
  0
LINE
  8
0
  6
CONTINUOUS
 62
7
 10
-131.500000
 20
-143.000000
 11
-131.500000
 21
-121.500000
  0
LINE
  8
0
  6
CONTINUOUS
 62
7
 10
-132.000000
 20
-121.500000
 11
-131.500000
 21
-121.500000
  0
LINE
  8
0
  6
CONTINUOUS
 62
7
 10
-6.500060
 20
-204.250000
 11
-131.500000
 21
-204.250000
  0
LINE
  8
0
  6
CONTINUOUS
 62
7
 10
-6.500060
 20
-220.250000
 11
-131.500000
 21
-220.250000
  0
LINE
  8
0
  6
CONTINUOUS
 62
7
 10
-6.500060
 20
-199.750000
 11
-6.500060
 21
-224.750000
  0
LINE
  8
0
  6
CONTINUOUS
 62
7
 10
-131.500000
 20
-201.500000
 11
-131.500000
 21
-223.000000
  0
LINE
  8
0
  6
CONTINUOUS
 62
7
 10
-133.500000
 20
-194.750000
 11
-132.000000
 21
-194.750000
  0
LINE
  8
0
  6
CONTINUOUS
 62
7
 10
-133.500000
 20
-229.750000
 11
-132.000000
 21
-229.750000
  0
LINE
  8
0
  6
CONTINUOUS
 62
7
 10
-133.500000
 20
-212.250000
 11
-132.000000
 21
-212.250000
  0
LINE
  8
0
  6
CONTINUOUS
 62
7
 10
-132.000000
 20
-194.750000
 11
-132.000000
 21
-229.750000
  0
LINE
  8
0
  6
CONTINUOUS
 62
7
 10
-132.000000
 20
-201.500000
 11
-131.500000
 21
-201.500000
  0
LINE
  8
0
  6
CONTINUOUS
 62
7
 10
-132.000000
 20
-223.000000
 11
-131.500000
 21
-223.000000
  0
LINE
  8
0
  6
CONTINUOUS
 62
7
 10
-233.500000
 20
212.750000
 11
-232.000000
 21
212.750000
  0
LINE
  8
0
  6
CONTINUOUS
 62
7
 10
23.499901
 20
-45.899200
 11
31.499901
 21
-45.899200
  0
LINE
  8
0
  6
CONTINUOUS
 62
7
 10
23.499901
 20
-58.600899
 11
31.499901
 21
-58.600899
  0
LINE
  8
0
  6
CONTINUOUS
 62
2
 10
31.499901
 20
-58.250000
 11
33.499901
 21
-58.250000
  0
LINE
  8
0
  6
CONTINUOUS
 62
7
 10
55.148998
 20
-121.250000
 11
48.798199
 21
-132.250000
  0
LINE
  8
0
  6
CONTINUOUS
 62
7
 10
67.850800
 20
-121.250000
 11
55.149101
 21
-121.250000
  0
LINE
  8
0
  6
CONTINUOUS
 62
7
 10
74.201500
 20
-132.250000
 11
67.850700
 21
-121.250000
  0
LINE
  8
0
  6
CONTINUOUS
 62
7
 10
67.850800
 20
-143.250000
 11
74.201698
 21
-132.250000
  0
LINE
  8
0
  6
CONTINUOUS
 62
7
 10
55.148998
 20
-143.250000
 11
67.850800
 21
-143.250000
  0
LINE
  8
0
  6
CONTINUOUS
 62
7
 10
48.798199
 20
-132.250000
 11
55.148998
 21
-143.250000
  0
LINE
  8
0
  6
CONTINUOUS
 62
7
 10
72.499901
 20
-138.186996
 11
72.499901
 21
-135.197006
  0
LINE
  8
0
  6
CONTINUOUS
 62
7
 10
50.499901
 20
-138.186996
 11
50.499901
 21
-135.197006
  0
LINE
  8
0
  6
CONTINUOUS
 62
7
 10
72.499901
 20
-129.302994
 11
72.499901
 21
-126.313004
  0
LINE
  8
0
  6
CONTINUOUS
 62
7
 10
50.499901
 20
-129.302994
 11
50.499901
 21
-126.313004
  0
LINE
  8
0
  6
CONTINUOUS
 62
7
 10
-120.500000
 20
105.750000
 11
-156.500000
 21
105.750000
  0
LINE
  8
0
  6
CONTINUOUS
 62
7
 10
-120.500000
 20
159.750000
 11
-156.500000
 21
159.750000
  0
LINE
  8
0
  6
CENTER
 62
2
 10
-118.500000
 20
132.750000
 11
-158.500000
 21
132.750000
  0
LINE
  8
0
  6
CENTER
 62
2
 10
-138.500000
 20
103.750000
 11
-138.500000
 21
161.750000
  0
LINE
  8
0
  6
CONTINUOUS
 62
2
 10
-120.500000
 20
150.050003
 11
-121.500000
 21
150.050003
  0
LINE
  8
0
  6
CONTINUOUS
 62
2
 10
-120.500000
 20
147.449997
 11
-121.500000
 21
147.449997
  0
LINE
  8
0
  6
CONTINUOUS
 62
2
 10
-121.500000
 20
150.899994
 11
-125.300003
 21
150.899994
  0
LINE
  8
0
  6
CONTINUOUS
 62
2
 10
-121.500000
 20
146.600006
 11
-125.300003
 21
146.600006
  0
LINE
  8
0
  6
CONTINUOUS
 62
2
 10
-126.800003
 20
148.100006
 11
-126.800003
 21
149.399994
  0
LINE
  8
0
  6
CONTINUOUS
 62
7
 10
-120.500000
 20
159.750000
 11
-120.500000
 21
105.750000
  0
LINE
  8
0
  6
CONTINUOUS
 62
7
 10
-156.500000
 20
159.750000
 11
-156.500000
 21
105.750000
  0
LINE
  8
0
  6
CONTINUOUS
 62
2
 10
-121.500000
 20
150.899994
 11
-121.500000
 21
150.050003
  0
LINE
  8
0
  6
CONTINUOUS
 62
2
 10
-121.500000
 20
147.449997
 11
-121.500000
 21
146.600006
  0
LINE
  8
0
  6
CENTER
 62
2
 10
-158.500000
 20
148.750000
 11
-146.500000
 21
148.750000
  0
LINE
  8
0
  6
CENTER
 62
2
 10
-130.500000
 20
148.750000
 11
-118.500000
 21
148.750000
  0
LINE
  8
0
  6
CENTER
 62
2
 10
-158.500000
 20
116.750000
 11
-146.500000
 21
116.750000
  0
LINE
  8
0
  6
CENTER
 62
2
 10
-130.500000
 20
116.750000
 11
-118.500000
 21
116.750000
  0
LINE
  8
0
  6
CONTINUOUS
 62
7
 10
-144.850998
 20
143.750000
 11
-151.201996
 21
132.750000
  0
LINE
  8
0
  6
CONTINUOUS
 62
7
 10
-132.149002
 20
143.750000
 11
-144.850998
 21
143.750000
  0
LINE
  8
0
  6
CONTINUOUS
 62
7
 10
-125.797997
 20
132.750000
 11
-132.149002
 21
143.750000
  0
LINE
  8
0
  6
CONTINUOUS
 62
7
 10
-132.149002
 20
121.750000
 11
-125.799004
 21
132.750000
  0
LINE
  8
0
  6
CONTINUOUS
 62
7
 10
-144.850998
 20
121.750000
 11
-132.149002
 21
121.750000
  0
LINE
  8
0
  6
CONTINUOUS
 62
7
 10
-151.201996
 20
132.750000
 11
-144.850998
 21
121.750000
  0
LINE
  8
0
  6
CONTINUOUS
 62
7
 10
-127.500000
 20
126.813004
 11
-127.500000
 21
129.802994
  0
LINE
  8
0
  6
CONTINUOUS
 62
7
 10
-149.500000
 20
126.813004
 11
-149.500000
 21
129.802994
  0
LINE
  8
0
  6
CONTINUOUS
 62
7
 10
-127.500000
 20
135.697006
 11
-127.500000
 21
138.686996
  0
LINE
  8
0
  6
CONTINUOUS
 62
7
 10
-149.500000
 20
135.697006
 11
-149.500000
 21
138.686996
  0
LINE
  8
0
  6
CONTINUOUS
 62
2
 10
-168.500000
 20
206.750000
 11
-166.500000
 21
206.750000
  0
LINE
  8
0
  6
CONTINUOUS
 62
7
 10
-176.500000
 20
40.048302
 11
-168.500000
 21
40.048302
  0
LINE
  8
0
  6
CONTINUOUS
 62
7
 10
-176.500000
 20
206.399002
 11
-168.500000
 21
206.399002
  0
LINE
  8
0
  6
CONTINUOUS
 62
7
 10
-176.500000
 20
219.100998
 11
-168.500000
 21
219.100998
  0
LINE
  8
0
  6
CONTINUOUS
 62
7
 10
-166.500000
 20
219.750000
 11
-166.500000
 21
205.750000
  0
LINE
  8
0
  6
CONTINUOUS
 62
7
 10
-176.500000
 20
200.048004
 11
-176.500000
 21
225.451996
  0
LINE
  8
0
  6
CONTINUOUS
 62
7
 10
-206.500000
 20
200.250000
 11
-186.500000
 21
200.250000
  0
LINE
  8
0
  6
CONTINUOUS
 62
7
 10
-206.500000
 20
225.250000
 11
-186.500000
 21
225.250000
  0
LINE
  8
0
  6
CONTINUOUS
 62
7
 10
-186.500000
 20
200.250000
 11
-186.500000
 21
201.750000
  0
LINE
  8
0
  6
CONTINUOUS
 62
7
 10
-168.500000
 20
205.750000
 11
-166.500000
 21
205.750000
  0
LINE
  8
0
  6
CONTINUOUS
 62
7
 10
-168.500000
 20
219.750000
 11
-166.500000
 21
219.750000
  0
LINE
  8
0
  6
CONTINUOUS
 62
2
 10
-168.500000
 20
218.750000
 11
-166.500000
 21
218.750000
  0
LINE
  8
0
  6
CONTINUOUS
 62
7
 10
-186.500000
 20
223.750000
 11
-176.500000
 21
223.750000
  0
LINE
  8
0
  6
CONTINUOUS
 62
7
 10
-186.500000
 20
201.750000
 11
-176.500000
 21
201.750000
  0
LINE
  8
0
  6
CONTINUOUS
 62
7
 10
-186.500000
 20
223.750000
 11
-186.500000
 21
225.250000
  0
LINE
  8
0
  6
CONTINUOUS
 62
7
 10
-168.500000
 20
200.048004
 11
-168.500000
 21
225.451996
  0
LINE
  8
0
  6
CONTINUOUS
 62
7
 10
-176.500000
 20
200.048004
 11
-168.500000
 21
200.048004
  0
LINE
  8
0
  6
CONTINUOUS
 62
7
 10
-176.500000
 20
225.451996
 11
-168.500000
 21
225.451996
  0
LINE
  8
0
  6
CONTINUOUS
 62
7
 10
-166.500000
 20
125.750000
 11
-166.500000
 21
139.750000
  0
LINE
  8
0
  6
CONTINUOUS
 62
7
 10
-176.500000
 20
145.250000
 11
-176.500000
 21
120.250000
  0
LINE
  8
0
  6
CONTINUOUS
 62
7
 10
-206.500000
 20
145.250000
 11
-176.500000
 21
145.250000
  0
LINE
  8
0
  6
CONTINUOUS
 62
7
 10
-206.500000
 20
120.250000
 11
-176.500000
 21
120.250000
  0
LINE
  8
0
  6
CONTINUOUS
 62
7
 10
-186.500000
 20
138.686996
 11
-186.500000
 21
126.813004
  0
LINE
  8
0
  6
CONTINUOUS
 62
7
 10
-186.500000
 20
138.686996
 11
-176.500000
 21
138.686996
  0
LINE
  8
0
  6
CONTINUOUS
 62
7
 10
-186.500000
 20
126.813004
 11
-176.500000
 21
126.813004
  0
LINE
  8
0
  6
CONTINUOUS
 62
2
 10
-186.500000
 20
126.813004
 11
-176.500000
 21
138.686996
  0
LINE
  8
0
  6
CONTINUOUS
 62
2
 10
-186.500000
 20
138.686996
 11
-176.500000
 21
126.813004
  0
LINE
  8
0
  6
CONTINUOUS
 62
7
 10
-168.500000
 20
143.250000
 11
-168.500000
 21
122.250000
  0
LINE
  8
0
  6
CONTINUOUS
 62
7
 10
-176.210999
 20
143.750000
 11
-168.789001
 21
143.750000
  0
LINE
  8
0
  6
CONTINUOUS
 62
7
 10
-176.500000
 20
132.750000
 11
-168.500000
 21
132.750000
  0
LINE
  8
0
  6
CONTINUOUS
 62
7
 10
-176.210999
 20
121.750000
 11
-168.789001
 21
121.750000
  0
LINE
  8
0
  6
CONTINUOUS
 62
7
 10
-168.500000
 20
143.250000
 11
-168.789001
 21
143.750000
  0
LINE
  8
0
  6
CONTINUOUS
 62
7
 10
-168.500000
 20
122.250000
 11
-168.789001
 21
121.750000
  0
LINE
  8
0
  6
CONTINUOUS
 62
7
 10
-176.500000
 20
122.250000
 11
-176.210999
 21
121.750000
  0
LINE
  8
0
  6
CONTINUOUS
 62
7
 10
-176.500000
 20
143.250000
 11
-176.210999
 21
143.750000
  0
LINE
  8
0
  6
CONTINUOUS
 62
7
 10
-168.500000
 20
139.750000
 11
-166.500000
 21
139.750000
  0
LINE
  8
0
  6
CONTINUOUS
 62
7
 10
-168.500000
 20
125.750000
 11
-166.500000
 21
125.750000
  0
LINE
  8
0
  6
CONTINUOUS
 62
2
 10
-168.500000
 20
126.750000
 11
-166.500000
 21
126.750000
  0
LINE
  8
0
  6
CONTINUOUS
 62
2
 10
-168.500000
 20
138.750000
 11
-166.500000
 21
138.750000
  0
LINE
  8
0
  6
CONTINUOUS
 62
7
 10
-166.500000
 20
45.750000
 11
-166.500000
 21
59.750000
  0
LINE
  8
0
  6
CONTINUOUS
 62
7
 10
-176.500000
 20
65.451698
 11
-176.500000
 21
40.048302
  0
LINE
  8
0
  6
CONTINUOUS
 62
7
 10
-206.500000
 20
65.250000
 11
-186.500000
 21
65.250000
  0
LINE
  8
0
  6
CONTINUOUS
 62
7
 10
-206.500000
 20
40.250000
 11
-186.500000
 21
40.250000
  0
LINE
  8
0
  6
CONTINUOUS
 62
7
 10
-186.500000
 20
65.250000
 11
-186.500000
 21
63.750000
  0
LINE
  8
0
  6
CONTINUOUS
 62
7
 10
-168.500000
 20
59.750000
 11
-166.500000
 21
59.750000
  0
LINE
  8
0
  6
CONTINUOUS
 62
7
 10
-168.500000
 20
45.750000
 11
-166.500000
 21
45.750000
  0
LINE
  8
0
  6
CONTINUOUS
 62
2
 10
-168.500000
 20
46.750000
 11
-166.500000
 21
46.750000
  0
LINE
  8
0
  6
CONTINUOUS
 62
2
 10
-168.500000
 20
58.750000
 11
-166.500000
 21
58.750000
  0
LINE
  8
0
  6
CONTINUOUS
 62
7
 10
-186.500000
 20
41.750000
 11
-176.500000
 21
41.750000
  0
LINE
  8
0
  6
CONTINUOUS
 62
7
 10
-186.500000
 20
63.750000
 11
-176.500000
 21
63.750000
  0
LINE
  8
0
  6
CONTINUOUS
 62
7
 10
-186.500000
 20
41.750000
 11
-186.500000
 21
40.250000
  0
LINE
  8
0
  6
CONTINUOUS
 62
7
 10
-168.500000
 20
65.451698
 11
-168.500000
 21
40.048302
  0
LINE
  8
0
  6
CONTINUOUS
 62
7
 10
-176.500000
 20
59.100800
 11
-168.500000
 21
59.100800
  0
LINE
  8
0
  6
CONTINUOUS
 62
7
 10
-176.500000
 20
46.399200
 11
-168.500000
 21
46.399200
  0
LINE
  8
0
  6
CONTINUOUS
 62
7
 10
-176.500000
 20
65.451698
 11
-168.500000
 21
65.451698
  0
LINE
  8
0
  6
CENTER
 62
2
 10
-405.500000
 20
132.750000
 11
-164.500000
 21
132.750000
  0
LINE
  8
0
  6
CENTER
 62
2
 10
-431.500000
 20
154.750000
 11
-421.500000
 21
154.750000
  0
LINE
  8
0
  6
CENTER
 62
2
 10
-431.500000
 20
110.750000
 11
-421.500000
 21
110.750000
  0
LINE
  8
0
  6
CENTER
 62
2
 10
-299.500000
 20
70.750000
 11
-299.500000
 21
60.750000
  0
LINE
  8
0
  6
CENTER
 62
2
 10
-304.500000
 20
65.750000
 11
-294.500000
 21
65.750000
  0
LINE
  8
0
  6
CENTER
 62
2
 10
-299.500000
 20
44.750000
 11
-299.500000
 21
34.750000
  0
LINE
  8
0
  6
CENTER
 62
2
 10
-304.500000
 20
39.750000
 11
-294.500000
 21
39.750000
  0
LINE
  8
0
  6
CENTER
 62
2
 10
-336.500000
 20
70.750000
 11
-336.500000
 21
60.750000
  0
LINE
  8
0
  6
CENTER
 62
2
 10
-341.500000
 20
65.750000
 11
-331.500000
 21
65.750000
  0
LINE
  8
0
  6
CENTER
 62
2
 10
-336.500000
 20
44.750000
 11
-336.500000
 21
34.750000
  0
LINE
  8
0
  6
CENTER
 62
2
 10
-341.500000
 20
39.750000
 11
-331.500000
 21
39.750000
  0
LINE
  8
0
  6
DASHED
 62
2
 10
-312.899994
 20
64.250000
 11
-312.899994
 21
41.250000
  0
LINE
  8
0
  6
DASHED
 62
2
 10
-306.100006
 20
64.250000
 11
-306.100006
 21
41.250000
  0
LINE
  8
0
  6
DASHED
 62
2
 10
-349.899994
 20
64.250000
 11
-349.899994
 21
41.250000
  0
LINE
  8
0
  6
DASHED
 62
2
 10
-343.100006
 20
64.250000
 11
-343.100006
 21
41.250000
  0
LINE
  8
0
  6
CENTER
 62
2
 10
-405.500000
 20
-132.250000
 11
35.499901
 21
-132.250000
  0
LINE
  8
0
  6
CENTER
 62
2
 10
-431.500000
 20
-110.250000
 11
-421.500000
 21
-110.250000
  0
LINE
  8
0
  6
CENTER
 62
2
 10
-431.500000
 20
-154.250000
 11
-421.500000
 21
-154.250000
  0
LINE
  8
0
  6
CENTER
 62
2
 10
-153.500000
 20
-51.349998
 11
-153.500000
 21
-65.150002
  0
LINE
  8
0
  6
CENTER
 62
2
 10
-160.399994
 20
-58.250000
 11
-146.600006
 21
-58.250000
  0
LINE
  8
0
  6
CENTER
 62
2
 10
-296.500000
 20
-39.349998
 11
-296.500000
 21
-53.150002
  0
LINE
  8
0
  6
CENTER
 62
2
 10
-303.399994
 20
-46.250000
 11
-289.600006
 21
-46.250000
  0
LINE
  8
0
  6
DASHED
 62
2
 10
-226.899994
 20
-200.750000
 11
-226.899994
 21
-223.750000
  0
LINE
  8
0
  6
DASHED
 62
2
 10
-220.100006
 20
-200.750000
 11
-220.100006
 21
-223.750000
  0
LINE
  8
0
  6
CENTER
 62
2
 10
-336.500000
 20
-194.250000
 11
-336.500000
 21
-204.250000
  0
LINE
  8
0
  6
CENTER
 62
2
 10
-341.500000
 20
-199.250000
 11
-331.500000
 21
-199.250000
  0
LINE
  8
0
  6
CENTER
 62
2
 10
-299.500000
 20
-194.250000
 11
-299.500000
 21
-204.250000
  0
LINE
  8
0
  6
CENTER
 62
2
 10
-304.500000
 20
-199.250000
 11
-294.500000
 21
-199.250000
  0
LINE
  8
0
  6
CENTER
 62
2
 10
-299.500000
 20
-220.250000
 11
-299.500000
 21
-230.250000
  0
LINE
  8
0
  6
CENTER
 62
2
 10
-304.500000
 20
-225.250000
 11
-294.500000
 21
-225.250000
  0
LINE
  8
0
  6
CENTER
 62
2
 10
-336.500000
 20
-220.250000
 11
-336.500000
 21
-230.250000
  0
LINE
  8
0
  6
CENTER
 62
2
 10
-341.500000
 20
-225.250000
 11
-331.500000
 21
-225.250000
  0
LINE
  8
0
  6
CENTER
 62
2
 10
-213.500000
 20
-220.250000
 11
-213.500000
 21
-230.250000
  0
LINE
  8
0
  6
CENTER
 62
2
 10
-218.500000
 20
-225.250000
 11
-208.500000
 21
-225.250000
  0
LINE
  8
0
  6
CENTER
 62
2
 10
-213.500000
 20
-194.250000
 11
-213.500000
 21
-204.250000
  0
LINE
  8
0
  6
CENTER
 62
2
 10
-218.500000
 20
-199.250000
 11
-208.500000
 21
-199.250000
  0
LINE
  8
0
  6
DASHED
 62
2
 10
-349.899994
 20
-200.750000
 11
-349.899994
 21
-223.750000
  0
LINE
  8
0
  6
DASHED
 62
2
 10
-343.100006
 20
-200.750000
 11
-343.100006
 21
-223.750000
  0
LINE
  8
0
  6
DASHED
 62
2
 10
-312.899994
 20
-200.750000
 11
-312.899994
 21
-223.750000
  0
LINE
  8
0
  6
DASHED
 62
2
 10
-306.100006
 20
-200.750000
 11
-306.100006
 21
-223.750000
  0
LINE
  8
0
  6
CONTINUOUS
 62
4
 10
262.000000
 20
215.000000
 11
322.000000
 21
215.000000
  0
LINE
  8
0
  6
CONTINUOUS
 62
4
 10
276.000000
 20
240.000000
 11
308.000000
 21
240.000000
  0
LINE
  8
0
  6
CONTINUOUS
 62
4
 10
262.000000
 20
232.500000
 11
276.000000
 21
232.500000
  0
LINE
  8
0
  6
CONTINUOUS
 62
4
 10
262.000000
 20
232.500000
 11
262.000000
 21
215.000000
  0
LINE
  8
0
  6
CONTINUOUS
 62
4
 10
322.000000
 20
232.500000
 11
322.000000
 21
215.000000
  0
LINE
  8
0
  6
CENTER
 62
1
 10
292.000000
 20
242.000000
 11
292.000000
 21
213.000000
  0
LINE
  8
0
  6
CONTINUOUS
 62
4
 10
276.000000
 20
240.000000
 11
276.000000
 21
232.500000
  0
LINE
  8
0
  6
CONTINUOUS
 62
4
 10
308.000000
 20
240.000000
 11
308.000000
 21
232.500000
  0
LINE
  8
0
  6
CONTINUOUS
 62
4
 10
308.000000
 20
232.500000
 11
322.000000
 21
232.500000
  0
LINE
  8
0
  6
CENTER
 62
1
 10
315.000000
 20
234.500000
 11
315.000000
 21
213.000000
  0
LINE
  8
0
  6
CENTER
 62
1
 10
269.000000
 20
234.500000
 11
269.000000
 21
213.000000
  0
LINE
  8
0
  6
DASHED
 62
4
 10
311.600006
 20
232.500000
 11
311.600006
 21
215.000000
  0
LINE
  8
0
  6
DASHED
 62
4
 10
318.399994
 20
232.500000
 11
318.399994
 21
215.000000
  0
LINE
  8
0
  6
CONTINUOUS
 62
4
 10
262.000000
 20
200.000000
 11
322.000000
 21
200.000000
  0
LINE
  8
0
  6
CONTINUOUS
 62
4
 10
262.000000
 20
170.000000
 11
322.000000
 21
170.000000
  0
LINE
  8
0
  6
CONTINUOUS
 62
4
 10
262.000000
 20
200.000000
 11
262.000000
 21
170.000000
  0
LINE
  8
0
  6
CONTINUOUS
 62
4
 10
322.000000
 20
170.000000
 11
322.000000
 21
200.000000
  0
LINE
  8
0
  6
CONTINUOUS
 62
4
 10
342.000000
 20
170.000000
 11
342.000000
 21
200.000000
  0
LINE
  8
0
  6
CONTINUOUS
 62
4
 10
367.000000
 20
170.000000
 11
367.000000
 21
200.000000
  0
LINE
  8
0
  6
CONTINUOUS
 62
4
 10
342.000000
 20
200.000000
 11
367.000000
 21
200.000000
  0
LINE
  8
0
  6
CONTINUOUS
 62
4
 10
342.000000
 20
170.000000
 11
367.000000
 21
170.000000
  0
LINE
  8
0
  6
CENTER
 62
1
 10
340.000000
 20
185.000000
 11
369.000000
 21
185.000000
  0
LINE
  8
0
  6
CONTINUOUS
 62
7
 10
322.000000
 20
-44.000000
 11
332.000000
 21
-44.000000
  0
LINE
  8
0
  6
CONTINUOUS
 62
7
 10
322.000000
 20
-80.000000
 11
332.000000
 21
-80.000000
  0
LINE
  8
0
  6
CONTINUOUS
 62
7
 10
322.000000
 20
-44.000000
 11
322.000000
 21
-80.000000
  0
LINE
  8
0
  6
CENTER
 62
1
 10
274.000000
 20
-62.000000
 11
332.000000
 21
-62.000000
  0
LINE
  8
0
  6
CONTINUOUS
 62
4
 10
302.731995
 20
-70.000000
 11
322.000000
 21
-70.000000
  0
LINE
  8
0
  6
CONTINUOUS
 62
4
 10
302.731995
 20
-54.000000
 11
322.000000
 21
-54.000000
  0
LINE
  8
0
  6
CONTINUOUS
 62
4
 10
277.000000
 20
-55.000000
 11
277.000000
 21
-69.000000
  0
LINE
  8
0
  6
CONTINUOUS
 62
7
 10
322.000000
 20
86.000000
 11
332.000000
 21
86.000000
  0
LINE
  8
0
  6
CONTINUOUS
 62
7
 10
322.000000
 20
50.000000
 11
332.000000
 21
50.000000
  0
LINE
  8
0
  6
CONTINUOUS
 62
7
 10
322.000000
 20
86.000000
 11
322.000000
 21
50.000000
  0
LINE
  8
0
  6
CENTER
 62
1
 10
275.000000
 20
68.000000
 11
332.000000
 21
68.000000
  0
LINE
  8
0
  6
CONTINUOUS
 62
4
 10
277.000000
 20
60.000000
 11
284.000000
 21
60.000000
  0
LINE
  8
0
  6
CONTINUOUS
 62
4
 10
277.000000
 20
76.000000
 11
284.000000
 21
76.000000
  0
LINE
  8
0
  6
CONTINUOUS
 62
4
 10
277.000000
 20
76.000000
 11
277.000000
 21
60.000000
  0
LINE
  8
0
  6
CONTINUOUS
 62
4
 10
284.000000
 20
76.000000
 11
284.000000
 21
75.000000
  0
LINE
  8
0
  6
CONTINUOUS
 62
4
 10
291.500000
 20
76.000000
 11
291.500000
 21
75.000000
  0
LINE
  8
0
  6
CONTINUOUS
 62
4
 10
284.000000
 20
61.000000
 11
291.500000
 21
61.000000
  0
LINE
  8
0
  6
CONTINUOUS
 62
4
 10
284.000000
 20
75.000000
 11
291.500000
 21
75.000000
  0
LINE
  8
0
  6
CONTINUOUS
 62
7
 10
291.500000
 20
61.000000
 11
291.500000
 21
60.000000
  0
LINE
  8
0
  6
CONTINUOUS
 62
4
 10
284.000000
 20
61.000000
 11
284.000000
 21
60.000000
  0
LINE
  8
0
  6
CONTINUOUS
 62
4
 10
291.500000
 20
60.000000
 11
322.000000
 21
60.000000
  0
LINE
  8
0
  6
CONTINUOUS
 62
4
 10
291.500000
 20
76.000000
 11
322.000000
 21
76.000000
  0
LINE
  8
0
  6
DASHED
 62
1
 10
295.000000
 20
74.000000
 11
295.000000
 21
62.000000
  0
LINE
  8
0
  6
DASHED
 62
1
 10
277.000000
 20
62.000000
 11
295.000000
 21
62.000000
  0
LINE
  8
0
  6
DASHED
 62
1
 10
277.000000
 20
74.000000
 11
295.000000
 21
74.000000
  0
LINE
  8
0
  6
DASHED
 62
1
 10
277.000000
 20
73.053001
 11
301.000000
 21
73.053001
  0
LINE
  8
0
  6
DASHED
 62
1
 10
277.000000
 20
62.946999
 11
301.000000
 21
62.946999
  0
LINE
  8
0
  6
CONTINUOUS
 62
4
 10
298.000000
 20
-55.000000
 11
298.000000
 21
-69.000000
  0
LINE
  8
0
  6
CONTINUOUS
 62
4
 10
301.000000
 20
-55.000000
 11
301.000000
 21
-69.000000
  0
LINE
  8
0
  6
CONTINUOUS
 62
4
 10
308.500000
 20
-58.126999
 11
308.500000
 21
-65.873001
  0
LINE
  8
0
  6
CONTINUOUS
 62
4
 10
277.000000
 20
-69.000000
 11
286.000000
 21
-69.000000
  0
LINE
  8
0
  6
CONTINUOUS
 62
4
 10
277.000000
 20
-55.000000
 11
286.000000
 21
-55.000000
  0
LINE
  8
0
  6
CONTINUOUS
 62
1
 10
277.000000
 20
-56.082500
 11
286.000000
 21
-56.082500
  0
LINE
  8
0
  6
CONTINUOUS
 62
1
 10
277.000000
 20
-67.917503
 11
286.000000
 21
-67.917503
  0
LINE
  8
0
  6
CONTINUOUS
 62
4
 10
301.000000
 20
-54.999802
 11
302.731995
 21
-53.999699
  0
LINE
  8
0
  6
CONTINUOUS
 62
4
 10
301.000000
 20
-68.999802
 11
302.731995
 21
-69.999802
  0
LINE
  8
0
  6
CONTINUOUS
 62
4
 10
302.734009
 20
-70.000000
 11
302.734009
 21
-65.873001
  0
LINE
  8
0
  6
CENTER
 62
1
 10
314.750000
 20
-34.000000
 11
294.750000
 21
-34.000000
  0
LINE
  8
0
  6
CENTER
 62
1
 10
304.750000
 20
-24.000000
 11
304.750000
 21
-44.000000
  0
LINE
  8
0
  6
CONTINUOUS
 62
4
 10
311.750000
 20
-30.127001
 11
311.750000
 21
-37.873001
  0
LINE
  8
0
  6
CONTINUOUS
 62
4
 10
297.750000
 20
-30.127001
 11
297.750000
 21
-37.873001
  0
LINE
  8
0
  6
CONTINUOUS
 62
4
 10
301.000000
 20
-58.126999
 11
308.500000
 21
-58.126999
  0
LINE
  8
0
  6
CONTINUOUS
 62
4
 10
301.000000
 20
-65.873001
 11
308.500000
 21
-65.873001
  0
LINE
  8
0
  6
CONTINUOUS
 62
4
 10
302.734009
 20
-58.126999
 11
302.734009
 21
-54.000000
  0
LINE
  8
0
  6
CONTINUOUS
 62
1
 10
301.001007
 20
-65.873497
 11
308.501007
 21
-58.127499
  0
LINE
  8
0
  6
CONTINUOUS
 62
1
 10
301.000000
 20
-58.127201
 11
308.500000
 21
-65.873199
  0
LINE
  8
0
  6
DASHED
 62
1
 10
301.000000
 20
73.053001
 11
301.000000
 21
62.946999
  0
LINE
  8
0
  6
CENTER
 62
1
 10
297.750000
 20
96.000000
 11
277.750000
 21
96.000000
  0
LINE
  8
0
  6
CENTER
 62
1
 10
287.750000
 20
106.000000
 11
287.750000
 21
86.000000
  0
LINE
  8
0
  6
CONTINUOUS
 62
4
 10
291.622986
 20
103.000000
 11
283.877014
 21
103.000000
  0
LINE
  8
0
  6
CONTINUOUS
 62
4
 10
291.622986
 20
89.000000
 11
283.877014
 21
89.000000
  0
LINE
  8
0
  6
CONTINUOUS
 62
4
 10
286.000000
 20
-74.701698
 11
294.000000
 21
-74.701698
  0
LINE
  8
0
  6
CONTINUOUS
 62
4
 10
294.000000
 20
-49.298302
 11
294.000000
 21
-74.701698
  0
LINE
  8
0
  6
CONTINUOUS
 62
4
 10
286.000000
 20
-49.298302
 11
286.000000
 21
-74.701698
  0
LINE
  8
0
  6
CONTINUOUS
 62
4
 10
286.000000
 20
-68.350899
 11
294.000000
 21
-68.350899
  0
LINE
  8
0
  6
CONTINUOUS
 62
4
 10
286.000000
 20
-49.298302
 11
294.000000
 21
-49.298302
  0
LINE
  8
0
  6
CONTINUOUS
 62
4
 10
286.000000
 20
-55.649101
 11
294.000000
 21
-55.649101
  0
LINE
  8
0
  6
CONTINUOUS
 62
1
 10
294.000000
 20
-67.917503
 11
298.000000
 21
-67.917503
  0
LINE
  8
0
  6
CONTINUOUS
 62
4
 10
294.000000
 20
-69.000000
 11
301.000000
 21
-69.000000
  0
LINE
  8
0
  6
CONTINUOUS
 62
1
 10
294.000000
 20
-56.082500
 11
298.000000
 21
-56.082500
  0
LINE
  8
0
  6
CONTINUOUS
 62
4
 10
294.000000
 20
-55.000000
 11
301.000000
 21
-55.000000
  0
LINE
  8
0
  6
CONTINUOUS
 62
4
 10
359.500000
 20
170.000000
 11
359.500000
 21
200.000000
  0
LINE
  8
0
  6
CENTER
 62
1
 10
269.000000
 20
198.899994
 11
269.000000
 21
188.100006
  0
LINE
  8
0
  6
CENTER
 62
1
 10
263.600006
 20
193.500000
 11
274.399994
 21
193.500000
  0
LINE
  8
0
  6
CENTER
 62
1
 10
292.000000
 20
195.000000
 11
292.000000
 21
175.000000
  0
LINE
  8
0
  6
CENTER
 62
1
 10
282.000000
 20
185.000000
 11
302.000000
 21
185.000000
  0
LINE
  8
0
  6
CENTER
 62
1
 10
315.000000
 20
198.899994
 11
315.000000
 21
188.100006
  0
LINE
  8
0
  6
CENTER
 62
1
 10
309.600006
 20
193.500000
 11
320.399994
 21
193.500000
  0
LINE
  8
0
  6
CENTER
 62
1
 10
315.000000
 20
181.899994
 11
315.000000
 21
171.100006
  0
LINE
  8
0
  6
CENTER
 62
1
 10
309.600006
 20
176.500000
 11
320.399994
 21
176.500000
  0
LINE
  8
0
  6
CENTER
 62
1
 10
269.000000
 20
181.899994
 11
269.000000
 21
171.100006
  0
LINE
  8
0
  6
CENTER
 62
1
 10
263.600006
 20
176.500000
 11
274.399994
 21
176.500000
  0
LINE
  8
0
  6
CENTER
 62
1
 10
300.431000
 20
-192.000000
 11
407.431000
 21
-192.000000
  0
LINE
  8
0
  6
CONTINUOUS
 62
7
 10
397.431000
 20
-219.000000
 11
397.431000
 21
-165.000000
  0
LINE
  8
0
  6
CONTINUOUS
 62
7
 10
397.431000
 20
-219.000000
 11
407.431000
 21
-219.000000
  0
LINE
  8
0
  6
CONTINUOUS
 62
7
 10
397.431000
 20
-165.000000
 11
407.431000
 21
-165.000000
  0
LINE
  8
0
  6
CONTINUOUS
 62
2
 10
397.431000
 20
-174.699997
 11
407.431000
 21
-174.699997
  0
LINE
  8
0
  6
CONTINUOUS
 62
2
 10
397.431000
 20
-177.300003
 11
407.431000
 21
-177.300003
  0
LINE
  8
0
  6
CONTINUOUS
 62
2
 10
397.431000
 20
-206.699997
 11
407.431000
 21
-206.699997
  0
LINE
  8
0
  6
CONTINUOUS
 62
2
 10
397.431000
 20
-209.300003
 11
407.431000
 21
-209.300003
  0
LINE
  8
0
  6
CONTINUOUS
 62
4
 10
302.431000
 20
-200.000000
 11
326.431000
 21
-200.000000
  0
LINE
  8
0
  6
CONTINUOUS
 62
4
 10
302.431000
 20
-184.000000
 11
326.431000
 21
-184.000000
  0
LINE
  8
0
  6
CONTINUOUS
 62
4
 10
302.431000
 20
-184.000000
 11
302.431000
 21
-200.000000
  0
LINE
  8
0
  6
CONTINUOUS
 62
4
 10
326.431000
 20
-176.500000
 11
326.431000
 21
-207.500000
  0
LINE
  8
0
  6
CONTINUOUS
 62
4
 10
326.431000
 20
-176.500000
 11
376.431000
 21
-176.500000
  0
LINE
  8
0
  6
CONTINUOUS
 62
4
 10
376.431000
 20
-207.500000
 11
326.431000
 21
-207.500000
  0
LINE
  8
0
  6
CONTINUOUS
 62
4
 10
376.431000
 20
-207.500000
 11
376.431000
 21
-176.500000
  0
LINE
  8
0
  6
CONTINUOUS
 62
4
 10
376.431000
 20
-184.000000
 11
397.431000
 21
-184.000000
  0
LINE
  8
0
  6
CONTINUOUS
 62
4
 10
376.431000
 20
-200.000000
 11
397.431000
 21
-200.000000
  0
LINE
  8
0
  6
DASHED
 62
1
 10
302.431000
 20
-196.000000
 11
315.431000
 21
-196.000000
  0
LINE
  8
0
  6
DASHED
 62
1
 10
302.431000
 20
-188.000000
 11
315.431000
 21
-188.000000
  0
LINE
  8
0
  6
DASHED
 62
1
 10
315.431000
 20
-188.000000
 11
315.431000
 21
-196.000000
  0
LINE
  8
0
  6
DASHED
 62
1
 10
318.431000
 20
-188.675995
 11
318.431000
 21
-195.322998
  0
LINE
  8
0
  6
DASHED
 62
1
 10
342.681000
 20
-178.500000
 11
360.181000
 21
-178.500000
  0
LINE
  8
0
  6
DASHED
 62
1
 10
342.681000
 20
-176.500000
 11
342.681000
 21
-178.500000
  0
LINE
  8
0
  6
DASHED
 62
1
 10
360.181000
 20
-178.500000
 11
360.181000
 21
-176.500000
  0
LINE
  8
0
  6
DASHED
 62
1
 10
260.681000
 20
-176.598999
 11
260.681000
 21
-178.500000
  0
LINE
  8
0
  6
DASHED
 62
1
 10
260.681000
 20
-178.500000
 11
264.181000
 21
-178.500000
  0
LINE
  8
0
  6
DASHED
 62
1
 10
264.181000
 20
-176.598999
 11
264.181000
 21
-178.500000
  0
LINE
  8
0
  6
CENTER
 62
1
 10
263.375000
 20
-173.985001
 11
262.431000
 21
-192.000000
  0
LINE
  8
0
  6
CENTER
 62
1
 10
244.391006
 20
-192.000000
 11
280.471008
 21
-192.000000
  0
LINE
  8
0
  6
DASHED
 62
1
 10
302.431000
 20
-188.675995
 11
318.431000
 21
-188.675995
  0
LINE
  8
0
  6
DASHED
 62
1
 10
302.431000
 20
-195.322998
 11
318.431000
 21
-195.322998
  0
LINE
  8
0
  6
CONTINUOUS
 62
4
 10
344.431000
 20
-154.750000
 11
358.431000
 21
-154.750000
  0
LINE
  8
0
  6
CONTINUOUS
 62
4
 10
344.431000
 20
-158.250000
 11
358.431000
 21
-158.250000
  0
LINE
  8
0
  6
CENTER
 62
1
 10
340.681000
 20
-156.500000
 11
362.181000
 21
-156.500000
  0
LINE
  8
0
  6
CENTER
 62
1
 10
262.431000
 20
-173.960007
 11
262.431000
 21
-210.039993
  0
LINE
  8
0
  6
CENTER
 62
1
 10
261.485992
 20
-173.985001
 11
262.431000
 21
-192.000000
  0
LINE
  8
0
  6
CENTER
 62
1
 10
435.553009
 20
-128.518997
 11
414.606995
 21
-128.518997
  0
LINE
  8
0
  6
CENTER
 62
1
 10
400.057007
 20
-136.268997
 11
400.057007
 21
-143.768997
  0
LINE
  8
0
  6
CONTINUOUS
 62
4
 10
401.807007
 20
-138.268997
 11
401.807007
 21
-141.768997
  0
LINE
  8
0
  6
CONTINUOUS
 62
4
 10
398.307007
 20
-138.268997
 11
398.307007
 21
-141.768997
  0
LINE
  8
0
  6
CONTINUOUS
 62
4
 10
398.307007
 20
-141.768997
 11
401.807007
 21
-141.768997
  0
LINE
  8
0
  6
CONTINUOUS
 62
4
 10
398.307007
 20
-138.268997
 11
401.807007
 21
-138.268997
  0
LINE
  8
0
  6
CONTINUOUS
 62
4
 10
434.307007
 20
-141.768997
 11
416.807007
 21
-141.768997
  0
LINE
  8
0
  6
CONTINUOUS
 62
4
 10
434.307007
 20
-138.268997
 11
416.807007
 21
-138.268997
  0
LINE
  8
0
  6
CONTINUOUS
 62
4
 10
432.557007
 20
-126.768997
 11
418.557007
 21
-126.768997
  0
LINE
  8
0
  6
CONTINUOUS
 62
4
 10
432.557007
 20
-130.268997
 11
418.557007
 21
-130.268997
  0
LINE
  8
0
  6
CONTINUOUS
 62
4
 10
416.807007
 20
-138.268997
 11
416.807007
 21
-141.768997
  0
LINE
  8
0
  6
CONTINUOUS
 62
4
 10
434.307007
 20
-138.268997
 11
434.307007
 21
-141.768997
  0
CIRCLE
  8
0
  6
CONTINUOUS
 62
7
 10
-299.500000
 20
39.750000
 40
2.500000
  0
CIRCLE
  8
0
  6
CONTINUOUS
 62
7
 10
-336.500000
 20
65.750000
 40
2.500000
  0
CIRCLE
  8
0
  6
CONTINUOUS
 62
7
 10
-336.500000
 20
39.750000
 40
2.500000
  0
CIRCLE
  8
0
  6
CONTINUOUS
 62
7
 10
-299.500000
 20
65.750000
 40
2.500000
  0
CIRCLE
  8
0
  6
CONTINUOUS
 62
2
 10
-336.500000
 20
65.750000
 40
3.000000
  0
CIRCLE
  8
0
  6
CONTINUOUS
 62
2
 10
-299.500000
 20
65.750000
 40
3.000000
  0
CIRCLE
  8
0
  6
CONTINUOUS
 62
2
 10
-299.500000
 20
39.750000
 40
3.000000
  0
CIRCLE
  8
0
  6
CONTINUOUS
 62
2
 10
-336.500000
 20
39.750000
 40
3.000000
  0
CIRCLE
  8
0
  6
CONTINUOUS
 62
7
 10
-253.500000
 20
206.750000
 40
4.300000
  0
CIRCLE
  8
0
  6
CONTINUOUS
 62
2
 10
-253.500000
 20
206.750000
 40
4.900000
  0
CIRCLE
  8
0
  6
CONTINUOUS
 62
7
 10
-296.500000
 20
218.750000
 40
4.300000
  0
CIRCLE
  8
0
  6
CONTINUOUS
 62
2
 10
-296.500000
 20
218.750000
 40
4.900000
  0
CIRCLE
  8
0
  6
CONTINUOUS
 62
7
 10
-426.500000
 20
154.750000
 40
2.500000
  0
CIRCLE
  8
0
  6
CONTINUOUS
 62
2
 10
-426.500000
 20
154.750000
 40
3.000000
  0
CIRCLE
  8
0
  6
CONTINUOUS
 62
7
 10
-426.500000
 20
110.750000
 40
2.500000
  0
CIRCLE
  8
0
  6
CONTINUOUS
 62
2
 10
-426.500000
 20
110.750000
 40
3.000000
  0
ARC
  8
0
  6
CONTINUOUS
 62
2
 10
-413.299988
 20
149.399994
 40
1.500000
 50
90.000000
 51
180.000000
  0
ARC
  8
0
  6
CONTINUOUS
 62
2
 10
-413.299988
 20
148.100006
 40
1.500000
 50
180.000000
 51
270.000000
  0
CIRCLE
  8
0
  6
CONTINUOUS
 62
7
 10
-426.500000
 20
132.750000
 40
8.000000
  0
CIRCLE
  8
0
  6
CONTINUOUS
 62
7
 10
-309.500000
 20
153.750000
 40
5.250000
  0
CIRCLE
  8
0
  6
CONTINUOUS
 62
7
 10
-346.500000
 20
153.750000
 40
5.250000
  0
CIRCLE
  8
0
  6
CONTINUOUS
 62
7
 10
-346.500000
 20
111.750000
 40
5.250000
  0
CIRCLE
  8
0
  6
CONTINUOUS
 62
7
 10
-309.500000
 20
111.750000
 40
5.250000
  0
CIRCLE
  8
0
  6
CONTINUOUS
 62
2
 10
-346.500000
 20
153.750000
 40
4.000000
  0
CIRCLE
  8
0
  6
CONTINUOUS
 62
2
 10
-309.500000
 20
153.750000
 40
4.000000
  0
CIRCLE
  8
0
  6
CONTINUOUS
 62
2
 10
-309.500000
 20
111.750000
 40
4.000000
  0
CIRCLE
  8
0
  6
CONTINUOUS
 62
2
 10
-346.500000
 20
111.750000
 40
4.000000
  0
ARC
  8
0
  6
CONTINUOUS
 62
2
 10
74.699898
 20
-115.599998
 40
1.500000
 50
90.000000
 51
180.000000
  0
ARC
  8
0
  6
CONTINUOUS
 62
2
 10
74.699898
 20
-116.900002
 40
1.500000
 50
180.000000
 51
270.000000
  0
CIRCLE
  8
0
  6
CONTINUOUS
 62
7
 10
-213.500000
 20
-225.250000
 40
2.500000
  0
CIRCLE
  8
0
  6
CONTINUOUS
 62
7
 10
-336.500000
 20
-199.250000
 40
2.500000
  0
CIRCLE
  8
0
  6
CONTINUOUS
 62
7
 10
-336.500000
 20
-225.250000
 40
2.500000
  0
CIRCLE
  8
0
  6
CONTINUOUS
 62
7
 10
-213.500000
 20
-199.250000
 40
2.500000
  0
CIRCLE
  8
0
  6
CONTINUOUS
 62
2
 10
-336.500000
 20
-199.250000
 40
3.000000
  0
CIRCLE
  8
0
  6
CONTINUOUS
 62
2
 10
-213.500000
 20
-199.250000
 40
3.000000
  0
CIRCLE
  8
0
  6
CONTINUOUS
 62
2
 10
-213.500000
 20
-225.250000
 40
3.000000
  0
CIRCLE
  8
0
  6
CONTINUOUS
 62
2
 10
-336.500000
 20
-225.250000
 40
3.000000
  0
CIRCLE
  8
0
  6
CONTINUOUS
 62
7
 10
-426.500000
 20
-110.250000
 40
2.500000
  0
CIRCLE
  8
0
  6
CONTINUOUS
 62
2
 10
-426.500000
 20
-110.250000
 40
3.000000
  0
CIRCLE
  8
0
  6
CONTINUOUS
 62
7
 10
-426.500000
 20
-154.250000
 40
2.500000
  0
CIRCLE
  8
0
  6
CONTINUOUS
 62
2
 10
-426.500000
 20
-154.250000
 40
3.000000
  0
ARC
  8
0
  6
CONTINUOUS
 62
2
 10
-413.299988
 20
-115.599998
 40
1.500000
 50
90.000000
 51
180.000000
  0
ARC
  8
0
  6
CONTINUOUS
 62
2
 10
-413.299988
 20
-116.900002
 40
1.500000
 50
180.000000
 51
270.000000
  0
CIRCLE
  8
0
  6
CONTINUOUS
 62
7
 10
-426.500000
 20
-132.250000
 40
8.000000
  0
CIRCLE
  8
0
  6
CONTINUOUS
 62
7
 10
-223.500000
 20
-111.250000
 40
5.250000
  0
CIRCLE
  8
0
  6
CONTINUOUS
 62
7
 10
-346.500000
 20
-111.250000
 40
5.250000
  0
CIRCLE
  8
0
  6
CONTINUOUS
 62
7
 10
-346.500000
 20
-153.250000
 40
5.250000
  0
CIRCLE
  8
0
  6
CONTINUOUS
 62
7
 10
-223.500000
 20
-153.250000
 40
5.250000
  0
CIRCLE
  8
0
  6
CONTINUOUS
 62
2
 10
-346.500000
 20
-111.250000
 40
4.000000
  0
CIRCLE
  8
0
  6
CONTINUOUS
 62
2
 10
-223.500000
 20
-111.250000
 40
4.000000
  0
CIRCLE
  8
0
  6
CONTINUOUS
 62
2
 10
-223.500000
 20
-153.250000
 40
4.000000
  0
CIRCLE
  8
0
  6
CONTINUOUS
 62
2
 10
-346.500000
 20
-153.250000
 40
4.000000
  0
CIRCLE
  8
0
  6
CONTINUOUS
 62
7
 10
-309.500000
 20
-153.250000
 40
5.250000
  0
CIRCLE
  8
0
  6
CONTINUOUS
 62
2
 10
-309.500000
 20
-153.250000
 40
4.000000
  0
CIRCLE
  8
0
  6
CONTINUOUS
 62
7
 10
-309.500000
 20
-111.250000
 40
5.250000
  0
CIRCLE
  8
0
  6
CONTINUOUS
 62
2
 10
-309.500000
 20
-111.250000
 40
4.000000
  0
CIRCLE
  8
0
  6
CONTINUOUS
 62
2
 10
-299.500000
 20
-225.250000
 40
3.000000
  0
CIRCLE
  8
0
  6
CONTINUOUS
 62
7
 10
-299.500000
 20
-225.250000
 40
2.500000
  0
CIRCLE
  8
0
  6
CONTINUOUS
 62
7
 10
-299.500000
 20
-199.250000
 40
2.500000
  0
CIRCLE
  8
0
  6
CONTINUOUS
 62
2
 10
-299.500000
 20
-199.250000
 40
3.000000
  0
CIRCLE
  8
0
  6
CONTINUOUS
 62
7
 10
-153.500000
 20
-58.250000
 40
4.300000
  0
CIRCLE
  8
0
  6
CONTINUOUS
 62
2
 10
-153.500000
 20
-58.250000
 40
4.900000
  0
CIRCLE
  8
0
  6
CONTINUOUS
 62
7
 10
-296.500000
 20
-46.250000
 40
4.300000
  0
CIRCLE
  8
0
  6
CONTINUOUS
 62
2
 10
-296.500000
 20
-46.250000
 40
4.900000
  0
ARC
  8
0
  6
CONTINUOUS
 62
7
 10
61.499901
 20
-132.250000
 40
12.500000
 50
121.641998
 51
178.358002
  0
ARC
  8
0
  6
CONTINUOUS
 62
7
 10
61.499901
 20
-132.250000
 40
12.500000
 50
301.643005
 51
358.356995
  0
ARC
  8
0
  6
CONTINUOUS
 62
7
 10
61.499901
 20
-132.250000
 40
12.500000
 50
1.642370
 51
58.357601
  0
ARC
  8
0
  6
CONTINUOUS
 62
7
 10
61.499901
 20
-132.250000
 40
12.500000
 50
61.642399
 51
118.358002
  0
ARC
  8
0
  6
CONTINUOUS
 62
7
 10
61.499901
 20
-132.250000
 40
12.500000
 50
181.641998
 51
238.358002
  0
ARC
  8
0
  6
CONTINUOUS
 62
7
 10
61.499901
 20
-132.250000
 40
12.500000
 50
241.641998
 51
298.358002
  0
ARC
  8
0
  6
CONTINUOUS
 62
2
 10
-125.300003
 20
149.399994
 40
1.500000
 50
90.000000
 51
180.000000
  0
ARC
  8
0
  6
CONTINUOUS
 62
2
 10
-125.300003
 20
148.100006
 40
1.500000
 50
180.000000
 51
270.000000
  0
ARC
  8
0
  6
CONTINUOUS
 62
7
 10
-138.500000
 20
132.750000
 40
12.500000
 50
121.641998
 51
178.358002
  0
ARC
  8
0
  6
CONTINUOUS
 62
7
 10
-138.500000
 20
132.750000
 40
12.500000
 50
301.643005
 51
358.356995
  0
ARC
  8
0
  6
CONTINUOUS
 62
7
 10
-138.500000
 20
132.750000
 40
12.500000
 50
1.642370
 51
58.357601
  0
ARC
  8
0
  6
CONTINUOUS
 62
7
 10
-138.500000
 20
132.750000
 40
12.500000
 50
61.642300
 51
118.358002
  0
ARC
  8
0
  6
CONTINUOUS
 62
7
 10
-138.500000
 20
132.750000
 40
12.500000
 50
181.641998
 51
238.358002
  0
ARC
  8
0
  6
CONTINUOUS
 62
7
 10
-138.500000
 20
132.750000
 40
12.500000
 50
241.641998
 51
298.358002
  0
CIRCLE
  8
0
  6
CONTINUOUS
 62
2
 10
61.499901
 20
-132.250000
 40
6.000000
  0
CIRCLE
  8
0
  6
CONTINUOUS
 62
7
 10
61.499901
 20
-132.250000
 40
7.000000
  0
CIRCLE
  8
0
  6
CONTINUOUS
 62
2
 10
-138.500000
 20
132.750000
 40
6.000000
  0
CIRCLE
  8
0
  6
CONTINUOUS
 62
7
 10
-138.500000
 20
132.750000
 40
7.000000
  0
CIRCLE
  8
0
  6
CONTINUOUS
 62
7
 10
-346.500000
 20
111.750000
 40
3.400000
  0
CIRCLE
  8
0
  6
CONTINUOUS
 62
7
 10
-346.500000
 20
153.750000
 40
3.400000
  0
CIRCLE
  8
0
  6
CONTINUOUS
 62
7
 10
-309.500000
 20
153.750000
 40
3.400000
  0
CIRCLE
  8
0
  6
CONTINUOUS
 62
7
 10
-309.500000
 20
111.750000
 40
3.400000
  0
CIRCLE
  8
0
  6
CONTINUOUS
 62
7
 10
-346.500000
 20
-111.250000
 40
3.400000
  0
CIRCLE
  8
0
  6
CONTINUOUS
 62
7
 10
-309.500000
 20
-111.250000
 40
3.400000
  0
CIRCLE
  8
0
  6
CONTINUOUS
 62
7
 10
-223.500000
 20
-111.250000
 40
3.400000
  0
CIRCLE
  8
0
  6
CONTINUOUS
 62
7
 10
-223.500000
 20
-153.250000
 40
3.400000
  0
CIRCLE
  8
0
  6
CONTINUOUS
 62
7
 10
-309.500000
 20
-153.250000
 40
3.400000
  0
CIRCLE
  8
0
  6
CONTINUOUS
 62
7
 10
-346.500000
 20
-153.250000
 40
3.400000
  0
CIRCLE
  8
0
  6
CONTINUOUS
 62
4
 10
292.000000
 20
185.000000
 40
8.000000
  0
CIRCLE
  8
0
  6
CONTINUOUS
 62
4
 10
315.000000
 20
193.500000
 40
3.400000
  0
CIRCLE
  8
0
  6
CONTINUOUS
 62
4
 10
315.000000
 20
176.500000
 40
3.400000
  0
CIRCLE
  8
0
  6
CONTINUOUS
 62
4
 10
269.000000
 20
176.500000
 40
3.400000
  0
CIRCLE
  8
0
  6
CONTINUOUS
 62
4
 10
269.000000
 20
193.500000
 40
3.400000
  0
CIRCLE
  8
0
  6
CONTINUOUS
 62
4
 10
304.750000
 20
-34.000000
 40
8.000000
  0
CIRCLE
  8
0
  6
CONTINUOUS
 62
4
 10
287.750000
 20
96.000000
 40
8.000000
  0
CIRCLE
  8
0
  6
CONTINUOUS
 62
4
 10
262.431000
 20
-192.000000
 40
15.500000
  0
CIRCLE
  8
0
  6
CONTINUOUS
 62
4
 10
262.431000
 20
-192.000000
 40
8.000000
  0
CIRCLE
  8
0
  6
CONTINUOUS
 62
1
 10
262.431000
 20
-192.000000
 40
4.000000
  0
CIRCLE
  8
0
  6
CONTINUOUS
 62
4
 10
262.431000
 20
-192.000000
 40
3.323500
  0
ARC
  8
0
  6
CONTINUOUS
 62
4
 10
344.431000
 20
-156.500000
 40
1.750000
 50
90.000000
 51
270.000000
  0
ARC
  8
0
  6
CONTINUOUS
 62
4
 10
358.431000
 20
-156.500000
 40
1.750000
 50
270.000000
 51
90.000000
  0
ARC
  8
0
  6
CONTINUOUS
 62
4
 10
418.557007
 20
-128.518997
 40
1.750000
 50
90.000000
 51
270.000000
  0
ARC
  8
0
  6
CONTINUOUS
 62
4
 10
432.557007
 20
-128.518997
 40
1.750000
 50
270.000000
 51
90.000000
  0
TEXT
  8
0
 62
7
 10
-540.750793
 20
337.375000
 40
12.500000
  1
MODEL:AXAS-SD30-25-ZE-R***
 50
0.000000
 41
0.756745
 51
0.000000
  7
STANDARD
  0
TEXT
  8
0
 62
7
 10
421.464844
 20
382.375000
 40
12.500000
  1
Ver.1.0
 50
0.000000
 41
1.010331
 51
0.000000
  7
STANDARD
  0
TEXT
  8
0
 62
7
 10
355.729370
 20
-390.000000
 40
18.000000
  1
KOGANEI CORP.
 50
0.000000
 41
0.771525
 51
0.000000
  7
STANDARD
  0
TEXT
  8
0
 62
7
 10
-512.535156
 20
382.375000
 40
12.500000
  1
AX CYLINDER
 50
0.000000
 41
0.783349
 51
0.000000
  7
STANDARD
  0
TEXT
  8
0
 62
7
 10
-232.699997
 20
230.750000
 40
3.200000
  1
25st
 50
90.000000
 41
0.857250
 51
0.000000
  7
STANDARD
  0
TEXT
  8
0
 62
7
 10
-207.699997
 20
230.750000
 40
3.200000
  1
50st
 50
90.000000
 41
0.907676
 51
0.000000
  7
STANDARD
  0
TEXT
  8
0
 62
7
 10
-182.699997
 20
230.750000
 40
3.200000
  1
75st
 50
90.000000
 41
0.857250
 51
0.000000
  7
STANDARD
  0
TEXT
  8
0
 62
7
 10
-157.699997
 20
230.750000
 40
3.200000
  1
100st
 50
90.000000
 41
0.985838
 51
0.000000
  7
STANDARD
  0
TEXT
  8
0
 62
7
 10
-132.699997
 20
-34.250000
 40
3.200000
  1
125st
 50
90.000000
 41
0.896216
 51
0.000000
  7
STANDARD
  0
TEXT
  8
0
 62
7
 10
-107.699997
 20
-34.250000
 40
3.200000
  1
150st
 50
90.000000
 41
0.938893
 51
0.000000
  7
STANDARD
  0
TEXT
  8
0
 62
7
 10
-82.700096
 20
-34.250000
 40
3.200000
  1
175st
 50
90.000000
 41
0.896216
 51
0.000000
  7
STANDARD
  0
TEXT
  8
0
 62
7
 10
-57.700100
 20
-34.250000
 40
3.200000
  1
200st
 50
90.000000
 41
0.896216
 51
0.000000
  7
STANDARD
  0
TEXT
  8
0
 62
7
 10
34.299900
 20
-45.250000
 40
3.200000
  1
125st
 50
90.000000
 41
0.896216
 51
0.000000
  7
STANDARD
  0
TEXT
  8
0
 62
7
 10
84.299904
 20
-45.250000
 40
3.200000
  1
150st
 50
90.000000
 41
0.938893
 51
0.000000
  7
STANDARD
  0
TEXT
  8
0
 62
7
 10
134.300003
 20
-45.250000
 40
3.200000
  1
175st
 50
90.000000
 41
0.896216
 51
0.000000
  7
STANDARD
  0
TEXT
  8
0
 62
7
 10
184.300003
 20
-45.250000
 40
3.200000
  1
200st
 50
90.000000
 41
0.896216
 51
0.000000
  7
STANDARD
  0
TEXT
  8
0
 62
7
 10
-165.699997
 20
219.750000
 40
3.200000
  1
25st
 50
90.000000
 41
0.857250
 51
0.000000
  7
STANDARD
  0
TEXT
  8
0
 62
7
 10
-115.699997
 20
219.750000
 40
3.200000
  1
50st
 50
90.000000
 41
0.907676
 51
0.000000
  7
STANDARD
  0
TEXT
  8
0
 62
7
 10
-65.700096
 20
219.750000
 40
3.200000
  1
75st
 50
90.000000
 41
0.857250
 51
0.000000
  7
STANDARD
  0
TEXT
  8
0
 62
7
 10
-15.700099
 20
219.750000
 40
3.200000
  1
100st
 50
90.000000
 41
0.985838
 51
0.000000
  7
STANDARD
  0
TEXT
  8
0
 62
7
 10
244.899551
 20
255.699997
 40
7.200000
  1
OPTION
 50
0.000000
 41
0.857250
 51
0.000000
  7
STANDARD
  0
TEXT
  8
0
 62
7
 10
270.203064
 20
153.850006
 40
4.600000
  1
ZT(FLANGE ROD END)
 50
0.000000
 41
0.754379
 51
0.000000
  7
STANDARD
  0
TEXT
  8
0
 62
7
 10
267.903076
 20
33.849998
 40
4.600000
  1
WS(INTERNAL THREAD)
 50
0.000000
 41
0.752114
 51
0.000000
  7
STANDARD
  0
TEXT
  8
0
 62
7
 10
267.903076
 20
-96.150002
 40
4.600000
  1
WT(EXTERNAL THREAD)
 50
0.000000
 41
0.738186
 51
0.000000
  7
STANDARD
  0
TEXT
  8
0
 62
7
 10
384.531006
 20
-132.399994
 40
4.800000
  1
KEY
 50
0.000000
 41
0.928571
 51
0.000000
  7
STANDARD
  0
TEXT
  8
0
 62
7
 10
262.902863
 20
-230.300003
 40
4.600000
  1
FN(WITH BEARING NUT
 50
0.000000
 41
0.766485
 51
0.000000
  7
STANDARD
  0
TEXT
  8
0
 62
7
 10
261.402863
 20
-238.300003
 40
4.600000
  1
      FOR FLOATING UNIT)
 50
0.000000
 41
0.754799
 51
0.000000
  7
STANDARD
  0
TEXT
  8
0
 62
7
 10
246.830994
 20
-149.900009
 40
3.200000
  1
(KEYWAY
 50
0.000000
 41
0.766485
 51
0.000000
  7
STANDARD
  0
TEXT
  8
0
 62
7
 10
246.830994
 20
-153.100006
 40
3.200000
  1
  POSITION)
 50
0.000000
 41
0.766485
 51
0.000000
  7
STANDARD
  0
DIMENSION
  8
0
  2
*DIM0
 62
2
  10
294.431000
 20
-176.500000
 30
0.0
 11
294.431000
 21
-192.000000
 31
0.0
  13
326.431000
 23
-176.500000
 33
0.0
14
326.431000
 24
-207.500000
 34
0.0
 70
1
 50
90
  0
DIMENSION
  8
0
  2
*DIM1
 62
2
 10
261.018005
 20
-165.037003
 30
0.0
 11
254.431000
 21
-165.300003
 31
0.0
 13
263.843994
 23
-165.037003
 33
0.0
 14
263.375000
 24
-173.985001
 34
0.0
  15
261.485992
 25
-173.985001
 35
0.0
 16
263.765564
 26
-166.534943
 36
0.0
 70
2
  0
DIMENSION
  8
0
  2
*DIM2
 62
2
  10
370.181000
 20
-148.750000
 30
0.0
 11
370.181000
 21
-142.593994
 31
0.0
  13
358.431000
 23
-154.750000
 33
0.0
14
358.431000
 24
-158.250000
 34
0.0
 70
1
 50
90
  0
DIMENSION
  8
0
  2
*DIM3
 62
2
  10
398.307007
 20
-149.768997
 30
0.0
 11
385.692993
 21
-149.768997
 31
0.0
  13
398.307007
 23
-149.768997
 33
0.0
14
398.307007
 24
-141.768997
 34
0.0
 70
1
 50
0
  0
ENDSEC
  0
EOF
