  0
SECTION
  2
HEADER
  0
ENDSEC
  0
SECTION
  2
TABLES
  0
TABLE
  2
LTYPE
 70
     4
  0
LTYPE
  2
CONTINUOUS
 70
    64
  3
Solid line
 72
    65
 73
     0
 40
0.000000
  0
LTYPE
  2
DASHED
 70
    64
  3
__ __ __ __ __ __ __ __ __ __ __ __ __ __ __
 72
    65
 73
     2
 40
3.500000
 49
2.000000
 49
-1.500000
  0
LTYPE
  2
CENTER
 70
    64
  3
____ _ ____ _ ____ _ ____ _ ____ _ ____ _ ____
 72
    65
 73
     4
 40
17.500000
 49
13.000000
 49
-1.500000
 49
1.500000
 49
-1.500000
  0
LTYPE
  2
PHANTOM
 70
    64
  3
_____ _ _ _____ _ _ _____ _ _ _____ _ _ ____  
 72
    65
 73
     6
 40
15.500000
 49
8.000000
 49
-1.500000
 49
1.500000
 49
-1.500000
 49
1.500000
 49
-1.500000
  0
ENDTAB
  0
TABLE
  2
LAYER
 70
     1
  0
LAYER
  2
0
 70
     0
 62
     7
  6
CONTINUOUS
  0
ENDTAB
  0
TABLE
  2
STYLE
 70
     1
  0
STYLE
  2
STANDARD
 70
     0
 40
0.000000
 41
1.000000
 50
0.000000
 71
     0
 42
0.200000
  3
txt
  4
BIGFONT
  0
ENDTAB
  0
TABLE
  2
VIEW
 70
     0
  0
ENDTAB
  0
ENDSEC
  0
SECTION
  2
BLOCKS
  0
BLOCK
  8
0
 70
65
  2
*DIM0
 10
0.0
 20
0.0
 30
0.0
  0
ARC
  8
0
  6
BYBLOCK
 62
0
 10
66.500000
 20
-89.724998
 40
18.000000
 50
74.267609
 51
105.732391
  0
LINE
  8
0
  6
BYBLOCK
 62
0
 10
67.023300
 20
-79.738701
 11
67.520500
 21
-70.251701
  0
LINE
  8
0
  6
BYBLOCK
 62
0
 10
65.976601
 20
-79.738701
 11
65.479401
 21
-70.251701
  0
LINE
  8
0
  6
BYBLOCK
 62
0
 10
67.442047
 20
-71.749664
 11
70.020737
 21
-73.282745
  0
LINE
  8
0
  6
BYBLOCK
 62
0
 10
67.442047
 20
-71.749664
 11
70.441803
 21
-71.788010
  0
LINE
  8
0
  6
BYBLOCK
 62
0
 10
65.557953
 20
-71.749664
 11
62.558197
 21
-71.788010
  0
LINE
  8
0
  6
BYBLOCK
 62
0
 10
65.557953
 20
-71.749664
 11
62.979259
 21
-73.282745
  0
TEXT
  8
0
 62
2
 10
58.500000
 20
-70.525002
 40
3.200000
  1
ü}3üï
 50
0.000000
 41
1.500330
 51
0.000000
  7
STANDARD
  0
ENDBLK
  8
3
  0
BLOCK
  8
0
 70
65
  2
*DIM1
 10
0.0
 20
0.0
 30
0.0
  0
LINE
  8
0
  6
BYBLOCK
 62
2
 10
112.862000
 20
-81.724998
 11
87.362198
 21
-81.724998
  0
LINE
  8
0
  6
BYBLOCK
 62
2
 10
112.862000
 20
-97.724998
 11
87.362198
 21
-97.724998
  0
LINE
  8
0
  6
BYBLOCK
 62
2
 10
88.862198
 20
-81.724998
 11
88.862198
 21
-97.724998
  0
LINE
  8
0
  6
BYBLOCK
 62
2
 10
88.862198
 20
-81.724998
 11
88.085739
 21
-84.622772
  0
LINE
  8
0
  6
BYBLOCK
 62
2
 10
88.862198
 20
-81.724998
 11
89.638657
 21
-84.622772
  0
LINE
  8
0
  6
BYBLOCK
 62
2
 10
88.862198
 20
-97.724998
 11
89.638657
 21
-94.827225
  0
LINE
  8
0
  6
BYBLOCK
 62
2
 10
88.862198
 20
-97.724998
 11
88.085739
 21
-94.827225
  0
TEXT
  8
0
 62
2
 10
87.662201
 20
-100.924995
 40
3.200000
  1
âË16
 50
90.000000
 41
0.937977
 51
0.000000
  7
STANDARD
  0
TEXT
  8
0
 62
2
 10
86.062614
 20
-91.920349
 40
1.600000
  1
 0
 50
90.000000
 41
0.937977
 51
0.000000
  7
STANDARD
  0
TEXT
  8
0
 62
2
 10
87.662621
 20
-91.920418
 40
1.600000
  1
-0.011
 50
90.000000
 41
0.937977
 51
0.000000
  7
STANDARD
  0
ENDBLK
  8
0
  0
BLOCK
  8
0
 70
65
  2
*DIM2
 10
0.0
 20
0.0
 30
0.0
  0
LINE
  8
0
  6
BYBLOCK
 62
2
 10
129.362000
 20
-70.474998
 11
140.112000
 21
-70.474998
  0
LINE
  8
0
  6
BYBLOCK
 62
2
 10
129.362000
 20
-72.974998
 11
140.112000
 21
-72.974998
  0
LINE
  8
0
  6
BYBLOCK
 62
2
 10
138.612000
 20
-64.474998
 11
138.612000
 21
-78.974998
  0
LINE
  8
0
  6
BYBLOCK
 62
2
 10
138.612000
 20
-70.474998
 11
138.612000
 21
-49.960400
  0
LINE
  8
0
  6
BYBLOCK
 62
2
 10
138.612000
 20
-70.474998
 11
139.388458
 21
-67.577225
  0
LINE
  8
0
  6
BYBLOCK
 62
2
 10
138.612000
 20
-70.474998
 11
137.835541
 21
-67.577225
  0
LINE
  8
0
  6
BYBLOCK
 62
2
 10
138.612000
 20
-72.974998
 11
137.835541
 21
-75.872772
  0
LINE
  8
0
  6
BYBLOCK
 62
2
 10
138.612000
 20
-72.974998
 11
139.388458
 21
-75.872772
  0
TEXT
  8
0
 62
2
 10
137.412003
 20
-67.503304
 40
3.200000
  1
2.5
 50
90.000000
 41
0.900002
 51
0.000000
  7
STANDARD
  0
TEXT
  8
0
 62
2
 10
135.812408
 20
-58.863209
 40
1.600000
  1
+0.014
 50
90.000000
 41
0.900002
 51
0.000000
  7
STANDARD
  0
TEXT
  8
0
 62
2
 10
137.412399
 20
-58.863281
 40
1.600000
  1
 0
 50
90.000000
 41
0.900002
 51
0.000000
  7
STANDARD
  0
ENDBLK
  8
0
  0
BLOCK
  8
0
 70
65
  2
*DIM3
 10
0.0
 20
0.0
 30
0.0
  0
LINE
  8
0
  6
BYBLOCK
 62
2
 10
165.046997
 20
-62.552399
 11
167.546997
 21
-62.552399
  0
LINE
  8
0
  6
BYBLOCK
 62
2
 10
165.046997
 20
-54.552399
 11
165.046997
 21
-64.052399
  0
LINE
  8
0
  6
BYBLOCK
 62
2
 10
165.046997
 20
-62.552399
 11
167.546997
 21
-62.552399
  0
LINE
  8
0
  6
BYBLOCK
 62
2
 10
165.046997
 20
-62.552399
 11
144.490997
 21
-62.552399
  0
TEXT
  8
0
 62
2
 10
142.834000
 20
-61.352398
 40
3.200000
  1
2.5
 50
0.000000
 41
0.923936
 51
0.000000
  7
STANDARD
  0
TEXT
  8
0
 62
2
 10
151.703781
 20
-59.752399
 40
1.600000
  1
+0.016
 50
0.000000
 41
0.923936
 51
0.000000
  7
STANDARD
  0
TEXT
  8
0
 62
2
 10
151.703781
 20
-61.352398
 40
1.600000
  1
+0.006
 50
0.000000
 41
0.923936
 51
0.000000
  7
STANDARD
  0
ENDBLK
  8
0
  0
ENDSEC
  0
SECTION
  2
ENTITIES
  0
POINT
  8
0
  62
7
  10
-13.500000
  20
80.000000
  30
0.0
  0
POINT
  8
0
  62
7
  10
6.500020
  20
80.000000
  30
0.0
  0
POINT
  8
0
  62
7
  10
26.500000
  20
80.000000
  30
0.0
  0
POINT
  8
0
  62
7
  10
66.500000
  20
80.000000
  30
0.0
  0
POINT
  8
0
  62
7
  10
46.500000
  20
80.000000
  30
0.0
  0
LINE
  8
0
  6
CONTINUOUS
 62
7
 10
-194.250000
 20
132.600006
 11
194.800003
 21
132.600006
  0
LINE
  8
0
  6
CONTINUOUS
 62
7
 10
194.800003
 20
132.600006
 11
194.800003
 21
-133.500000
  0
LINE
  8
0
  6
CONTINUOUS
 62
7
 10
-194.250000
 20
132.600006
 11
-194.250000
 21
-133.500000
  0
LINE
  8
0
  6
CONTINUOUS
 62
7
 10
-194.250000
 20
-133.500000
 11
194.800003
 21
-133.500000
  0
LINE
  8
0
  6
CONTINUOUS
 62
7
 10
109.800003
 20
-118.500000
 11
109.800003
 21
-133.500000
  0
LINE
  8
0
  6
CONTINUOUS
 62
7
 10
109.800003
 20
-118.500000
 11
194.800003
 21
-118.500000
  0
LINE
  8
0
  6
CONTINUOUS
 62
7
 10
109.800003
 20
132.600006
 11
109.800003
 21
117.599998
  0
LINE
  8
0
  6
CONTINUOUS
 62
7
 10
109.800003
 20
117.599998
 11
194.800003
 21
117.599998
  0
LINE
  8
0
  6
CONTINUOUS
 62
7
 10
-194.250000
 20
117.599998
 11
-109.250000
 21
117.599998
  0
LINE
  8
0
  6
CONTINUOUS
 62
7
 10
-109.250000
 20
132.600006
 11
-109.250000
 21
117.599998
  0
LINE
  8
0
  6
CONTINUOUS
 62
7
 10
-128.500000
 20
-2.000010
 11
-128.500000
 21
30.000000
  0
LINE
  8
0
  6
CONTINUOUS
 62
7
 10
-13.500000
 20
30.000000
 11
-13.500000
 21
-2.000010
  0
LINE
  8
0
  6
CENTER
 62
2
 10
-162.500000
 20
14.000000
 11
-11.500000
 21
14.000000
  0
LINE
  8
0
  6
CONTINUOUS
 62
7
 10
-128.500000
 20
-2.000010
 11
-13.500000
 21
-2.000010
  0
LINE
  8
0
  6
CONTINUOUS
 62
7
 10
-128.500000
 20
30.000000
 11
-13.500000
 21
30.000000
  0
LINE
  8
0
  6
CONTINUOUS
 62
2
 10
-128.500000
 20
2.199990
 11
-120.245003
 21
2.199990
  0
LINE
  8
0
  6
CONTINUOUS
 62
2
 10
-128.500000
 20
4.800010
 11
-118.994003
 21
4.800010
  0
LINE
  8
0
  6
CONTINUOUS
 62
7
 10
-97.250000
 20
1.999990
 11
-97.250000
 21
-2.000010
  0
LINE
  8
0
  6
CONTINUOUS
 62
7
 10
-89.750000
 20
2.199990
 11
-89.750000
 21
-2.000010
  0
LINE
  8
0
  6
CONTINUOUS
 62
2
 10
-112.754997
 20
2.199990
 11
-97.244698
 21
2.199990
  0
LINE
  8
0
  6
CONTINUOUS
 62
2
 10
-114.005997
 20
4.800010
 11
-95.994499
 21
4.800010
  0
LINE
  8
0
  6
CONTINUOUS
 62
7
 10
-120.250000
 20
1.999990
 11
-120.250000
 21
-2.000010
  0
LINE
  8
0
  6
CONTINUOUS
 62
7
 10
-112.750000
 20
2.199990
 11
-112.750000
 21
-2.000010
  0
LINE
  8
0
  6
CONTINUOUS
 62
2
 10
-91.005501
 20
4.800010
 11
-13.500000
 21
4.800010
  0
LINE
  8
0
  6
CONTINUOUS
 62
2
 10
-89.750000
 20
2.199990
 11
-13.500000
 21
2.199990
  0
LINE
  8
0
  6
CONTINUOUS
 62
2
 10
-128.500000
 20
25.799999
 11
-120.245003
 21
25.799999
  0
LINE
  8
0
  6
CONTINUOUS
 62
2
 10
-128.500000
 20
23.200001
 11
-118.994003
 21
23.200001
  0
LINE
  8
0
  6
CONTINUOUS
 62
7
 10
-97.250000
 20
26.000000
 11
-97.250000
 21
30.000000
  0
LINE
  8
0
  6
CONTINUOUS
 62
7
 10
-89.750000
 20
25.799999
 11
-89.750000
 21
30.000000
  0
LINE
  8
0
  6
CONTINUOUS
 62
2
 10
-112.750000
 20
25.799999
 11
-97.244698
 21
25.799999
  0
LINE
  8
0
  6
CONTINUOUS
 62
2
 10
-114.005997
 20
23.200001
 11
-95.994499
 21
23.200001
  0
LINE
  8
0
  6
CONTINUOUS
 62
7
 10
-120.250000
 20
26.000000
 11
-120.250000
 21
30.000000
  0
LINE
  8
0
  6
CONTINUOUS
 62
7
 10
-112.750000
 20
25.799999
 11
-112.750000
 21
30.000000
  0
LINE
  8
0
  6
CONTINUOUS
 62
2
 10
-91.005501
 20
23.200001
 11
-13.500000
 21
23.200001
  0
LINE
  8
0
  6
CONTINUOUS
 62
2
 10
-89.755302
 20
25.799999
 11
-13.500000
 21
25.799999
  0
LINE
  8
0
  6
CONTINUOUS
 62
7
 10
-160.500000
 20
18.000000
 11
-128.500000
 21
18.000000
  0
LINE
  8
0
  6
CONTINUOUS
 62
7
 10
-160.500000
 20
9.999990
 11
-128.500000
 21
9.999990
  0
LINE
  8
0
  6
CONTINUOUS
 62
7
 10
-160.500000
 20
18.000000
 11
-160.500000
 21
9.999990
  0
LINE
  8
0
  6
CENTER
 62
2
 10
-162.500000
 20
-42.000000
 11
-11.500000
 21
-42.000000
  0
LINE
  8
0
  6
CONTINUOUS
 62
7
 10
-13.500000
 20
-52.000000
 11
-13.500000
 21
-32.000000
  0
LINE
  8
0
  6
CONTINUOUS
 62
7
 10
-120.250000
 20
-38.500000
 11
-112.750000
 21
-38.500000
  0
LINE
  8
0
  6
CONTINUOUS
 62
7
 10
-120.250000
 20
-45.500000
 11
-112.750000
 21
-45.500000
  0
LINE
  8
0
  6
CONTINUOUS
 62
7
 10
-120.250000
 20
-45.500000
 11
-120.250000
 21
-52.000000
  0
LINE
  8
0
  6
CONTINUOUS
 62
7
 10
-112.750000
 20
-45.500000
 11
-112.750000
 21
-52.000000
  0
LINE
  8
0
  6
CONTINUOUS
 62
7
 10
-97.250000
 20
-45.500000
 11
-97.250000
 21
-52.000000
  0
LINE
  8
0
  6
CONTINUOUS
 62
7
 10
-97.250000
 20
-45.500000
 11
-89.750000
 21
-45.500000
  0
LINE
  8
0
  6
CONTINUOUS
 62
7
 10
-89.750000
 20
-45.500000
 11
-89.750000
 21
-52.000000
  0
LINE
  8
0
  6
CONTINUOUS
 62
7
 10
-97.250000
 20
-38.500000
 11
-89.750000
 21
-38.500000
  0
LINE
  8
0
  6
CONTINUOUS
 62
7
 10
-97.250000
 20
-32.000000
 11
-97.250000
 21
-38.500000
  0
LINE
  8
0
  6
CONTINUOUS
 62
7
 10
-89.750000
 20
-32.000000
 11
-89.750000
 21
-38.500000
  0
LINE
  8
0
  6
CONTINUOUS
 62
7
 10
-112.750000
 20
-32.000000
 11
-112.750000
 21
-38.500000
  0
LINE
  8
0
  6
CONTINUOUS
 62
7
 10
-120.250000
 20
-32.000000
 11
-120.250000
 21
-38.500000
  0
LINE
  8
0
  6
CONTINUOUS
 62
7
 10
-128.500000
 20
60.000000
 11
-128.500000
 21
80.000000
  0
LINE
  8
0
  6
CONTINUOUS
 62
7
 10
-13.500000
 20
60.000000
 11
-13.500000
 21
80.000000
  0
LINE
  8
0
  6
CENTER
 62
2
 10
-162.500000
 20
70.000000
 11
-11.500000
 21
70.000000
  0
LINE
  8
0
  6
CONTINUOUS
 62
7
 10
-128.500000
 20
80.000000
 11
-13.500000
 21
80.000000
  0
LINE
  8
0
  6
CONTINUOUS
 62
7
 10
-128.500000
 20
60.000000
 11
-13.500000
 21
60.000000
  0
LINE
  8
0
  6
CONTINUOUS
 62
7
 10
-120.250000
 20
80.000000
 11
-120.250000
 21
73.500000
  0
LINE
  8
0
  6
CONTINUOUS
 62
7
 10
-112.750000
 20
80.000000
 11
-112.750000
 21
73.500000
  0
LINE
  8
0
  6
CONTINUOUS
 62
7
 10
-97.250000
 20
80.000000
 11
-97.250000
 21
73.500000
  0
LINE
  8
0
  6
CONTINUOUS
 62
7
 10
-89.750000
 20
80.000000
 11
-89.750000
 21
73.500000
  0
LINE
  8
0
  6
CONTINUOUS
 62
7
 10
-120.250000
 20
73.500000
 11
-112.750000
 21
73.500000
  0
LINE
  8
0
  6
CONTINUOUS
 62
7
 10
-120.250000
 20
66.500000
 11
-112.750000
 21
66.500000
  0
LINE
  8
0
  6
CONTINUOUS
 62
7
 10
-120.250000
 20
66.500000
 11
-120.250000
 21
60.000000
  0
LINE
  8
0
  6
CONTINUOUS
 62
7
 10
-112.750000
 20
66.500000
 11
-112.750000
 21
60.000000
  0
LINE
  8
0
  6
CONTINUOUS
 62
7
 10
-97.250000
 20
66.500000
 11
-97.250000
 21
60.000000
  0
LINE
  8
0
  6
CONTINUOUS
 62
7
 10
-89.750000
 20
66.500000
 11
-89.750000
 21
60.000000
  0
LINE
  8
0
  6
CONTINUOUS
 62
7
 10
-97.250000
 20
66.500000
 11
-89.750000
 21
66.500000
  0
LINE
  8
0
  6
CONTINUOUS
 62
7
 10
-97.250000
 20
73.500000
 11
-89.750000
 21
73.500000
  0
LINE
  8
0
  6
CONTINUOUS
 62
7
 10
-160.500000
 20
74.000000
 11
-128.500000
 21
74.000000
  0
LINE
  8
0
  6
CONTINUOUS
 62
7
 10
-160.500000
 20
66.000000
 11
-128.500000
 21
66.000000
  0
LINE
  8
0
  6
CONTINUOUS
 62
7
 10
-160.500000
 20
74.000000
 11
-160.500000
 21
66.000000
  0
LINE
  8
0
  6
CENTER
 62
2
 10
-192.500000
 20
14.000000
 11
-168.500000
 21
14.000000
  0
LINE
  8
0
  6
CONTINUOUS
 62
7
 10
-190.500000
 20
-2.000010
 11
-190.500000
 21
30.000000
  0
LINE
  8
0
  6
CONTINUOUS
 62
2
 10
-170.500000
 20
25.799999
 11
-171.500000
 21
25.799999
  0
LINE
  8
0
  6
CONTINUOUS
 62
2
 10
-171.500000
 20
25.799999
 11
-171.500000
 21
26.650000
  0
LINE
  8
0
  6
CONTINUOUS
 62
2
 10
-171.500000
 20
26.650000
 11
-175.300003
 21
26.650000
  0
LINE
  8
0
  6
CONTINUOUS
 62
2
 10
-176.800003
 20
23.850000
 11
-176.800003
 21
25.150000
  0
LINE
  8
0
  6
CONTINUOUS
 62
2
 10
-171.500000
 20
22.350000
 11
-175.300003
 21
22.350000
  0
LINE
  8
0
  6
CONTINUOUS
 62
2
 10
-171.500000
 20
22.350000
 11
-171.500000
 21
23.200001
  0
LINE
  8
0
  6
CONTINUOUS
 62
2
 10
-170.500000
 20
23.200001
 11
-171.500000
 21
23.200001
  0
LINE
  8
0
  6
CONTINUOUS
 62
7
 10
-190.500000
 20
-2.000010
 11
-170.500000
 21
-2.000010
  0
LINE
  8
0
  6
CONTINUOUS
 62
7
 10
-170.500000
 20
30.000000
 11
-170.500000
 21
-2.000010
  0
LINE
  8
0
  6
CONTINUOUS
 62
7
 10
-190.500000
 20
30.000000
 11
-170.500000
 21
30.000000
  0
LINE
  8
0
  6
CENTER
 62
2
 10
-180.500000
 20
-4.000010
 11
-180.500000
 21
43.500000
  0
LINE
  8
0
  6
CENTER
 62
2
 10
-192.500000
 20
3.499990
 11
-182.940002
 21
3.499990
  0
LINE
  8
0
  6
CENTER
 62
2
 10
-192.500000
 20
24.500000
 11
-182.845001
 21
24.500000
  0
LINE
  8
0
  6
CENTER
 62
2
 10
-168.500000
 20
24.500000
 11
-178.216995
 21
24.500000
  0
LINE
  8
0
  6
CENTER
 62
2
 10
-168.500000
 20
3.499990
 11
-178.216995
 21
3.499990
  0
LINE
  8
0
  6
DASHED
 62
2
 10
-119.000000
 20
-38.500000
 11
-119.000000
 21
-45.500000
  0
LINE
  8
0
  6
DASHED
 62
2
 10
-118.699997
 20
-38.500000
 11
-118.699997
 21
-45.500000
  0
LINE
  8
0
  6
DASHED
 62
2
 10
-114.300003
 20
-38.500000
 11
-114.300003
 21
-45.500000
  0
LINE
  8
0
  6
DASHED
 62
2
 10
-114.000000
 20
-38.500000
 11
-114.000000
 21
-45.500000
  0
LINE
  8
0
  6
DASHED
 62
2
 10
-96.000000
 20
-38.500000
 11
-96.000000
 21
-45.500000
  0
LINE
  8
0
  6
DASHED
 62
2
 10
-95.699997
 20
-38.500000
 11
-95.699997
 21
-45.500000
  0
LINE
  8
0
  6
DASHED
 62
2
 10
-91.300003
 20
-38.500000
 11
-91.300003
 21
-45.500000
  0
LINE
  8
0
  6
DASHED
 62
2
 10
-91.000000
 20
-38.500000
 11
-91.000000
 21
-45.500000
  0
LINE
  8
0
  6
CENTER
 62
2
 10
-116.500000
 20
-30.000000
 11
-116.500000
 21
-54.000000
  0
LINE
  8
0
  6
CENTER
 62
2
 10
-93.500000
 20
-30.000000
 11
-93.500000
 21
-54.000000
  0
LINE
  8
0
  6
CENTER
 62
2
 10
-0.499939
 20
14.000000
 11
23.500099
 21
14.000000
  0
LINE
  8
0
  6
CONTINUOUS
 62
7
 10
1.500060
 20
-2.000010
 11
1.500060
 21
30.000000
  0
LINE
  8
0
  6
CONTINUOUS
 62
2
 10
21.500099
 20
25.799999
 11
20.500099
 21
25.799999
  0
LINE
  8
0
  6
CONTINUOUS
 62
2
 10
20.500099
 20
25.799999
 11
20.500099
 21
26.650000
  0
LINE
  8
0
  6
CONTINUOUS
 62
2
 10
20.500099
 20
26.650000
 11
16.700100
 21
26.650000
  0
LINE
  8
0
  6
CONTINUOUS
 62
2
 10
15.200100
 20
23.850000
 11
15.200100
 21
25.150000
  0
LINE
  8
0
  6
CONTINUOUS
 62
2
 10
20.500099
 20
22.350000
 11
16.700100
 21
22.350000
  0
LINE
  8
0
  6
CONTINUOUS
 62
2
 10
20.500099
 20
22.350000
 11
20.500099
 21
23.200001
  0
LINE
  8
0
  6
CONTINUOUS
 62
2
 10
21.500099
 20
23.200001
 11
20.500099
 21
23.200001
  0
LINE
  8
0
  6
CONTINUOUS
 62
7
 10
1.500070
 20
-2.000010
 11
21.500099
 21
-2.000010
  0
LINE
  8
0
  6
CONTINUOUS
 62
7
 10
21.500099
 20
30.000000
 11
21.500099
 21
-2.000010
  0
LINE
  8
0
  6
CONTINUOUS
 62
7
 10
1.500070
 20
30.000000
 11
21.500099
 21
30.000000
  0
LINE
  8
0
  6
CENTER
 62
2
 10
11.500100
 20
-4.000010
 11
11.500100
 21
43.500000
  0
LINE
  8
0
  6
CENTER
 62
2
 10
-0.499939
 20
3.499990
 11
9.060220
 21
3.499990
  0
LINE
  8
0
  6
CENTER
 62
2
 10
-0.499939
 20
24.500000
 11
9.154670
 21
24.500000
  0
LINE
  8
0
  6
CENTER
 62
2
 10
23.500099
 20
24.500000
 11
13.783100
 21
24.500000
  0
LINE
  8
0
  6
CENTER
 62
2
 10
23.500099
 20
3.499990
 11
13.783100
 21
3.499990
  0
LINE
  8
0
  6
CONTINUOUS
 62
7
 10
-160.500000
 20
-46.000000
 11
-128.500000
 21
-46.000000
  0
LINE
  8
0
  6
CONTINUOUS
 62
7
 10
-160.500000
 20
-38.000000
 11
-160.500000
 21
-46.000000
  0
LINE
  8
0
  6
CONTINUOUS
 62
7
 10
-128.500000
 20
-52.000000
 11
-128.500000
 21
-32.000000
  0
LINE
  8
0
  6
CONTINUOUS
 62
7
 10
-128.500000
 20
-32.000000
 11
-13.500000
 21
-32.000000
  0
LINE
  8
0
  6
CONTINUOUS
 62
7
 10
-128.500000
 20
-52.000000
 11
-13.500000
 21
-52.000000
  0
LINE
  8
0
  6
CONTINUOUS
 62
7
 10
-160.500000
 20
-38.000000
 11
-128.500000
 21
-38.000000
  0
LINE
  8
0
  6
CENTER
 62
2
 10
-45.000000
 20
43.500000
 11
-45.000000
 21
28.000000
  0
LINE
  8
0
  6
CONTINUOUS
 62
7
 10
-54.000000
 20
41.500000
 11
-54.000000
 21
30.000000
  0
LINE
  8
0
  6
CONTINUOUS
 62
7
 10
-36.000000
 20
41.500000
 11
-36.000000
 21
30.000000
  0
LINE
  8
0
  6
CONTINUOUS
 62
7
 10
-54.000000
 20
41.500000
 11
-36.000000
 21
41.500000
  0
LINE
  8
0
  6
CONTINUOUS
 62
7
 10
-54.000000
 20
79.000000
 11
-36.000000
 21
79.000000
  0
LINE
  8
0
  6
CONTINUOUS
 62
7
 10
-54.000000
 20
61.000000
 11
-36.000000
 21
61.000000
  0
LINE
  8
0
  6
CONTINUOUS
 62
7
 10
-36.000000
 20
61.000000
 11
-36.000000
 21
79.000000
  0
LINE
  8
0
  6
CONTINUOUS
 62
7
 10
-54.000000
 20
61.000000
 11
-54.000000
 21
79.000000
  0
LINE
  8
0
  6
CONTINUOUS
 62
7
 10
-171.500000
 20
41.500000
 11
-171.500000
 21
30.000000
  0
LINE
  8
0
  6
CONTINUOUS
 62
7
 10
-189.500000
 20
41.500000
 11
-189.500000
 21
30.000000
  0
LINE
  8
0
  6
CONTINUOUS
 62
7
 10
-171.500000
 20
41.500000
 11
-189.500000
 21
41.500000
  0
LINE
  8
0
  6
CONTINUOUS
 62
7
 10
20.500099
 20
41.500000
 11
20.500099
 21
30.000000
  0
LINE
  8
0
  6
CONTINUOUS
 62
7
 10
2.500060
 20
41.500000
 11
2.500060
 21
30.000000
  0
LINE
  8
0
  6
CONTINUOUS
 62
7
 10
20.500099
 20
41.500000
 11
2.500070
 21
41.500000
  0
LINE
  8
0
  6
CENTER
 62
2
 10
-184.500000
 20
26.000000
 11
-176.500000
 21
26.000000
  0
LINE
  8
0
  6
CENTER
 62
2
 10
-184.500000
 20
1.999990
 11
-176.500000
 21
1.999990
  0
LINE
  8
0
  6
CENTER
 62
2
 10
-28.500000
 20
74.500000
 11
-28.500000
 21
65.500000
  0
LINE
  8
0
  6
CENTER
 62
2
 10
-45.000000
 20
73.500000
 11
-45.000000
 21
66.500000
  0
LINE
  8
0
  6
CENTER
 62
2
 10
-86.500000
 20
74.500000
 11
-86.500000
 21
65.500000
  0
LINE
  8
0
  6
CENTER
 62
2
 10
-116.500000
 20
31.750000
 11
-116.500000
 21
20.250000
  0
LINE
  8
0
  6
CENTER
 62
2
 10
-122.250000
 20
26.000000
 11
-110.750000
 21
26.000000
  0
LINE
  8
0
  6
CENTER
 62
2
 10
-93.500000
 20
31.750000
 11
-93.500000
 21
20.250000
  0
LINE
  8
0
  6
CENTER
 62
2
 10
-99.250000
 20
26.000000
 11
-87.750000
 21
26.000000
  0
LINE
  8
0
  6
CENTER
 62
2
 10
-93.500000
 20
7.749990
 11
-93.500000
 21
-3.750010
  0
LINE
  8
0
  6
CENTER
 62
2
 10
-99.250000
 20
1.999990
 11
-87.750000
 21
1.999990
  0
LINE
  8
0
  6
CENTER
 62
2
 10
-116.500000
 20
7.749990
 11
-116.500000
 21
-3.750010
  0
LINE
  8
0
  6
CENTER
 62
2
 10
-122.250000
 20
1.999990
 11
-110.750000
 21
1.999990
  0
LINE
  8
0
  6
CENTER
 62
2
 10
-86.500000
 20
-32.000000
 11
-86.500000
 21
-40.000000
  0
LINE
  8
0
  6
CENTER
 62
2
 10
-90.500000
 20
-36.000000
 11
-82.500000
 21
-36.000000
  0
LINE
  8
0
  6
CENTER
 62
2
 10
-86.500000
 20
-44.000000
 11
-86.500000
 21
-52.000000
  0
LINE
  8
0
  6
CENTER
 62
2
 10
-90.500000
 20
-48.000000
 11
-82.500000
 21
-48.000000
  0
LINE
  8
0
  6
CENTER
 62
2
 10
-109.500000
 20
-44.000000
 11
-109.500000
 21
-52.000000
  0
LINE
  8
0
  6
CENTER
 62
2
 10
-113.500000
 20
-48.000000
 11
-105.500000
 21
-48.000000
  0
LINE
  8
0
  6
CENTER
 62
2
 10
-109.500000
 20
-32.000000
 11
-109.500000
 21
-40.000000
  0
LINE
  8
0
  6
CENTER
 62
2
 10
-113.500000
 20
-36.000000
 11
-105.500000
 21
-36.000000
  0
LINE
  8
0
  6
CONTINUOUS
 62
7
 10
106.862000
 20
-27.725000
 11
106.862000
 21
-7.725000
  0
LINE
  8
0
  6
CONTINUOUS
 62
7
 10
106.862000
 20
-7.725000
 11
116.862000
 21
-7.725000
  0
LINE
  8
0
  6
CONTINUOUS
 62
7
 10
106.862000
 20
-27.725000
 11
116.862000
 21
-27.725000
  0
LINE
  8
0
  6
CONTINUOUS
 62
4
 10
90.594101
 20
-13.725000
 11
106.862000
 21
-13.725000
  0
LINE
  8
0
  6
CONTINUOUS
 62
4
 10
90.594200
 20
-21.725000
 11
106.862000
 21
-21.725000
  0
LINE
  8
0
  6
CONTINUOUS
 62
4
 10
74.862099
 20
-14.725000
 11
74.862099
 21
-20.725000
  0
LINE
  8
0
  6
CENTER
 62
1
 10
72.862000
 20
-17.725000
 11
116.862000
 21
-17.725000
  0
LINE
  8
0
  6
CONTINUOUS
 62
4
 10
79.500000
 20
89.025002
 11
112.500000
 21
89.025002
  0
LINE
  8
0
  6
CONTINUOUS
 62
4
 10
79.500000
 20
100.324997
 11
79.500000
 21
89.025002
  0
LINE
  8
0
  6
CONTINUOUS
 62
4
 10
86.500000
 20
104.025002
 11
105.500000
 21
104.025002
  0
LINE
  8
0
  6
CONTINUOUS
 62
4
 10
79.500000
 20
100.324997
 11
86.500000
 21
100.324997
  0
LINE
  8
0
  6
CONTINUOUS
 62
4
 10
112.500000
 20
100.324997
 11
112.500000
 21
89.025002
  0
LINE
  8
0
  6
CONTINUOUS
 62
4
 10
86.500000
 20
104.025002
 11
86.500000
 21
100.324997
  0
LINE
  8
0
  6
CONTINUOUS
 62
4
 10
105.500000
 20
104.025002
 11
105.500000
 21
100.324997
  0
LINE
  8
0
  6
CONTINUOUS
 62
4
 10
105.500000
 20
100.324997
 11
112.500000
 21
100.324997
  0
LINE
  8
0
  6
CENTER
 62
1
 10
96.000000
 20
106.025002
 11
96.000000
 21
87.025002
  0
LINE
  8
0
  6
CENTER
 62
1
 10
83.000000
 20
102.324997
 11
83.000000
 21
87.025002
  0
LINE
  8
0
  6
CENTER
 62
1
 10
109.000000
 20
102.324997
 11
109.000000
 21
87.025002
  0
LINE
  8
0
  6
DASHED
 62
1
 10
110.800003
 20
100.324997
 11
110.800003
 21
89.025002
  0
LINE
  8
0
  6
DASHED
 62
1
 10
107.199997
 20
100.324997
 11
107.199997
 21
89.025002
  0
LINE
  8
0
  6
CONTINUOUS
 62
4
 10
79.500000
 20
83.025002
 11
112.500000
 21
83.025002
  0
LINE
  8
0
  6
CONTINUOUS
 62
4
 10
79.500000
 20
66.025002
 11
112.500000
 21
66.025002
  0
LINE
  8
0
  6
CONTINUOUS
 62
4
 10
112.500000
 20
83.025002
 11
112.500000
 21
66.025002
  0
LINE
  8
0
  6
CONTINUOUS
 62
4
 10
79.500000
 20
66.025002
 11
79.500000
 21
83.025002
  0
LINE
  8
0
  6
CONTINUOUS
 62
4
 10
128.500000
 20
83.025002
 11
128.500000
 21
66.025002
  0
LINE
  8
0
  6
CONTINUOUS
 62
4
 10
143.500000
 20
83.025002
 11
143.500000
 21
66.025002
  0
LINE
  8
0
  6
CONTINUOUS
 62
4
 10
139.800003
 20
83.025002
 11
139.800003
 21
66.025002
  0
LINE
  8
0
  6
CONTINUOUS
 62
4
 10
128.500000
 20
83.025002
 11
143.500000
 21
83.025002
  0
LINE
  8
0
  6
CONTINUOUS
 62
4
 10
143.500000
 20
66.025002
 11
128.500000
 21
66.025002
  0
LINE
  8
0
  6
CENTER
 62
1
 10
145.500000
 20
74.525002
 11
126.500000
 21
74.525002
  0
LINE
  8
0
  6
CONTINUOUS
 62
4
 10
74.862000
 20
33.275002
 11
74.862000
 21
25.275000
  0
LINE
  8
0
  6
CONTINUOUS
 62
7
 10
106.862000
 20
19.275000
 11
106.862000
 21
39.275002
  0
LINE
  8
0
  6
CONTINUOUS
 62
7
 10
106.862000
 20
39.275002
 11
116.862000
 21
39.275002
  0
LINE
  8
0
  6
CONTINUOUS
 62
7
 10
106.862000
 20
19.275000
 11
116.862000
 21
19.275000
  0
LINE
  8
0
  6
CONTINUOUS
 62
4
 10
74.862000
 20
33.275002
 11
81.862000
 21
33.275002
  0
LINE
  8
0
  6
CONTINUOUS
 62
4
 10
74.862000
 20
25.275000
 11
81.862000
 21
25.275000
  0
LINE
  8
0
  6
CENTER
 62
1
 10
72.862000
 20
29.275000
 11
116.862000
 21
29.275000
  0
LINE
  8
0
  6
CONTINUOUS
 62
4
 10
81.862000
 20
33.275002
 11
81.862000
 21
32.775002
  0
LINE
  8
0
  6
CONTINUOUS
 62
4
 10
86.362000
 20
33.275002
 11
86.362000
 21
32.775002
  0
LINE
  8
0
  6
CONTINUOUS
 62
4
 10
81.862000
 20
32.775002
 11
86.362000
 21
32.775002
  0
LINE
  8
0
  6
CONTINUOUS
 62
4
 10
81.862000
 20
25.775000
 11
86.362000
 21
25.775000
  0
LINE
  8
0
  6
CONTINUOUS
 62
4
 10
86.362000
 20
33.275002
 11
106.862000
 21
33.275002
  0
LINE
  8
0
  6
CONTINUOUS
 62
4
 10
86.362000
 20
25.275000
 11
106.862000
 21
25.275000
  0
LINE
  8
0
  6
CONTINUOUS
 62
4
 10
81.862000
 20
25.775000
 11
81.862000
 21
25.275000
  0
LINE
  8
0
  6
CONTINUOUS
 62
4
 10
86.362000
 20
25.775000
 11
86.362000
 21
25.275000
  0
LINE
  8
0
  6
DASHED
 62
1
 10
84.862000
 20
31.775000
 11
84.862000
 21
26.775000
  0
LINE
  8
0
  6
DASHED
 62
1
 10
87.362000
 20
31.341999
 11
87.362000
 21
27.208000
  0
LINE
  8
0
  6
DASHED
 62
1
 10
74.862000
 20
31.775000
 11
84.862000
 21
31.775000
  0
LINE
  8
0
  6
DASHED
 62
1
 10
74.862000
 20
26.775000
 11
84.862000
 21
26.775000
  0
LINE
  8
0
  6
DASHED
 62
1
 10
74.862000
 20
27.208000
 11
87.362000
 21
27.208000
  0
LINE
  8
0
  6
DASHED
 62
1
 10
74.862000
 20
31.341999
 11
87.362000
 21
31.341999
  0
LINE
  8
0
  6
CONTINUOUS
 62
4
 10
86.862099
 20
-14.725000
 11
86.862099
 21
-20.725000
  0
LINE
  8
0
  6
CONTINUOUS
 62
4
 10
88.862099
 20
-14.725000
 11
88.862099
 21
-20.725000
  0
LINE
  8
0
  6
CONTINUOUS
 62
4
 10
74.862099
 20
-20.725000
 11
80.262100
 21
-20.725000
  0
LINE
  8
0
  6
CONTINUOUS
 62
4
 10
74.862099
 20
-14.725000
 11
80.262100
 21
-14.725000
  0
LINE
  8
0
  6
CONTINUOUS
 62
1
 10
74.862099
 20
-20.183500
 11
80.262100
 21
-20.183500
  0
LINE
  8
0
  6
CONTINUOUS
 62
1
 10
74.862099
 20
-15.266500
 11
80.262100
 21
-15.266500
  0
LINE
  8
0
  6
CONTINUOUS
 62
4
 10
88.862000
 20
-14.724800
 11
90.594002
 21
-13.724800
  0
LINE
  8
0
  6
CONTINUOUS
 62
4
 10
88.862000
 20
-20.725000
 11
90.594101
 21
-21.725000
  0
LINE
  8
0
  6
CONTINUOUS
 62
4
 10
90.594101
 20
-13.725000
 11
90.594101
 21
-15.788500
  0
LINE
  8
0
  6
CONTINUOUS
 62
4
 10
93.362099
 20
-15.788500
 11
93.362099
 21
-19.661501
  0
LINE
  8
0
  6
CONTINUOUS
 62
4
 10
83.862099
 20
-11.951500
 11
83.862099
 21
-23.498501
  0
LINE
  8
0
  6
CONTINUOUS
 62
1
 10
83.862099
 20
-20.183500
 11
86.862099
 21
-20.183500
  0
LINE
  8
0
  6
CONTINUOUS
 62
4
 10
83.862099
 20
-20.725000
 11
88.862099
 21
-20.725000
  0
LINE
  8
0
  6
CONTINUOUS
 62
1
 10
83.862099
 20
-15.266500
 11
86.862099
 21
-15.266500
  0
LINE
  8
0
  6
CONTINUOUS
 62
4
 10
83.862099
 20
-14.725000
 11
88.862099
 21
-14.725000
  0
LINE
  8
0
  6
CENTER
 62
1
 10
91.112099
 20
1.274990
 11
91.112099
 21
-8.725020
  0
LINE
  8
0
  6
CENTER
 62
1
 10
86.112099
 20
-3.725020
 11
96.112099
 21
-3.725020
  0
LINE
  8
0
  6
CONTINUOUS
 62
4
 10
87.612099
 20
-1.788520
 11
87.612099
 21
-5.661510
  0
LINE
  8
0
  6
CONTINUOUS
 62
4
 10
94.612099
 20
-1.788520
 11
94.612099
 21
-5.661510
  0
LINE
  8
0
  6
CONTINUOUS
 62
4
 10
88.862099
 20
-15.788500
 11
93.362099
 21
-15.788500
  0
LINE
  8
0
  6
CONTINUOUS
 62
4
 10
88.862099
 20
-19.661501
 11
93.362099
 21
-19.661501
  0
LINE
  8
0
  6
CONTINUOUS
 62
4
 10
90.594101
 20
-19.661501
 11
90.594101
 21
-21.725000
  0
LINE
  8
0
  6
CONTINUOUS
 62
1
 10
88.862396
 20
-19.661800
 11
93.362396
 21
-15.788800
  0
LINE
  8
0
  6
CONTINUOUS
 62
1
 10
93.362099
 20
-19.661400
 11
88.862099
 21
-15.788400
  0
LINE
  8
0
  6
CONTINUOUS
 62
4
 10
80.262100
 20
-23.498501
 11
83.862099
 21
-23.498501
  0
LINE
  8
0
  6
CONTINUOUS
 62
4
 10
80.262100
 20
-20.611799
 11
83.862099
 21
-20.611799
  0
LINE
  8
0
  6
CONTINUOUS
 62
4
 10
80.262100
 20
-11.951500
 11
83.862099
 21
-11.951500
  0
LINE
  8
0
  6
CONTINUOUS
 62
4
 10
80.262100
 20
-14.838300
 11
83.862099
 21
-14.838300
  0
LINE
  8
0
  6
CENTER
 62
1
 10
84.112000
 20
48.275002
 11
84.112000
 21
38.275002
  0
LINE
  8
0
  6
CENTER
 62
1
 10
79.112000
 20
43.275002
 11
89.112000
 21
43.275002
  0
LINE
  8
0
  6
CONTINUOUS
 62
4
 10
82.175499
 20
46.775002
 11
86.048500
 21
46.775002
  0
LINE
  8
0
  6
CONTINUOUS
 62
4
 10
82.175499
 20
39.775002
 11
86.048500
 21
39.775002
  0
LINE
  8
0
  6
CENTER
 62
1
 10
109.000000
 20
83.324997
 11
109.000000
 21
75.724998
  0
LINE
  8
0
  6
CENTER
 62
1
 10
105.199997
 20
79.525002
 11
112.800003
 21
79.525002
  0
LINE
  8
0
  6
CENTER
 62
1
 10
109.000000
 20
73.324997
 11
109.000000
 21
65.724998
  0
LINE
  8
0
  6
CENTER
 62
1
 10
105.199997
 20
69.525002
 11
112.800003
 21
69.525002
  0
LINE
  8
0
  6
CENTER
 62
1
 10
96.000000
 20
80.525002
 11
96.000000
 21
68.525002
  0
LINE
  8
0
  6
CENTER
 62
1
 10
90.000000
 20
74.525002
 11
102.000000
 21
74.525002
  0
LINE
  8
0
  6
CENTER
 62
1
 10
83.000000
 20
83.324997
 11
83.000000
 21
75.724998
  0
LINE
  8
0
  6
CENTER
 62
1
 10
79.199997
 20
79.525002
 11
86.800003
 21
79.525002
  0
LINE
  8
0
  6
CENTER
 62
1
 10
83.000000
 20
73.324997
 11
83.000000
 21
65.724998
  0
LINE
  8
0
  6
CENTER
 62
1
 10
79.199997
 20
69.525002
 11
86.800003
 21
69.525002
  0
LINE
  8
0
  6
CONTINUOUS
 62
4
 10
80.262100
 20
-11.951500
 11
80.262100
 21
-23.498501
  0
LINE
  8
0
  6
CONTINUOUS
 62
7
 10
151.862000
 20
-105.724998
 11
151.862000
 21
-73.724998
  0
LINE
  8
0
  6
CENTER
 62
1
 10
93.997398
 20
-89.724998
 11
161.862000
 21
-89.724998
  0
LINE
  8
0
  6
CONTINUOUS
 62
7
 10
151.862000
 20
-105.724998
 11
161.862000
 21
-105.724998
  0
LINE
  8
0
  6
CONTINUOUS
 62
7
 10
151.862000
 20
-73.724998
 11
161.862000
 21
-73.724998
  0
LINE
  8
0
  6
CONTINUOUS
 62
2
 10
151.862000
 20
-98.925003
 11
161.862000
 21
-98.925003
  0
LINE
  8
0
  6
CONTINUOUS
 62
2
 10
151.862000
 20
-80.525002
 11
161.862000
 21
-80.525002
  0
LINE
  8
0
  6
CONTINUOUS
 62
4
 10
96.862198
 20
-85.724998
 11
112.862000
 21
-85.724998
  0
LINE
  8
0
  6
CONTINUOUS
 62
4
 10
96.862198
 20
-93.724998
 11
112.862000
 21
-93.724998
  0
LINE
  8
0
  6
CONTINUOUS
 62
4
 10
96.862198
 20
-85.724998
 11
96.862198
 21
-93.724998
  0
LINE
  8
0
  6
CONTINUOUS
 62
4
 10
112.862000
 20
-81.724998
 11
112.862000
 21
-97.724998
  0
LINE
  8
0
  6
CONTINUOUS
 62
4
 10
137.862000
 20
-81.724998
 11
137.862000
 21
-97.724998
  0
LINE
  8
0
  6
CONTINUOUS
 62
4
 10
112.862000
 20
-81.724998
 11
137.862000
 21
-81.724998
  0
LINE
  8
0
  6
CONTINUOUS
 62
4
 10
137.862000
 20
-97.724998
 11
112.862000
 21
-97.724998
  0
LINE
  8
0
  6
DASHED
 62
1
 10
120.112000
 20
-82.925003
 11
130.612000
 21
-82.925003
  0
LINE
  8
0
  6
DASHED
 62
1
 10
120.112000
 20
-81.724998
 11
120.112000
 21
-82.925003
  0
LINE
  8
0
  6
DASHED
 62
1
 10
130.612000
 20
-81.724998
 11
130.612000
 21
-82.925003
  0
LINE
  8
0
  6
CONTINUOUS
 62
4
 10
137.862000
 20
-85.724998
 11
151.862000
 21
-85.724998
  0
LINE
  8
0
  6
CONTINUOUS
 62
4
 10
137.862000
 20
-93.724998
 11
151.862000
 21
-93.724998
  0
LINE
  8
0
  6
DASHED
 62
1
 10
104.862000
 20
-87.724998
 11
104.862000
 21
-91.724998
  0
LINE
  8
0
  6
DASHED
 62
1
 10
106.862000
 20
-88.103996
 11
106.862000
 21
-91.346001
  0
LINE
  8
0
  6
DASHED
 62
1
 10
96.862198
 20
-91.724998
 11
104.862000
 21
-91.724998
  0
LINE
  8
0
  6
DASHED
 62
1
 10
96.862198
 20
-87.724998
 11
104.862000
 21
-87.724998
  0
LINE
  8
0
  6
CONTINUOUS
 62
2
 10
151.862000
 20
-101.525002
 11
161.862000
 21
-101.525002
  0
LINE
  8
0
  6
CONTINUOUS
 62
2
 10
151.862000
 20
-77.925003
 11
161.862000
 21
-77.925003
  0
LINE
  8
0
  6
DASHED
 62
1
 10
67.750000
 20
-81.823303
 11
67.750000
 21
-82.925003
  0
LINE
  8
0
  6
DASHED
 62
1
 10
65.250000
 20
-81.823303
 11
65.250000
 21
-82.925003
  0
LINE
  8
0
  6
DASHED
 62
1
 10
65.250000
 20
-82.925003
 11
67.750000
 21
-82.925003
  0
LINE
  8
0
  6
CENTER
 62
1
 10
76.500000
 20
-89.724998
 11
56.500000
 21
-89.724998
  0
LINE
  8
0
  6
CENTER
 62
1
 10
67.023300
 20
-79.738701
 11
66.500000
 21
-89.724998
  0
LINE
  8
0
  6
DASHED
 62
1
 10
96.862198
 20
-88.103996
 11
106.862000
 21
-88.103996
  0
LINE
  8
0
  6
DASHED
 62
1
 10
96.862198
 20
-91.346001
 11
106.862000
 21
-91.346001
  0
LINE
  8
0
  6
CENTER
 62
1
 10
66.500000
 20
-84.724998
 11
66.500000
 21
-104.724998
  0
LINE
  8
0
  6
CENTER
 62
1
 10
65.976601
 20
-79.738701
 11
66.500000
 21
-89.724998
  0
LINE
  8
0
  6
CENTER
 62
1
 10
118.112000
 20
-71.724998
 11
132.612000
 21
-71.724998
  0
LINE
  8
0
  6
CONTINUOUS
 62
4
 10
121.362000
 20
-70.474998
 11
129.362000
 21
-70.474998
  0
LINE
  8
0
  6
CONTINUOUS
 62
4
 10
121.362000
 20
-72.974998
 11
129.362000
 21
-72.974998
  0
LINE
  8
0
  6
CONTINUOUS
 62
4
 10
165.046997
 20
-52.052399
 11
167.546997
 21
-52.052399
  0
LINE
  8
0
  6
CONTINUOUS
 62
4
 10
165.046997
 20
-54.552399
 11
167.546997
 21
-54.552399
  0
LINE
  8
0
  6
CONTINUOUS
 62
4
 10
167.546997
 20
-52.052399
 11
167.546997
 21
-54.552399
  0
LINE
  8
0
  6
CONTINUOUS
 62
4
 10
165.046997
 20
-52.052399
 11
165.046997
 21
-54.552399
  0
LINE
  8
0
  6
CONTINUOUS
 62
4
 10
172.796997
 20
-45.052399
 11
180.796997
 21
-45.052399
  0
LINE
  8
0
  6
CONTINUOUS
 62
4
 10
172.796997
 20
-47.552399
 11
180.796997
 21
-47.552399
  0
LINE
  8
0
  6
CONTINUOUS
 62
4
 10
171.546997
 20
-52.052399
 11
171.546997
 21
-54.552399
  0
LINE
  8
0
  6
CONTINUOUS
 62
4
 10
182.046997
 20
-52.052399
 11
182.046997
 21
-54.552399
  0
LINE
  8
0
  6
CONTINUOUS
 62
4
 10
171.546997
 20
-52.052399
 11
182.046997
 21
-52.052399
  0
LINE
  8
0
  6
CONTINUOUS
 62
4
 10
171.546997
 20
-54.552399
 11
182.046997
 21
-54.552399
  0
LINE
  8
0
  6
CENTER
 62
1
 10
169.546997
 20
-46.302399
 11
184.046997
 21
-46.302399
  0
LINE
  8
0
  6
CENTER
 62
1
 10
166.296997
 20
-50.052399
 11
166.296997
 21
-56.552399
  0
ARC
  8
0
  6
CONTINUOUS
 62
7
 10
-116.500000
 20
1.999990
 40
3.750000
 50
0.000000
 51
180.000000
  0
ARC
  8
0
  6
CONTINUOUS
 62
7
 10
-116.500000
 20
26.000000
 40
3.750000
 50
180.000000
 51
0.000000
  0
CIRCLE
  8
0
  6
CONTINUOUS
 62
2
 10
-116.500000
 20
26.000000
 40
2.500000
  0
ARC
  8
0
  6
CONTINUOUS
 62
7
 10
-93.500000
 20
26.000000
 40
3.750000
 50
180.000000
 51
0.000000
  0
CIRCLE
  8
0
  6
CONTINUOUS
 62
2
 10
-93.500000
 20
26.000000
 40
2.500000
  0
ARC
  8
0
  6
CONTINUOUS
 62
7
 10
-93.500000
 20
1.999990
 40
3.750000
 50
0.000000
 51
180.000000
  0
CIRCLE
  8
0
  6
CONTINUOUS
 62
2
 10
-93.500000
 20
1.999990
 40
2.500000
  0
CIRCLE
  8
0
  6
CONTINUOUS
 62
2
 10
-116.500000
 20
1.999990
 40
2.500000
  0
CIRCLE
  8
0
  6
CONTINUOUS
 62
2
 10
-86.500000
 20
-36.000000
 40
2.000000
  0
CIRCLE
  8
0
  6
CONTINUOUS
 62
7
 10
-86.500000
 20
-36.000000
 40
1.500000
  0
CIRCLE
  8
0
  6
CONTINUOUS
 62
2
 10
-109.500000
 20
-36.000000
 40
2.000000
  0
CIRCLE
  8
0
  6
CONTINUOUS
 62
7
 10
-109.500000
 20
-36.000000
 40
1.500000
  0
CIRCLE
  8
0
  6
CONTINUOUS
 62
2
 10
-86.500000
 20
-48.000000
 40
2.000000
  0
CIRCLE
  8
0
  6
CONTINUOUS
 62
7
 10
-86.500000
 20
-48.000000
 40
1.500000
  0
CIRCLE
  8
0
  6
CONTINUOUS
 62
2
 10
-109.500000
 20
-48.000000
 40
2.000000
  0
CIRCLE
  8
0
  6
CONTINUOUS
 62
7
 10
-109.500000
 20
-48.000000
 40
1.500000
  0
CIRCLE
  8
0
  6
CONTINUOUS
 62
2
 10
-28.500000
 20
70.000000
 40
2.500000
  0
CIRCLE
  8
0
  6
CONTINUOUS
 62
7
 10
-28.500000
 20
70.000000
 40
2.000000
  0
CIRCLE
  8
0
  6
CONTINUOUS
 62
7
 10
-86.500000
 20
70.000000
 40
2.000000
  0
CIRCLE
  8
0
  6
CONTINUOUS
 62
2
 10
-86.500000
 20
70.000000
 40
2.500000
  0
ARC
  8
0
  6
CONTINUOUS
 62
2
 10
-175.300003
 20
25.150000
 40
1.500000
 50
90.000000
 51
180.000000
  0
ARC
  8
0
  6
CONTINUOUS
 62
2
 10
-175.300003
 20
23.850000
 40
1.500000
 50
180.000000
 51
270.000000
  0
CIRCLE
  8
0
  6
CONTINUOUS
 62
2
 10
-180.500000
 20
26.000000
 40
2.000000
  0
CIRCLE
  8
0
  6
CONTINUOUS
 62
7
 10
-180.500000
 20
26.000000
 40
1.500000
  0
CIRCLE
  8
0
  6
CONTINUOUS
 62
7
 10
-180.500000
 20
1.999990
 40
1.500000
  0
CIRCLE
  8
0
  6
CONTINUOUS
 62
2
 10
-180.500000
 20
1.999990
 40
2.000000
  0
CIRCLE
  8
0
  6
CONTINUOUS
 62
7
 10
-180.500000
 20
14.000000
 40
4.000000
  0
ARC
  8
0
  6
CONTINUOUS
 62
2
 10
16.700100
 20
25.150000
 40
1.500000
 50
90.000099
 51
180.000000
  0
ARC
  8
0
  6
CONTINUOUS
 62
2
 10
16.700100
 20
23.850000
 40
1.500000
 50
180.000000
 51
270.000000
  0
CIRCLE
  8
0
  6
CONTINUOUS
 62
7
 10
-45.000000
 20
70.000000
 40
1.500000
  0
CIRCLE
  8
0
  6
CONTINUOUS
 62
7
 10
-116.500000
 20
26.000000
 40
2.200000
  0
CIRCLE
  8
0
  6
CONTINUOUS
 62
7
 10
-93.500000
 20
26.000000
 40
2.200000
  0
CIRCLE
  8
0
  6
CONTINUOUS
 62
7
 10
-93.500000
 20
1.999990
 40
2.200000
  0
CIRCLE
  8
0
  6
CONTINUOUS
 62
7
 10
-116.500000
 20
1.999990
 40
2.200000
  0
CIRCLE
  8
0
  6
CONTINUOUS
 62
4
 10
96.000000
 20
74.525002
 40
4.000000
  0
CIRCLE
  8
0
  6
CONTINUOUS
 62
4
 10
109.000000
 20
69.525002
 40
1.800000
  0
CIRCLE
  8
0
  6
CONTINUOUS
 62
4
 10
109.000000
 20
79.525002
 40
1.800000
  0
CIRCLE
  8
0
  6
CONTINUOUS
 62
4
 10
83.000000
 20
69.525002
 40
1.800000
  0
CIRCLE
  8
0
  6
CONTINUOUS
 62
4
 10
83.000000
 20
79.525002
 40
1.800000
  0
CIRCLE
  8
0
  6
CONTINUOUS
 62
4
 10
91.112099
 20
-3.725020
 40
4.000000
  0
CIRCLE
  8
0
  6
CONTINUOUS
 62
4
 10
84.112000
 20
43.275002
 40
4.000000
  0
CIRCLE
  8
0
  6
CONTINUOUS
 62
4
 10
66.500000
 20
-89.724998
 40
4.000000
  0
CIRCLE
  8
0
  6
CONTINUOUS
 62
4
 10
66.500000
 20
-89.724998
 40
8.000000
  0
CIRCLE
  8
0
  6
CONTINUOUS
 62
1
 10
66.500000
 20
-89.724998
 40
2.000000
  0
CIRCLE
  8
0
  6
CONTINUOUS
 62
4
 10
66.500000
 20
-89.724998
 40
1.621000
  0
ARC
  8
0
  6
CONTINUOUS
 62
4
 10
121.362000
 20
-71.724998
 40
1.250000
 50
90.000000
 51
270.000000
  0
ARC
  8
0
  6
CONTINUOUS
 62
4
 10
129.362000
 20
-71.724998
 40
1.250000
 50
270.000000
 51
90.000000
  0
ARC
  8
0
  6
CONTINUOUS
 62
4
 10
172.796997
 20
-46.302399
 40
1.250000
 50
90.000000
 51
270.000000
  0
ARC
  8
0
  6
CONTINUOUS
 62
4
 10
180.796997
 20
-46.302399
 40
1.250000
 50
270.000000
 51
90.000000
  0
TEXT
  8
0
 62
7
 10
138.607147
 20
123.974998
 40
4.500000
  1
Ver.1.0
 50
0.000000
 41
1.010205
 51
0.000000
  7
STANDARD
  0
TEXT
  8
0
 62
7
 10
117.230011
 20
-127.574997
 40
6.300000
  1
KOGANEI CORP.
 50
0.000000
 41
0.771430
 51
0.000000
  7
STANDARD
  0
TEXT
  8
0
 62
7
 10
-174.442856
 20
123.974998
 40
4.500000
  1
AX CYLINDER
 50
0.000000
 41
0.783252
 51
0.000000
  7
STANDARD
  0
TEXT
  8
0
 62
7
 10
-186.500290
 20
106.474998
 40
4.500000
  1
MODEL:AXAHS-SD15-20-R***
 50
0.000000
 41
0.772180
 51
0.000000
  7
STANDARD
  0
TEXT
  8
0
 62
7
 10
-12.700000
 20
80.000000
 40
3.200000
  1
20st
 50
90.000000
 41
0.907676
 51
0.000000
  7
STANDARD
  0
TEXT
  8
0
 62
7
 10
7.300020
 20
80.000000
 40
3.200000
  1
40st
 50
90.000000
 41
0.907676
 51
0.000000
  7
STANDARD
  0
TEXT
  8
0
 62
7
 10
27.299999
 20
80.000000
 40
3.200000
  1
60st
 50
90.000000
 41
0.907676
 51
0.000000
  7
STANDARD
  0
TEXT
  8
0
 62
7
 10
47.299999
 20
80.000000
 40
3.200000
  1
80st
 50
90.000000
 41
0.907676
 51
0.000000
  7
STANDARD
  0
TEXT
  8
0
 62
7
 10
67.300003
 20
80.000000
 40
3.200000
  1
100st
 50
90.000000
 41
0.985838
 51
0.000000
  7
STANDARD
  0
TEXT
  8
0
 62
7
 10
69.349762
 20
111.425003
 40
3.900000
  1
OPTION
 50
0.000000
 41
0.857249
 51
0.000000
  7
STANDARD
  0
TEXT
  8
0
 62
7
 10
79.163002
 20
55.225002
 40
3.200000
  1
ZT(FLANGE ROD END)
 50
0.000000
 41
0.754380
 51
0.000000
  7
STANDARD
  0
TEXT
  8
0
 62
7
 10
77.563004
 20
8.474999
 40
3.200000
  1
WS(INTERNAL THREAD)
 50
0.000000
 41
0.752116
 51
0.000000
  7
STANDARD
  0
TEXT
  8
0
 62
7
 10
77.563004
 20
-38.524998
 40
3.200000
  1
WT(EXTERNAL THREAD)
 50
0.000000
 41
0.738187
 51
0.000000
  7
STANDARD
  0
TEXT
  8
0
 62
7
 10
151.570999
 20
-44.883698
 40
3.200000
  1
KEY
 50
0.000000
 41
0.928574
 51
0.000000
  7
STANDARD
  0
TEXT
  8
0
 62
7
 10
72.562859
 20
-108.324997
 40
3.200000
  1
FN(WITH BEARING NUT
 50
0.000000
 41
0.766485
 51
0.000000
  7
STANDARD
  0
TEXT
  8
0
 62
7
 10
74.562859
 20
-114.324997
 40
3.200000
  1
      FOR FLOATING UNIT)
 50
0.000000
 41
0.754799
 51
0.000000
  7
STANDARD
  0
TEXT
  8
0
 62
7
 10
52.899998
 20
-55.124996
 40
3.200000
  1
(KEYWAY
 50
0.000000
 41
0.766485
 51
0.000000
  7
STANDARD
  0
TEXT
  8
0
 62
7
 10
52.899998
 20
-58.324997
 40
3.200000
  1
  POSITION)
 50
0.000000
 41
0.766485
 51
0.000000
  7
STANDARD
  0
DIMENSION
  8
0
  2
*DIM0
 62
0
 10
65.479401
 20
-70.251701
 30
0.0
 11
58.500000
 21
-70.525002
 31
0.0
 13
67.520500
 23
-70.251701
 33
0.0
 14
67.023300
 24
-79.738701
 34
0.0
  15
65.976601
 25
-79.738701
 35
0.0
 16
67.442047
 26
-71.749664
 36
0.0
 70
2
  0
DIMENSION
  8
0
  2
*DIM1
 62
2
  10
88.862198
 20
-81.724998
 30
0.0
 11
88.862198
 21
-89.724998
 31
0.0
  13
112.862000
 23
-81.724998
 33
0.0
14
112.862000
 24
-97.724998
 34
0.0
 70
1
 50
90
  0
DIMENSION
  8
0
  2
*DIM2
 62
2
  10
138.612000
 20
-64.474998
 30
0.0
 11
138.612000
 21
-57.903301
 31
0.0
  13
129.362000
 23
-70.474998
 33
0.0
14
129.362000
 24
-72.974998
 34
0.0
 70
1
 50
90
  0
DIMENSION
  8
0
  2
*DIM3
 62
2
  10
165.046997
 20
-62.552399
 30
0.0
 11
152.434006
 21
-62.552399
 31
0.0
  13
165.046997
 23
-62.552399
 33
0.0
14
165.046997
 24
-54.552399
 34
0.0
 70
1
 50
0
  0
ENDSEC
  0
EOF
