  0
SECTION
  2
HEADER
  0
ENDSEC
  0
SECTION
  2
TABLES
  0
TABLE
  2
LTYPE
 70
     4
  0
LTYPE
  2
CONTINUOUS
 70
    64
  3
Solid line
 72
    65
 73
     0
 40
0.000000
  0
LTYPE
  2
DASHED
 70
    64
  3
__ __ __ __ __ __ __ __ __ __ __ __ __ __ __
 72
    65
 73
     2
 40
3.500000
 49
2.000000
 49
-1.500000
  0
LTYPE
  2
CENTER
 70
    64
  3
____ _ ____ _ ____ _ ____ _ ____ _ ____ _ ____
 72
    65
 73
     4
 40
17.500000
 49
13.000000
 49
-1.500000
 49
1.500000
 49
-1.500000
  0
LTYPE
  2
PHANTOM
 70
    64
  3
_____ _ _ _____ _ _ _____ _ _ _____ _ _ ____  
 72
    65
 73
     6
 40
15.500000
 49
8.000000
 49
-1.500000
 49
1.500000
 49
-1.500000
 49
1.500000
 49
-1.500000
  0
ENDTAB
  0
TABLE
  2
LAYER
 70
     1
  0
LAYER
  2
0
 70
     0
 62
     7
  6
CONTINUOUS
  0
ENDTAB
  0
TABLE
  2
STYLE
 70
     1
  0
STYLE
  2
STANDARD
 70
     0
 40
0.000000
 41
1.000000
 50
0.000000
 71
     0
 42
0.200000
  3
txt
  4
BIGFONT
  0
ENDTAB
  0
TABLE
  2
VIEW
 70
     0
  0
ENDTAB
  0
ENDSEC
  0
SECTION
  2
BLOCKS
  0
BLOCK
  8
0
 70
65
  2
*DIM0
 10
0.0
 20
0.0
 30
0.0
  0
ARC
  8
0
  6
BYBLOCK
 62
0
 10
148.250000
 20
-99.224998
 40
18.000000
 50
74.267609
 51
105.732391
  0
LINE
  8
0
  6
BYBLOCK
 62
0
 10
148.772995
 20
-89.238701
 11
149.270996
 21
-79.751701
  0
LINE
  8
0
  6
BYBLOCK
 62
0
 10
147.727005
 20
-89.238701
 11
147.229004
 21
-79.751701
  0
LINE
  8
0
  6
BYBLOCK
 62
0
 10
149.192047
 20
-81.249664
 11
151.770737
 21
-82.782745
  0
LINE
  8
0
  6
BYBLOCK
 62
0
 10
149.192047
 20
-81.249664
 11
152.191803
 21
-81.288010
  0
LINE
  8
0
  6
BYBLOCK
 62
0
 10
147.307953
 20
-81.249664
 11
144.308197
 21
-81.288010
  0
LINE
  8
0
  6
BYBLOCK
 62
0
 10
147.307953
 20
-81.249664
 11
144.729263
 21
-82.782745
  0
TEXT
  8
0
 62
2
 10
140.250000
 20
-80.025002
 40
3.200000
  1
ü}3üï
 50
0.000000
 41
1.500330
 51
0.000000
  7
STANDARD
  0
ENDBLK
  8
3
  0
BLOCK
  8
0
 70
65
  2
*DIM1
 10
0.0
 20
0.0
 30
0.0
  0
LINE
  8
0
  6
BYBLOCK
 62
2
 10
194.612000
 20
-91.224998
 11
169.112000
 21
-91.224998
  0
LINE
  8
0
  6
BYBLOCK
 62
2
 10
194.612000
 20
-107.224998
 11
169.112000
 21
-107.224998
  0
LINE
  8
0
  6
BYBLOCK
 62
2
 10
170.612000
 20
-91.224998
 11
170.612000
 21
-107.224998
  0
LINE
  8
0
  6
BYBLOCK
 62
2
 10
170.612000
 20
-91.224998
 11
169.835541
 21
-94.122772
  0
LINE
  8
0
  6
BYBLOCK
 62
2
 10
170.612000
 20
-91.224998
 11
171.388458
 21
-94.122772
  0
LINE
  8
0
  6
BYBLOCK
 62
2
 10
170.612000
 20
-107.224998
 11
171.388458
 21
-104.327225
  0
LINE
  8
0
  6
BYBLOCK
 62
2
 10
170.612000
 20
-107.224998
 11
169.835541
 21
-104.327225
  0
TEXT
  8
0
 62
2
 10
169.412003
 20
-110.424995
 40
3.200000
  1
âË16
 50
90.000000
 41
0.937977
 51
0.000000
  7
STANDARD
  0
TEXT
  8
0
 62
2
 10
167.812424
 20
-101.420349
 40
1.600000
  1
 0
 50
90.000000
 41
0.937977
 51
0.000000
  7
STANDARD
  0
TEXT
  8
0
 62
2
 10
169.412415
 20
-101.420418
 40
1.600000
  1
-0.011
 50
90.000000
 41
0.937977
 51
0.000000
  7
STANDARD
  0
ENDBLK
  8
0
  0
BLOCK
  8
0
 70
65
  2
*DIM2
 10
0.0
 20
0.0
 30
0.0
  0
LINE
  8
0
  6
BYBLOCK
 62
2
 10
211.112000
 20
-79.974998
 11
221.862000
 21
-79.974998
  0
LINE
  8
0
  6
BYBLOCK
 62
2
 10
211.112000
 20
-82.474998
 11
221.862000
 21
-82.474998
  0
LINE
  8
0
  6
BYBLOCK
 62
2
 10
220.362000
 20
-73.974998
 11
220.362000
 21
-88.474998
  0
LINE
  8
0
  6
BYBLOCK
 62
2
 10
220.362000
 20
-79.974998
 11
220.362000
 21
-59.460400
  0
LINE
  8
0
  6
BYBLOCK
 62
2
 10
220.362000
 20
-79.974998
 11
221.138458
 21
-77.077225
  0
LINE
  8
0
  6
BYBLOCK
 62
2
 10
220.362000
 20
-79.974998
 11
219.585541
 21
-77.077225
  0
LINE
  8
0
  6
BYBLOCK
 62
2
 10
220.362000
 20
-82.474998
 11
219.585541
 21
-85.372772
  0
LINE
  8
0
  6
BYBLOCK
 62
2
 10
220.362000
 20
-82.474998
 11
221.138458
 21
-85.372772
  0
TEXT
  8
0
 62
2
 10
219.162003
 20
-77.003296
 40
3.200000
  1
2.5
 50
90.000000
 41
0.900002
 51
0.000000
  7
STANDARD
  0
TEXT
  8
0
 62
2
 10
217.562408
 20
-68.363197
 40
1.600000
  1
+0.014
 50
90.000000
 41
0.900002
 51
0.000000
  7
STANDARD
  0
TEXT
  8
0
 62
2
 10
219.162399
 20
-68.363274
 40
1.600000
  1
 0
 50
90.000000
 41
0.900002
 51
0.000000
  7
STANDARD
  0
ENDBLK
  8
0
  0
BLOCK
  8
0
 70
65
  2
*DIM3
 10
0.0
 20
0.0
 30
0.0
  0
LINE
  8
0
  6
BYBLOCK
 62
2
 10
246.796997
 20
-72.052399
 11
249.296997
 21
-72.052399
  0
LINE
  8
0
  6
BYBLOCK
 62
2
 10
246.796997
 20
-64.052399
 11
246.796997
 21
-73.552399
  0
LINE
  8
0
  6
BYBLOCK
 62
2
 10
246.796997
 20
-72.052399
 11
249.296997
 21
-72.052399
  0
LINE
  8
0
  6
BYBLOCK
 62
2
 10
246.796997
 20
-72.052399
 11
226.240997
 21
-72.052399
  0
TEXT
  8
0
 62
2
 10
224.584000
 20
-70.852402
 40
3.200000
  1
2.5
 50
0.000000
 41
0.923936
 51
0.000000
  7
STANDARD
  0
TEXT
  8
0
 62
2
 10
233.453781
 20
-69.252403
 40
1.600000
  1
+0.016
 50
0.000000
 41
0.923936
 51
0.000000
  7
STANDARD
  0
TEXT
  8
0
 62
2
 10
233.453781
 20
-70.852402
 40
1.600000
  1
+0.006
 50
0.000000
 41
0.923936
 51
0.000000
  7
STANDARD
  0
ENDBLK
  8
0
  0
ENDSEC
  0
SECTION
  2
ENTITIES
  0
POINT
  8
0
  62
7
  10
-86.750000
  20
86.074997
  30
0.0
  0
POINT
  8
0
  62
7
  10
-66.750000
  20
86.074997
  30
0.0
  0
POINT
  8
0
  62
7
  10
-46.750000
  20
86.074997
  30
0.0
  0
POINT
  8
0
  62
7
  10
-35.250000
  20
78.574997
  30
0.0
  0
POINT
  8
0
  62
7
  10
-26.750000
  20
86.074997
  30
0.0
  0
POINT
  8
0
  62
7
  10
-6.750020
  20
86.074997
  30
0.0
  0
POINT
  8
0
  62
7
  10
4.749980
  20
78.574997
  30
0.0
  0
POINT
  8
0
  62
7
  10
44.750000
  20
78.574997
  30
0.0
  0
POINT
  8
0
  62
7
  10
84.750000
  20
78.574997
  30
0.0
  0
POINT
  8
0
  62
7
  10
124.750000
  20
78.574997
  30
0.0
  0
LINE
  8
0
  6
CONTINUOUS
 62
7
 10
-281.250000
 20
195.500000
 11
282.100006
 21
195.500000
  0
LINE
  8
0
  6
CONTINUOUS
 62
7
 10
-281.250000
 20
195.500000
 11
-281.250000
 21
-195.000000
  0
LINE
  8
0
  6
CONTINUOUS
 62
7
 10
282.100006
 20
195.500000
 11
282.100006
 21
-195.000000
  0
LINE
  8
0
  6
CONTINUOUS
 62
7
 10
-281.250000
 20
-195.000000
 11
282.100006
 21
-195.000000
  0
LINE
  8
0
  6
CONTINUOUS
 62
7
 10
162.100006
 20
-175.000000
 11
162.100006
 21
-195.000000
  0
LINE
  8
0
  6
CONTINUOUS
 62
7
 10
162.100006
 20
-175.000000
 11
282.100006
 21
-175.000000
  0
LINE
  8
0
  6
CONTINUOUS
 62
7
 10
162.100006
 20
175.500000
 11
282.100006
 21
175.500000
  0
LINE
  8
0
  6
CONTINUOUS
 62
7
 10
-281.250000
 20
175.500000
 11
-161.250000
 21
175.500000
  0
LINE
  8
0
  6
CONTINUOUS
 62
7
 10
162.100006
 20
195.500000
 11
162.100006
 21
175.500000
  0
LINE
  8
0
  6
CONTINUOUS
 62
7
 10
-161.250000
 20
195.500000
 11
-161.250000
 21
175.500000
  0
LINE
  8
0
  6
CONTINUOUS
 62
7
 10
-201.750000
 20
-20.924999
 11
-201.750000
 21
11.075000
  0
LINE
  8
0
  6
CONTINUOUS
 62
7
 10
-86.750000
 20
11.075000
 11
-86.750000
 21
-20.924999
  0
LINE
  8
0
  6
CENTER
 62
2
 10
-235.750000
 20
-4.925000
 11
-33.250000
 21
-4.925000
  0
LINE
  8
0
  6
CONTINUOUS
 62
7
 10
-201.750000
 20
-20.924999
 11
-86.750000
 21
-20.924999
  0
LINE
  8
0
  6
CONTINUOUS
 62
7
 10
-201.750000
 20
11.075000
 11
-86.750000
 21
11.075000
  0
LINE
  8
0
  6
CONTINUOUS
 62
2
 10
-201.750000
 20
-16.725000
 11
-193.494995
 21
-16.725000
  0
LINE
  8
0
  6
CONTINUOUS
 62
2
 10
-201.750000
 20
-14.125000
 11
-192.244995
 21
-14.125000
  0
LINE
  8
0
  6
CONTINUOUS
 62
7
 10
-170.500000
 20
-16.924999
 11
-170.500000
 21
-20.924999
  0
LINE
  8
0
  6
CONTINUOUS
 62
7
 10
-163.000000
 20
-16.725000
 11
-163.000000
 21
-20.924999
  0
LINE
  8
0
  6
CONTINUOUS
 62
2
 10
-186.005005
 20
-16.725000
 11
-170.494995
 21
-16.725000
  0
LINE
  8
0
  6
CONTINUOUS
 62
2
 10
-187.255997
 20
-14.125000
 11
-169.244995
 21
-14.125000
  0
LINE
  8
0
  6
CONTINUOUS
 62
7
 10
-193.500000
 20
-16.924999
 11
-193.500000
 21
-20.924999
  0
LINE
  8
0
  6
CONTINUOUS
 62
7
 10
-186.000000
 20
-16.725000
 11
-186.000000
 21
-20.924999
  0
LINE
  8
0
  6
CONTINUOUS
 62
2
 10
-164.255997
 20
-14.125000
 11
-86.750000
 21
-14.125000
  0
LINE
  8
0
  6
CONTINUOUS
 62
2
 10
-163.000000
 20
-16.725000
 11
-86.750000
 21
-16.725000
  0
LINE
  8
0
  6
CONTINUOUS
 62
2
 10
-201.750000
 20
6.875000
 11
-193.494995
 21
6.875000
  0
LINE
  8
0
  6
CONTINUOUS
 62
2
 10
-201.750000
 20
4.274980
 11
-192.244995
 21
4.274980
  0
LINE
  8
0
  6
CONTINUOUS
 62
7
 10
-170.500000
 20
7.075000
 11
-170.500000
 21
11.075000
  0
LINE
  8
0
  6
CONTINUOUS
 62
7
 10
-163.000000
 20
6.875000
 11
-163.000000
 21
11.075000
  0
LINE
  8
0
  6
CONTINUOUS
 62
2
 10
-186.000000
 20
6.875000
 11
-170.494995
 21
6.875000
  0
LINE
  8
0
  6
CONTINUOUS
 62
2
 10
-187.255997
 20
4.274980
 11
-169.244995
 21
4.274980
  0
LINE
  8
0
  6
CONTINUOUS
 62
7
 10
-193.500000
 20
7.075000
 11
-193.500000
 21
11.075000
  0
LINE
  8
0
  6
CONTINUOUS
 62
7
 10
-186.000000
 20
6.875000
 11
-186.000000
 21
11.075000
  0
LINE
  8
0
  6
CONTINUOUS
 62
2
 10
-164.255997
 20
4.274980
 11
-86.750000
 21
4.274980
  0
LINE
  8
0
  6
CONTINUOUS
 62
2
 10
-163.005005
 20
6.875000
 11
-86.750000
 21
6.875000
  0
LINE
  8
0
  6
CONTINUOUS
 62
7
 10
-233.750000
 20
-0.925003
 11
-201.750000
 21
-0.925003
  0
LINE
  8
0
  6
CONTINUOUS
 62
7
 10
-233.750000
 20
-8.925000
 11
-201.750000
 21
-8.925000
  0
LINE
  8
0
  6
CONTINUOUS
 62
7
 10
-233.750000
 20
-0.925003
 11
-233.750000
 21
-8.925000
  0
LINE
  8
0
  6
CONTINUOUS
 62
7
 10
-85.250000
 20
4.325000
 11
-85.250000
 21
-14.175000
  0
LINE
  8
0
  6
CONTINUOUS
 62
7
 10
-83.250000
 20
0.074997
 11
-83.250000
 21
-9.925000
  0
LINE
  8
0
  6
CONTINUOUS
 62
7
 10
-85.250000
 20
-9.925000
 11
-83.250000
 21
-9.925000
  0
LINE
  8
0
  6
CONTINUOUS
 62
7
 10
-85.250000
 20
0.074997
 11
-83.250000
 21
0.074997
  0
LINE
  8
0
  6
CONTINUOUS
 62
7
 10
-83.250000
 20
-7.925000
 11
-63.250000
 21
-7.925000
  0
LINE
  8
0
  6
CONTINUOUS
 62
7
 10
-83.250000
 20
-1.925000
 11
-63.250000
 21
-1.925000
  0
LINE
  8
0
  6
CONTINUOUS
 62
7
 10
-86.750000
 20
4.325000
 11
-85.250000
 21
4.325000
  0
LINE
  8
0
  6
CONTINUOUS
 62
7
 10
-86.750000
 20
-14.175000
 11
-85.250000
 21
-14.175000
  0
LINE
  8
0
  6
CONTINUOUS
 62
7
 10
-35.250000
 20
-2.425000
 11
-35.250000
 21
-7.425000
  0
LINE
  8
0
  6
CONTINUOUS
 62
7
 10
-42.250000
 20
0.074997
 11
-42.250000
 21
-9.925000
  0
LINE
  8
0
  6
CONTINUOUS
 62
2
 10
-38.250000
 20
-2.925000
 11
-35.250000
 21
-2.925000
  0
LINE
  8
0
  6
CONTINUOUS
 62
2
 10
-38.250000
 20
-6.925000
 11
-35.250000
 21
-6.925000
  0
LINE
  8
0
  6
CONTINUOUS
 62
7
 10
-63.250000
 20
0.074997
 11
-42.250000
 21
0.074997
  0
LINE
  8
0
  6
CONTINUOUS
 62
7
 10
-63.250000
 20
-9.925000
 11
-42.250000
 21
-9.925000
  0
LINE
  8
0
  6
CONTINUOUS
 62
7
 10
-38.250000
 20
-7.425000
 11
-35.250000
 21
-7.425000
  0
LINE
  8
0
  6
CONTINUOUS
 62
7
 10
-38.250000
 20
-2.425000
 11
-35.250000
 21
-2.425000
  0
LINE
  8
0
  6
CONTINUOUS
 62
7
 10
-63.250000
 20
0.074997
 11
-63.250000
 21
-9.925000
  0
LINE
  8
0
  6
CONTINUOUS
 62
7
 10
-47.250000
 20
-7.925000
 11
-42.250000
 21
-7.925000
  0
LINE
  8
0
  6
CONTINUOUS
 62
7
 10
-47.250000
 20
-1.925000
 11
-42.250000
 21
-1.925000
  0
LINE
  8
0
  6
CONTINUOUS
 62
7
 10
-47.250000
 20
-1.925000
 11
-47.250000
 21
-7.925000
  0
LINE
  8
0
  6
CONTINUOUS
 62
2
 10
-47.250000
 20
-1.925000
 11
-42.250000
 21
-7.925010
  0
LINE
  8
0
  6
CONTINUOUS
 62
2
 10
-47.250000
 20
-7.924990
 11
-42.250000
 21
-1.924980
  0
LINE
  8
0
  6
CONTINUOUS
 62
7
 10
-38.250000
 20
-1.025010
 11
-38.250000
 21
-8.825000
  0
LINE
  8
0
  6
CONTINUOUS
 62
7
 10
-42.250000
 20
-0.925003
 11
-38.307800
 21
-0.925003
  0
LINE
  8
0
  6
CONTINUOUS
 62
7
 10
-42.250000
 20
-8.925000
 11
-38.307800
 21
-8.925000
  0
LINE
  8
0
  6
CONTINUOUS
 62
7
 10
-42.250000
 20
-4.925000
 11
-38.250000
 21
-4.925000
  0
LINE
  8
0
  6
CONTINUOUS
 62
7
 10
-38.250000
 20
-1.025010
 11
-38.307800
 21
-0.924998
  0
LINE
  8
0
  6
CONTINUOUS
 62
7
 10
-38.250000
 20
-8.825000
 11
-38.307701
 21
-8.925000
  0
LINE
  8
0
  6
CENTER
 62
2
 10
-235.750000
 20
-85.925003
 11
-33.250000
 21
-85.925003
  0
LINE
  8
0
  6
CONTINUOUS
 62
7
 10
-86.750000
 20
-95.925003
 11
-86.750000
 21
-75.925003
  0
LINE
  8
0
  6
CONTINUOUS
 62
7
 10
-193.500000
 20
-82.425003
 11
-186.000000
 21
-82.425003
  0
LINE
  8
0
  6
CONTINUOUS
 62
7
 10
-193.500000
 20
-89.425003
 11
-186.000000
 21
-89.425003
  0
LINE
  8
0
  6
CONTINUOUS
 62
7
 10
-193.500000
 20
-89.425003
 11
-193.500000
 21
-95.925003
  0
LINE
  8
0
  6
CONTINUOUS
 62
7
 10
-186.000000
 20
-89.425003
 11
-186.000000
 21
-95.925003
  0
LINE
  8
0
  6
CONTINUOUS
 62
7
 10
-170.500000
 20
-89.425003
 11
-170.500000
 21
-95.925003
  0
LINE
  8
0
  6
CONTINUOUS
 62
7
 10
-170.500000
 20
-89.425003
 11
-163.000000
 21
-89.425003
  0
LINE
  8
0
  6
CONTINUOUS
 62
7
 10
-163.000000
 20
-89.425003
 11
-163.000000
 21
-95.925003
  0
LINE
  8
0
  6
CONTINUOUS
 62
7
 10
-170.500000
 20
-82.425003
 11
-163.000000
 21
-82.425003
  0
LINE
  8
0
  6
CONTINUOUS
 62
7
 10
-170.500000
 20
-75.925003
 11
-170.500000
 21
-82.425003
  0
LINE
  8
0
  6
CONTINUOUS
 62
7
 10
-163.000000
 20
-75.925003
 11
-163.000000
 21
-82.425003
  0
LINE
  8
0
  6
CONTINUOUS
 62
7
 10
-186.000000
 20
-75.925003
 11
-186.000000
 21
-82.425003
  0
LINE
  8
0
  6
CONTINUOUS
 62
7
 10
-193.500000
 20
-75.925003
 11
-193.500000
 21
-82.425003
  0
LINE
  8
0
  6
CONTINUOUS
 62
7
 10
-85.250000
 20
-76.675003
 11
-85.250000
 21
-95.175003
  0
LINE
  8
0
  6
CONTINUOUS
 62
7
 10
-83.250000
 20
-80.925003
 11
-83.250000
 21
-90.925003
  0
LINE
  8
0
  6
CONTINUOUS
 62
7
 10
-85.250000
 20
-90.925003
 11
-83.250000
 21
-90.925003
  0
LINE
  8
0
  6
CONTINUOUS
 62
7
 10
-85.250000
 20
-80.925003
 11
-83.250000
 21
-80.925003
  0
LINE
  8
0
  6
CONTINUOUS
 62
7
 10
-83.250000
 20
-88.925003
 11
-63.250000
 21
-88.925003
  0
LINE
  8
0
  6
CONTINUOUS
 62
7
 10
-83.250000
 20
-82.925003
 11
-63.250000
 21
-82.925003
  0
LINE
  8
0
  6
CONTINUOUS
 62
7
 10
-86.750000
 20
-76.675003
 11
-85.250000
 21
-76.675003
  0
LINE
  8
0
  6
CONTINUOUS
 62
7
 10
-86.750000
 20
-95.175003
 11
-85.250000
 21
-95.175003
  0
LINE
  8
0
  6
CONTINUOUS
 62
7
 10
-35.250000
 20
-83.425003
 11
-35.250000
 21
-88.425003
  0
LINE
  8
0
  6
CONTINUOUS
 62
7
 10
-42.250000
 20
-81.306198
 11
-42.250000
 21
-90.543800
  0
LINE
  8
0
  6
CONTINUOUS
 62
2
 10
-38.250000
 20
-83.925003
 11
-35.250000
 21
-83.925003
  0
LINE
  8
0
  6
CONTINUOUS
 62
2
 10
-38.250000
 20
-87.925003
 11
-35.250000
 21
-87.925003
  0
LINE
  8
0
  6
CONTINUOUS
 62
7
 10
-63.250000
 20
-80.925003
 11
-47.250000
 21
-80.925003
  0
LINE
  8
0
  6
CONTINUOUS
 62
7
 10
-38.250000
 20
-88.425003
 11
-35.250000
 21
-88.425003
  0
LINE
  8
0
  6
CONTINUOUS
 62
7
 10
-38.250000
 20
-83.425003
 11
-35.250000
 21
-83.425003
  0
LINE
  8
0
  6
CONTINUOUS
 62
7
 10
-63.250000
 20
-80.925003
 11
-63.250000
 21
-90.925003
  0
LINE
  8
0
  6
CONTINUOUS
 62
7
 10
-47.250000
 20
-80.925003
 11
-47.250000
 21
-81.925003
  0
LINE
  8
0
  6
CONTINUOUS
 62
7
 10
-47.250000
 20
-81.925003
 11
-42.250000
 21
-81.925003
  0
LINE
  8
0
  6
CONTINUOUS
 62
7
 10
-63.250000
 20
-90.925003
 11
-47.250000
 21
-90.925003
  0
LINE
  8
0
  6
CONTINUOUS
 62
7
 10
-47.250000
 20
-90.925003
 11
-47.250000
 21
-89.925003
  0
LINE
  8
0
  6
CONTINUOUS
 62
7
 10
-47.250000
 20
-89.925003
 11
-42.250000
 21
-89.925003
  0
LINE
  8
0
  6
CONTINUOUS
 62
7
 10
-38.250000
 20
-81.306198
 11
-38.250000
 21
-90.543800
  0
LINE
  8
0
  6
CONTINUOUS
 62
7
 10
-42.250000
 20
-83.615601
 11
-38.250000
 21
-83.615601
  0
LINE
  8
0
  6
CONTINUOUS
 62
7
 10
-42.250000
 20
-88.234398
 11
-38.250000
 21
-88.234398
  0
LINE
  8
0
  6
CONTINUOUS
 62
7
 10
-42.250000
 20
-90.543800
 11
-38.250000
 21
-90.543800
  0
LINE
  8
0
  6
CONTINUOUS
 62
7
 10
-42.250000
 20
-81.306198
 11
-38.250000
 21
-81.306198
  0
LINE
  8
0
  6
CONTINUOUS
 62
7
 10
-201.750000
 20
66.074997
 11
-201.750000
 21
86.074997
  0
LINE
  8
0
  6
CONTINUOUS
 62
7
 10
-86.750000
 20
66.074997
 11
-86.750000
 21
86.074997
  0
LINE
  8
0
  6
CENTER
 62
2
 10
-235.750000
 20
76.074997
 11
-33.250000
 21
76.074997
  0
LINE
  8
0
  6
CONTINUOUS
 62
7
 10
-201.750000
 20
86.074997
 11
-86.750000
 21
86.074997
  0
LINE
  8
0
  6
CONTINUOUS
 62
7
 10
-201.750000
 20
66.074997
 11
-86.750000
 21
66.074997
  0
LINE
  8
0
  6
CONTINUOUS
 62
7
 10
-193.500000
 20
86.074997
 11
-193.500000
 21
79.574997
  0
LINE
  8
0
  6
CONTINUOUS
 62
7
 10
-186.000000
 20
86.074997
 11
-186.000000
 21
79.574997
  0
LINE
  8
0
  6
CONTINUOUS
 62
7
 10
-170.500000
 20
86.074997
 11
-170.500000
 21
79.574997
  0
LINE
  8
0
  6
CONTINUOUS
 62
7
 10
-163.000000
 20
86.074997
 11
-163.000000
 21
79.574997
  0
LINE
  8
0
  6
CONTINUOUS
 62
7
 10
-193.500000
 20
79.574997
 11
-186.000000
 21
79.574997
  0
LINE
  8
0
  6
CONTINUOUS
 62
7
 10
-193.500000
 20
72.574997
 11
-186.000000
 21
72.574997
  0
LINE
  8
0
  6
CONTINUOUS
 62
7
 10
-193.500000
 20
72.574997
 11
-193.500000
 21
66.074997
  0
LINE
  8
0
  6
CONTINUOUS
 62
7
 10
-186.000000
 20
72.574997
 11
-186.000000
 21
66.074997
  0
LINE
  8
0
  6
CONTINUOUS
 62
7
 10
-170.500000
 20
72.574997
 11
-170.500000
 21
66.074997
  0
LINE
  8
0
  6
CONTINUOUS
 62
7
 10
-163.000000
 20
72.574997
 11
-163.000000
 21
66.074997
  0
LINE
  8
0
  6
CONTINUOUS
 62
7
 10
-170.500000
 20
72.574997
 11
-163.000000
 21
72.574997
  0
LINE
  8
0
  6
CONTINUOUS
 62
7
 10
-170.500000
 20
79.574997
 11
-163.000000
 21
79.574997
  0
LINE
  8
0
  6
CONTINUOUS
 62
7
 10
-233.750000
 20
80.074997
 11
-201.750000
 21
80.074997
  0
LINE
  8
0
  6
CONTINUOUS
 62
7
 10
-233.750000
 20
72.074997
 11
-201.750000
 21
72.074997
  0
LINE
  8
0
  6
CONTINUOUS
 62
7
 10
-233.750000
 20
80.074997
 11
-233.750000
 21
72.074997
  0
LINE
  8
0
  6
CONTINUOUS
 62
7
 10
-85.250000
 20
85.324997
 11
-85.250000
 21
66.824997
  0
LINE
  8
0
  6
CONTINUOUS
 62
7
 10
-83.250000
 20
81.074997
 11
-83.250000
 21
71.074997
  0
LINE
  8
0
  6
CONTINUOUS
 62
7
 10
-85.250000
 20
71.074997
 11
-83.250000
 21
71.074997
  0
LINE
  8
0
  6
CONTINUOUS
 62
7
 10
-85.250000
 20
81.074997
 11
-83.250000
 21
81.074997
  0
LINE
  8
0
  6
CONTINUOUS
 62
7
 10
-83.250000
 20
73.074997
 11
-63.250000
 21
73.074997
  0
LINE
  8
0
  6
CONTINUOUS
 62
7
 10
-83.250000
 20
79.074997
 11
-63.250000
 21
79.074997
  0
LINE
  8
0
  6
CONTINUOUS
 62
7
 10
-86.750000
 20
85.324997
 11
-85.250000
 21
85.324997
  0
LINE
  8
0
  6
CONTINUOUS
 62
7
 10
-86.750000
 20
66.824997
 11
-85.250000
 21
66.824997
  0
LINE
  8
0
  6
CONTINUOUS
 62
7
 10
-35.250000
 20
78.574997
 11
-35.250000
 21
73.574997
  0
LINE
  8
0
  6
CONTINUOUS
 62
2
 10
-38.250000
 20
78.074997
 11
-35.250000
 21
78.074997
  0
LINE
  8
0
  6
CONTINUOUS
 62
2
 10
-38.250000
 20
74.074997
 11
-35.250000
 21
74.074997
  0
LINE
  8
0
  6
CONTINUOUS
 62
7
 10
-63.250000
 20
81.074997
 11
-47.250000
 21
81.074997
  0
LINE
  8
0
  6
CONTINUOUS
 62
7
 10
-38.250000
 20
73.574997
 11
-35.250000
 21
73.574997
  0
LINE
  8
0
  6
CONTINUOUS
 62
7
 10
-38.250000
 20
78.574997
 11
-35.250000
 21
78.574997
  0
LINE
  8
0
  6
CONTINUOUS
 62
7
 10
-63.250000
 20
81.074997
 11
-63.250000
 21
71.074997
  0
LINE
  8
0
  6
CONTINUOUS
 62
7
 10
-47.250000
 20
81.074997
 11
-47.250000
 21
80.074997
  0
LINE
  8
0
  6
CONTINUOUS
 62
7
 10
-47.250000
 20
80.074997
 11
-42.250000
 21
80.074997
  0
LINE
  8
0
  6
CONTINUOUS
 62
7
 10
-63.250000
 20
71.074997
 11
-47.250000
 21
71.074997
  0
LINE
  8
0
  6
CONTINUOUS
 62
7
 10
-47.250000
 20
71.074997
 11
-47.250000
 21
72.074997
  0
LINE
  8
0
  6
CONTINUOUS
 62
7
 10
-47.250000
 20
72.074997
 11
-42.250000
 21
72.074997
  0
LINE
  8
0
  6
CONTINUOUS
 62
7
 10
-38.250000
 20
80.693802
 11
-38.250000
 21
71.456200
  0
LINE
  8
0
  6
CONTINUOUS
 62
7
 10
-42.250000
 20
78.384399
 11
-38.250000
 21
78.384399
  0
LINE
  8
0
  6
CONTINUOUS
 62
7
 10
-42.250000
 20
73.765602
 11
-38.250000
 21
73.765602
  0
LINE
  8
0
  6
CONTINUOUS
 62
7
 10
-42.250000
 20
71.456200
 11
-38.250000
 21
71.456200
  0
LINE
  8
0
  6
CONTINUOUS
 62
7
 10
-42.250000
 20
80.693802
 11
-38.250000
 21
80.693802
  0
LINE
  8
0
  6
CONTINUOUS
 62
7
 10
-42.250000
 20
80.693802
 11
-42.250000
 21
71.456200
  0
LINE
  8
0
  6
CENTER
 62
2
 10
-263.750000
 20
-4.925000
 11
-239.750000
 21
-4.925000
  0
LINE
  8
0
  6
CONTINUOUS
 62
7
 10
-261.750000
 20
-20.924999
 11
-261.750000
 21
11.075000
  0
LINE
  8
0
  6
CONTINUOUS
 62
2
 10
-241.750000
 20
6.875000
 11
-242.750000
 21
6.875000
  0
LINE
  8
0
  6
CONTINUOUS
 62
2
 10
-242.750000
 20
6.875000
 11
-242.750000
 21
7.724980
  0
LINE
  8
0
  6
CONTINUOUS
 62
2
 10
-242.750000
 20
7.724990
 11
-246.550003
 21
7.724990
  0
LINE
  8
0
  6
CONTINUOUS
 62
2
 10
-248.050003
 20
4.924970
 11
-248.050003
 21
6.224980
  0
LINE
  8
0
  6
CONTINUOUS
 62
2
 10
-242.750000
 20
3.424990
 11
-246.550003
 21
3.424990
  0
LINE
  8
0
  6
CONTINUOUS
 62
2
 10
-242.750000
 20
3.424970
 11
-242.750000
 21
4.274990
  0
LINE
  8
0
  6
CONTINUOUS
 62
2
 10
-241.750000
 20
4.274990
 11
-242.750000
 21
4.274990
  0
LINE
  8
0
  6
CONTINUOUS
 62
7
 10
-261.750000
 20
-20.924999
 11
-241.750000
 21
-20.924999
  0
LINE
  8
0
  6
CONTINUOUS
 62
7
 10
-241.750000
 20
11.075000
 11
-241.750000
 21
-20.924999
  0
LINE
  8
0
  6
CONTINUOUS
 62
7
 10
-261.750000
 20
11.075000
 11
-241.750000
 21
11.075000
  0
LINE
  8
0
  6
CENTER
 62
2
 10
-255.160004
 20
-16.924999
 11
-248.376999
 21
-16.924999
  0
LINE
  8
0
  6
CENTER
 62
2
 10
-255.369003
 20
7.075000
 11
-248.533997
 21
7.075000
  0
LINE
  8
0
  6
CENTER
 62
2
 10
-251.750000
 20
-22.924999
 11
-251.750000
 21
24.575001
  0
LINE
  8
0
  6
CENTER
 62
2
 10
-263.750000
 20
-15.425000
 11
-254.190002
 21
-15.425000
  0
LINE
  8
0
  6
CENTER
 62
2
 10
-263.750000
 20
5.575000
 11
-254.095001
 21
5.575000
  0
LINE
  8
0
  6
CENTER
 62
2
 10
-239.750000
 20
5.575000
 11
-249.466995
 21
5.575000
  0
LINE
  8
0
  6
CENTER
 62
2
 10
-239.750000
 20
-15.425000
 11
-249.466995
 21
-15.425000
  0
LINE
  8
0
  6
DASHED
 62
2
 10
-192.250000
 20
-82.425003
 11
-192.250000
 21
-89.425003
  0
LINE
  8
0
  6
DASHED
 62
2
 10
-191.949997
 20
-82.425003
 11
-191.949997
 21
-89.425003
  0
LINE
  8
0
  6
DASHED
 62
2
 10
-187.550003
 20
-82.425003
 11
-187.550003
 21
-89.425003
  0
LINE
  8
0
  6
DASHED
 62
2
 10
-187.250000
 20
-82.425003
 11
-187.250000
 21
-89.425003
  0
LINE
  8
0
  6
DASHED
 62
2
 10
-169.250000
 20
-82.425003
 11
-169.250000
 21
-89.425003
  0
LINE
  8
0
  6
DASHED
 62
2
 10
-168.949997
 20
-82.425003
 11
-168.949997
 21
-89.425003
  0
LINE
  8
0
  6
DASHED
 62
2
 10
-164.550003
 20
-82.425003
 11
-164.550003
 21
-89.425003
  0
LINE
  8
0
  6
DASHED
 62
2
 10
-164.250000
 20
-82.425003
 11
-164.250000
 21
-89.425003
  0
LINE
  8
0
  6
CENTER
 62
2
 10
-189.750000
 20
-73.925003
 11
-189.750000
 21
-97.925003
  0
LINE
  8
0
  6
CENTER
 62
2
 10
-166.750000
 20
-73.925003
 11
-166.750000
 21
-97.925003
  0
LINE
  8
0
  6
CENTER
 62
2
 10
-25.250000
 20
-4.925000
 11
-1.249970
 21
-4.925000
  0
LINE
  8
0
  6
CONTINUOUS
 62
7
 10
-23.250000
 20
-20.924999
 11
-23.250000
 21
11.075000
  0
LINE
  8
0
  6
CONTINUOUS
 62
2
 10
-3.249920
 20
6.875000
 11
-4.249920
 21
6.875000
  0
LINE
  8
0
  6
CONTINUOUS
 62
2
 10
-4.249970
 20
6.875000
 11
-4.249970
 21
7.724980
  0
LINE
  8
0
  6
CONTINUOUS
 62
2
 10
-4.249950
 20
7.724990
 11
-8.049960
 21
7.724990
  0
LINE
  8
0
  6
CONTINUOUS
 62
2
 10
-9.549960
 20
4.924970
 11
-9.549960
 21
6.224980
  0
LINE
  8
0
  6
CONTINUOUS
 62
2
 10
-4.249920
 20
3.424990
 11
-8.049960
 21
3.424990
  0
LINE
  8
0
  6
CONTINUOUS
 62
2
 10
-4.249970
 20
3.424970
 11
-4.249970
 21
4.274990
  0
LINE
  8
0
  6
CONTINUOUS
 62
2
 10
-3.249920
 20
4.274990
 11
-4.249920
 21
4.274990
  0
LINE
  8
0
  6
CONTINUOUS
 62
7
 10
-23.250000
 20
-20.924999
 11
-3.249950
 21
-20.924999
  0
LINE
  8
0
  6
CONTINUOUS
 62
7
 10
-3.249970
 20
11.075000
 11
-3.249970
 21
-20.924999
  0
LINE
  8
0
  6
CONTINUOUS
 62
7
 10
-23.250000
 20
11.075000
 11
-3.249950
 21
11.075000
  0
LINE
  8
0
  6
CENTER
 62
2
 10
-13.250000
 20
-22.924999
 11
-13.250000
 21
24.575001
  0
LINE
  8
0
  6
CENTER
 62
2
 10
-25.250000
 20
-15.425000
 11
-15.689800
 21
-15.425000
  0
LINE
  8
0
  6
CENTER
 62
2
 10
-25.250000
 20
5.575000
 11
-15.595400
 21
5.575000
  0
LINE
  8
0
  6
CENTER
 62
2
 10
-1.249970
 20
5.575000
 11
-10.966900
 21
5.575000
  0
LINE
  8
0
  6
CENTER
 62
2
 10
-1.249970
 20
-15.425000
 11
-10.966900
 21
-15.425000
  0
LINE
  8
0
  6
CONTINUOUS
 62
7
 10
-233.750000
 20
-89.925003
 11
-201.750000
 21
-89.925003
  0
LINE
  8
0
  6
CONTINUOUS
 62
7
 10
-233.750000
 20
-81.925003
 11
-233.750000
 21
-89.925003
  0
LINE
  8
0
  6
CONTINUOUS
 62
7
 10
-201.750000
 20
-95.925003
 11
-201.750000
 21
-75.925003
  0
LINE
  8
0
  6
CONTINUOUS
 62
7
 10
-201.750000
 20
-75.925003
 11
-86.750000
 21
-75.925003
  0
LINE
  8
0
  6
CONTINUOUS
 62
7
 10
-201.750000
 20
-95.925003
 11
-86.750000
 21
-95.925003
  0
LINE
  8
0
  6
CONTINUOUS
 62
7
 10
-233.750000
 20
-81.925003
 11
-201.750000
 21
-81.925003
  0
LINE
  8
0
  6
CONTINUOUS
 62
7
 10
-15.559400
 20
-8.924990
 11
-17.868799
 21
-4.925000
  0
LINE
  8
0
  6
CONTINUOUS
 62
7
 10
-9.249970
 20
-7.925000
 11
-9.249970
 21
-5.996770
  0
LINE
  8
0
  6
CONTINUOUS
 62
7
 10
-17.250000
 20
-7.925000
 11
-17.250000
 21
-5.996780
  0
LINE
  8
0
  6
CONTINUOUS
 62
7
 10
-17.868700
 20
-4.925000
 11
-15.559300
 21
-0.925021
  0
LINE
  8
0
  6
CONTINUOUS
 62
7
 10
-15.559400
 20
-0.925018
 11
-10.940600
 21
-0.925018
  0
LINE
  8
0
  6
CONTINUOUS
 62
7
 10
-10.940600
 20
-0.925031
 11
-8.631210
 21
-4.925030
  0
LINE
  8
0
  6
CONTINUOUS
 62
7
 10
-8.631200
 20
-4.924990
 11
-10.940600
 21
-8.924970
  0
LINE
  8
0
  6
CONTINUOUS
 62
7
 10
-10.940600
 20
-8.924980
 11
-15.559400
 21
-8.924980
  0
LINE
  8
0
  6
CONTINUOUS
 62
7
 10
-17.250000
 20
-3.853210
 11
-17.250000
 21
-1.925000
  0
LINE
  8
0
  6
CONTINUOUS
 62
7
 10
-9.249970
 20
-3.853240
 11
-9.249970
 21
-1.925000
  0
LINE
  8
0
  6
CENTER
 62
2
 10
-118.250000
 20
24.575001
 11
-118.250000
 21
9.075000
  0
LINE
  8
0
  6
CONTINUOUS
 62
7
 10
-127.250000
 20
22.575001
 11
-127.250000
 21
11.075000
  0
LINE
  8
0
  6
CONTINUOUS
 62
7
 10
-109.250000
 20
22.575001
 11
-109.250000
 21
11.075000
  0
LINE
  8
0
  6
CONTINUOUS
 62
7
 10
-127.250000
 20
22.575001
 11
-109.250000
 21
22.575001
  0
LINE
  8
0
  6
CONTINUOUS
 62
7
 10
-127.250000
 20
85.074997
 11
-109.250000
 21
85.074997
  0
LINE
  8
0
  6
CONTINUOUS
 62
7
 10
-127.250000
 20
67.074997
 11
-109.250000
 21
67.074997
  0
LINE
  8
0
  6
CONTINUOUS
 62
7
 10
-109.250000
 20
67.074997
 11
-109.250000
 21
85.074997
  0
LINE
  8
0
  6
CONTINUOUS
 62
7
 10
-127.250000
 20
67.074997
 11
-127.250000
 21
85.074997
  0
LINE
  8
0
  6
CONTINUOUS
 62
7
 10
-242.750000
 20
22.575001
 11
-242.750000
 21
11.075000
  0
LINE
  8
0
  6
CONTINUOUS
 62
7
 10
-260.750000
 20
22.575001
 11
-260.750000
 21
11.075000
  0
LINE
  8
0
  6
CONTINUOUS
 62
7
 10
-242.750000
 20
22.575001
 11
-260.750000
 21
22.575001
  0
LINE
  8
0
  6
CONTINUOUS
 62
7
 10
-4.249970
 20
22.575001
 11
-4.249970
 21
11.075000
  0
LINE
  8
0
  6
CONTINUOUS
 62
7
 10
-22.250000
 20
22.575001
 11
-22.250000
 21
11.075000
  0
LINE
  8
0
  6
CONTINUOUS
 62
7
 10
-4.249950
 20
22.575001
 11
-22.250000
 21
22.575001
  0
LINE
  8
0
  6
CENTER
 62
2
 10
-101.750000
 20
80.574997
 11
-101.750000
 21
71.574997
  0
LINE
  8
0
  6
CENTER
 62
2
 10
-118.250000
 20
79.574997
 11
-118.250000
 21
72.574997
  0
LINE
  8
0
  6
CENTER
 62
2
 10
-159.750000
 20
80.574997
 11
-159.750000
 21
71.574997
  0
LINE
  8
0
  6
CENTER
 62
2
 10
-166.750000
 20
12.825000
 11
-166.750000
 21
1.325000
  0
LINE
  8
0
  6
CENTER
 62
2
 10
-172.500000
 20
7.075000
 11
-161.000000
 21
7.075000
  0
LINE
  8
0
  6
CENTER
 62
2
 10
-166.750000
 20
-11.175000
 11
-166.750000
 21
-22.674999
  0
LINE
  8
0
  6
CENTER
 62
2
 10
-172.500000
 20
-16.924999
 11
-161.000000
 21
-16.924999
  0
LINE
  8
0
  6
CENTER
 62
2
 10
-189.750000
 20
-11.175000
 11
-189.750000
 21
-22.674999
  0
LINE
  8
0
  6
CENTER
 62
2
 10
-195.500000
 20
-16.924999
 11
-184.000000
 21
-16.924999
  0
LINE
  8
0
  6
CENTER
 62
2
 10
-189.750000
 20
12.825000
 11
-189.750000
 21
1.325000
  0
LINE
  8
0
  6
CENTER
 62
2
 10
-195.500000
 20
7.075000
 11
-184.000000
 21
7.075000
  0
LINE
  8
0
  6
CENTER
 62
2
 10
-159.750000
 20
-87.925003
 11
-159.750000
 21
-95.925003
  0
LINE
  8
0
  6
CENTER
 62
2
 10
-163.750000
 20
-91.925003
 11
-155.750000
 21
-91.925003
  0
LINE
  8
0
  6
CENTER
 62
2
 10
-159.750000
 20
-75.925003
 11
-159.750000
 21
-83.925003
  0
LINE
  8
0
  6
CENTER
 62
2
 10
-163.750000
 20
-79.925003
 11
-155.750000
 21
-79.925003
  0
LINE
  8
0
  6
CENTER
 62
2
 10
-182.750000
 20
-75.925003
 11
-182.750000
 21
-83.925003
  0
LINE
  8
0
  6
CENTER
 62
2
 10
-186.750000
 20
-79.925003
 11
-178.750000
 21
-79.925003
  0
LINE
  8
0
  6
CENTER
 62
2
 10
-182.750000
 20
-87.925003
 11
-182.750000
 21
-95.925003
  0
LINE
  8
0
  6
CENTER
 62
2
 10
-186.750000
 20
-91.925003
 11
-178.750000
 21
-91.925003
  0
LINE
  8
0
  6
CONTINUOUS
 62
7
 10
173.612000
 20
-34.224998
 11
173.612000
 21
-14.225000
  0
LINE
  8
0
  6
CONTINUOUS
 62
7
 10
173.612000
 20
-14.225000
 11
183.612000
 21
-14.225000
  0
LINE
  8
0
  6
CONTINUOUS
 62
7
 10
173.612000
 20
-34.224998
 11
183.612000
 21
-34.224998
  0
LINE
  8
0
  6
CONTINUOUS
 62
4
 10
157.343994
 20
-20.225000
 11
173.612000
 21
-20.225000
  0
LINE
  8
0
  6
CONTINUOUS
 62
4
 10
157.343994
 20
-28.225000
 11
173.612000
 21
-28.225000
  0
LINE
  8
0
  6
CONTINUOUS
 62
4
 10
141.612000
 20
-21.225000
 11
141.612000
 21
-27.225000
  0
LINE
  8
0
  6
CENTER
 62
1
 10
139.612000
 20
-24.225000
 11
183.612000
 21
-24.225000
  0
LINE
  8
0
  6
CONTINUOUS
 62
4
 10
146.250000
 20
108.525002
 11
179.250000
 21
108.525002
  0
LINE
  8
0
  6
CONTINUOUS
 62
4
 10
146.250000
 20
119.824997
 11
146.250000
 21
108.525002
  0
LINE
  8
0
  6
CONTINUOUS
 62
4
 10
153.250000
 20
123.525002
 11
172.250000
 21
123.525002
  0
LINE
  8
0
  6
CONTINUOUS
 62
4
 10
146.250000
 20
119.824997
 11
153.250000
 21
119.824997
  0
LINE
  8
0
  6
CONTINUOUS
 62
4
 10
179.250000
 20
119.824997
 11
179.250000
 21
108.525002
  0
LINE
  8
0
  6
CONTINUOUS
 62
4
 10
153.250000
 20
123.525002
 11
153.250000
 21
119.824997
  0
LINE
  8
0
  6
CONTINUOUS
 62
4
 10
172.250000
 20
123.525002
 11
172.250000
 21
119.824997
  0
LINE
  8
0
  6
CONTINUOUS
 62
4
 10
172.250000
 20
119.824997
 11
179.250000
 21
119.824997
  0
LINE
  8
0
  6
CENTER
 62
1
 10
162.750000
 20
125.525002
 11
162.750000
 21
106.525002
  0
LINE
  8
0
  6
CENTER
 62
1
 10
149.750000
 20
121.824997
 11
149.750000
 21
106.525002
  0
LINE
  8
0
  6
CENTER
 62
1
 10
175.750000
 20
121.824997
 11
175.750000
 21
106.525002
  0
LINE
  8
0
  6
DASHED
 62
1
 10
177.550003
 20
119.824997
 11
177.550003
 21
108.525002
  0
LINE
  8
0
  6
DASHED
 62
1
 10
173.949997
 20
119.824997
 11
173.949997
 21
108.525002
  0
LINE
  8
0
  6
CONTINUOUS
 62
4
 10
146.250000
 20
97.525002
 11
179.250000
 21
97.525002
  0
LINE
  8
0
  6
CONTINUOUS
 62
4
 10
146.250000
 20
80.525002
 11
179.250000
 21
80.525002
  0
LINE
  8
0
  6
CONTINUOUS
 62
4
 10
179.250000
 20
97.525002
 11
179.250000
 21
80.525002
  0
LINE
  8
0
  6
CONTINUOUS
 62
4
 10
146.250000
 20
80.525002
 11
146.250000
 21
97.525002
  0
LINE
  8
0
  6
CONTINUOUS
 62
4
 10
195.250000
 20
97.525002
 11
195.250000
 21
80.525002
  0
LINE
  8
0
  6
CONTINUOUS
 62
4
 10
210.250000
 20
97.525002
 11
210.250000
 21
80.525002
  0
LINE
  8
0
  6
CONTINUOUS
 62
4
 10
206.550003
 20
97.525002
 11
206.550003
 21
80.525002
  0
LINE
  8
0
  6
CONTINUOUS
 62
4
 10
195.250000
 20
97.525002
 11
210.250000
 21
97.525002
  0
LINE
  8
0
  6
CONTINUOUS
 62
4
 10
210.250000
 20
80.525002
 11
195.250000
 21
80.525002
  0
LINE
  8
0
  6
CENTER
 62
1
 10
212.250000
 20
89.025002
 11
193.250000
 21
89.025002
  0
LINE
  8
0
  6
CONTINUOUS
 62
4
 10
141.612000
 20
39.775002
 11
141.612000
 21
31.775000
  0
LINE
  8
0
  6
CONTINUOUS
 62
7
 10
173.612000
 20
25.775000
 11
173.612000
 21
45.775002
  0
LINE
  8
0
  6
CONTINUOUS
 62
7
 10
173.612000
 20
45.775002
 11
183.612000
 21
45.775002
  0
LINE
  8
0
  6
CONTINUOUS
 62
7
 10
173.612000
 20
25.775000
 11
183.612000
 21
25.775000
  0
LINE
  8
0
  6
CONTINUOUS
 62
4
 10
141.612000
 20
39.775002
 11
148.612000
 21
39.775002
  0
LINE
  8
0
  6
CONTINUOUS
 62
4
 10
141.612000
 20
31.775000
 11
148.612000
 21
31.775000
  0
LINE
  8
0
  6
CENTER
 62
1
 10
139.612000
 20
35.775002
 11
183.612000
 21
35.775002
  0
LINE
  8
0
  6
CONTINUOUS
 62
4
 10
148.612000
 20
39.775002
 11
148.612000
 21
39.275002
  0
LINE
  8
0
  6
CONTINUOUS
 62
4
 10
153.112000
 20
39.775002
 11
153.112000
 21
39.275002
  0
LINE
  8
0
  6
CONTINUOUS
 62
4
 10
148.612000
 20
39.275002
 11
153.112000
 21
39.275002
  0
LINE
  8
0
  6
CONTINUOUS
 62
4
 10
148.612000
 20
32.275002
 11
153.112000
 21
32.275002
  0
LINE
  8
0
  6
CONTINUOUS
 62
4
 10
153.112000
 20
39.775002
 11
173.612000
 21
39.775002
  0
LINE
  8
0
  6
CONTINUOUS
 62
4
 10
153.112000
 20
31.775000
 11
173.612000
 21
31.775000
  0
LINE
  8
0
  6
CONTINUOUS
 62
4
 10
148.612000
 20
32.275002
 11
148.612000
 21
31.775000
  0
LINE
  8
0
  6
CONTINUOUS
 62
4
 10
153.112000
 20
32.275002
 11
153.112000
 21
31.775000
  0
LINE
  8
0
  6
DASHED
 62
1
 10
151.612000
 20
38.275002
 11
151.612000
 21
33.275002
  0
LINE
  8
0
  6
DASHED
 62
1
 10
154.112000
 20
37.841999
 11
154.112000
 21
33.708000
  0
LINE
  8
0
  6
DASHED
 62
1
 10
141.612000
 20
38.275002
 11
151.612000
 21
38.275002
  0
LINE
  8
0
  6
DASHED
 62
1
 10
141.612000
 20
33.275002
 11
151.612000
 21
33.275002
  0
LINE
  8
0
  6
DASHED
 62
1
 10
141.612000
 20
33.708000
 11
154.112000
 21
33.708000
  0
LINE
  8
0
  6
DASHED
 62
1
 10
141.612000
 20
37.841999
 11
154.112000
 21
37.841999
  0
LINE
  8
0
  6
CONTINUOUS
 62
4
 10
153.612000
 20
-21.225000
 11
153.612000
 21
-27.225000
  0
LINE
  8
0
  6
CONTINUOUS
 62
4
 10
155.612000
 20
-21.225000
 11
155.612000
 21
-27.225000
  0
LINE
  8
0
  6
CONTINUOUS
 62
4
 10
141.612000
 20
-27.225000
 11
147.011993
 21
-27.225000
  0
LINE
  8
0
  6
CONTINUOUS
 62
4
 10
141.612000
 20
-21.225000
 11
147.011993
 21
-21.225000
  0
LINE
  8
0
  6
CONTINUOUS
 62
1
 10
141.612000
 20
-26.683500
 11
147.011993
 21
-26.683500
  0
LINE
  8
0
  6
CONTINUOUS
 62
1
 10
141.612000
 20
-21.766500
 11
147.011993
 21
-21.766500
  0
LINE
  8
0
  6
CONTINUOUS
 62
4
 10
155.612000
 20
-21.224800
 11
157.343994
 21
-20.224800
  0
LINE
  8
0
  6
CONTINUOUS
 62
4
 10
155.612000
 20
-27.225000
 11
157.343994
 21
-28.225000
  0
LINE
  8
0
  6
CONTINUOUS
 62
4
 10
157.343994
 20
-20.225000
 11
157.343994
 21
-22.288500
  0
LINE
  8
0
  6
CONTINUOUS
 62
4
 10
160.112000
 20
-22.288500
 11
160.112000
 21
-26.161501
  0
LINE
  8
0
  6
CONTINUOUS
 62
4
 10
150.612000
 20
-18.451500
 11
150.612000
 21
-29.998501
  0
LINE
  8
0
  6
CONTINUOUS
 62
1
 10
150.612000
 20
-26.683500
 11
153.612000
 21
-26.683500
  0
LINE
  8
0
  6
CONTINUOUS
 62
4
 10
150.612000
 20
-27.225000
 11
155.612000
 21
-27.225000
  0
LINE
  8
0
  6
CONTINUOUS
 62
1
 10
150.612000
 20
-21.766500
 11
153.612000
 21
-21.766500
  0
LINE
  8
0
  6
CONTINUOUS
 62
4
 10
150.612000
 20
-21.225000
 11
155.612000
 21
-21.225000
  0
LINE
  8
0
  6
CENTER
 62
1
 10
157.862000
 20
-5.225010
 11
157.862000
 21
-15.225000
  0
LINE
  8
0
  6
CENTER
 62
1
 10
152.862000
 20
-10.225000
 11
162.862000
 21
-10.225000
  0
LINE
  8
0
  6
CONTINUOUS
 62
4
 10
154.362000
 20
-8.288520
 11
154.362000
 21
-12.161500
  0
LINE
  8
0
  6
CONTINUOUS
 62
4
 10
161.362000
 20
-8.288520
 11
161.362000
 21
-12.161500
  0
LINE
  8
0
  6
CONTINUOUS
 62
4
 10
155.612000
 20
-22.288500
 11
160.112000
 21
-22.288500
  0
LINE
  8
0
  6
CONTINUOUS
 62
4
 10
155.612000
 20
-26.161501
 11
160.112000
 21
-26.161501
  0
LINE
  8
0
  6
CONTINUOUS
 62
4
 10
157.343994
 20
-26.161501
 11
157.343994
 21
-28.225000
  0
LINE
  8
0
  6
CONTINUOUS
 62
1
 10
155.612000
 20
-26.161800
 11
160.112000
 21
-22.288799
  0
LINE
  8
0
  6
CONTINUOUS
 62
1
 10
160.112000
 20
-26.161400
 11
155.612000
 21
-22.288401
  0
LINE
  8
0
  6
CONTINUOUS
 62
4
 10
147.011993
 20
-29.998501
 11
150.612000
 21
-29.998501
  0
LINE
  8
0
  6
CONTINUOUS
 62
4
 10
147.011993
 20
-27.111799
 11
150.612000
 21
-27.111799
  0
LINE
  8
0
  6
CONTINUOUS
 62
4
 10
147.011993
 20
-18.451500
 11
150.612000
 21
-18.451500
  0
LINE
  8
0
  6
CONTINUOUS
 62
4
 10
147.011993
 20
-21.338301
 11
150.612000
 21
-21.338301
  0
LINE
  8
0
  6
CENTER
 62
1
 10
150.862000
 20
54.775002
 11
150.862000
 21
44.775002
  0
LINE
  8
0
  6
CENTER
 62
1
 10
145.862000
 20
49.775002
 11
155.862000
 21
49.775002
  0
LINE
  8
0
  6
CONTINUOUS
 62
4
 10
148.925995
 20
53.275002
 11
152.798996
 21
53.275002
  0
LINE
  8
0
  6
CONTINUOUS
 62
4
 10
148.925995
 20
46.275002
 11
152.798996
 21
46.275002
  0
LINE
  8
0
  6
CENTER
 62
1
 10
175.750000
 20
97.824997
 11
175.750000
 21
90.224998
  0
LINE
  8
0
  6
CENTER
 62
1
 10
171.949997
 20
94.025002
 11
179.550003
 21
94.025002
  0
LINE
  8
0
  6
CENTER
 62
1
 10
175.750000
 20
87.824997
 11
175.750000
 21
80.224998
  0
LINE
  8
0
  6
CENTER
 62
1
 10
171.949997
 20
84.025002
 11
179.550003
 21
84.025002
  0
LINE
  8
0
  6
CENTER
 62
1
 10
162.750000
 20
95.025002
 11
162.750000
 21
83.025002
  0
LINE
  8
0
  6
CENTER
 62
1
 10
156.750000
 20
89.025002
 11
168.750000
 21
89.025002
  0
LINE
  8
0
  6
CENTER
 62
1
 10
149.750000
 20
97.824997
 11
149.750000
 21
90.224998
  0
LINE
  8
0
  6
CENTER
 62
1
 10
145.949997
 20
94.025002
 11
153.550003
 21
94.025002
  0
LINE
  8
0
  6
CENTER
 62
1
 10
149.750000
 20
87.824997
 11
149.750000
 21
80.224998
  0
LINE
  8
0
  6
CENTER
 62
1
 10
145.949997
 20
84.025002
 11
153.550003
 21
84.025002
  0
LINE
  8
0
  6
CONTINUOUS
 62
4
 10
147.011993
 20
-18.451500
 11
147.011993
 21
-29.998501
  0
LINE
  8
0
  6
CONTINUOUS
 62
7
 10
233.612000
 20
-115.224998
 11
233.612000
 21
-83.224998
  0
LINE
  8
0
  6
CENTER
 62
1
 10
175.746994
 20
-99.224998
 11
243.612000
 21
-99.224998
  0
LINE
  8
0
  6
CONTINUOUS
 62
7
 10
233.612000
 20
-115.224998
 11
243.612000
 21
-115.224998
  0
LINE
  8
0
  6
CONTINUOUS
 62
7
 10
233.612000
 20
-83.224998
 11
243.612000
 21
-83.224998
  0
LINE
  8
0
  6
CONTINUOUS
 62
2
 10
233.612000
 20
-108.425003
 11
243.612000
 21
-108.425003
  0
LINE
  8
0
  6
CONTINUOUS
 62
2
 10
233.612000
 20
-90.025002
 11
243.612000
 21
-90.025002
  0
LINE
  8
0
  6
CONTINUOUS
 62
4
 10
178.612000
 20
-95.224998
 11
194.612000
 21
-95.224998
  0
LINE
  8
0
  6
CONTINUOUS
 62
4
 10
178.612000
 20
-103.224998
 11
194.612000
 21
-103.224998
  0
LINE
  8
0
  6
CONTINUOUS
 62
4
 10
178.612000
 20
-95.224998
 11
178.612000
 21
-103.224998
  0
LINE
  8
0
  6
CONTINUOUS
 62
4
 10
194.612000
 20
-91.224998
 11
194.612000
 21
-107.224998
  0
LINE
  8
0
  6
CONTINUOUS
 62
4
 10
219.612000
 20
-91.224998
 11
219.612000
 21
-107.224998
  0
LINE
  8
0
  6
CONTINUOUS
 62
4
 10
194.612000
 20
-91.224998
 11
219.612000
 21
-91.224998
  0
LINE
  8
0
  6
CONTINUOUS
 62
4
 10
219.612000
 20
-107.224998
 11
194.612000
 21
-107.224998
  0
LINE
  8
0
  6
DASHED
 62
1
 10
201.862000
 20
-92.425003
 11
212.362000
 21
-92.425003
  0
LINE
  8
0
  6
DASHED
 62
1
 10
201.862000
 20
-91.224998
 11
201.862000
 21
-92.425003
  0
LINE
  8
0
  6
DASHED
 62
1
 10
212.362000
 20
-91.224998
 11
212.362000
 21
-92.425003
  0
LINE
  8
0
  6
CONTINUOUS
 62
4
 10
219.612000
 20
-95.224998
 11
233.612000
 21
-95.224998
  0
LINE
  8
0
  6
CONTINUOUS
 62
4
 10
219.612000
 20
-103.224998
 11
233.612000
 21
-103.224998
  0
LINE
  8
0
  6
DASHED
 62
1
 10
186.612000
 20
-97.224998
 11
186.612000
 21
-101.224998
  0
LINE
  8
0
  6
DASHED
 62
1
 10
188.612000
 20
-97.603996
 11
188.612000
 21
-100.846001
  0
LINE
  8
0
  6
DASHED
 62
1
 10
178.612000
 20
-101.224998
 11
186.612000
 21
-101.224998
  0
LINE
  8
0
  6
DASHED
 62
1
 10
178.612000
 20
-97.224998
 11
186.612000
 21
-97.224998
  0
LINE
  8
0
  6
CONTINUOUS
 62
2
 10
233.612000
 20
-111.025002
 11
243.612000
 21
-111.025002
  0
LINE
  8
0
  6
CONTINUOUS
 62
2
 10
233.612000
 20
-87.425003
 11
243.612000
 21
-87.425003
  0
LINE
  8
0
  6
DASHED
 62
1
 10
149.500000
 20
-91.323303
 11
149.500000
 21
-92.425003
  0
LINE
  8
0
  6
DASHED
 62
1
 10
147.000000
 20
-91.323303
 11
147.000000
 21
-92.425003
  0
LINE
  8
0
  6
DASHED
 62
1
 10
147.000000
 20
-92.425003
 11
149.500000
 21
-92.425003
  0
LINE
  8
0
  6
CENTER
 62
1
 10
158.250000
 20
-99.224998
 11
138.250000
 21
-99.224998
  0
LINE
  8
0
  6
CENTER
 62
1
 10
148.772995
 20
-89.238701
 11
148.250000
 21
-99.224998
  0
LINE
  8
0
  6
DASHED
 62
1
 10
178.612000
 20
-97.603996
 11
188.612000
 21
-97.603996
  0
LINE
  8
0
  6
DASHED
 62
1
 10
178.612000
 20
-100.846001
 11
188.612000
 21
-100.846001
  0
LINE
  8
0
  6
CENTER
 62
1
 10
148.250000
 20
-89.224998
 11
148.250000
 21
-109.224998
  0
LINE
  8
0
  6
CENTER
 62
1
 10
147.727005
 20
-89.238701
 11
148.250000
 21
-99.224998
  0
LINE
  8
0
  6
CENTER
 62
1
 10
199.862000
 20
-81.224998
 11
214.362000
 21
-81.224998
  0
LINE
  8
0
  6
CONTINUOUS
 62
4
 10
203.112000
 20
-79.974998
 11
211.112000
 21
-79.974998
  0
LINE
  8
0
  6
CONTINUOUS
 62
4
 10
203.112000
 20
-82.474998
 11
211.112000
 21
-82.474998
  0
LINE
  8
0
  6
CONTINUOUS
 62
4
 10
246.796997
 20
-61.552399
 11
249.296997
 21
-61.552399
  0
LINE
  8
0
  6
CONTINUOUS
 62
4
 10
246.796997
 20
-64.052399
 11
249.296997
 21
-64.052399
  0
LINE
  8
0
  6
CONTINUOUS
 62
4
 10
249.296997
 20
-61.552399
 11
249.296997
 21
-64.052399
  0
LINE
  8
0
  6
CONTINUOUS
 62
4
 10
246.796997
 20
-61.552399
 11
246.796997
 21
-64.052399
  0
LINE
  8
0
  6
CONTINUOUS
 62
4
 10
254.546997
 20
-54.552399
 11
262.546997
 21
-54.552399
  0
LINE
  8
0
  6
CONTINUOUS
 62
4
 10
254.546997
 20
-57.052399
 11
262.546997
 21
-57.052399
  0
LINE
  8
0
  6
CONTINUOUS
 62
4
 10
253.296997
 20
-61.552399
 11
253.296997
 21
-64.052399
  0
LINE
  8
0
  6
CONTINUOUS
 62
4
 10
263.796997
 20
-61.552399
 11
263.796997
 21
-64.052399
  0
LINE
  8
0
  6
CONTINUOUS
 62
4
 10
253.296997
 20
-61.552399
 11
263.796997
 21
-61.552399
  0
LINE
  8
0
  6
CONTINUOUS
 62
4
 10
253.296997
 20
-64.052399
 11
263.796997
 21
-64.052399
  0
LINE
  8
0
  6
CENTER
 62
1
 10
251.296997
 20
-55.802399
 11
265.796997
 21
-55.802399
  0
LINE
  8
0
  6
CENTER
 62
1
 10
248.046997
 20
-59.552399
 11
248.046997
 21
-66.052399
  0
ARC
  8
0
  6
CONTINUOUS
 62
7
 10
-189.750000
 20
-16.924999
 40
3.750000
 50
0.000000
 51
180.000000
  0
ARC
  8
0
  6
CONTINUOUS
 62
7
 10
-189.750000
 20
7.075000
 40
3.750000
 50
180.000000
 51
360.000000
  0
CIRCLE
  8
0
  6
CONTINUOUS
 62
2
 10
-189.750000
 20
7.075000
 40
2.500000
  0
ARC
  8
0
  6
CONTINUOUS
 62
7
 10
-166.750000
 20
7.075000
 40
3.750000
 50
180.000000
 51
360.000000
  0
CIRCLE
  8
0
  6
CONTINUOUS
 62
2
 10
-166.750000
 20
7.075000
 40
2.500000
  0
ARC
  8
0
  6
CONTINUOUS
 62
7
 10
-166.750000
 20
-16.924999
 40
3.750000
 50
0.000000
 51
180.000000
  0
CIRCLE
  8
0
  6
CONTINUOUS
 62
2
 10
-166.750000
 20
-16.924999
 40
2.500000
  0
CIRCLE
  8
0
  6
CONTINUOUS
 62
2
 10
-189.750000
 20
-16.924999
 40
2.500000
  0
CIRCLE
  8
0
  6
CONTINUOUS
 62
2
 10
-159.750000
 20
-79.925003
 40
2.000000
  0
CIRCLE
  8
0
  6
CONTINUOUS
 62
7
 10
-159.750000
 20
-79.925003
 40
1.500000
  0
CIRCLE
  8
0
  6
CONTINUOUS
 62
2
 10
-182.750000
 20
-79.925003
 40
2.000000
  0
CIRCLE
  8
0
  6
CONTINUOUS
 62
7
 10
-182.750000
 20
-79.925003
 40
1.500000
  0
CIRCLE
  8
0
  6
CONTINUOUS
 62
2
 10
-159.750000
 20
-91.925003
 40
2.000000
  0
CIRCLE
  8
0
  6
CONTINUOUS
 62
7
 10
-159.750000
 20
-91.925003
 40
1.500000
  0
CIRCLE
  8
0
  6
CONTINUOUS
 62
2
 10
-182.750000
 20
-91.925003
 40
2.000000
  0
CIRCLE
  8
0
  6
CONTINUOUS
 62
7
 10
-182.750000
 20
-91.925003
 40
1.500000
  0
CIRCLE
  8
0
  6
CONTINUOUS
 62
2
 10
-101.750000
 20
76.074997
 40
2.500000
  0
CIRCLE
  8
0
  6
CONTINUOUS
 62
7
 10
-101.750000
 20
76.074997
 40
2.000000
  0
CIRCLE
  8
0
  6
CONTINUOUS
 62
7
 10
-159.750000
 20
76.074997
 40
2.000000
  0
CIRCLE
  8
0
  6
CONTINUOUS
 62
2
 10
-159.750000
 20
76.074997
 40
2.500000
  0
ARC
  8
0
  6
CONTINUOUS
 62
2
 10
-246.550003
 20
6.224990
 40
1.500000
 50
90.000000
 51
180.000000
  0
ARC
  8
0
  6
CONTINUOUS
 62
2
 10
-246.550003
 20
4.924990
 40
1.500000
 50
180.000000
 51
270.000000
  0
CIRCLE
  8
0
  6
CONTINUOUS
 62
2
 10
-251.750000
 20
7.075000
 40
2.000000
  0
CIRCLE
  8
0
  6
CONTINUOUS
 62
7
 10
-251.750000
 20
7.075000
 40
1.500000
  0
CIRCLE
  8
0
  6
CONTINUOUS
 62
7
 10
-251.750000
 20
-16.924999
 40
1.500000
  0
CIRCLE
  8
0
  6
CONTINUOUS
 62
2
 10
-251.750000
 20
-16.924999
 40
2.000000
  0
CIRCLE
  8
0
  6
CONTINUOUS
 62
7
 10
-251.750000
 20
-4.925000
 40
4.000000
  0
ARC
  8
0
  6
CONTINUOUS
 62
2
 10
-8.049960
 20
6.224990
 40
1.500000
 50
90.000099
 51
180.000000
  0
ARC
  8
0
  6
CONTINUOUS
 62
2
 10
-8.049960
 20
4.924990
 40
1.500000
 50
180.000000
 51
270.000000
  0
CIRCLE
  8
0
  6
CONTINUOUS
 62
7
 10
-13.250000
 20
-4.925000
 40
5.000000
  0
CIRCLE
  8
0
  6
CONTINUOUS
 62
7
 10
-118.250000
 20
76.074997
 40
1.500000
  0
CIRCLE
  8
0
  6
CONTINUOUS
 62
7
 10
-13.250000
 20
-4.925000
 40
2.500000
  0
CIRCLE
  8
0
  6
CONTINUOUS
 62
2
 10
-13.250000
 20
-4.925000
 40
2.000000
  0
CIRCLE
  8
0
  6
CONTINUOUS
 62
7
 10
-166.750000
 20
7.075000
 40
2.200000
  0
CIRCLE
  8
0
  6
CONTINUOUS
 62
7
 10
-189.750000
 20
7.075000
 40
2.200000
  0
CIRCLE
  8
0
  6
CONTINUOUS
 62
7
 10
-189.750000
 20
-16.924999
 40
2.200000
  0
CIRCLE
  8
0
  6
CONTINUOUS
 62
7
 10
-166.750000
 20
-16.924999
 40
2.200000
  0
CIRCLE
  8
0
  6
CONTINUOUS
 62
4
 10
162.750000
 20
89.025002
 40
4.000000
  0
CIRCLE
  8
0
  6
CONTINUOUS
 62
4
 10
175.750000
 20
84.025002
 40
1.800000
  0
CIRCLE
  8
0
  6
CONTINUOUS
 62
4
 10
175.750000
 20
94.025002
 40
1.800000
  0
CIRCLE
  8
0
  6
CONTINUOUS
 62
4
 10
149.750000
 20
84.025002
 40
1.800000
  0
CIRCLE
  8
0
  6
CONTINUOUS
 62
4
 10
149.750000
 20
94.025002
 40
1.800000
  0
CIRCLE
  8
0
  6
CONTINUOUS
 62
4
 10
157.862000
 20
-10.225000
 40
4.000000
  0
CIRCLE
  8
0
  6
CONTINUOUS
 62
4
 10
150.862000
 20
49.775002
 40
4.000000
  0
CIRCLE
  8
0
  6
CONTINUOUS
 62
4
 10
148.250000
 20
-99.224998
 40
4.000000
  0
CIRCLE
  8
0
  6
CONTINUOUS
 62
4
 10
148.250000
 20
-99.224998
 40
8.000000
  0
CIRCLE
  8
0
  6
CONTINUOUS
 62
1
 10
148.250000
 20
-99.224998
 40
2.000000
  0
CIRCLE
  8
0
  6
CONTINUOUS
 62
4
 10
148.250000
 20
-99.224998
 40
1.621000
  0
ARC
  8
0
  6
CONTINUOUS
 62
4
 10
203.112000
 20
-81.224998
 40
1.250000
 50
90.000000
 51
270.000000
  0
ARC
  8
0
  6
CONTINUOUS
 62
4
 10
211.112000
 20
-81.224998
 40
1.250000
 50
270.000000
 51
90.000000
  0
ARC
  8
0
  6
CONTINUOUS
 62
4
 10
254.546997
 20
-55.802399
 40
1.250000
 50
90.000000
 51
270.000000
  0
ARC
  8
0
  6
CONTINUOUS
 62
4
 10
262.546997
 20
-55.802399
 40
1.250000
 50
270.000000
 51
90.000000
  0
TEXT
  8
0
 62
7
 10
202.930283
 20
183.925003
 40
6.300000
  1
Ver.1.0
 50
0.000000
 41
1.010330
 51
0.000000
  7
STANDARD
  0
TEXT
  8
0
 62
7
 10
172.714691
 20
-187.250000
 40
9.000000
  1
KOGANEI CORP.
 50
0.000000
 41
0.771524
 51
0.000000
  7
STANDARD
  0
TEXT
  8
0
 62
7
 10
-253.019714
 20
183.925003
 40
6.300000
  1
AX CYLINDER
 50
0.000000
 41
0.783349
 51
0.000000
  7
STANDARD
  0
TEXT
  8
0
 62
7
 10
-269.400391
 20
158.925003
 40
6.300000
  1
MODEL:AXAHS-SD15-20-ZE-R***
 50
0.000000
 41
0.765196
 51
0.000000
  7
STANDARD
  0
TEXT
  8
0
 62
7
 10
-85.949997
 20
86.074997
 40
3.200000
  1
20st
 50
90.000000
 41
0.907676
 51
0.000000
  7
STANDARD
  0
TEXT
  8
0
 62
7
 10
-65.949997
 20
86.074997
 40
3.200000
  1
40st
 50
90.000000
 41
0.907676
 51
0.000000
  7
STANDARD
  0
TEXT
  8
0
 62
7
 10
-45.950001
 20
86.074997
 40
3.200000
  1
60st
 50
90.000000
 41
0.907676
 51
0.000000
  7
STANDARD
  0
TEXT
  8
0
 62
7
 10
-25.950001
 20
86.074997
 40
3.200000
  1
80st
 50
90.000000
 41
0.907676
 51
0.000000
  7
STANDARD
  0
TEXT
  8
0
 62
7
 10
-5.950020
 20
86.074997
 40
3.200000
  1
100st
 50
90.000000
 41
0.985838
 51
0.000000
  7
STANDARD
  0
TEXT
  8
0
 62
7
 10
-34.450001
 20
78.574997
 40
3.200000
  1
20st
 50
90.000000
 41
0.907676
 51
0.000000
  7
STANDARD
  0
TEXT
  8
0
 62
7
 10
5.549980
 20
78.574997
 40
3.200000
  1
40st
 50
90.000000
 41
0.907676
 51
0.000000
  7
STANDARD
  0
TEXT
  8
0
 62
7
 10
45.549999
 20
78.574997
 40
3.200000
  1
60st
 50
90.000000
 41
0.907676
 51
0.000000
  7
STANDARD
  0
TEXT
  8
0
 62
7
 10
85.550003
 20
78.574997
 40
3.200000
  1
80st
 50
90.000000
 41
0.907676
 51
0.000000
  7
STANDARD
  0
TEXT
  8
0
 62
7
 10
125.550003
 20
78.574997
 40
3.200000
  1
100st
 50
90.000000
 41
0.985838
 51
0.000000
  7
STANDARD
  0
TEXT
  8
0
 62
7
 10
136.099762
 20
145.924988
 40
3.900000
  1
OPTION
 50
0.000000
 41
0.857249
 51
0.000000
  7
STANDARD
  0
TEXT
  8
0
 62
7
 10
145.912994
 20
69.724998
 40
3.200000
  1
ZT(FLANGE ROD END)
 50
0.000000
 41
0.754380
 51
0.000000
  7
STANDARD
  0
TEXT
  8
0
 62
7
 10
144.313004
 20
14.974999
 40
3.200000
  1
WS(INTERNAL THREAD)
 50
0.000000
 41
0.752116
 51
0.000000
  7
STANDARD
  0
TEXT
  8
0
 62
7
 10
144.313004
 20
-45.024998
 40
3.200000
  1
WT(EXTERNAL THREAD)
 50
0.000000
 41
0.738187
 51
0.000000
  7
STANDARD
  0
TEXT
  8
0
 62
7
 10
233.320999
 20
-54.383698
 40
3.200000
  1
KEY
 50
0.000000
 41
0.928574
 51
0.000000
  7
STANDARD
  0
TEXT
  8
0
 62
7
 10
139.312866
 20
-126.824997
 40
3.200000
  1
FN(WITH BEARING NUT
 50
0.000000
 41
0.766485
 51
0.000000
  7
STANDARD
  0
TEXT
  8
0
 62
7
 10
141.312866
 20
-132.825012
 40
3.200000
  1
      FOR FLOATING UNIT)
 50
0.000000
 41
0.754799
 51
0.000000
  7
STANDARD
  0
TEXT
  8
0
 62
7
 10
134.649994
 20
-64.625000
 40
3.200000
  1
(KEYWAY
 50
0.000000
 41
0.766485
 51
0.000000
  7
STANDARD
  0
TEXT
  8
0
 62
7
 10
134.649994
 20
-67.824997
 40
3.200000
  1
  POSITION)
 50
0.000000
 41
0.766485
 51
0.000000
  7
STANDARD
  0
DIMENSION
  8
0
  2
*DIM0
 62
0
 10
147.229004
 20
-79.751701
 30
0.0
 11
140.250000
 21
-80.025002
 31
0.0
 13
149.270996
 23
-79.751701
 33
0.0
 14
148.772995
 24
-89.238701
 34
0.0
  15
147.727005
 25
-89.238701
 35
0.0
 16
149.192047
 26
-81.249664
 36
0.0
 70
2
  0
DIMENSION
  8
0
  2
*DIM1
 62
2
  10
170.612000
 20
-91.224998
 30
0.0
 11
170.612000
 21
-99.224998
 31
0.0
  13
194.612000
 23
-91.224998
 33
0.0
14
194.612000
 24
-107.224998
 34
0.0
 70
1
 50
90
  0
DIMENSION
  8
0
  2
*DIM2
 62
2
  10
220.362000
 20
-73.974998
 30
0.0
 11
220.362000
 21
-67.403297
 31
0.0
  13
211.112000
 23
-79.974998
 33
0.0
14
211.112000
 24
-82.474998
 34
0.0
 70
1
 50
90
  0
DIMENSION
  8
0
  2
*DIM3
 62
2
  10
246.796997
 20
-72.052399
 30
0.0
 11
234.184006
 21
-72.052399
 31
0.0
  13
246.796997
 23
-72.052399
 33
0.0
14
246.796997
 24
-64.052399
 34
0.0
 70
1
 50
0
  0
ENDSEC
  0
EOF
