  0
SECTION
  2
HEADER
  0
ENDSEC
  0
SECTION
  2
TABLES
  0
TABLE
  2
LTYPE
 70
     4
  0
LTYPE
  2
CONTINUOUS
 70
    64
  3
Solid line
 72
    65
 73
     0
 40
0.000000
  0
LTYPE
  2
DASHED
 70
    64
  3
__ __ __ __ __ __ __ __ __ __ __ __ __ __ __
 72
    65
 73
     2
 40
3.500000
 49
2.000000
 49
-1.500000
  0
LTYPE
  2
CENTER
 70
    64
  3
____ _ ____ _ ____ _ ____ _ ____ _ ____ _ ____
 72
    65
 73
     4
 40
17.500000
 49
13.000000
 49
-1.500000
 49
1.500000
 49
-1.500000
  0
LTYPE
  2
PHANTOM
 70
    64
  3
_____ _ _ _____ _ _ _____ _ _ _____ _ _ ____  
 72
    65
 73
     6
 40
15.500000
 49
8.000000
 49
-1.500000
 49
1.500000
 49
-1.500000
 49
1.500000
 49
-1.500000
  0
ENDTAB
  0
TABLE
  2
LAYER
 70
     1
  0
LAYER
  2
0
 70
     0
 62
     7
  6
CONTINUOUS
  0
ENDTAB
  0
TABLE
  2
STYLE
 70
     1
  0
STYLE
  2
STANDARD
 70
     0
 40
0.000000
 41
1.000000
 50
0.000000
 71
     0
 42
0.200000
  3
txt
  4
BIGFONT
  0
ENDTAB
  0
TABLE
  2
VIEW
 70
     0
  0
ENDTAB
  0
ENDSEC
  0
SECTION
  2
BLOCKS
  0
BLOCK
  8
0
 70
65
  2
*DIM0
 10
0.0
 20
0.0
 30
0.0
  0
ARC
  8
0
  6
BYBLOCK
 62
0
 10
253.250000
 20
-159.000000
 40
20.500000
 50
75.820335
 51
104.179665
  0
LINE
  8
0
  6
BYBLOCK
 62
0
 10
253.904007
 20
-146.516998
 11
254.401001
 21
-137.029999
  0
LINE
  8
0
  6
BYBLOCK
 62
0
 10
252.595993
 20
-146.516998
 11
252.098999
 21
-137.029999
  0
LINE
  8
0
  6
BYBLOCK
 62
0
 10
254.322891
 20
-138.528091
 11
256.942169
 21
-139.990753
  0
LINE
  8
0
  6
BYBLOCK
 62
0
 10
254.322891
 20
-138.528091
 11
257.322571
 21
-138.485153
  0
LINE
  8
0
  6
BYBLOCK
 62
0
 10
252.177109
 20
-138.528091
 11
249.177414
 21
-138.485138
  0
LINE
  8
0
  6
BYBLOCK
 62
0
 10
252.177109
 20
-138.528091
 11
249.557831
 21
-139.990738
  0
TEXT
  8
0
 62
2
 10
245.250000
 20
-137.300003
 40
3.200000
  1
ü}3üï
 50
0.000000
 41
1.500330
 51
0.000000
  7
STANDARD
  0
ENDBLK
  8
3
  0
BLOCK
  8
0
 70
65
  2
*DIM1
 10
0.0
 20
0.0
 30
0.0
  0
LINE
  8
0
  6
BYBLOCK
 62
2
 10
300.250000
 20
-148.500000
 11
273.750000
 21
-148.500000
  0
LINE
  8
0
  6
BYBLOCK
 62
2
 10
300.250000
 20
-169.500000
 11
273.750000
 21
-169.500000
  0
LINE
  8
0
  6
BYBLOCK
 62
2
 10
275.250000
 20
-148.500000
 11
275.250000
 21
-169.500000
  0
LINE
  8
0
  6
BYBLOCK
 62
2
 10
275.250000
 20
-148.500000
 11
274.473541
 21
-151.397781
  0
LINE
  8
0
  6
BYBLOCK
 62
2
 10
275.250000
 20
-148.500000
 11
276.026459
 21
-151.397781
  0
LINE
  8
0
  6
BYBLOCK
 62
2
 10
275.250000
 20
-169.500000
 11
276.026459
 21
-166.602219
  0
LINE
  8
0
  6
BYBLOCK
 62
2
 10
275.250000
 20
-169.500000
 11
274.473541
 21
-166.602219
  0
TEXT
  8
0
 62
2
 10
274.049988
 20
-170.199997
 40
3.200000
  1
âË21
 50
90.000000
 41
0.937977
 51
0.000000
  7
STANDARD
  0
TEXT
  8
0
 62
2
 10
272.450409
 20
-161.195343
 40
1.600000
  1
 0
 50
90.000000
 41
0.937977
 51
0.000000
  7
STANDARD
  0
TEXT
  8
0
 62
2
 10
274.050415
 20
-161.195419
 40
1.600000
  1
-0.013
 50
90.000000
 41
0.937977
 51
0.000000
  7
STANDARD
  0
ENDBLK
  8
0
  0
BLOCK
  8
0
 70
65
  2
*DIM2
 10
0.0
 20
0.0
 30
0.0
  0
LINE
  8
0
  6
BYBLOCK
 62
2
 10
321.750000
 20
-127.000000
 11
332.750000
 21
-127.000000
  0
LINE
  8
0
  6
BYBLOCK
 62
2
 10
321.750000
 20
-130.000000
 11
332.750000
 21
-130.000000
  0
LINE
  8
0
  6
BYBLOCK
 62
2
 10
331.250000
 20
-121.000000
 11
331.250000
 21
-136.000000
  0
LINE
  8
0
  6
BYBLOCK
 62
2
 10
331.250000
 20
-127.000000
 11
331.250000
 21
-111.494003
  0
LINE
  8
0
  6
BYBLOCK
 62
2
 10
331.250000
 20
-127.000000
 11
332.026459
 21
-124.102226
  0
LINE
  8
0
  6
BYBLOCK
 62
2
 10
331.250000
 20
-127.000000
 11
330.473541
 21
-124.102226
  0
LINE
  8
0
  6
BYBLOCK
 62
2
 10
331.250000
 20
-130.000000
 11
330.473541
 21
-132.897781
  0
LINE
  8
0
  6
BYBLOCK
 62
2
 10
331.250000
 20
-130.000000
 11
332.026459
 21
-132.897781
  0
TEXT
  8
0
 62
2
 10
330.049988
 20
-123.437004
 40
3.200000
  1
3
 50
90.000000
 41
0.873629
 51
0.000000
  7
STANDARD
  0
TEXT
  8
0
 62
2
 10
328.450104
 20
-120.641319
 40
1.600000
  1
+0.014
 50
90.000000
 41
0.873629
 51
0.000000
  7
STANDARD
  0
TEXT
  8
0
 62
2
 10
330.050110
 20
-120.641396
 40
1.600000
  1
 0
 50
90.000000
 41
0.873629
 51
0.000000
  7
STANDARD
  0
ENDBLK
  8
0
  0
BLOCK
  8
0
 70
65
  2
*DIM3
 10
0.0
 20
0.0
 30
0.0
  0
LINE
  8
0
  6
BYBLOCK
 62
2
 10
359.376007
 20
-128.518997
 11
362.376007
 21
-128.518997
  0
LINE
  8
0
  6
BYBLOCK
 62
2
 10
359.376007
 20
-120.518997
 11
359.376007
 21
-130.018997
  0
LINE
  8
0
  6
BYBLOCK
 62
2
 10
359.376007
 20
-128.518997
 11
362.376007
 21
-128.518997
  0
LINE
  8
0
  6
BYBLOCK
 62
2
 10
359.376007
 20
-128.518997
 11
344.283997
 21
-128.518997
  0
TEXT
  8
0
 62
2
 10
343.427002
 20
-127.319000
 40
3.200000
  1
3
 50
0.000000
 41
0.906835
 51
0.000000
  7
STANDARD
  0
TEXT
  8
0
 62
2
 10
346.328857
 20
-125.719002
 40
1.600000
  1
+0.016
 50
0.000000
 41
0.906835
 51
0.000000
  7
STANDARD
  0
TEXT
  8
0
 62
2
 10
346.328857
 20
-127.319000
 40
1.600000
  1
+0.006
 50
0.000000
 41
0.906835
 51
0.000000
  7
STANDARD
  0
ENDBLK
  8
0
  0
ENDSEC
  0
SECTION
  2
ENTITIES
  0
POINT
  8
0
  62
7
  10
-184.250000
  20
178.000000
  30
0.0
  0
POINT
  8
0
  62
7
  10
-159.250000
  20
178.000000
  30
0.0
  0
POINT
  8
0
  62
7
  10
-134.250000
  20
178.000000
  30
0.0
  0
POINT
  8
0
  62
7
  10
-121.750000
  20
169.000000
  30
0.0
  0
POINT
  8
0
  62
7
  10
-71.750000
  20
169.000000
  30
0.0
  0
POINT
  8
0
  62
7
  10
-21.750000
  20
169.000000
  30
0.0
  0
POINT
  8
0
  62
7
  10
-109.250000
  20
-37.000000
  30
0.0
  0
POINT
  8
0
  62
7
  10
-84.250000
  20
-37.000000
  30
0.0
  0
POINT
  8
0
  62
7
  10
-59.250000
  20
-37.000000
  30
0.0
  0
POINT
  8
0
  62
7
  10
-34.250000
  20
-37.000000
  30
0.0
  0
POINT
  8
0
  62
7
  10
-9.250000
  20
-37.000000
  30
0.0
  0
POINT
  8
0
  62
7
  10
28.250000
  20
-46.000000
  30
0.0
  0
POINT
  8
0
  62
7
  10
78.250000
  20
-46.000000
  30
0.0
  0
POINT
  8
0
  62
7
  10
128.250000
  20
-46.000000
  30
0.0
  0
POINT
  8
0
  62
7
  10
178.250000
  20
-46.000000
  30
0.0
  0
POINT
  8
0
  62
7
  10
228.250000
  20
-46.000000
  30
0.0
  0
LINE
  8
0
  6
CONTINUOUS
 62
7
 10
399.799988
 20
276.250000
 11
399.799988
 21
-276.750000
  0
LINE
  8
0
  6
CONTINUOUS
 62
7
 10
-399.250000
 20
276.250000
 11
-399.250000
 21
-276.750000
  0
LINE
  8
0
  6
CONTINUOUS
 62
7
 10
-399.250000
 20
276.250000
 11
399.799988
 21
276.250000
  0
LINE
  8
0
  6
CONTINUOUS
 62
7
 10
-399.250000
 20
-276.750000
 11
399.799988
 21
-276.750000
  0
LINE
  8
0
  6
CONTINUOUS
 62
7
 10
239.800003
 20
-251.750000
 11
399.799988
 21
-251.750000
  0
LINE
  8
0
  6
CONTINUOUS
 62
7
 10
239.800003
 20
251.250000
 11
399.799988
 21
251.250000
  0
LINE
  8
0
  6
CONTINUOUS
 62
7
 10
-399.250000
 20
251.250000
 11
-239.250000
 21
251.250000
  0
LINE
  8
0
  6
CONTINUOUS
 62
7
 10
239.800003
 20
-251.750000
 11
239.800003
 21
-276.750000
  0
LINE
  8
0
  6
CONTINUOUS
 62
7
 10
239.800003
 20
251.250000
 11
239.800003
 21
276.250000
  0
LINE
  8
0
  6
CONTINUOUS
 62
7
 10
-239.250000
 20
276.250000
 11
-239.250000
 21
251.250000
  0
LINE
  8
0
  6
CONTINUOUS
 62
7
 10
-182.750000
 20
89.500000
 11
-182.250000
 21
89.500000
  0
LINE
  8
0
  6
CONTINUOUS
 62
7
 10
-184.250000
 20
85.000000
 11
-182.750000
 21
85.000000
  0
LINE
  8
0
  6
CONTINUOUS
 62
7
 10
-184.250000
 20
109.000000
 11
-182.750000
 21
109.000000
  0
LINE
  8
0
  6
CONTINUOUS
 62
7
 10
-182.750000
 20
109.000000
 11
-182.750000
 21
85.000000
  0
LINE
  8
0
  6
CONTINUOUS
 62
7
 10
-182.750000
 20
104.500000
 11
-182.250000
 21
104.500000
  0
LINE
  8
0
  6
CONTINUOUS
 62
7
 10
-121.750000
 20
101.000000
 11
-121.750000
 21
93.000000
  0
LINE
  8
0
  6
CONTINUOUS
 62
7
 10
-124.223000
 20
93.000000
 11
-121.750000
 21
93.000000
  0
LINE
  8
0
  6
CONTINUOUS
 62
2
 10
-124.223000
 20
93.500000
 11
-121.750000
 21
93.500000
  0
LINE
  8
0
  6
CONTINUOUS
 62
2
 10
-124.223000
 20
100.500000
 11
-121.750000
 21
100.500000
  0
LINE
  8
0
  6
CONTINUOUS
 62
7
 10
-124.223000
 20
101.000000
 11
-121.750000
 21
101.000000
  0
LINE
  8
0
  6
CONTINUOUS
 62
7
 10
-309.250000
 20
77.000000
 11
-184.250000
 21
77.000000
  0
LINE
  8
0
  6
CONTINUOUS
 62
7
 10
-309.250000
 20
117.000000
 11
-184.250000
 21
117.000000
  0
LINE
  8
0
  6
CONTINUOUS
 62
7
 10
-309.250000
 20
77.000000
 11
-309.250000
 21
117.000000
  0
LINE
  8
0
  6
CONTINUOUS
 62
7
 10
-184.250000
 20
117.000000
 11
-184.250000
 21
77.000000
  0
LINE
  8
0
  6
CONTINUOUS
 62
2
 10
-309.250000
 20
86.800003
 11
-184.250000
 21
86.800003
  0
LINE
  8
0
  6
CENTER
 62
2
 10
-349.250000
 20
97.000000
 11
-119.250000
 21
97.000000
  0
LINE
  8
0
  6
CONTINUOUS
 62
2
 10
-309.250000
 20
107.199997
 11
-184.250000
 21
107.199997
  0
LINE
  8
0
  6
CONTINUOUS
 62
7
 10
-347.250000
 20
102.000000
 11
-309.250000
 21
102.000000
  0
LINE
  8
0
  6
CONTINUOUS
 62
7
 10
-347.250000
 20
92.000000
 11
-309.250000
 21
92.000000
  0
LINE
  8
0
  6
CONTINUOUS
 62
7
 10
-347.250000
 20
102.000000
 11
-347.250000
 21
92.000000
  0
LINE
  8
0
  6
CONTINUOUS
 62
7
 10
-124.223000
 20
103.500000
 11
-124.223000
 21
90.500000
  0
LINE
  8
0
  6
CONTINUOUS
 62
7
 10
-129.250000
 20
103.500000
 11
-124.223000
 21
103.500000
  0
LINE
  8
0
  6
CONTINUOUS
 62
7
 10
-129.250000
 20
97.000000
 11
-124.223000
 21
97.000000
  0
LINE
  8
0
  6
CONTINUOUS
 62
7
 10
-129.250000
 20
90.500000
 11
-124.223000
 21
90.500000
  0
LINE
  8
0
  6
CONTINUOUS
 62
7
 10
-182.250000
 20
89.500000
 11
-182.250000
 21
104.500000
  0
LINE
  8
0
  6
CONTINUOUS
 62
7
 10
-157.250000
 20
92.000000
 11
-182.250000
 21
92.000000
  0
LINE
  8
0
  6
CONTINUOUS
 62
7
 10
-157.250000
 20
102.000000
 11
-182.250000
 21
102.000000
  0
LINE
  8
0
  6
CONTINUOUS
 62
7
 10
-157.250000
 20
106.000000
 11
-157.250000
 21
88.000000
  0
LINE
  8
0
  6
CONTINUOUS
 62
7
 10
-129.250000
 20
106.000000
 11
-129.250000
 21
88.000000
  0
LINE
  8
0
  6
CONTINUOUS
 62
7
 10
-157.250000
 20
106.000000
 11
-129.250000
 21
106.000000
  0
LINE
  8
0
  6
CONTINUOUS
 62
7
 10
-157.250000
 20
88.000000
 11
-129.250000
 21
88.000000
  0
LINE
  8
0
  6
CONTINUOUS
 62
7
 10
-137.250000
 20
102.656998
 11
-137.250000
 21
91.343102
  0
LINE
  8
0
  6
CENTER
 62
2
 10
-217.750000
 20
115.000000
 11
-217.750000
 21
125.000000
  0
LINE
  8
0
  6
CONTINUOUS
 62
7
 10
-211.250000
 20
117.000000
 11
-211.250000
 21
123.000000
  0
LINE
  8
0
  6
CONTINUOUS
 62
7
 10
-224.250000
 20
117.000000
 11
-224.250000
 21
123.000000
  0
LINE
  8
0
  6
CONTINUOUS
 62
7
 10
-224.250000
 20
123.000000
 11
-211.250000
 21
123.000000
  0
LINE
  8
0
  6
CONTINUOUS
 62
7
 10
-309.250000
 20
16.000000
 11
-309.250000
 21
42.000000
  0
LINE
  8
0
  6
CONTINUOUS
 62
7
 10
-184.250000
 20
16.000000
 11
-184.250000
 21
42.000000
  0
LINE
  8
0
  6
CONTINUOUS
 62
7
 10
-309.250000
 20
42.000000
 11
-184.250000
 21
42.000000
  0
LINE
  8
0
  6
CONTINUOUS
 62
7
 10
-309.250000
 20
16.000000
 11
-184.250000
 21
16.000000
  0
LINE
  8
0
  6
CENTER
 62
2
 10
-349.250000
 20
29.000000
 11
-119.250000
 21
29.000000
  0
LINE
  8
0
  6
CONTINUOUS
 62
7
 10
-347.250000
 20
34.000000
 11
-309.250000
 21
34.000000
  0
LINE
  8
0
  6
CONTINUOUS
 62
7
 10
-347.250000
 20
24.000000
 11
-309.250000
 21
24.000000
  0
LINE
  8
0
  6
CONTINUOUS
 62
7
 10
-347.250000
 20
34.000000
 11
-347.250000
 21
24.000000
  0
LINE
  8
0
  6
CONTINUOUS
 62
7
 10
-157.250000
 20
38.000000
 11
-157.250000
 21
20.000000
  0
LINE
  8
0
  6
CONTINUOUS
 62
7
 10
-129.250000
 20
36.505600
 11
-129.250000
 21
21.494400
  0
LINE
  8
0
  6
CONTINUOUS
 62
7
 10
-157.250000
 20
38.000000
 11
-137.250000
 21
38.000000
  0
LINE
  8
0
  6
CONTINUOUS
 62
7
 10
-157.250000
 20
20.000000
 11
-137.250000
 21
20.000000
  0
LINE
  8
0
  6
CONTINUOUS
 62
7
 10
-137.250000
 20
38.000000
 11
-137.250000
 21
36.000000
  0
LINE
  8
0
  6
CONTINUOUS
 62
7
 10
-182.750000
 20
21.500000
 11
-182.250000
 21
21.500000
  0
LINE
  8
0
  6
CONTINUOUS
 62
7
 10
-184.250000
 20
17.000000
 11
-182.750000
 21
17.000000
  0
LINE
  8
0
  6
CONTINUOUS
 62
7
 10
-184.250000
 20
41.000000
 11
-182.750000
 21
41.000000
  0
LINE
  8
0
  6
CONTINUOUS
 62
7
 10
-182.750000
 20
41.000000
 11
-182.750000
 21
17.000000
  0
LINE
  8
0
  6
CONTINUOUS
 62
7
 10
-182.750000
 20
36.500000
 11
-182.250000
 21
36.500000
  0
LINE
  8
0
  6
CONTINUOUS
 62
7
 10
-121.750000
 20
33.000000
 11
-121.750000
 21
25.000000
  0
LINE
  8
0
  6
CONTINUOUS
 62
7
 10
-124.250000
 20
25.000000
 11
-121.750000
 21
25.000000
  0
LINE
  8
0
  6
CONTINUOUS
 62
2
 10
-124.250000
 20
25.500000
 11
-121.750000
 21
25.500000
  0
LINE
  8
0
  6
CONTINUOUS
 62
2
 10
-124.250000
 20
32.500000
 11
-121.750000
 21
32.500000
  0
LINE
  8
0
  6
CONTINUOUS
 62
7
 10
-124.250000
 20
33.000000
 11
-121.750000
 21
33.000000
  0
LINE
  8
0
  6
CONTINUOUS
 62
7
 10
-124.250000
 20
36.505600
 11
-124.250000
 21
21.494400
  0
LINE
  8
0
  6
CONTINUOUS
 62
7
 10
-129.250000
 20
36.505600
 11
-124.250000
 21
36.505600
  0
LINE
  8
0
  6
CONTINUOUS
 62
7
 10
-129.250000
 20
32.752800
 11
-124.250000
 21
32.752800
  0
LINE
  8
0
  6
CONTINUOUS
 62
7
 10
-129.250000
 20
25.247200
 11
-124.250000
 21
25.247200
  0
LINE
  8
0
  6
CONTINUOUS
 62
7
 10
-129.250000
 20
21.494400
 11
-124.250000
 21
21.494400
  0
LINE
  8
0
  6
CONTINUOUS
 62
7
 10
-182.250000
 20
21.500000
 11
-182.250000
 21
36.500000
  0
LINE
  8
0
  6
CONTINUOUS
 62
7
 10
-157.250000
 20
24.000000
 11
-182.250000
 21
24.000000
  0
LINE
  8
0
  6
CONTINUOUS
 62
7
 10
-157.250000
 20
34.000000
 11
-182.250000
 21
34.000000
  0
LINE
  8
0
  6
CONTINUOUS
 62
7
 10
-137.250000
 20
36.000000
 11
-129.250000
 21
36.000000
  0
LINE
  8
0
  6
CONTINUOUS
 62
7
 10
-137.250000
 20
22.000000
 11
-129.250000
 21
22.000000
  0
LINE
  8
0
  6
CONTINUOUS
 62
7
 10
-137.250000
 20
22.000000
 11
-137.250000
 21
20.000000
  0
LINE
  8
0
  6
CONTINUOUS
 62
7
 10
-157.250000
 20
174.000000
 11
-157.250000
 21
156.000000
  0
LINE
  8
0
  6
CONTINUOUS
 62
7
 10
-157.250000
 20
174.000000
 11
-137.250000
 21
174.000000
  0
LINE
  8
0
  6
CONTINUOUS
 62
7
 10
-157.250000
 20
156.000000
 11
-137.250000
 21
156.000000
  0
LINE
  8
0
  6
CONTINUOUS
 62
7
 10
-184.250000
 20
178.000000
 11
-184.250000
 21
152.000000
  0
LINE
  8
0
  6
CONTINUOUS
 62
7
 10
-137.250000
 20
174.000000
 11
-137.250000
 21
172.000000
  0
LINE
  8
0
  6
CONTINUOUS
 62
7
 10
-182.750000
 20
157.500000
 11
-182.250000
 21
157.500000
  0
LINE
  8
0
  6
CONTINUOUS
 62
7
 10
-184.250000
 20
153.000000
 11
-182.750000
 21
153.000000
  0
LINE
  8
0
  6
CONTINUOUS
 62
7
 10
-184.250000
 20
177.000000
 11
-182.750000
 21
177.000000
  0
LINE
  8
0
  6
CONTINUOUS
 62
7
 10
-182.750000
 20
177.000000
 11
-182.750000
 21
153.000000
  0
LINE
  8
0
  6
CONTINUOUS
 62
7
 10
-182.750000
 20
172.500000
 11
-182.250000
 21
172.500000
  0
LINE
  8
0
  6
CONTINUOUS
 62
7
 10
-121.750000
 20
169.000000
 11
-121.750000
 21
161.000000
  0
LINE
  8
0
  6
CONTINUOUS
 62
7
 10
-124.250000
 20
161.000000
 11
-121.750000
 21
161.000000
  0
LINE
  8
0
  6
CONTINUOUS
 62
2
 10
-124.250000
 20
161.500000
 11
-121.750000
 21
161.500000
  0
LINE
  8
0
  6
CONTINUOUS
 62
2
 10
-124.250000
 20
168.500000
 11
-121.750000
 21
168.500000
  0
LINE
  8
0
  6
CONTINUOUS
 62
7
 10
-124.250000
 20
169.000000
 11
-121.750000
 21
169.000000
  0
LINE
  8
0
  6
CONTINUOUS
 62
7
 10
-182.250000
 20
157.500000
 11
-182.250000
 21
172.500000
  0
LINE
  8
0
  6
CONTINUOUS
 62
7
 10
-157.250000
 20
160.000000
 11
-182.250000
 21
160.000000
  0
LINE
  8
0
  6
CONTINUOUS
 62
7
 10
-157.250000
 20
170.000000
 11
-182.250000
 21
170.000000
  0
LINE
  8
0
  6
CONTINUOUS
 62
7
 10
-137.250000
 20
172.000000
 11
-129.250000
 21
172.000000
  0
LINE
  8
0
  6
CONTINUOUS
 62
7
 10
-137.250000
 20
158.000000
 11
-129.250000
 21
158.000000
  0
LINE
  8
0
  6
CONTINUOUS
 62
7
 10
-137.250000
 20
158.000000
 11
-137.250000
 21
156.000000
  0
LINE
  8
0
  6
CONTINUOUS
 62
7
 10
-224.250000
 20
175.500000
 11
-224.250000
 21
154.500000
  0
LINE
  8
0
  6
CONTINUOUS
 62
7
 10
-211.250000
 20
175.500000
 11
-211.250000
 21
154.500000
  0
LINE
  8
0
  6
CONTINUOUS
 62
7
 10
-224.250000
 20
175.500000
 11
-211.250000
 21
175.500000
  0
LINE
  8
0
  6
CONTINUOUS
 62
7
 10
-224.250000
 20
154.500000
 11
-211.250000
 21
154.500000
  0
LINE
  8
0
  6
CONTINUOUS
 62
2
 10
-86.750000
 20
107.199997
 11
-85.750000
 21
107.199997
  0
LINE
  8
0
  6
CONTINUOUS
 62
2
 10
-86.750000
 20
107.199997
 11
-86.750000
 21
106.349998
  0
LINE
  8
0
  6
CONTINUOUS
 62
2
 10
-86.750000
 20
110.650002
 11
-86.750000
 21
109.800003
  0
LINE
  8
0
  6
CONTINUOUS
 62
2
 10
-86.750000
 20
109.800003
 11
-85.750000
 21
109.800003
  0
LINE
  8
0
  6
CONTINUOUS
 62
7
 10
-111.750000
 20
117.000000
 11
-111.750000
 21
77.000000
  0
LINE
  8
0
  6
CENTER
 62
2
 10
-113.570000
 20
97.000000
 11
-84.179398
 21
97.000000
  0
LINE
  8
0
  6
CONTINUOUS
 62
7
 10
-111.750000
 20
77.000000
 11
-85.750000
 21
77.000000
  0
LINE
  8
0
  6
CONTINUOUS
 62
7
 10
-85.750000
 20
77.000000
 11
-85.750000
 21
117.000000
  0
LINE
  8
0
  6
CONTINUOUS
 62
7
 10
-111.750000
 20
117.000000
 11
-85.750000
 21
117.000000
  0
LINE
  8
0
  6
CENTER
 62
2
 10
-98.750000
 20
125.000000
 11
-98.750000
 21
75.493103
  0
LINE
  8
0
  6
CONTINUOUS
 62
2
 10
-90.550003
 20
110.650002
 11
-86.750000
 21
110.650002
  0
LINE
  8
0
  6
CONTINUOUS
 62
2
 10
-92.050003
 20
109.150002
 11
-92.050003
 21
107.849998
  0
LINE
  8
0
  6
CONTINUOUS
 62
2
 10
-90.550003
 20
106.349998
 11
-86.750000
 21
106.349998
  0
LINE
  8
0
  6
CONTINUOUS
 62
7
 10
-88.250000
 20
123.000000
 11
-88.250000
 21
117.000000
  0
LINE
  8
0
  6
CONTINUOUS
 62
7
 10
-109.250000
 20
123.000000
 11
-109.250000
 21
117.000000
  0
LINE
  8
0
  6
CONTINUOUS
 62
7
 10
-109.250000
 20
123.000000
 11
-88.250000
 21
123.000000
  0
LINE
  8
0
  6
CENTER
 62
2
 10
-95.019897
 20
85.500000
 11
-84.179398
 21
85.500000
  0
LINE
  8
0
  6
CENTER
 62
2
 10
-95.019897
 20
108.500000
 11
-84.179398
 21
108.500000
  0
LINE
  8
0
  6
CENTER
 62
2
 10
-102.480003
 20
85.500000
 11
-113.320999
 21
85.500000
  0
LINE
  8
0
  6
CENTER
 62
2
 10
-102.480003
 20
108.500000
 11
-113.320999
 21
108.500000
  0
LINE
  8
0
  6
CONTINUOUS
 62
2
 10
-309.250000
 20
109.800003
 11
-301.175995
 21
109.800003
  0
LINE
  8
0
  6
CENTER
 62
2
 10
-297.250000
 20
42.000000
 11
-297.250000
 21
16.000000
  0
LINE
  8
0
  6
CENTER
 62
2
 10
-273.250000
 20
42.000000
 11
-273.250000
 21
16.000000
  0
LINE
  8
0
  6
CONTINUOUS
 62
2
 10
-293.324005
 20
109.800003
 11
-277.175995
 21
109.800003
  0
LINE
  8
0
  6
CONTINUOUS
 62
2
 10
-269.324005
 20
109.800003
 11
-184.250000
 21
109.800003
  0
LINE
  8
0
  6
CONTINUOUS
 62
2
 10
-293.324005
 20
84.199997
 11
-277.175995
 21
84.199997
  0
LINE
  8
0
  6
CONTINUOUS
 62
2
 10
-309.250000
 20
84.199997
 11
-301.175995
 21
84.199997
  0
LINE
  8
0
  6
CONTINUOUS
 62
2
 10
-269.324005
 20
84.199997
 11
-184.250000
 21
84.199997
  0
LINE
  8
0
  6
DASHED
 62
2
 10
-277.750000
 20
42.000000
 11
-277.750000
 21
35.500000
  0
LINE
  8
0
  6
DASHED
 62
2
 10
-275.950012
 20
35.500000
 11
-275.950012
 21
22.500000
  0
LINE
  8
0
  6
DASHED
 62
2
 10
-276.250000
 20
35.500000
 11
-276.250000
 21
22.500000
  0
LINE
  8
0
  6
DASHED
 62
2
 10
-277.750000
 20
35.500000
 11
-268.750000
 21
35.500000
  0
LINE
  8
0
  6
DASHED
 62
2
 10
-268.750000
 20
42.000000
 11
-268.750000
 21
35.500000
  0
LINE
  8
0
  6
DASHED
 62
2
 10
-277.750000
 20
16.000000
 11
-277.750000
 21
22.500000
  0
LINE
  8
0
  6
DASHED
 62
2
 10
-277.750000
 20
22.500000
 11
-268.750000
 21
22.500000
  0
LINE
  8
0
  6
DASHED
 62
2
 10
-268.750000
 20
16.000000
 11
-268.750000
 21
22.500000
  0
LINE
  8
0
  6
DASHED
 62
2
 10
-270.250000
 20
35.500000
 11
-270.250000
 21
22.500000
  0
LINE
  8
0
  6
DASHED
 62
2
 10
-270.549988
 20
35.500000
 11
-270.549988
 21
22.500000
  0
LINE
  8
0
  6
DASHED
 62
2
 10
-301.750000
 20
16.000000
 11
-301.750000
 21
22.500000
  0
LINE
  8
0
  6
DASHED
 62
2
 10
-301.750000
 20
22.500000
 11
-292.750000
 21
22.500000
  0
LINE
  8
0
  6
DASHED
 62
2
 10
-292.750000
 20
16.000000
 11
-292.750000
 21
22.500000
  0
LINE
  8
0
  6
DASHED
 62
2
 10
-294.549988
 20
35.500000
 11
-294.549988
 21
22.500000
  0
LINE
  8
0
  6
DASHED
 62
2
 10
-294.250000
 20
35.500000
 11
-294.250000
 21
22.500000
  0
LINE
  8
0
  6
DASHED
 62
2
 10
-299.950012
 20
35.500000
 11
-299.950012
 21
22.500000
  0
LINE
  8
0
  6
DASHED
 62
2
 10
-300.250000
 20
35.500000
 11
-300.250000
 21
22.500000
  0
LINE
  8
0
  6
DASHED
 62
2
 10
-301.750000
 20
35.500000
 11
-292.750000
 21
35.500000
  0
LINE
  8
0
  6
DASHED
 62
2
 10
-301.750000
 20
42.000000
 11
-301.750000
 21
35.500000
  0
LINE
  8
0
  6
DASHED
 62
2
 10
-292.750000
 20
42.000000
 11
-292.750000
 21
35.500000
  0
LINE
  8
0
  6
CONTINUOUS
 62
2
 10
-362.049988
 20
106.349998
 11
-358.250000
 21
106.349998
  0
LINE
  8
0
  6
CONTINUOUS
 62
7
 10
-359.750000
 20
123.000000
 11
-359.750000
 21
117.000000
  0
LINE
  8
0
  6
CONTINUOUS
 62
7
 10
-380.750000
 20
123.000000
 11
-380.750000
 21
117.000000
  0
LINE
  8
0
  6
CONTINUOUS
 62
7
 10
-380.750000
 20
123.000000
 11
-359.750000
 21
123.000000
  0
LINE
  8
0
  6
CENTER
 62
2
 10
-366.519989
 20
85.500000
 11
-355.250000
 21
85.500000
  0
LINE
  8
0
  6
CENTER
 62
2
 10
-366.519989
 20
108.500000
 11
-355.250000
 21
108.500000
  0
LINE
  8
0
  6
CENTER
 62
2
 10
-373.980011
 20
85.500000
 11
-385.250000
 21
85.500000
  0
LINE
  8
0
  6
CENTER
 62
2
 10
-373.980011
 20
108.500000
 11
-385.250000
 21
108.500000
  0
LINE
  8
0
  6
CONTINUOUS
 62
2
 10
-358.250000
 20
107.199997
 11
-357.250000
 21
107.199997
  0
LINE
  8
0
  6
CONTINUOUS
 62
2
 10
-358.250000
 20
107.199997
 11
-358.250000
 21
106.349998
  0
LINE
  8
0
  6
CONTINUOUS
 62
2
 10
-358.250000
 20
110.650002
 11
-358.250000
 21
109.800003
  0
LINE
  8
0
  6
CONTINUOUS
 62
2
 10
-358.250000
 20
109.800003
 11
-357.250000
 21
109.800003
  0
LINE
  8
0
  6
CONTINUOUS
 62
7
 10
-383.250000
 20
117.000000
 11
-383.250000
 21
77.000000
  0
LINE
  8
0
  6
CENTER
 62
2
 10
-385.250000
 20
97.000000
 11
-355.250000
 21
97.000000
  0
LINE
  8
0
  6
CONTINUOUS
 62
7
 10
-383.250000
 20
77.000000
 11
-357.250000
 21
77.000000
  0
LINE
  8
0
  6
CONTINUOUS
 62
7
 10
-357.250000
 20
77.000000
 11
-357.250000
 21
117.000000
  0
LINE
  8
0
  6
CONTINUOUS
 62
7
 10
-383.250000
 20
117.000000
 11
-357.250000
 21
117.000000
  0
LINE
  8
0
  6
CENTER
 62
2
 10
-370.250000
 20
125.000000
 11
-370.250000
 21
75.000000
  0
LINE
  8
0
  6
CONTINUOUS
 62
2
 10
-362.049988
 20
110.650002
 11
-358.250000
 21
110.650002
  0
LINE
  8
0
  6
CONTINUOUS
 62
2
 10
-363.549988
 20
109.150002
 11
-363.549988
 21
107.849998
  0
LINE
  8
0
  6
CONTINUOUS
 62
7
 10
-102.502998
 20
90.500000
 11
-94.997200
 21
90.500000
  0
LINE
  8
0
  6
CONTINUOUS
 62
7
 10
-102.502998
 20
103.500000
 11
-94.997200
 21
103.500000
  0
LINE
  8
0
  6
CONTINUOUS
 62
7
 10
-94.997200
 20
103.500000
 11
-91.244499
 21
97.000099
  0
LINE
  8
0
  6
CONTINUOUS
 62
7
 10
-91.244499
 20
97.000000
 11
-94.997299
 21
90.500000
  0
LINE
  8
0
  6
CONTINUOUS
 62
7
 10
-102.502998
 20
90.500099
 11
-106.254997
 21
97.000099
  0
LINE
  8
0
  6
CONTINUOUS
 62
7
 10
-106.254997
 20
97.000000
 11
-102.502998
 21
103.500000
  0
LINE
  8
0
  6
CONTINUOUS
 62
7
 10
-309.250000
 20
178.000000
 11
-309.250000
 21
152.000000
  0
LINE
  8
0
  6
CONTINUOUS
 62
7
 10
-309.250000
 20
152.000000
 11
-184.250000
 21
152.000000
  0
LINE
  8
0
  6
CONTINUOUS
 62
7
 10
-309.250000
 20
178.000000
 11
-184.250000
 21
178.000000
  0
LINE
  8
0
  6
CENTER
 62
2
 10
-349.250000
 20
165.000000
 11
-119.250000
 21
165.000000
  0
LINE
  8
0
  6
CONTINUOUS
 62
7
 10
-347.250000
 20
170.000000
 11
-309.250000
 21
170.000000
  0
LINE
  8
0
  6
CONTINUOUS
 62
7
 10
-347.250000
 20
160.000000
 11
-309.250000
 21
160.000000
  0
LINE
  8
0
  6
CONTINUOUS
 62
7
 10
-347.250000
 20
170.000000
 11
-347.250000
 21
160.000000
  0
LINE
  8
0
  6
CENTER
 62
2
 10
-260.250000
 20
21.000000
 11
-270.250000
 21
21.000000
  0
LINE
  8
0
  6
CENTER
 62
2
 10
-265.250000
 20
26.000000
 11
-265.250000
 21
16.000000
  0
LINE
  8
0
  6
CENTER
 62
2
 10
-260.250000
 20
37.000000
 11
-270.250000
 21
37.000000
  0
LINE
  8
0
  6
CENTER
 62
2
 10
-265.250000
 20
42.000000
 11
-265.250000
 21
32.000000
  0
LINE
  8
0
  6
CENTER
 62
2
 10
-284.250000
 20
37.000000
 11
-294.250000
 21
37.000000
  0
LINE
  8
0
  6
CENTER
 62
2
 10
-289.250000
 20
42.000000
 11
-289.250000
 21
32.000000
  0
LINE
  8
0
  6
CENTER
 62
2
 10
-284.250000
 20
21.000000
 11
-294.250000
 21
21.000000
  0
LINE
  8
0
  6
CENTER
 62
2
 10
-289.250000
 20
26.000000
 11
-289.250000
 21
16.000000
  0
LINE
  8
0
  6
CONTINUOUS
 62
7
 10
-129.250000
 20
157.494003
 11
-124.250000
 21
157.494003
  0
LINE
  8
0
  6
CONTINUOUS
 62
7
 10
-124.250000
 20
172.505997
 11
-124.250000
 21
157.494003
  0
LINE
  8
0
  6
CONTINUOUS
 62
7
 10
-129.250000
 20
172.505997
 11
-129.250000
 21
157.494003
  0
LINE
  8
0
  6
CONTINUOUS
 62
7
 10
-129.250000
 20
161.246994
 11
-124.250000
 21
161.246994
  0
LINE
  8
0
  6
CONTINUOUS
 62
7
 10
-129.250000
 20
168.753006
 11
-124.250000
 21
168.753006
  0
LINE
  8
0
  6
CONTINUOUS
 62
7
 10
-129.250000
 20
172.505997
 11
-124.250000
 21
172.505997
  0
LINE
  8
0
  6
CONTINUOUS
 62
7
 10
-105.750000
 20
102.656998
 11
-105.750000
 21
97.875702
  0
LINE
  8
0
  6
CONTINUOUS
 62
7
 10
-91.750000
 20
102.656998
 11
-91.750000
 21
97.875603
  0
LINE
  8
0
  6
CONTINUOUS
 62
7
 10
-105.750000
 20
96.124397
 11
-105.750000
 21
91.343102
  0
LINE
  8
0
  6
CONTINUOUS
 62
7
 10
-91.750000
 20
96.124397
 11
-91.750000
 21
91.343102
  0
LINE
  8
0
  6
CONTINUOUS
 62
7
 10
-137.250000
 20
91.343102
 11
-129.250000
 21
91.343102
  0
LINE
  8
0
  6
CONTINUOUS
 62
7
 10
-137.250000
 20
102.656998
 11
-129.250000
 21
102.656998
  0
LINE
  8
0
  6
CONTINUOUS
 62
2
 10
-137.250000
 20
91.343102
 11
-129.250000
 21
102.656998
  0
LINE
  8
0
  6
CONTINUOUS
 62
2
 10
-137.250000
 20
102.656998
 11
-129.250000
 21
91.343102
  0
LINE
  8
0
  6
CONTINUOUS
 62
7
 10
-107.750000
 20
-125.500000
 11
-107.250000
 21
-125.500000
  0
LINE
  8
0
  6
CONTINUOUS
 62
7
 10
-109.250000
 20
-130.000000
 11
-107.750000
 21
-130.000000
  0
LINE
  8
0
  6
CONTINUOUS
 62
7
 10
-109.250000
 20
-106.000000
 11
-107.750000
 21
-106.000000
  0
LINE
  8
0
  6
CONTINUOUS
 62
7
 10
-107.750000
 20
-106.000000
 11
-107.750000
 21
-130.000000
  0
LINE
  8
0
  6
CONTINUOUS
 62
7
 10
-107.750000
 20
-110.500000
 11
-107.250000
 21
-110.500000
  0
LINE
  8
0
  6
CONTINUOUS
 62
7
 10
28.250000
 20
-114.000000
 11
28.250000
 21
-122.000000
  0
LINE
  8
0
  6
CONTINUOUS
 62
7
 10
25.777000
 20
-122.000000
 11
28.250000
 21
-122.000000
  0
LINE
  8
0
  6
CONTINUOUS
 62
2
 10
25.777000
 20
-121.500000
 11
28.250000
 21
-121.500000
  0
LINE
  8
0
  6
CONTINUOUS
 62
2
 10
25.777000
 20
-114.500000
 11
28.250000
 21
-114.500000
  0
LINE
  8
0
  6
CONTINUOUS
 62
7
 10
25.777000
 20
-114.000000
 11
28.250000
 21
-114.000000
  0
LINE
  8
0
  6
CONTINUOUS
 62
7
 10
-309.250000
 20
-138.000000
 11
-109.250000
 21
-138.000000
  0
LINE
  8
0
  6
CONTINUOUS
 62
7
 10
-309.250000
 20
-98.000000
 11
-109.250000
 21
-98.000000
  0
LINE
  8
0
  6
CONTINUOUS
 62
7
 10
-309.250000
 20
-138.000000
 11
-309.250000
 21
-98.000000
  0
LINE
  8
0
  6
CONTINUOUS
 62
7
 10
-109.250000
 20
-98.000000
 11
-109.250000
 21
-138.000000
  0
LINE
  8
0
  6
CONTINUOUS
 62
2
 10
-309.250000
 20
-128.199997
 11
-109.250000
 21
-128.199997
  0
LINE
  8
0
  6
CENTER
 62
2
 10
-349.250000
 20
-118.000000
 11
30.250000
 21
-118.000000
  0
LINE
  8
0
  6
CONTINUOUS
 62
2
 10
-309.250000
 20
-107.800003
 11
-109.250000
 21
-107.800003
  0
LINE
  8
0
  6
CONTINUOUS
 62
7
 10
-347.250000
 20
-113.000000
 11
-309.250000
 21
-113.000000
  0
LINE
  8
0
  6
CONTINUOUS
 62
7
 10
-347.250000
 20
-123.000000
 11
-309.250000
 21
-123.000000
  0
LINE
  8
0
  6
CONTINUOUS
 62
7
 10
-347.250000
 20
-113.000000
 11
-347.250000
 21
-123.000000
  0
LINE
  8
0
  6
CONTINUOUS
 62
7
 10
25.777000
 20
-111.500000
 11
25.777000
 21
-124.500000
  0
LINE
  8
0
  6
CONTINUOUS
 62
7
 10
20.750000
 20
-111.500000
 11
25.777000
 21
-111.500000
  0
LINE
  8
0
  6
CONTINUOUS
 62
7
 10
20.750000
 20
-118.000000
 11
25.777000
 21
-118.000000
  0
LINE
  8
0
  6
CONTINUOUS
 62
7
 10
20.750000
 20
-124.500000
 11
25.777000
 21
-124.500000
  0
LINE
  8
0
  6
CONTINUOUS
 62
7
 10
-107.250000
 20
-125.500000
 11
-107.250000
 21
-110.500000
  0
LINE
  8
0
  6
CONTINUOUS
 62
7
 10
-7.250000
 20
-123.000000
 11
-107.250000
 21
-123.000000
  0
LINE
  8
0
  6
CONTINUOUS
 62
7
 10
-7.250000
 20
-113.000000
 11
-107.250000
 21
-113.000000
  0
LINE
  8
0
  6
CONTINUOUS
 62
7
 10
-7.250000
 20
-109.000000
 11
-7.250000
 21
-127.000000
  0
LINE
  8
0
  6
CONTINUOUS
 62
7
 10
20.750000
 20
-109.000000
 11
20.750000
 21
-127.000000
  0
LINE
  8
0
  6
CONTINUOUS
 62
7
 10
-7.250000
 20
-109.000000
 11
20.750000
 21
-109.000000
  0
LINE
  8
0
  6
CONTINUOUS
 62
7
 10
-7.250000
 20
-127.000000
 11
20.750000
 21
-127.000000
  0
LINE
  8
0
  6
CONTINUOUS
 62
7
 10
12.750000
 20
-112.343002
 11
12.750000
 21
-123.656998
  0
LINE
  8
0
  6
CENTER
 62
2
 10
-142.750000
 20
-100.307999
 11
-142.750000
 21
-90.320396
  0
LINE
  8
0
  6
CONTINUOUS
 62
7
 10
-136.250000
 20
-98.000000
 11
-136.250000
 21
-92.000000
  0
LINE
  8
0
  6
CONTINUOUS
 62
7
 10
-149.250000
 20
-98.000000
 11
-149.250000
 21
-92.000000
  0
LINE
  8
0
  6
CONTINUOUS
 62
7
 10
-149.250000
 20
-92.000000
 11
-136.250000
 21
-92.000000
  0
LINE
  8
0
  6
CONTINUOUS
 62
7
 10
-309.250000
 20
-199.000000
 11
-309.250000
 21
-173.000000
  0
LINE
  8
0
  6
CONTINUOUS
 62
7
 10
-109.250000
 20
-199.000000
 11
-109.250000
 21
-173.000000
  0
LINE
  8
0
  6
CONTINUOUS
 62
7
 10
-309.250000
 20
-173.000000
 11
-109.250000
 21
-173.000000
  0
LINE
  8
0
  6
CONTINUOUS
 62
7
 10
-309.250000
 20
-199.000000
 11
-109.250000
 21
-199.000000
  0
LINE
  8
0
  6
CENTER
 62
2
 10
-349.250000
 20
-186.000000
 11
30.250000
 21
-186.000000
  0
LINE
  8
0
  6
CONTINUOUS
 62
7
 10
-347.250000
 20
-181.000000
 11
-309.250000
 21
-181.000000
  0
LINE
  8
0
  6
CONTINUOUS
 62
7
 10
-347.250000
 20
-191.000000
 11
-309.250000
 21
-191.000000
  0
LINE
  8
0
  6
CONTINUOUS
 62
7
 10
-347.250000
 20
-181.000000
 11
-347.250000
 21
-191.000000
  0
LINE
  8
0
  6
CONTINUOUS
 62
7
 10
-7.250000
 20
-177.000000
 11
-7.250000
 21
-195.000000
  0
LINE
  8
0
  6
CONTINUOUS
 62
7
 10
20.750000
 20
-178.494003
 11
20.750000
 21
-193.505997
  0
LINE
  8
0
  6
CONTINUOUS
 62
7
 10
-7.250000
 20
-177.000000
 11
12.750000
 21
-177.000000
  0
LINE
  8
0
  6
CONTINUOUS
 62
7
 10
-7.250000
 20
-195.000000
 11
12.750000
 21
-195.000000
  0
LINE
  8
0
  6
CONTINUOUS
 62
7
 10
12.750000
 20
-177.000000
 11
12.750000
 21
-179.000000
  0
LINE
  8
0
  6
CONTINUOUS
 62
7
 10
-107.750000
 20
-193.500000
 11
-107.250000
 21
-193.500000
  0
LINE
  8
0
  6
CONTINUOUS
 62
7
 10
-109.250000
 20
-198.000000
 11
-107.750000
 21
-198.000000
  0
LINE
  8
0
  6
CONTINUOUS
 62
7
 10
-109.250000
 20
-174.000000
 11
-107.750000
 21
-174.000000
  0
LINE
  8
0
  6
CONTINUOUS
 62
7
 10
-107.750000
 20
-174.000000
 11
-107.750000
 21
-198.000000
  0
LINE
  8
0
  6
CONTINUOUS
 62
7
 10
-107.750000
 20
-178.500000
 11
-107.250000
 21
-178.500000
  0
LINE
  8
0
  6
CONTINUOUS
 62
7
 10
28.250000
 20
-182.000000
 11
28.250000
 21
-190.000000
  0
LINE
  8
0
  6
CONTINUOUS
 62
7
 10
25.750000
 20
-190.000000
 11
28.250000
 21
-190.000000
  0
LINE
  8
0
  6
CONTINUOUS
 62
2
 10
25.750000
 20
-189.500000
 11
28.250000
 21
-189.500000
  0
LINE
  8
0
  6
CONTINUOUS
 62
2
 10
25.750000
 20
-182.500000
 11
28.250000
 21
-182.500000
  0
LINE
  8
0
  6
CONTINUOUS
 62
7
 10
25.750000
 20
-182.000000
 11
28.250000
 21
-182.000000
  0
LINE
  8
0
  6
CONTINUOUS
 62
7
 10
25.750000
 20
-178.494003
 11
25.750000
 21
-193.505997
  0
LINE
  8
0
  6
CONTINUOUS
 62
7
 10
20.750000
 20
-178.494003
 11
25.750000
 21
-178.494003
  0
LINE
  8
0
  6
CONTINUOUS
 62
7
 10
20.750000
 20
-182.246994
 11
25.750000
 21
-182.246994
  0
LINE
  8
0
  6
CONTINUOUS
 62
7
 10
20.750000
 20
-189.753006
 11
25.750000
 21
-189.753006
  0
LINE
  8
0
  6
CONTINUOUS
 62
7
 10
20.750000
 20
-193.505997
 11
25.750000
 21
-193.505997
  0
LINE
  8
0
  6
CONTINUOUS
 62
7
 10
-107.250000
 20
-193.500000
 11
-107.250000
 21
-178.500000
  0
LINE
  8
0
  6
CONTINUOUS
 62
7
 10
-7.250000
 20
-191.000000
 11
-107.250000
 21
-191.000000
  0
LINE
  8
0
  6
CONTINUOUS
 62
7
 10
-7.250000
 20
-181.000000
 11
-107.250000
 21
-181.000000
  0
LINE
  8
0
  6
CONTINUOUS
 62
7
 10
12.750000
 20
-179.000000
 11
20.750000
 21
-179.000000
  0
LINE
  8
0
  6
CONTINUOUS
 62
7
 10
12.750000
 20
-193.000000
 11
20.750000
 21
-193.000000
  0
LINE
  8
0
  6
CONTINUOUS
 62
7
 10
12.750000
 20
-193.000000
 11
12.750000
 21
-195.000000
  0
LINE
  8
0
  6
CONTINUOUS
 62
7
 10
-7.250000
 20
-41.000000
 11
-7.250000
 21
-59.000000
  0
LINE
  8
0
  6
CONTINUOUS
 62
7
 10
-7.250000
 20
-41.000000
 11
12.750000
 21
-41.000000
  0
LINE
  8
0
  6
CONTINUOUS
 62
7
 10
-7.250000
 20
-59.000000
 11
12.750000
 21
-59.000000
  0
LINE
  8
0
  6
CONTINUOUS
 62
7
 10
-109.250000
 20
-37.000000
 11
-109.250000
 21
-63.000000
  0
LINE
  8
0
  6
CONTINUOUS
 62
7
 10
12.750000
 20
-41.000000
 11
12.750000
 21
-43.000000
  0
LINE
  8
0
  6
CONTINUOUS
 62
7
 10
-107.750000
 20
-57.500000
 11
-107.250000
 21
-57.500000
  0
LINE
  8
0
  6
CONTINUOUS
 62
7
 10
-109.250000
 20
-62.000000
 11
-107.750000
 21
-62.000000
  0
LINE
  8
0
  6
CONTINUOUS
 62
7
 10
-109.250000
 20
-38.000000
 11
-107.750000
 21
-38.000000
  0
LINE
  8
0
  6
CONTINUOUS
 62
7
 10
-107.750000
 20
-38.000000
 11
-107.750000
 21
-62.000000
  0
LINE
  8
0
  6
CONTINUOUS
 62
7
 10
-107.750000
 20
-42.500000
 11
-107.250000
 21
-42.500000
  0
LINE
  8
0
  6
CONTINUOUS
 62
7
 10
28.250000
 20
-46.000000
 11
28.250000
 21
-54.000000
  0
LINE
  8
0
  6
CONTINUOUS
 62
7
 10
25.750000
 20
-54.000000
 11
28.250000
 21
-54.000000
  0
LINE
  8
0
  6
CONTINUOUS
 62
2
 10
25.750000
 20
-53.500000
 11
28.250000
 21
-53.500000
  0
LINE
  8
0
  6
CONTINUOUS
 62
2
 10
25.750000
 20
-46.500000
 11
28.250000
 21
-46.500000
  0
LINE
  8
0
  6
CONTINUOUS
 62
7
 10
25.750000
 20
-46.000000
 11
28.250000
 21
-46.000000
  0
LINE
  8
0
  6
CONTINUOUS
 62
7
 10
-107.250000
 20
-57.500000
 11
-107.250000
 21
-42.500000
  0
LINE
  8
0
  6
CONTINUOUS
 62
7
 10
-7.250000
 20
-55.000000
 11
-107.250000
 21
-55.000000
  0
LINE
  8
0
  6
CONTINUOUS
 62
7
 10
-7.250000
 20
-45.000000
 11
-107.250000
 21
-45.000000
  0
LINE
  8
0
  6
CONTINUOUS
 62
7
 10
12.750000
 20
-43.000000
 11
20.750000
 21
-43.000000
  0
LINE
  8
0
  6
CONTINUOUS
 62
7
 10
12.750000
 20
-57.000000
 11
20.750000
 21
-57.000000
  0
LINE
  8
0
  6
CONTINUOUS
 62
7
 10
12.750000
 20
-57.000000
 11
12.750000
 21
-59.000000
  0
LINE
  8
0
  6
CONTINUOUS
 62
7
 10
-149.250000
 20
-39.500000
 11
-149.250000
 21
-60.500000
  0
LINE
  8
0
  6
CONTINUOUS
 62
7
 10
-136.250000
 20
-39.500000
 11
-136.250000
 21
-60.500000
  0
LINE
  8
0
  6
CONTINUOUS
 62
7
 10
-149.250000
 20
-39.500000
 11
-136.250000
 21
-39.500000
  0
LINE
  8
0
  6
CONTINUOUS
 62
7
 10
-149.250000
 20
-60.500000
 11
-136.250000
 21
-60.500000
  0
LINE
  8
0
  6
CONTINUOUS
 62
2
 10
63.250000
 20
-107.800003
 11
64.250000
 21
-107.800003
  0
LINE
  8
0
  6
CONTINUOUS
 62
2
 10
63.250000
 20
-107.800003
 11
63.250000
 21
-108.650002
  0
LINE
  8
0
  6
CONTINUOUS
 62
2
 10
63.250000
 20
-104.349998
 11
63.250000
 21
-105.199997
  0
LINE
  8
0
  6
CONTINUOUS
 62
2
 10
63.250000
 20
-105.199997
 11
64.250000
 21
-105.199997
  0
LINE
  8
0
  6
CONTINUOUS
 62
7
 10
38.250000
 20
-98.000000
 11
38.250000
 21
-138.000000
  0
LINE
  8
0
  6
CENTER
 62
2
 10
36.250000
 20
-118.000000
 11
66.250000
 21
-118.000000
  0
LINE
  8
0
  6
CONTINUOUS
 62
7
 10
38.250000
 20
-138.000000
 11
64.250000
 21
-138.000000
  0
LINE
  8
0
  6
CONTINUOUS
 62
7
 10
64.250000
 20
-138.000000
 11
64.250000
 21
-98.000000
  0
LINE
  8
0
  6
CONTINUOUS
 62
7
 10
38.250000
 20
-98.000000
 11
64.250000
 21
-98.000000
  0
LINE
  8
0
  6
CENTER
 62
2
 10
51.250000
 20
-90.000000
 11
51.250000
 21
-140.000000
  0
LINE
  8
0
  6
CONTINUOUS
 62
2
 10
59.450001
 20
-104.349998
 11
63.250000
 21
-104.349998
  0
LINE
  8
0
  6
CONTINUOUS
 62
2
 10
57.950001
 20
-105.849998
 11
57.950001
 21
-107.150002
  0
LINE
  8
0
  6
CONTINUOUS
 62
2
 10
59.450001
 20
-108.650002
 11
63.250000
 21
-108.650002
  0
LINE
  8
0
  6
CONTINUOUS
 62
7
 10
61.750000
 20
-92.000000
 11
61.750000
 21
-98.000000
  0
LINE
  8
0
  6
CONTINUOUS
 62
7
 10
40.750000
 20
-92.000000
 11
40.750000
 21
-98.000000
  0
LINE
  8
0
  6
CONTINUOUS
 62
7
 10
40.750000
 20
-92.000000
 11
61.750000
 21
-92.000000
  0
LINE
  8
0
  6
CENTER
 62
2
 10
54.980099
 20
-129.500000
 11
66.250000
 21
-129.500000
  0
LINE
  8
0
  6
CENTER
 62
2
 10
54.980099
 20
-106.500000
 11
66.250000
 21
-106.500000
  0
LINE
  8
0
  6
CENTER
 62
2
 10
47.519901
 20
-129.500000
 11
36.250000
 21
-129.500000
  0
LINE
  8
0
  6
CENTER
 62
2
 10
47.519901
 20
-106.500000
 11
36.250000
 21
-106.500000
  0
LINE
  8
0
  6
CONTINUOUS
 62
2
 10
-309.250000
 20
-105.199997
 11
-301.175995
 21
-105.199997
  0
LINE
  8
0
  6
CENTER
 62
2
 10
-297.250000
 20
-171.000000
 11
-297.250000
 21
-201.000000
  0
LINE
  8
0
  6
CENTER
 62
2
 10
-184.250000
 20
-171.000000
 11
-184.250000
 21
-201.000000
  0
LINE
  8
0
  6
CONTINUOUS
 62
2
 10
-293.324005
 20
-105.199997
 11
-277.175995
 21
-105.199997
  0
LINE
  8
0
  6
CONTINUOUS
 62
2
 10
-269.324005
 20
-105.199997
 11
-188.175995
 21
-105.199997
  0
LINE
  8
0
  6
CONTINUOUS
 62
2
 10
-293.324005
 20
-130.800003
 11
-277.175995
 21
-130.800003
  0
LINE
  8
0
  6
CONTINUOUS
 62
2
 10
-309.250000
 20
-130.800003
 11
-301.175995
 21
-130.800003
  0
LINE
  8
0
  6
CONTINUOUS
 62
2
 10
-269.324005
 20
-130.800003
 11
-188.175995
 21
-130.800003
  0
LINE
  8
0
  6
DASHED
 62
2
 10
-188.750000
 20
-173.000000
 11
-188.750000
 21
-179.500000
  0
LINE
  8
0
  6
DASHED
 62
2
 10
-186.949997
 20
-179.500000
 11
-186.949997
 21
-192.500000
  0
LINE
  8
0
  6
DASHED
 62
2
 10
-187.250000
 20
-179.500000
 11
-187.250000
 21
-192.500000
  0
LINE
  8
0
  6
DASHED
 62
2
 10
-188.750000
 20
-179.500000
 11
-179.750000
 21
-179.500000
  0
LINE
  8
0
  6
DASHED
 62
2
 10
-179.750000
 20
-173.000000
 11
-179.750000
 21
-179.500000
  0
LINE
  8
0
  6
DASHED
 62
2
 10
-188.750000
 20
-199.000000
 11
-188.750000
 21
-192.500000
  0
LINE
  8
0
  6
DASHED
 62
2
 10
-188.750000
 20
-192.500000
 11
-179.750000
 21
-192.500000
  0
LINE
  8
0
  6
DASHED
 62
2
 10
-179.750000
 20
-199.000000
 11
-179.750000
 21
-192.500000
  0
LINE
  8
0
  6
DASHED
 62
2
 10
-181.250000
 20
-179.500000
 11
-181.250000
 21
-192.500000
  0
LINE
  8
0
  6
DASHED
 62
2
 10
-181.550003
 20
-179.500000
 11
-181.550003
 21
-192.500000
  0
LINE
  8
0
  6
DASHED
 62
2
 10
-301.750000
 20
-199.000000
 11
-301.750000
 21
-192.500000
  0
LINE
  8
0
  6
DASHED
 62
2
 10
-301.750000
 20
-192.500000
 11
-292.750000
 21
-192.500000
  0
LINE
  8
0
  6
DASHED
 62
2
 10
-292.750000
 20
-199.000000
 11
-292.750000
 21
-192.500000
  0
LINE
  8
0
  6
DASHED
 62
2
 10
-294.549988
 20
-179.500000
 11
-294.549988
 21
-192.500000
  0
LINE
  8
0
  6
DASHED
 62
2
 10
-294.250000
 20
-179.500000
 11
-294.250000
 21
-192.500000
  0
LINE
  8
0
  6
DASHED
 62
2
 10
-299.950012
 20
-179.500000
 11
-299.950012
 21
-192.500000
  0
LINE
  8
0
  6
DASHED
 62
2
 10
-300.250000
 20
-179.500000
 11
-300.250000
 21
-192.500000
  0
LINE
  8
0
  6
DASHED
 62
2
 10
-301.750000
 20
-179.500000
 11
-292.750000
 21
-179.500000
  0
LINE
  8
0
  6
DASHED
 62
2
 10
-301.750000
 20
-173.000000
 11
-301.750000
 21
-179.500000
  0
LINE
  8
0
  6
DASHED
 62
2
 10
-292.750000
 20
-173.000000
 11
-292.750000
 21
-179.500000
  0
LINE
  8
0
  6
CONTINUOUS
 62
2
 10
-362.049988
 20
-108.650002
 11
-358.250000
 21
-108.650002
  0
LINE
  8
0
  6
CONTINUOUS
 62
7
 10
-359.750000
 20
-92.000000
 11
-359.750000
 21
-98.000000
  0
LINE
  8
0
  6
CONTINUOUS
 62
7
 10
-380.750000
 20
-92.000000
 11
-380.750000
 21
-98.000000
  0
LINE
  8
0
  6
CONTINUOUS
 62
7
 10
-380.750000
 20
-92.000000
 11
-359.750000
 21
-92.000000
  0
LINE
  8
0
  6
CENTER
 62
2
 10
-366.519989
 20
-129.500000
 11
-355.250000
 21
-129.500000
  0
LINE
  8
0
  6
CENTER
 62
2
 10
-366.519989
 20
-106.500000
 11
-355.250000
 21
-106.500000
  0
LINE
  8
0
  6
CENTER
 62
2
 10
-373.980011
 20
-129.500000
 11
-385.250000
 21
-129.500000
  0
LINE
  8
0
  6
CENTER
 62
2
 10
-373.980011
 20
-106.500000
 11
-385.250000
 21
-106.500000
  0
LINE
  8
0
  6
CONTINUOUS
 62
2
 10
-358.250000
 20
-107.800003
 11
-357.250000
 21
-107.800003
  0
LINE
  8
0
  6
CONTINUOUS
 62
2
 10
-358.250000
 20
-107.800003
 11
-358.250000
 21
-108.650002
  0
LINE
  8
0
  6
CONTINUOUS
 62
2
 10
-358.250000
 20
-104.349998
 11
-358.250000
 21
-105.199997
  0
LINE
  8
0
  6
CONTINUOUS
 62
2
 10
-358.250000
 20
-105.199997
 11
-357.250000
 21
-105.199997
  0
LINE
  8
0
  6
CONTINUOUS
 62
7
 10
-383.250000
 20
-98.000000
 11
-383.250000
 21
-138.000000
  0
LINE
  8
0
  6
CENTER
 62
2
 10
-385.250000
 20
-118.000000
 11
-355.250000
 21
-118.000000
  0
LINE
  8
0
  6
CONTINUOUS
 62
7
 10
-383.250000
 20
-138.000000
 11
-357.250000
 21
-138.000000
  0
LINE
  8
0
  6
CONTINUOUS
 62
7
 10
-357.250000
 20
-138.000000
 11
-357.250000
 21
-98.000000
  0
LINE
  8
0
  6
CONTINUOUS
 62
7
 10
-383.250000
 20
-98.000000
 11
-357.250000
 21
-98.000000
  0
LINE
  8
0
  6
CENTER
 62
2
 10
-370.250000
 20
-90.000000
 11
-370.250000
 21
-140.000000
  0
LINE
  8
0
  6
CONTINUOUS
 62
2
 10
-362.049988
 20
-104.349998
 11
-358.250000
 21
-104.349998
  0
LINE
  8
0
  6
CONTINUOUS
 62
2
 10
-363.549988
 20
-105.849998
 11
-363.549988
 21
-107.150002
  0
LINE
  8
0
  6
CONTINUOUS
 62
7
 10
47.497200
 20
-124.500000
 11
55.002800
 21
-124.500000
  0
LINE
  8
0
  6
CONTINUOUS
 62
7
 10
47.497200
 20
-111.500000
 11
55.002800
 21
-111.500000
  0
LINE
  8
0
  6
CONTINUOUS
 62
7
 10
55.002800
 20
-111.500000
 11
58.755600
 21
-118.000000
  0
LINE
  8
0
  6
CONTINUOUS
 62
7
 10
58.755798
 20
-118.000000
 11
55.002998
 21
-124.500000
  0
LINE
  8
0
  6
CONTINUOUS
 62
7
 10
47.497200
 20
-124.500000
 11
43.744400
 21
-118.000000
  0
LINE
  8
0
  6
CONTINUOUS
 62
7
 10
43.744499
 20
-118.000000
 11
47.497299
 21
-111.500000
  0
LINE
  8
0
  6
CONTINUOUS
 62
7
 10
-309.250000
 20
-37.000000
 11
-309.250000
 21
-63.000000
  0
LINE
  8
0
  6
CONTINUOUS
 62
7
 10
-309.250000
 20
-63.000000
 11
-109.250000
 21
-63.000000
  0
LINE
  8
0
  6
CONTINUOUS
 62
7
 10
-309.250000
 20
-37.000000
 11
-109.250000
 21
-37.000000
  0
LINE
  8
0
  6
CENTER
 62
2
 10
-349.250000
 20
-50.000000
 11
30.250000
 21
-50.000000
  0
LINE
  8
0
  6
CONTINUOUS
 62
7
 10
-347.250000
 20
-45.000000
 11
-309.250000
 21
-45.000000
  0
LINE
  8
0
  6
CONTINUOUS
 62
7
 10
-347.250000
 20
-55.000000
 11
-309.250000
 21
-55.000000
  0
LINE
  8
0
  6
CONTINUOUS
 62
7
 10
-347.250000
 20
-45.000000
 11
-347.250000
 21
-55.000000
  0
LINE
  8
0
  6
CONTINUOUS
 62
7
 10
20.750000
 20
-57.505600
 11
25.750000
 21
-57.505600
  0
LINE
  8
0
  6
CONTINUOUS
 62
7
 10
25.750000
 20
-42.494400
 11
25.750000
 21
-57.505600
  0
LINE
  8
0
  6
CONTINUOUS
 62
7
 10
20.750000
 20
-42.494400
 11
20.750000
 21
-57.505600
  0
LINE
  8
0
  6
CONTINUOUS
 62
7
 10
20.750000
 20
-53.752800
 11
25.750000
 21
-53.752800
  0
LINE
  8
0
  6
CONTINUOUS
 62
7
 10
20.750000
 20
-46.247200
 11
25.750000
 21
-46.247200
  0
LINE
  8
0
  6
CONTINUOUS
 62
7
 10
20.750000
 20
-42.494400
 11
25.750000
 21
-42.494400
  0
LINE
  8
0
  6
CONTINUOUS
 62
2
 10
-180.324005
 20
-130.800003
 11
-109.250000
 21
-130.800003
  0
LINE
  8
0
  6
CONTINUOUS
 62
2
 10
-180.324005
 20
-105.199997
 11
-109.250000
 21
-105.199997
  0
LINE
  8
0
  6
DASHED
 62
2
 10
-277.750000
 20
-199.000000
 11
-277.750000
 21
-192.500000
  0
LINE
  8
0
  6
DASHED
 62
2
 10
-270.549988
 20
-179.500000
 11
-270.549988
 21
-192.500000
  0
LINE
  8
0
  6
DASHED
 62
2
 10
-268.750000
 20
-199.000000
 11
-268.750000
 21
-192.500000
  0
LINE
  8
0
  6
DASHED
 62
2
 10
-270.250000
 20
-179.500000
 11
-270.250000
 21
-192.500000
  0
LINE
  8
0
  6
CENTER
 62
2
 10
-273.250000
 20
-171.000000
 11
-273.250000
 21
-201.000000
  0
LINE
  8
0
  6
DASHED
 62
2
 10
-277.750000
 20
-192.500000
 11
-268.750000
 21
-192.500000
  0
LINE
  8
0
  6
DASHED
 62
2
 10
-277.750000
 20
-179.500000
 11
-268.750000
 21
-179.500000
  0
LINE
  8
0
  6
DASHED
 62
2
 10
-268.750000
 20
-173.000000
 11
-268.750000
 21
-179.500000
  0
LINE
  8
0
  6
DASHED
 62
2
 10
-277.750000
 20
-173.000000
 11
-277.750000
 21
-179.500000
  0
LINE
  8
0
  6
DASHED
 62
2
 10
-276.250000
 20
-179.500000
 11
-276.250000
 21
-192.500000
  0
LINE
  8
0
  6
DASHED
 62
2
 10
-275.950012
 20
-179.500000
 11
-275.950012
 21
-192.500000
  0
LINE
  8
0
  6
CONTINUOUS
 62
7
 10
44.250000
 20
-112.343002
 11
44.250000
 21
-117.124001
  0
LINE
  8
0
  6
CONTINUOUS
 62
7
 10
58.250000
 20
-112.343002
 11
58.250000
 21
-117.124001
  0
LINE
  8
0
  6
CONTINUOUS
 62
7
 10
44.250000
 20
-118.875999
 11
44.250000
 21
-123.656998
  0
LINE
  8
0
  6
CONTINUOUS
 62
7
 10
58.250000
 20
-118.875999
 11
58.250000
 21
-123.656998
  0
LINE
  8
0
  6
CONTINUOUS
 62
7
 10
12.750000
 20
-123.656998
 11
20.750000
 21
-123.656998
  0
LINE
  8
0
  6
CONTINUOUS
 62
7
 10
12.750000
 20
-112.343002
 11
20.750000
 21
-112.343002
  0
LINE
  8
0
  6
CONTINUOUS
 62
2
 10
12.749800
 20
-123.656998
 11
20.749800
 21
-112.343002
  0
LINE
  8
0
  6
CONTINUOUS
 62
2
 10
12.750000
 20
-112.343002
 11
20.750000
 21
-123.656998
  0
LINE
  8
0
  6
CENTER
 62
2
 10
-374.750000
 20
82.000000
 11
-365.750000
 21
82.000000
  0
LINE
  8
0
  6
CENTER
 62
2
 10
-374.750000
 20
112.000000
 11
-365.750000
 21
112.000000
  0
LINE
  8
0
  6
CENTER
 62
2
 10
-374.350006
 20
-103.000000
 11
-366.149994
 21
-103.000000
  0
LINE
  8
0
  6
CENTER
 62
2
 10
-374.750000
 20
-133.000000
 11
-365.750000
 21
-133.000000
  0
LINE
  8
0
  6
CENTER
 62
2
 10
-265.250000
 20
172.500000
 11
-265.250000
 21
163.500000
  0
LINE
  8
0
  6
CENTER
 62
2
 10
-269.750000
 20
168.000000
 11
-260.750000
 21
168.000000
  0
LINE
  8
0
  6
CENTER
 62
2
 10
-217.750000
 20
168.250000
 11
-217.750000
 21
161.750000
  0
LINE
  8
0
  6
CENTER
 62
2
 10
-197.250000
 20
166.500000
 11
-197.250000
 21
157.500000
  0
LINE
  8
0
  6
CENTER
 62
2
 10
-201.750000
 20
162.000000
 11
-192.750000
 21
162.000000
  0
LINE
  8
0
  6
CENTER
 62
2
 10
-297.250000
 20
118.500000
 11
-297.250000
 21
105.500000
  0
LINE
  8
0
  6
CENTER
 62
2
 10
-303.750000
 20
112.000000
 11
-290.750000
 21
112.000000
  0
LINE
  8
0
  6
CENTER
 62
2
 10
-273.250000
 20
118.500000
 11
-273.250000
 21
105.500000
  0
LINE
  8
0
  6
CENTER
 62
2
 10
-279.750000
 20
112.000000
 11
-266.750000
 21
112.000000
  0
LINE
  8
0
  6
CENTER
 62
2
 10
-273.250000
 20
88.500000
 11
-273.250000
 21
75.500000
  0
LINE
  8
0
  6
CENTER
 62
2
 10
-279.750000
 20
82.000000
 11
-266.750000
 21
82.000000
  0
LINE
  8
0
  6
CENTER
 62
2
 10
-297.250000
 20
88.500000
 11
-297.250000
 21
75.500000
  0
LINE
  8
0
  6
CENTER
 62
2
 10
-303.750000
 20
82.000000
 11
-290.750000
 21
82.000000
  0
LINE
  8
0
  6
CENTER
 62
2
 10
-265.250000
 20
-42.500000
 11
-265.250000
 21
-51.500000
  0
LINE
  8
0
  6
CENTER
 62
2
 10
-269.750000
 20
-47.000000
 11
-260.750000
 21
-47.000000
  0
LINE
  8
0
  6
CENTER
 62
2
 10
-122.250000
 20
-48.500000
 11
-122.250000
 21
-57.500000
  0
LINE
  8
0
  6
CENTER
 62
2
 10
-126.750000
 20
-53.000000
 11
-117.750000
 21
-53.000000
  0
LINE
  8
0
  6
CENTER
 62
2
 10
-142.750000
 20
-46.750000
 11
-142.750000
 21
-53.250000
  0
LINE
  8
0
  6
CENTER
 62
2
 10
-297.250000
 20
-126.500000
 11
-297.250000
 21
-139.500000
  0
LINE
  8
0
  6
CENTER
 62
2
 10
-303.750000
 20
-133.000000
 11
-290.750000
 21
-133.000000
  0
LINE
  8
0
  6
CENTER
 62
2
 10
-273.250000
 20
-126.500000
 11
-273.250000
 21
-139.500000
  0
LINE
  8
0
  6
CENTER
 62
2
 10
-279.750000
 20
-133.000000
 11
-266.750000
 21
-133.000000
  0
LINE
  8
0
  6
CENTER
 62
2
 10
-273.250000
 20
-96.500000
 11
-273.250000
 21
-109.500000
  0
LINE
  8
0
  6
CENTER
 62
2
 10
-279.750000
 20
-103.000000
 11
-266.750000
 21
-103.000000
  0
LINE
  8
0
  6
CENTER
 62
2
 10
-297.250000
 20
-96.500000
 11
-297.250000
 21
-109.500000
  0
LINE
  8
0
  6
CENTER
 62
2
 10
-303.750000
 20
-103.000000
 11
-290.750000
 21
-103.000000
  0
LINE
  8
0
  6
CENTER
 62
2
 10
-184.250000
 20
-96.500000
 11
-184.250000
 21
-109.500000
  0
LINE
  8
0
  6
CENTER
 62
2
 10
-190.750000
 20
-103.000000
 11
-177.750000
 21
-103.000000
  0
LINE
  8
0
  6
CENTER
 62
2
 10
-184.250000
 20
-126.500000
 11
-184.250000
 21
-139.500000
  0
LINE
  8
0
  6
CENTER
 62
2
 10
-190.750000
 20
-133.000000
 11
-177.750000
 21
-133.000000
  0
LINE
  8
0
  6
CENTER
 62
2
 10
-289.250000
 20
-173.500000
 11
-289.250000
 21
-182.500000
  0
LINE
  8
0
  6
CENTER
 62
2
 10
-293.750000
 20
-178.000000
 11
-284.750000
 21
-178.000000
  0
LINE
  8
0
  6
CENTER
 62
2
 10
-289.250000
 20
-189.500000
 11
-289.250000
 21
-198.500000
  0
LINE
  8
0
  6
CENTER
 62
2
 10
-293.750000
 20
-194.000000
 11
-284.750000
 21
-194.000000
  0
LINE
  8
0
  6
CENTER
 62
2
 10
-265.250000
 20
-189.500000
 11
-265.250000
 21
-198.500000
  0
LINE
  8
0
  6
CENTER
 62
2
 10
-269.750000
 20
-194.000000
 11
-260.750000
 21
-194.000000
  0
LINE
  8
0
  6
CENTER
 62
2
 10
-265.250000
 20
-173.500000
 11
-265.250000
 21
-182.500000
  0
LINE
  8
0
  6
CENTER
 62
2
 10
-269.750000
 20
-178.000000
 11
-260.750000
 21
-178.000000
  0
LINE
  8
0
  6
CENTER
 62
2
 10
-176.250000
 20
-173.500000
 11
-176.250000
 21
-182.500000
  0
LINE
  8
0
  6
CENTER
 62
2
 10
-180.750000
 20
-178.000000
 11
-171.750000
 21
-178.000000
  0
LINE
  8
0
  6
CENTER
 62
2
 10
-176.250000
 20
-189.500000
 11
-176.250000
 21
-198.500000
  0
LINE
  8
0
  6
CENTER
 62
2
 10
-180.750000
 20
-194.000000
 11
-171.750000
 21
-194.000000
  0
LINE
  8
0
  6
CONTINUOUS
 62
4
 10
267.250000
 20
-33.494400
 11
267.250000
 21
-48.505501
  0
LINE
  8
0
  6
CONTINUOUS
 62
7
 10
298.250000
 20
-28.000000
 11
298.250000
 21
-54.000000
  0
LINE
  8
0
  6
CONTINUOUS
 62
7
 10
298.250000
 20
-54.000000
 11
308.250000
 21
-54.000000
  0
LINE
  8
0
  6
CONTINUOUS
 62
7
 10
298.250000
 20
-28.000000
 11
308.250000
 21
-28.000000
  0
LINE
  8
0
  6
CENTER
 62
1
 10
258.250000
 20
-41.000000
 11
308.250000
 21
-41.000000
  0
LINE
  8
0
  6
CONTINUOUS
 62
4
 10
260.250000
 20
-37.000000
 11
260.250000
 21
-45.000000
  0
LINE
  8
0
  6
CONTINUOUS
 62
4
 10
272.250000
 20
-33.494400
 11
272.250000
 21
-48.505501
  0
LINE
  8
0
  6
CONTINUOUS
 62
4
 10
267.250000
 20
-33.494400
 11
272.250000
 21
-33.494400
  0
LINE
  8
0
  6
CONTINUOUS
 62
4
 10
267.250000
 20
-37.247200
 11
272.250000
 21
-37.247200
  0
LINE
  8
0
  6
CONTINUOUS
 62
4
 10
267.250000
 20
-44.752701
 11
272.250000
 21
-44.752701
  0
LINE
  8
0
  6
CONTINUOUS
 62
4
 10
267.250000
 20
-48.505501
 11
272.250000
 21
-48.505501
  0
LINE
  8
0
  6
CONTINUOUS
 62
4
 10
253.250000
 20
129.000000
 11
293.250000
 21
129.000000
  0
LINE
  8
0
  6
CONTINUOUS
 62
4
 10
253.250000
 20
149.000000
 11
293.250000
 21
149.000000
  0
LINE
  8
0
  6
CONTINUOUS
 62
4
 10
253.250000
 20
179.000000
 11
253.250000
 21
164.000000
  0
LINE
  8
0
  6
CONTINUOUS
 62
4
 10
293.250000
 20
179.000000
 11
293.250000
 21
164.000000
  0
LINE
  8
0
  6
CONTINUOUS
 62
4
 10
253.250000
 20
149.000000
 11
253.250000
 21
129.000000
  0
LINE
  8
0
  6
CONTINUOUS
 62
4
 10
293.250000
 20
149.000000
 11
293.250000
 21
129.000000
  0
LINE
  8
0
  6
CONTINUOUS
 62
4
 10
303.250000
 20
149.000000
 11
323.250000
 21
149.000000
  0
LINE
  8
0
  6
CONTINUOUS
 62
4
 10
303.250000
 20
129.000000
 11
323.250000
 21
129.000000
  0
LINE
  8
0
  6
CONTINUOUS
 62
4
 10
303.250000
 20
149.000000
 11
303.250000
 21
129.000000
  0
LINE
  8
0
  6
CONTINUOUS
 62
4
 10
318.250000
 20
149.000000
 11
318.250000
 21
129.000000
  0
LINE
  8
0
  6
CONTINUOUS
 62
4
 10
323.250000
 20
149.000000
 11
323.250000
 21
129.000000
  0
LINE
  8
0
  6
CONTINUOUS
 62
4
 10
253.250000
 20
164.000000
 11
293.250000
 21
164.000000
  0
LINE
  8
0
  6
CONTINUOUS
 62
4
 10
263.250000
 20
184.000000
 11
283.250000
 21
184.000000
  0
LINE
  8
0
  6
CONTINUOUS
 62
4
 10
283.250000
 20
179.000000
 11
293.250000
 21
179.000000
  0
LINE
  8
0
  6
CONTINUOUS
 62
4
 10
253.250000
 20
179.000000
 11
263.250000
 21
179.000000
  0
LINE
  8
0
  6
CONTINUOUS
 62
4
 10
263.250000
 20
184.000000
 11
263.250000
 21
179.000000
  0
LINE
  8
0
  6
CONTINUOUS
 62
4
 10
283.250000
 20
184.000000
 11
283.250000
 21
179.000000
  0
LINE
  8
0
  6
CENTER
 62
1
 10
273.250000
 20
186.000000
 11
273.250000
 21
162.000000
  0
LINE
  8
0
  6
CENTER
 62
1
 10
288.250000
 20
181.645996
 11
288.250000
 21
162.000000
  0
LINE
  8
0
  6
CENTER
 62
1
 10
258.250000
 20
181.000000
 11
258.250000
 21
162.000000
  0
LINE
  8
0
  6
CONTINUOUS
 62
4
 10
279.981995
 20
-36.000000
 11
298.250000
 21
-36.000000
  0
LINE
  8
0
  6
CENTER
 62
1
 10
288.250000
 20
-26.000000
 11
273.250000
 21
-26.000000
  0
LINE
  8
0
  6
CENTER
 62
1
 10
280.750000
 20
-18.500000
 11
280.750000
 21
-33.500000
  0
LINE
  8
0
  6
CONTINUOUS
 62
4
 10
276.750000
 20
-23.000000
 11
276.750000
 21
-29.000000
  0
LINE
  8
0
  6
CONTINUOUS
 62
4
 10
284.750000
 20
-23.000000
 11
284.750000
 21
-29.000000
  0
LINE
  8
0
  6
CONTINUOUS
 62
7
 10
298.250000
 20
62.000000
 11
298.250000
 21
36.000000
  0
LINE
  8
0
  6
CONTINUOUS
 62
7
 10
298.250000
 20
36.000000
 11
308.250000
 21
36.000000
  0
LINE
  8
0
  6
CONTINUOUS
 62
7
 10
298.250000
 20
62.000000
 11
308.250000
 21
62.000000
  0
LINE
  8
0
  6
CENTER
 62
1
 10
258.250000
 20
49.000000
 11
308.250000
 21
49.000000
  0
LINE
  8
0
  6
CONTINUOUS
 62
4
 10
260.250000
 20
54.000000
 11
267.250000
 21
54.000000
  0
LINE
  8
0
  6
CONTINUOUS
 62
4
 10
260.250000
 20
54.000000
 11
260.250000
 21
44.000000
  0
LINE
  8
0
  6
CONTINUOUS
 62
4
 10
267.250000
 20
53.000000
 11
272.250000
 21
53.000000
  0
LINE
  8
0
  6
CONTINUOUS
 62
4
 10
267.250000
 20
54.000000
 11
267.250000
 21
53.000000
  0
LINE
  8
0
  6
CONTINUOUS
 62
4
 10
272.250000
 20
54.000000
 11
272.250000
 21
53.000000
  0
LINE
  8
0
  6
CONTINUOUS
 62
4
 10
272.250000
 20
54.000000
 11
298.250000
 21
54.000000
  0
LINE
  8
0
  6
DASHED
 62
1
 10
272.250000
 20
52.000000
 11
272.250000
 21
46.000000
  0
LINE
  8
0
  6
DASHED
 62
1
 10
260.250000
 20
52.000000
 11
272.250000
 21
52.000000
  0
LINE
  8
0
  6
DASHED
 62
1
 10
260.250000
 20
51.500000
 11
275.250000
 21
51.500000
  0
LINE
  8
0
  6
CONTINUOUS
 62
4
 10
260.250000
 20
44.000000
 11
267.250000
 21
44.000000
  0
LINE
  8
0
  6
CONTINUOUS
 62
4
 10
267.250000
 20
44.000000
 11
267.250000
 21
45.000000
  0
LINE
  8
0
  6
CONTINUOUS
 62
4
 10
267.250000
 20
45.000000
 11
272.250000
 21
45.000000
  0
LINE
  8
0
  6
CONTINUOUS
 62
4
 10
272.250000
 20
44.000000
 11
298.250000
 21
44.000000
  0
LINE
  8
0
  6
DASHED
 62
1
 10
260.250000
 20
46.000000
 11
272.250000
 21
46.000000
  0
LINE
  8
0
  6
DASHED
 62
1
 10
260.250000
 20
46.500000
 11
275.250000
 21
46.500000
  0
LINE
  8
0
  6
CONTINUOUS
 62
4
 10
272.250000
 20
44.000000
 11
272.250000
 21
45.000000
  0
LINE
  8
0
  6
DASHED
 62
1
 10
275.250000
 20
51.500000
 11
275.250000
 21
46.500000
  0
LINE
  8
0
  6
CENTER
 62
1
 10
277.250000
 20
64.000000
 11
262.250000
 21
64.000000
  0
LINE
  8
0
  6
CENTER
 62
1
 10
269.750000
 20
71.500000
 11
269.750000
 21
56.500000
  0
LINE
  8
0
  6
CONTINUOUS
 62
4
 10
272.750000
 20
68.000000
 11
266.750000
 21
68.000000
  0
LINE
  8
0
  6
CONTINUOUS
 62
4
 10
272.750000
 20
60.000000
 11
266.750000
 21
60.000000
  0
LINE
  8
0
  6
CONTINUOUS
 62
4
 10
275.750000
 20
-37.000000
 11
275.750000
 21
-45.000000
  0
LINE
  8
0
  6
CONTINUOUS
 62
4
 10
260.250000
 20
-37.000000
 11
267.250000
 21
-37.000000
  0
LINE
  8
0
  6
CONTINUOUS
 62
1
 10
260.250000
 20
-37.700001
 11
267.250000
 21
-37.700001
  0
LINE
  8
0
  6
CONTINUOUS
 62
4
 10
278.250000
 20
-37.000000
 11
278.250000
 21
-45.000000
  0
LINE
  8
0
  6
CONTINUOUS
 62
4
 10
283.250000
 20
-38.000000
 11
283.250000
 21
-44.000000
  0
LINE
  8
0
  6
CONTINUOUS
 62
4
 10
278.250000
 20
-36.999901
 11
279.981995
 21
-35.999901
  0
LINE
  8
0
  6
CONTINUOUS
 62
4
 10
279.981995
 20
-36.000000
 11
279.981995
 21
-38.000000
  0
LINE
  8
0
  6
CONTINUOUS
 62
1
 10
260.250000
 20
-44.299999
 11
267.250000
 21
-44.299999
  0
LINE
  8
0
  6
CONTINUOUS
 62
4
 10
260.250000
 20
-45.000000
 11
267.250000
 21
-45.000000
  0
LINE
  8
0
  6
CONTINUOUS
 62
4
 10
278.250000
 20
-44.999802
 11
279.981995
 21
-45.999901
  0
LINE
  8
0
  6
CONTINUOUS
 62
4
 10
279.981995
 20
-46.000000
 11
298.250000
 21
-46.000000
  0
LINE
  8
0
  6
CONTINUOUS
 62
4
 10
278.250000
 20
-38.000000
 11
283.250000
 21
-38.000000
  0
LINE
  8
0
  6
CONTINUOUS
 62
4
 10
278.250000
 20
-44.000000
 11
283.250000
 21
-44.000000
  0
LINE
  8
0
  6
CONTINUOUS
 62
4
 10
279.981995
 20
-44.000000
 11
279.981995
 21
-46.000000
  0
LINE
  8
0
  6
CONTINUOUS
 62
1
 10
283.250000
 20
-37.999901
 11
278.250000
 21
-43.999901
  0
LINE
  8
0
  6
CONTINUOUS
 62
1
 10
283.250000
 20
-44.000000
 11
278.250000
 21
-38.000000
  0
LINE
  8
0
  6
CONTINUOUS
 62
4
 10
272.250000
 20
-45.000000
 11
278.250000
 21
-45.000000
  0
LINE
  8
0
  6
CONTINUOUS
 62
4
 10
272.250000
 20
-37.000000
 11
278.250000
 21
-37.000000
  0
LINE
  8
0
  6
CONTINUOUS
 62
1
 10
272.250000
 20
-37.700001
 11
275.750000
 21
-37.700001
  0
LINE
  8
0
  6
CONTINUOUS
 62
1
 10
272.250000
 20
-44.299999
 11
275.750000
 21
-44.299999
  0
LINE
  8
0
  6
CENTER
 62
1
 10
301.250000
 20
139.000000
 11
325.250000
 21
139.000000
  0
LINE
  8
0
  6
CENTER
 62
1
 10
288.250000
 20
137.350006
 11
288.250000
 21
128.649994
  0
LINE
  8
0
  6
CENTER
 62
1
 10
283.899994
 20
133.000000
 11
292.600006
 21
133.000000
  0
LINE
  8
0
  6
CENTER
 62
1
 10
288.250000
 20
149.350006
 11
288.250000
 21
140.649994
  0
LINE
  8
0
  6
CENTER
 62
1
 10
283.899994
 20
145.000000
 11
292.600006
 21
145.000000
  0
LINE
  8
0
  6
CENTER
 62
1
 10
273.250000
 20
146.000000
 11
273.250000
 21
132.000000
  0
LINE
  8
0
  6
CENTER
 62
1
 10
266.250000
 20
139.000000
 11
280.250000
 21
139.000000
  0
LINE
  8
0
  6
CENTER
 62
1
 10
258.250000
 20
149.350006
 11
258.250000
 21
140.649994
  0
LINE
  8
0
  6
CENTER
 62
1
 10
253.899994
 20
145.000000
 11
262.600006
 21
145.000000
  0
LINE
  8
0
  6
CENTER
 62
1
 10
258.250000
 20
137.350006
 11
258.250000
 21
128.649994
  0
LINE
  8
0
  6
CENTER
 62
1
 10
253.899994
 20
133.000000
 11
262.600006
 21
133.000000
  0
LINE
  8
0
  6
CONTINUOUS
 62
7
 10
353.250000
 20
-179.000000
 11
363.250000
 21
-179.000000
  0
LINE
  8
0
  6
CONTINUOUS
 62
7
 10
353.250000
 20
-139.000000
 11
363.250000
 21
-139.000000
  0
LINE
  8
0
  6
CONTINUOUS
 62
7
 10
353.250000
 20
-179.000000
 11
353.250000
 21
-139.000000
  0
LINE
  8
0
  6
CONTINUOUS
 62
2
 10
353.250000
 20
-146.199997
 11
363.250000
 21
-146.199997
  0
LINE
  8
0
  6
CONTINUOUS
 62
2
 10
353.250000
 20
-171.800003
 11
363.250000
 21
-171.800003
  0
LINE
  8
0
  6
CONTINUOUS
 62
2
 10
353.250000
 20
-169.199997
 11
363.250000
 21
-169.199997
  0
LINE
  8
0
  6
CENTER
 62
1
 10
279.782013
 20
-159.000000
 11
363.250000
 21
-159.000000
  0
LINE
  8
0
  6
CONTINUOUS
 62
2
 10
353.250000
 20
-148.800003
 11
363.250000
 21
-148.800003
  0
LINE
  8
0
  6
CONTINUOUS
 62
4
 10
283.250000
 20
-154.000000
 11
300.250000
 21
-154.000000
  0
LINE
  8
0
  6
CONTINUOUS
 62
4
 10
283.250000
 20
-164.000000
 11
300.250000
 21
-164.000000
  0
LINE
  8
0
  6
CONTINUOUS
 62
4
 10
283.250000
 20
-154.000000
 11
283.250000
 21
-164.000000
  0
LINE
  8
0
  6
CONTINUOUS
 62
4
 10
300.250000
 20
-148.500000
 11
300.250000
 21
-169.500000
  0
LINE
  8
0
  6
CONTINUOUS
 62
4
 10
300.250000
 20
-148.500000
 11
333.250000
 21
-148.500000
  0
LINE
  8
0
  6
CONTINUOUS
 62
4
 10
333.250000
 20
-169.500000
 11
333.250000
 21
-148.500000
  0
LINE
  8
0
  6
CONTINUOUS
 62
4
 10
333.250000
 20
-169.500000
 11
300.250000
 21
-169.500000
  0
LINE
  8
0
  6
DASHED
 62
1
 10
310.250000
 20
-148.500000
 11
310.250000
 21
-150.000000
  0
LINE
  8
0
  6
DASHED
 62
1
 10
323.250000
 20
-148.500000
 11
323.250000
 21
-150.000000
  0
LINE
  8
0
  6
DASHED
 62
1
 10
310.250000
 20
-150.000000
 11
323.250000
 21
-150.000000
  0
LINE
  8
0
  6
CONTINUOUS
 62
4
 10
333.250000
 20
-154.000000
 11
353.250000
 21
-154.000000
  0
LINE
  8
0
  6
CONTINUOUS
 62
4
 10
333.250000
 20
-164.000000
 11
353.250000
 21
-164.000000
  0
LINE
  8
0
  6
DASHED
 62
1
 10
293.250000
 20
-156.500000
 11
293.250000
 21
-161.500000
  0
LINE
  8
0
  6
DASHED
 62
1
 10
295.250000
 20
-156.932999
 11
295.250000
 21
-161.067001
  0
LINE
  8
0
  6
DASHED
 62
1
 10
283.250000
 20
-156.500000
 11
293.250000
 21
-156.500000
  0
LINE
  8
0
  6
DASHED
 62
1
 10
283.250000
 20
-161.500000
 11
293.250000
 21
-161.500000
  0
LINE
  8
0
  6
DASHED
 62
1
 10
283.250000
 20
-161.067001
 11
295.250000
 21
-161.067001
  0
LINE
  8
0
  6
DASHED
 62
1
 10
283.250000
 20
-156.932999
 11
295.250000
 21
-156.932999
  0
LINE
  8
0
  6
DASHED
 62
1
 10
251.750000
 20
-148.608002
 11
251.750000
 21
-150.000000
  0
LINE
  8
0
  6
DASHED
 62
1
 10
251.750000
 20
-150.000000
 11
254.750000
 21
-150.000000
  0
LINE
  8
0
  6
DASHED
 62
1
 10
254.750000
 20
-148.608002
 11
254.750000
 21
-150.000000
  0
LINE
  8
0
  6
CENTER
 62
1
 10
265.750000
 20
-159.000000
 11
240.750000
 21
-159.000000
  0
LINE
  8
0
  6
CENTER
 62
1
 10
253.904007
 20
-146.516998
 11
253.250000
 21
-159.000000
  0
LINE
  8
0
  6
CENTER
 62
1
 10
253.250000
 20
-146.500000
 11
253.250000
 21
-171.500000
  0
LINE
  8
0
  6
CENTER
 62
1
 10
252.595993
 20
-146.516998
 11
253.250000
 21
-159.000000
  0
LINE
  8
0
  6
CONTINUOUS
 62
4
 10
311.750000
 20
-127.000000
 11
321.750000
 21
-127.000000
  0
LINE
  8
0
  6
CONTINUOUS
 62
4
 10
311.750000
 20
-130.000000
 11
321.750000
 21
-130.000000
  0
LINE
  8
0
  6
CENTER
 62
1
 10
308.250000
 20
-128.500000
 11
325.250000
 21
-128.500000
  0
LINE
  8
0
  6
CONTINUOUS
 62
4
 10
359.376007
 20
-117.518997
 11
359.376007
 21
-120.518997
  0
LINE
  8
0
  6
CONTINUOUS
 62
4
 10
359.376007
 20
-117.518997
 11
362.376007
 21
-117.518997
  0
LINE
  8
0
  6
CONTINUOUS
 62
4
 10
362.376007
 20
-117.518997
 11
362.376007
 21
-120.518997
  0
LINE
  8
0
  6
CONTINUOUS
 62
4
 10
359.376007
 20
-120.518997
 11
362.376007
 21
-120.518997
  0
LINE
  8
0
  6
CONTINUOUS
 62
4
 10
375.359009
 20
-109.018997
 11
385.359009
 21
-109.018997
  0
LINE
  8
0
  6
CONTINUOUS
 62
4
 10
375.359009
 20
-112.018997
 11
385.359009
 21
-112.018997
  0
LINE
  8
0
  6
CONTINUOUS
 62
4
 10
373.859009
 20
-117.518997
 11
373.859009
 21
-120.518997
  0
LINE
  8
0
  6
CONTINUOUS
 62
4
 10
373.859009
 20
-117.518997
 11
386.859009
 21
-117.518997
  0
LINE
  8
0
  6
CONTINUOUS
 62
4
 10
373.859009
 20
-120.518997
 11
386.859009
 21
-120.518997
  0
LINE
  8
0
  6
CONTINUOUS
 62
4
 10
386.859009
 20
-117.518997
 11
386.859009
 21
-120.518997
  0
LINE
  8
0
  6
CENTER
 62
1
 10
360.876007
 20
-115.518997
 11
360.876007
 21
-122.518997
  0
LINE
  8
0
  6
CENTER
 62
1
 10
388.859009
 20
-110.518997
 11
371.859009
 21
-110.518997
  0
LINE
  8
0
  6
DASHED
 62
1
 10
290.600006
 20
179.000000
 11
290.600006
 21
164.000000
  0
LINE
  8
0
  6
DASHED
 62
1
 10
285.899994
 20
179.000000
 11
285.899994
 21
164.000000
  0
CIRCLE
  8
0
  6
CONTINUOUS
 62
7
 10
-297.250000
 20
112.000000
 40
4.500000
  0
CIRCLE
  8
0
  6
CONTINUOUS
 62
7
 10
-273.250000
 20
112.000000
 40
4.500000
  0
CIRCLE
  8
0
  6
CONTINUOUS
 62
7
 10
-297.250000
 20
82.000000
 40
4.500000
  0
CIRCLE
  8
0
  6
CONTINUOUS
 62
7
 10
-273.250000
 20
82.000000
 40
4.500000
  0
CIRCLE
  8
0
  6
CONTINUOUS
 62
2
 10
-297.250000
 20
112.000000
 40
3.000000
  0
CIRCLE
  8
0
  6
CONTINUOUS
 62
2
 10
-273.250000
 20
112.000000
 40
3.000000
  0
CIRCLE
  8
0
  6
CONTINUOUS
 62
2
 10
-273.250000
 20
82.000000
 40
3.000000
  0
CIRCLE
  8
0
  6
CONTINUOUS
 62
2
 10
-297.250000
 20
82.000000
 40
3.000000
  0
CIRCLE
  8
0
  6
CONTINUOUS
 62
7
 10
-297.250000
 20
112.000000
 40
2.700000
  0
CIRCLE
  8
0
  6
CONTINUOUS
 62
7
 10
-273.250000
 20
112.000000
 40
2.700000
  0
CIRCLE
  8
0
  6
CONTINUOUS
 62
7
 10
-273.250000
 20
82.000000
 40
2.700000
  0
CIRCLE
  8
0
  6
CONTINUOUS
 62
7
 10
-297.250000
 20
82.000000
 40
2.700000
  0
CIRCLE
  8
0
  6
CONTINUOUS
 62
2
 10
-265.250000
 20
168.000000
 40
2.500000
  0
CIRCLE
  8
0
  6
CONTINUOUS
 62
7
 10
-265.250000
 20
168.000000
 40
2.100000
  0
CIRCLE
  8
0
  6
CONTINUOUS
 62
2
 10
-197.250000
 20
162.000000
 40
2.500000
  0
CIRCLE
  8
0
  6
CONTINUOUS
 62
7
 10
-197.250000
 20
162.000000
 40
2.100000
  0
ARC
  8
0
  6
CONTINUOUS
 62
2
 10
-90.550003
 20
107.849998
 40
1.500000
 50
180.000000
 51
270.000000
  0
ARC
  8
0
  6
CONTINUOUS
 62
2
 10
-90.550003
 20
109.150002
 40
1.500000
 50
90.000000
 51
180.000000
  0
CIRCLE
  8
0
  6
CONTINUOUS
 62
2
 10
-217.750000
 20
165.000000
 40
1.250000
  0
CIRCLE
  8
0
  6
CONTINUOUS
 62
7
 10
-217.750000
 20
165.000000
 40
1.000000
  0
ARC
  8
0
  6
CONTINUOUS
 62
2
 10
-362.049988
 20
109.150002
 40
1.500000
 50
90.000000
 51
180.000000
  0
CIRCLE
  8
0
  6
CONTINUOUS
 62
7
 10
-370.250000
 20
97.000000
 40
5.000000
  0
CIRCLE
  8
0
  6
CONTINUOUS
 62
2
 10
-370.250000
 20
112.000000
 40
2.500000
  0
CIRCLE
  8
0
  6
CONTINUOUS
 62
7
 10
-370.250000
 20
112.000000
 40
2.100000
  0
CIRCLE
  8
0
  6
CONTINUOUS
 62
7
 10
-370.250000
 20
82.000000
 40
2.100000
  0
CIRCLE
  8
0
  6
CONTINUOUS
 62
2
 10
-370.250000
 20
82.000000
 40
2.500000
  0
ARC
  8
0
  6
CONTINUOUS
 62
2
 10
-362.049988
 20
107.849998
 40
1.500000
 50
180.000000
 51
270.000000
  0
CIRCLE
  8
0
  6
CONTINUOUS
 62
2
 10
-289.250000
 20
21.000000
 40
2.500000
  0
CIRCLE
  8
0
  6
CONTINUOUS
 62
2
 10
-289.250000
 20
37.000000
 40
2.500000
  0
CIRCLE
  8
0
  6
CONTINUOUS
 62
2
 10
-265.250000
 20
37.000000
 40
2.500000
  0
CIRCLE
  8
0
  6
CONTINUOUS
 62
2
 10
-265.250000
 20
21.000000
 40
2.500000
  0
CIRCLE
  8
0
  6
CONTINUOUS
 62
7
 10
-289.250000
 20
37.000000
 40
2.100000
  0
CIRCLE
  8
0
  6
CONTINUOUS
 62
7
 10
-289.250000
 20
21.000000
 40
2.100000
  0
CIRCLE
  8
0
  6
CONTINUOUS
 62
7
 10
-265.250000
 20
21.000000
 40
2.100000
  0
CIRCLE
  8
0
  6
CONTINUOUS
 62
7
 10
-265.250000
 20
37.000000
 40
2.100000
  0
CIRCLE
  8
0
  6
CONTINUOUS
 62
7
 10
-98.750000
 20
97.000000
 40
9.000000
  0
CIRCLE
  8
0
  6
CONTINUOUS
 62
7
 10
-297.250000
 20
-103.000000
 40
4.500000
  0
CIRCLE
  8
0
  6
CONTINUOUS
 62
7
 10
-184.250000
 20
-103.000000
 40
4.500000
  0
CIRCLE
  8
0
  6
CONTINUOUS
 62
7
 10
-297.250000
 20
-133.000000
 40
4.500000
  0
CIRCLE
  8
0
  6
CONTINUOUS
 62
7
 10
-184.250000
 20
-133.000000
 40
4.500000
  0
CIRCLE
  8
0
  6
CONTINUOUS
 62
2
 10
-297.250000
 20
-103.000000
 40
3.000000
  0
CIRCLE
  8
0
  6
CONTINUOUS
 62
2
 10
-184.250000
 20
-103.000000
 40
3.000000
  0
CIRCLE
  8
0
  6
CONTINUOUS
 62
2
 10
-184.250000
 20
-133.000000
 40
3.000000
  0
CIRCLE
  8
0
  6
CONTINUOUS
 62
2
 10
-297.250000
 20
-133.000000
 40
3.000000
  0
CIRCLE
  8
0
  6
CONTINUOUS
 62
7
 10
-297.250000
 20
-103.000000
 40
2.700000
  0
CIRCLE
  8
0
  6
CONTINUOUS
 62
7
 10
-184.250000
 20
-103.000000
 40
2.700000
  0
CIRCLE
  8
0
  6
CONTINUOUS
 62
7
 10
-184.250000
 20
-133.000000
 40
2.700000
  0
CIRCLE
  8
0
  6
CONTINUOUS
 62
7
 10
-297.250000
 20
-133.000000
 40
2.700000
  0
CIRCLE
  8
0
  6
CONTINUOUS
 62
2
 10
-265.250000
 20
-47.000000
 40
2.500000
  0
CIRCLE
  8
0
  6
CONTINUOUS
 62
7
 10
-265.250000
 20
-47.000000
 40
2.100000
  0
CIRCLE
  8
0
  6
CONTINUOUS
 62
2
 10
-122.250000
 20
-53.000000
 40
2.500000
  0
CIRCLE
  8
0
  6
CONTINUOUS
 62
7
 10
-122.250000
 20
-53.000000
 40
2.100000
  0
ARC
  8
0
  6
CONTINUOUS
 62
2
 10
59.450001
 20
-107.150002
 40
1.500000
 50
180.000000
 51
270.000000
  0
ARC
  8
0
  6
CONTINUOUS
 62
2
 10
59.450001
 20
-105.849998
 40
1.500000
 50
90.000000
 51
180.000000
  0
CIRCLE
  8
0
  6
CONTINUOUS
 62
2
 10
-142.750000
 20
-50.000000
 40
1.250000
  0
CIRCLE
  8
0
  6
CONTINUOUS
 62
7
 10
-142.750000
 20
-50.000000
 40
1.000000
  0
ARC
  8
0
  6
CONTINUOUS
 62
2
 10
-362.049988
 20
-105.849998
 40
1.500000
 50
90.000000
 51
180.000000
  0
CIRCLE
  8
0
  6
CONTINUOUS
 62
7
 10
-370.250000
 20
-118.000000
 40
5.000000
  0
CIRCLE
  8
0
  6
CONTINUOUS
 62
2
 10
-370.250000
 20
-103.000000
 40
2.500000
  0
CIRCLE
  8
0
  6
CONTINUOUS
 62
7
 10
-370.250000
 20
-103.000000
 40
2.100000
  0
CIRCLE
  8
0
  6
CONTINUOUS
 62
7
 10
-370.250000
 20
-133.000000
 40
2.100000
  0
CIRCLE
  8
0
  6
CONTINUOUS
 62
2
 10
-370.250000
 20
-133.000000
 40
2.500000
  0
ARC
  8
0
  6
CONTINUOUS
 62
2
 10
-362.049988
 20
-107.150002
 40
1.500000
 50
180.000000
 51
270.000000
  0
CIRCLE
  8
0
  6
CONTINUOUS
 62
7
 10
51.250000
 20
-118.000000
 40
9.000000
  0
CIRCLE
  8
0
  6
CONTINUOUS
 62
2
 10
-289.250000
 20
-194.000000
 40
2.500000
  0
CIRCLE
  8
0
  6
CONTINUOUS
 62
2
 10
-289.250000
 20
-178.000000
 40
2.500000
  0
CIRCLE
  8
0
  6
CONTINUOUS
 62
2
 10
-176.250000
 20
-178.000000
 40
2.500000
  0
CIRCLE
  8
0
  6
CONTINUOUS
 62
2
 10
-176.250000
 20
-194.000000
 40
2.500000
  0
CIRCLE
  8
0
  6
CONTINUOUS
 62
7
 10
-273.250000
 20
-133.000000
 40
2.700000
  0
CIRCLE
  8
0
  6
CONTINUOUS
 62
2
 10
-273.250000
 20
-133.000000
 40
3.000000
  0
CIRCLE
  8
0
  6
CONTINUOUS
 62
2
 10
-273.250000
 20
-103.000000
 40
3.000000
  0
CIRCLE
  8
0
  6
CONTINUOUS
 62
7
 10
-273.250000
 20
-133.000000
 40
4.500000
  0
CIRCLE
  8
0
  6
CONTINUOUS
 62
7
 10
-273.250000
 20
-103.000000
 40
4.500000
  0
CIRCLE
  8
0
  6
CONTINUOUS
 62
7
 10
-273.250000
 20
-103.000000
 40
2.700000
  0
CIRCLE
  8
0
  6
CONTINUOUS
 62
2
 10
-265.250000
 20
-194.000000
 40
2.500000
  0
CIRCLE
  8
0
  6
CONTINUOUS
 62
2
 10
-265.250000
 20
-178.000000
 40
2.500000
  0
CIRCLE
  8
0
  6
CONTINUOUS
 62
7
 10
-176.250000
 20
-194.000000
 40
2.100000
  0
CIRCLE
  8
0
  6
CONTINUOUS
 62
7
 10
-176.250000
 20
-178.000000
 40
2.100000
  0
CIRCLE
  8
0
  6
CONTINUOUS
 62
7
 10
-265.250000
 20
-178.000000
 40
2.100000
  0
CIRCLE
  8
0
  6
CONTINUOUS
 62
7
 10
-289.250000
 20
-178.000000
 40
2.100000
  0
CIRCLE
  8
0
  6
CONTINUOUS
 62
7
 10
-289.250000
 20
-194.000000
 40
2.100000
  0
CIRCLE
  8
0
  6
CONTINUOUS
 62
7
 10
-265.250000
 20
-194.000000
 40
2.100000
  0
CIRCLE
  8
0
  6
CONTINUOUS
 62
2
 10
51.250000
 20
-118.000000
 40
3.500000
  0
CIRCLE
  8
0
  6
CONTINUOUS
 62
7
 10
51.250000
 20
-118.000000
 40
4.000000
  0
CIRCLE
  8
0
  6
CONTINUOUS
 62
7
 10
-98.750000
 20
97.000000
 40
4.000000
  0
CIRCLE
  8
0
  6
CONTINUOUS
 62
2
 10
-98.750000
 20
97.000000
 40
3.500000
  0
CIRCLE
  8
0
  6
CONTINUOUS
 62
4
 10
273.250000
 20
139.000000
 40
5.000000
  0
CIRCLE
  8
0
  6
CONTINUOUS
 62
4
 10
288.250000
 20
133.000000
 40
2.350000
  0
CIRCLE
  8
0
  6
CONTINUOUS
 62
4
 10
288.250000
 20
145.000000
 40
2.350000
  0
CIRCLE
  8
0
  6
CONTINUOUS
 62
4
 10
258.250000
 20
145.000000
 40
2.350000
  0
CIRCLE
  8
0
  6
CONTINUOUS
 62
4
 10
258.250000
 20
133.000000
 40
2.350000
  0
CIRCLE
  8
0
  6
CONTINUOUS
 62
4
 10
280.750000
 20
-26.000000
 40
5.000000
  0
CIRCLE
  8
0
  6
CONTINUOUS
 62
4
 10
269.750000
 20
64.000000
 40
5.000000
  0
CIRCLE
  8
0
  6
CONTINUOUS
 62
4
 10
253.250000
 20
-159.000000
 40
5.000000
  0
CIRCLE
  8
0
  6
CONTINUOUS
 62
4
 10
253.250000
 20
-159.000000
 40
10.500000
  0
CIRCLE
  8
0
  6
CONTINUOUS
 62
1
 10
253.250000
 20
-159.000000
 40
2.500000
  0
CIRCLE
  8
0
  6
CONTINUOUS
 62
4
 10
253.250000
 20
-159.000000
 40
2.067000
  0
ARC
  8
0
  6
CONTINUOUS
 62
4
 10
311.750000
 20
-128.500000
 40
1.500000
 50
90.000000
 51
270.000000
  0
ARC
  8
0
  6
CONTINUOUS
 62
4
 10
321.750000
 20
-128.500000
 40
1.500000
 50
270.000000
 51
90.000000
  0
ARC
  8
0
  6
CONTINUOUS
 62
4
 10
375.359009
 20
-110.518997
 40
1.500000
 50
90.000000
 51
270.000000
  0
ARC
  8
0
  6
CONTINUOUS
 62
4
 10
385.359009
 20
-110.518997
 40
1.500000
 50
270.000000
 51
90.000000
  0
TEXT
  8
0
 62
7
 10
249.264832
 20
-267.375000
 40
12.500000
  1
KOGANEI CORP.
 50
0.000000
 41
0.771525
 51
0.000000
  7
STANDARD
  0
TEXT
  8
0
 62
7
 10
292.414673
 20
261.500000
 40
9.000000
  1
Ver.1.0
 50
0.000000
 41
1.010331
 51
0.000000
  7
STANDARD
  0
TEXT
  8
0
 62
7
 10
-383.750580
 20
229.000000
 40
9.000000
  1
MODEL:AXAHS-SD20-25-ZE-R***
 50
0.000000
 41
0.755062
 51
0.000000
  7
STANDARD
  0
TEXT
  8
0
 62
7
 10
-364.635315
 20
261.500000
 40
9.000000
  1
AX CYLINDER
 50
0.000000
 41
0.783349
 51
0.000000
  7
STANDARD
  0
TEXT
  8
0
 62
7
 10
-182.649994
 20
178.000000
 40
3.200000
  1
25st
 50
90.000000
 41
0.857250
 51
0.000000
  7
STANDARD
  0
TEXT
  8
0
 62
7
 10
-157.649994
 20
178.000000
 40
3.200000
  1
50st
 50
90.000000
 41
0.907676
 51
0.000000
  7
STANDARD
  0
TEXT
  8
0
 62
7
 10
-132.649994
 20
178.000000
 40
3.200000
  1
75st
 50
90.000000
 41
0.857250
 51
0.000000
  7
STANDARD
  0
TEXT
  8
0
 62
7
 10
-120.150002
 20
169.000000
 40
3.200000
  1
25st
 50
90.000000
 41
0.857250
 51
0.000000
  7
STANDARD
  0
TEXT
  8
0
 62
7
 10
-70.150002
 20
169.000000
 40
3.200000
  1
50st
 50
90.000000
 41
0.907676
 51
0.000000
  7
STANDARD
  0
TEXT
  8
0
 62
7
 10
-20.150000
 20
169.000000
 40
3.200000
  1
75st
 50
90.000000
 41
0.857250
 51
0.000000
  7
STANDARD
  0
TEXT
  8
0
 62
7
 10
-107.650002
 20
-37.000000
 40
3.200000
  1
100st
 50
90.000000
 41
0.985838
 51
0.000000
  7
STANDARD
  0
TEXT
  8
0
 62
7
 10
29.850000
 20
-46.000000
 40
3.200000
  1
100st
 50
90.000000
 41
0.985838
 51
0.000000
  7
STANDARD
  0
TEXT
  8
0
 62
7
 10
-82.650002
 20
-37.000000
 40
3.200000
  1
125st
 50
90.000000
 41
0.896216
 51
0.000000
  7
STANDARD
  0
TEXT
  8
0
 62
7
 10
-57.650002
 20
-37.000000
 40
3.200000
  1
150st
 50
90.000000
 41
0.938893
 51
0.000000
  7
STANDARD
  0
TEXT
  8
0
 62
7
 10
-32.650002
 20
-37.000000
 40
3.200000
  1
175st
 50
90.000000
 41
0.896216
 51
0.000000
  7
STANDARD
  0
TEXT
  8
0
 62
7
 10
-7.650000
 20
-37.000000
 40
3.200000
  1
200st
 50
90.000000
 41
0.896216
 51
0.000000
  7
STANDARD
  0
TEXT
  8
0
 62
7
 10
79.849998
 20
-46.000000
 40
3.200000
  1
125st
 50
90.000000
 41
0.896216
 51
0.000000
  7
STANDARD
  0
TEXT
  8
0
 62
7
 10
129.850006
 20
-46.000000
 40
3.200000
  1
150st
 50
90.000000
 41
0.938893
 51
0.000000
  7
STANDARD
  0
TEXT
  8
0
 62
7
 10
179.850006
 20
-46.000000
 40
3.200000
  1
175st
 50
90.000000
 41
0.896216
 51
0.000000
  7
STANDARD
  0
TEXT
  8
0
 62
7
 10
229.850006
 20
-46.000000
 40
3.200000
  1
200st
 50
90.000000
 41
0.896216
 51
0.000000
  7
STANDARD
  0
TEXT
  8
0
 62
7
 10
254.078751
 20
112.000000
 40
4.000000
  1
ZT(FLANGE ROD END)
 50
0.000000
 41
0.754380
 51
0.000000
  7
STANDARD
  0
TEXT
  8
0
 62
7
 10
252.078751
 20
19.000000
 40
4.000000
  1
WS(INTERNAL THREAD)
 50
0.000000
 41
0.752116
 51
0.000000
  7
STANDARD
  0
TEXT
  8
0
 62
7
 10
252.078751
 20
-71.000000
 40
4.000000
  1
WT(EXTERNAL THREAD)
 50
0.000000
 41
0.738187
 51
0.000000
  7
STANDARD
  0
TEXT
  8
0
 62
7
 10
243.099594
 20
196.250000
 40
6.500000
  1
OPTION
 50
0.000000
 41
0.857250
 51
0.000000
  7
STANDARD
  0
TEXT
  8
0
 62
7
 10
345.749756
 20
-111.000000
 40
4.000000
  1
KEY
 50
0.000000
 41
0.928688
 51
0.000000
  7
STANDARD
  0
TEXT
  8
0
 62
7
 10
247.078568
 20
-190.000000
 40
4.000000
  1
FN(WITH BEARING NUT
 50
0.000000
 41
0.766483
 51
0.000000
  7
STANDARD
  0
TEXT
  8
0
 62
7
 10
247.078568
 20
-197.000000
 40
4.000000
  1
      FOR FLOATING UNIT)
 50
0.000000
 41
0.754797
 51
0.000000
  7
STANDARD
  0
TEXT
  8
0
 62
7
 10
239.649994
 20
-121.900002
 40
3.200000
  1
(KEYWAY
 50
0.000000
 41
0.766485
 51
0.000000
  7
STANDARD
  0
TEXT
  8
0
 62
7
 10
239.649994
 20
-125.099998
 40
3.200000
  1
  POSITION)
 50
0.000000
 41
0.766485
 51
0.000000
  7
STANDARD
  0
DIMENSION
  8
0
  2
*DIM0
 62
0
 10
252.098999
 20
-137.029999
 30
0.0
 11
245.250000
 21
-137.300003
 31
0.0
 13
254.401001
 23
-137.029999
 33
0.0
 14
253.904007
 24
-146.516998
 34
0.0
  15
252.595993
 25
-146.516998
 35
0.0
 16
254.322891
 26
-138.528091
 36
0.0
 70
2
  0
DIMENSION
  8
0
  2
*DIM1
 62
2
  10
275.250000
 20
-148.500000
 30
0.0
 11
275.250000
 21
-159.000000
 31
0.0
  13
300.250000
 23
-148.500000
 33
0.0
14
300.250000
 24
-169.500000
 34
0.0
 70
1
 50
90
  0
DIMENSION
  8
0
  2
*DIM2
 62
2
  10
331.250000
 20
-121.000000
 30
0.0
 11
331.250000
 21
-117.037003
 31
0.0
  13
321.750000
 23
-127.000000
 33
0.0
14
321.750000
 24
-130.000000
 34
0.0
 70
1
 50
90
  0
DIMENSION
  8
0
  2
*DIM3
 62
2
  10
359.376007
 20
-128.518997
 30
0.0
 11
349.826996
 21
-128.518997
 31
0.0
  13
359.376007
 23
-128.518997
 33
0.0
14
359.376007
 24
-120.518997
 34
0.0
 70
1
 50
0
  0
ENDSEC
  0
EOF
