  0
SECTION
  2
HEADER
  0
ENDSEC
  0
SECTION
  2
TABLES
  0
TABLE
  2
LTYPE
 70
     4
  0
LTYPE
  2
CONTINUOUS
 70
    64
  3
Solid line
 72
    65
 73
     0
 40
0.000000
  0
LTYPE
  2
DASHED
 70
    64
  3
__ __ __ __ __ __ __ __ __ __ __ __ __ __ __
 72
    65
 73
     2
 40
3.500000
 49
2.000000
 49
-1.500000
  0
LTYPE
  2
CENTER
 70
    64
  3
____ _ ____ _ ____ _ ____ _ ____ _ ____ _ ____
 72
    65
 73
     4
 40
17.500000
 49
13.000000
 49
-1.500000
 49
1.500000
 49
-1.500000
  0
LTYPE
  2
PHANTOM
 70
    64
  3
_____ _ _ _____ _ _ _____ _ _ _____ _ _ ____  
 72
    65
 73
     6
 40
15.500000
 49
8.000000
 49
-1.500000
 49
1.500000
 49
-1.500000
 49
1.500000
 49
-1.500000
  0
ENDTAB
  0
TABLE
  2
LAYER
 70
     1
  0
LAYER
  2
0
 70
     0
 62
     7
  6
CONTINUOUS
  0
ENDTAB
  0
TABLE
  2
STYLE
 70
     1
  0
STYLE
  2
STANDARD
 70
     0
 40
0.000000
 41
1.000000
 50
0.000000
 71
     0
 42
0.200000
  3
txt
  4
BIGFONT
  0
ENDTAB
  0
TABLE
  2
VIEW
 70
     0
  0
ENDTAB
  0
ENDSEC
  0
SECTION
  2
BLOCKS
  0
BLOCK
  8
0
 70
65
  2
*DIM0
 10
0.0
 20
0.0
 30
0.0
  0
ARC
  8
0
  6
BYBLOCK
 62
0
 10
172.431000
 20
-160.000000
 40
23.000000
 50
77.035515
 51
102.964485
  0
LINE
  8
0
  6
BYBLOCK
 62
0
 10
173.216003
 20
-145.020996
 11
173.712997
 21
-135.533997
  0
LINE
  8
0
  6
BYBLOCK
 62
0
 10
171.645996
 20
-145.020996
 11
171.147995
 21
-135.533997
  0
LINE
  8
0
  6
BYBLOCK
 62
0
 10
173.634720
 20
-137.031525
 11
176.284439
 21
-138.438293
  0
LINE
  8
0
  6
BYBLOCK
 62
0
 10
173.634720
 20
-137.031525
 11
176.632828
 21
-136.924957
  0
LINE
  8
0
  6
BYBLOCK
 62
0
 10
171.227280
 20
-137.031525
 11
168.229172
 21
-136.924957
  0
LINE
  8
0
  6
BYBLOCK
 62
0
 10
171.227280
 20
-137.031525
 11
168.577560
 21
-138.438293
  0
TEXT
  8
0
 62
2
 10
164.431000
 20
-135.800003
 40
3.200000
  1
ü}3üï
 50
0.000000
 41
1.500330
 51
0.000000
  7
STANDARD
  0
ENDBLK
  8
3
  0
BLOCK
  8
0
 70
65
  2
*DIM1
 10
0.0
 20
0.0
 30
0.0
  0
LINE
  8
0
  6
BYBLOCK
 62
2
 10
227.431000
 20
-147.000000
 11
197.931000
 21
-147.000000
  0
LINE
  8
0
  6
BYBLOCK
 62
2
 10
227.431000
 20
-173.000000
 11
197.931000
 21
-173.000000
  0
LINE
  8
0
  6
BYBLOCK
 62
2
 10
199.431000
 20
-147.000000
 11
199.431000
 21
-173.000000
  0
LINE
  8
0
  6
BYBLOCK
 62
2
 10
199.431000
 20
-147.000000
 11
198.654541
 21
-149.897781
  0
LINE
  8
0
  6
BYBLOCK
 62
2
 10
199.431000
 20
-147.000000
 11
200.207458
 21
-149.897781
  0
LINE
  8
0
  6
BYBLOCK
 62
2
 10
199.431000
 20
-173.000000
 11
200.207458
 21
-170.102219
  0
LINE
  8
0
  6
BYBLOCK
 62
2
 10
199.431000
 20
-173.000000
 11
198.654541
 21
-170.102219
  0
TEXT
  8
0
 62
2
 10
198.231003
 20
-171.199997
 40
3.200000
  1
âË26
 50
90.000000
 41
0.908729
 51
0.000000
  7
STANDARD
  0
TEXT
  8
0
 62
2
 10
196.631409
 20
-162.476120
 40
1.600000
  1
 0
 50
90.000000
 41
0.908729
 51
0.000000
  7
STANDARD
  0
TEXT
  8
0
 62
2
 10
198.231400
 20
-162.476196
 40
1.600000
  1
-0.013
 50
90.000000
 41
0.908729
 51
0.000000
  7
STANDARD
  0
ENDBLK
  8
0
  0
BLOCK
  8
0
 70
65
  2
*DIM2
 10
0.0
 20
0.0
 30
0.0
  0
LINE
  8
0
  6
BYBLOCK
 62
2
 10
251.431000
 20
-130.500000
 11
262.431000
 21
-130.500000
  0
LINE
  8
0
  6
BYBLOCK
 62
2
 10
251.431000
 20
-133.500000
 11
262.431000
 21
-133.500000
  0
LINE
  8
0
  6
BYBLOCK
 62
2
 10
260.931000
 20
-124.500000
 11
260.931000
 21
-139.500000
  0
LINE
  8
0
  6
BYBLOCK
 62
2
 10
260.931000
 20
-130.500000
 11
260.931000
 21
-115.056999
  0
LINE
  8
0
  6
BYBLOCK
 62
2
 10
260.931000
 20
-130.500000
 11
261.707458
 21
-127.602226
  0
LINE
  8
0
  6
BYBLOCK
 62
2
 10
260.931000
 20
-130.500000
 11
260.154541
 21
-127.602226
  0
LINE
  8
0
  6
BYBLOCK
 62
2
 10
260.931000
 20
-133.500000
 11
260.154541
 21
-136.397781
  0
LINE
  8
0
  6
BYBLOCK
 62
2
 10
260.931000
 20
-133.500000
 11
261.707458
 21
-136.397781
  0
TEXT
  8
0
 62
2
 10
259.730988
 20
-127.000000
 40
3.200000
  1
3
 50
90.000000
 41
0.873629
 51
0.000000
  7
STANDARD
  0
TEXT
  8
0
 62
2
 10
258.131104
 20
-124.204315
 40
1.600000
  1
+0.014
 50
90.000000
 41
0.873629
 51
0.000000
  7
STANDARD
  0
TEXT
  8
0
 62
2
 10
259.731110
 20
-124.204391
 40
1.600000
  1
 0
 50
90.000000
 41
0.873629
 51
0.000000
  7
STANDARD
  0
ENDBLK
  8
0
  0
BLOCK
  8
0
 70
65
  2
*DIM3
 10
0.0
 20
0.0
 30
0.0
  0
LINE
  8
0
  6
BYBLOCK
 62
2
 10
283.557007
 20
-122.018997
 11
286.557007
 21
-122.018997
  0
LINE
  8
0
  6
BYBLOCK
 62
2
 10
283.557007
 20
-114.018997
 11
283.557007
 21
-123.518997
  0
LINE
  8
0
  6
BYBLOCK
 62
2
 10
283.557007
 20
-122.018997
 11
286.557007
 21
-122.018997
  0
LINE
  8
0
  6
BYBLOCK
 62
2
 10
283.557007
 20
-122.018997
 11
268.299011
 21
-122.018997
  0
TEXT
  8
0
 62
2
 10
267.442017
 20
-120.819000
 40
3.200000
  1
3
 50
0.000000
 41
0.906835
 51
0.000000
  7
STANDARD
  0
TEXT
  8
0
 62
2
 10
270.343872
 20
-119.219002
 40
1.600000
  1
+0.016
 50
0.000000
 41
0.906835
 51
0.000000
  7
STANDARD
  0
TEXT
  8
0
 62
2
 10
270.343872
 20
-120.819000
 40
1.600000
  1
+0.006
 50
0.000000
 41
0.906835
 51
0.000000
  7
STANDARD
  0
ENDBLK
  8
0
  0
ENDSEC
  0
SECTION
  2
ENTITIES
  0
POINT
  8
0
  62
7
  10
-82.500000
  20
190.500000
  30
0.0
  0
POINT
  8
0
  62
7
  10
-57.500000
  20
190.500000
  30
0.0
  0
POINT
  8
0
  62
7
  10
-32.500000
  20
190.500000
  30
0.0
  0
POINT
  8
0
  62
7
  10
-7.500000
  20
-24.500000
  30
0.0
  0
POINT
  8
0
  62
7
  10
17.500000
  20
-24.500000
  30
0.0
  0
POINT
  8
0
  62
7
  10
42.500000
  20
-24.500000
  30
0.0
  0
POINT
  8
0
  62
7
  10
67.500000
  20
-24.500000
  30
0.0
  0
POINT
  8
0
  62
7
  10
92.500000
  20
-24.500000
  30
0.0
  0
LINE
  8
0
  6
CONTINUOUS
 62
7
 10
399.799988
 20
276.250000
 11
399.799988
 21
-276.750000
  0
LINE
  8
0
  6
CONTINUOUS
 62
7
 10
-399.250000
 20
276.250000
 11
-399.250000
 21
-276.750000
  0
LINE
  8
0
  6
CONTINUOUS
 62
7
 10
-399.250000
 20
276.250000
 11
399.799988
 21
276.250000
  0
LINE
  8
0
  6
CONTINUOUS
 62
7
 10
-399.250000
 20
-276.750000
 11
399.799988
 21
-276.750000
  0
LINE
  8
0
  6
CONTINUOUS
 62
7
 10
239.800003
 20
-251.750000
 11
399.799988
 21
-251.750000
  0
LINE
  8
0
  6
CONTINUOUS
 62
7
 10
239.800003
 20
251.250000
 11
399.799988
 21
251.250000
  0
LINE
  8
0
  6
CONTINUOUS
 62
7
 10
-399.250000
 20
251.250000
 11
-239.250000
 21
251.250000
  0
LINE
  8
0
  6
CONTINUOUS
 62
7
 10
239.800003
 20
-251.750000
 11
239.800003
 21
-276.750000
  0
LINE
  8
0
  6
CONTINUOUS
 62
7
 10
239.800003
 20
251.250000
 11
239.800003
 21
276.250000
  0
LINE
  8
0
  6
CONTINUOUS
 62
7
 10
-239.250000
 20
276.250000
 11
-239.250000
 21
251.250000
  0
LINE
  8
0
  6
CONTINUOUS
 62
7
 10
-214.500000
 20
-191.500000
 11
-214.500000
 21
-160.500000
  0
LINE
  8
0
  6
CONTINUOUS
 62
7
 10
-214.500000
 20
-191.500000
 11
-7.500000
 21
-191.500000
  0
LINE
  8
0
  6
CONTINUOUS
 62
7
 10
-214.500000
 20
-160.500000
 11
-7.500000
 21
-160.500000
  0
LINE
  8
0
  6
CONTINUOUS
 62
7
 10
-214.500000
 20
-130.500000
 11
-7.500000
 21
-130.500000
  0
LINE
  8
0
  6
CONTINUOUS
 62
7
 10
-214.500000
 20
-85.500000
 11
-7.500000
 21
-85.500000
  0
LINE
  8
0
  6
CONTINUOUS
 62
7
 10
-214.500000
 20
-130.500000
 11
-214.500000
 21
-85.500000
  0
LINE
  8
0
  6
CONTINUOUS
 62
2
 10
-214.500000
 20
-92.699997
 11
-206.425995
 21
-92.699997
  0
LINE
  8
0
  6
CONTINUOUS
 62
2
 10
-198.574005
 20
-92.699997
 11
-179.425995
 21
-92.699997
  0
LINE
  8
0
  6
CONTINUOUS
 62
2
 10
-214.500000
 20
-123.300003
 11
-206.425995
 21
-123.300003
  0
LINE
  8
0
  6
CONTINUOUS
 62
2
 10
-214.500000
 20
-120.699997
 11
-7.500000
 21
-120.699997
  0
LINE
  8
0
  6
CONTINUOUS
 62
2
 10
-198.574005
 20
-123.300003
 11
-179.425995
 21
-123.300003
  0
LINE
  8
0
  6
CONTINUOUS
 62
2
 10
-171.574005
 20
-123.300003
 11
-91.425598
 21
-123.300003
  0
LINE
  8
0
  6
CONTINUOUS
 62
2
 10
-171.574005
 20
-92.699997
 11
-91.425598
 21
-92.699997
  0
LINE
  8
0
  6
CENTER
 62
2
 10
-256.500000
 20
-176.000000
 11
-5.500000
 21
-176.000000
  0
LINE
  8
0
  6
CENTER
 62
2
 10
-256.500000
 20
-108.000000
 11
-5.500000
 21
-108.000000
  0
LINE
  8
0
  6
CONTINUOUS
 62
7
 10
-7.500000
 20
-191.500000
 11
-7.500000
 21
-160.500000
  0
LINE
  8
0
  6
CONTINUOUS
 62
7
 10
-7.500000
 20
-55.500000
 11
-7.500000
 21
-24.500000
  0
LINE
  8
0
  6
CONTINUOUS
 62
7
 10
-254.500000
 20
-182.500000
 11
-214.500000
 21
-182.500000
  0
LINE
  8
0
  6
CONTINUOUS
 62
7
 10
-254.500000
 20
-182.500000
 11
-254.500000
 21
-169.500000
  0
LINE
  8
0
  6
CONTINUOUS
 62
7
 10
-254.500000
 20
-169.500000
 11
-214.500000
 21
-169.500000
  0
LINE
  8
0
  6
CONTINUOUS
 62
7
 10
-35.000000
 20
-29.500000
 11
-35.000000
 21
-50.500000
  0
LINE
  8
0
  6
CONTINUOUS
 62
7
 10
-48.000000
 20
-29.500000
 11
-48.000000
 21
-50.500000
  0
LINE
  8
0
  6
CONTINUOUS
 62
7
 10
-48.000000
 20
-29.500000
 11
-35.000000
 21
-29.500000
  0
LINE
  8
0
  6
CONTINUOUS
 62
7
 10
-48.000000
 20
-50.500000
 11
-35.000000
 21
-50.500000
  0
LINE
  8
0
  6
CONTINUOUS
 62
7
 10
-254.500000
 20
-101.500000
 11
-214.500000
 21
-101.500000
  0
LINE
  8
0
  6
CONTINUOUS
 62
7
 10
-254.500000
 20
-101.500000
 11
-254.500000
 21
-114.500000
  0
LINE
  8
0
  6
CONTINUOUS
 62
7
 10
-254.500000
 20
-114.500000
 11
-214.500000
 21
-114.500000
  0
LINE
  8
0
  6
CONTINUOUS
 62
7
 10
-48.000000
 20
-79.500000
 11
-35.000000
 21
-79.500000
  0
LINE
  8
0
  6
CONTINUOUS
 62
7
 10
-48.000000
 20
-79.500000
 11
-48.000000
 21
-85.500000
  0
LINE
  8
0
  6
CONTINUOUS
 62
7
 10
-35.000000
 20
-79.500000
 11
-35.000000
 21
-85.500000
  0
LINE
  8
0
  6
CONTINUOUS
 62
7
 10
-7.500000
 20
-130.500000
 11
-7.500000
 21
-85.500000
  0
LINE
  8
0
  6
CONTINUOUS
 62
2
 10
52.500000
 20
-92.699997
 11
53.500000
 21
-92.699997
  0
LINE
  8
0
  6
CONTINUOUS
 62
2
 10
48.700001
 20
-91.849998
 11
52.500099
 21
-91.849998
  0
LINE
  8
0
  6
CONTINUOUS
 62
2
 10
52.500000
 20
-91.849998
 11
52.500000
 21
-92.699997
  0
LINE
  8
0
  6
CONTINUOUS
 62
2
 10
47.200001
 20
-93.349998
 11
47.200001
 21
-94.650002
  0
LINE
  8
0
  6
CONTINUOUS
 62
2
 10
48.700001
 20
-96.150002
 11
52.500099
 21
-96.150002
  0
LINE
  8
0
  6
CONTINUOUS
 62
2
 10
52.500000
 20
-95.300003
 11
52.500000
 21
-96.150002
  0
LINE
  8
0
  6
CONTINUOUS
 62
2
 10
52.500099
 20
-95.300003
 11
53.500000
 21
-95.300003
  0
LINE
  8
0
  6
CONTINUOUS
 62
7
 10
53.500000
 20
-130.500000
 11
53.500000
 21
-85.500000
  0
LINE
  8
0
  6
CONTINUOUS
 62
7
 10
22.500000
 20
-130.500000
 11
53.500000
 21
-130.500000
  0
LINE
  8
0
  6
CONTINUOUS
 62
7
 10
22.500000
 20
-130.500000
 11
22.500000
 21
-85.500000
  0
LINE
  8
0
  6
CONTINUOUS
 62
7
 10
22.500000
 20
-85.500000
 11
53.500000
 21
-85.500000
  0
LINE
  8
0
  6
CONTINUOUS
 62
7
 10
27.500000
 20
-79.500000
 11
48.500000
 21
-79.500000
  0
LINE
  8
0
  6
CONTINUOUS
 62
7
 10
48.500000
 20
-85.500000
 11
48.500000
 21
-79.500000
  0
LINE
  8
0
  6
CONTINUOUS
 62
7
 10
27.500000
 20
-85.500000
 11
27.500000
 21
-79.500000
  0
LINE
  8
0
  6
CENTER
 62
2
 10
20.500000
 20
-108.000000
 11
55.500000
 21
-108.000000
  0
LINE
  8
0
  6
CENTER
 62
2
 10
38.000099
 20
-132.500000
 11
38.000099
 21
-77.500000
  0
LINE
  8
0
  6
CONTINUOUS
 62
2
 10
-214.500000
 20
-95.300003
 11
-7.500000
 21
-95.300003
  0
LINE
  8
0
  6
CENTER
 62
2
 10
44.776299
 20
-122.000000
 11
55.500000
 21
-122.000000
  0
LINE
  8
0
  6
CENTER
 62
2
 10
44.776299
 20
-94.000000
 11
55.500000
 21
-94.000000
  0
LINE
  8
0
  6
CENTER
 62
2
 10
31.223801
 20
-122.000000
 11
20.500000
 21
-122.000000
  0
LINE
  8
0
  6
CENTER
 62
2
 10
31.223801
 20
-94.000000
 11
20.500000
 21
-94.000000
  0
LINE
  8
0
  6
CENTER
 62
2
 10
-41.500000
 20
-77.500000
 11
-41.500000
 21
-87.500000
  0
LINE
  8
0
  6
DASHED
 62
2
 10
-92.000000
 20
-160.500000
 11
-92.000000
 21
-167.000000
  0
LINE
  8
0
  6
DASHED
 62
2
 10
-90.500000
 20
-167.000000
 11
-90.500000
 21
-185.000000
  0
LINE
  8
0
  6
DASHED
 62
2
 10
-90.199997
 20
-167.000000
 11
-90.199997
 21
-185.000000
  0
LINE
  8
0
  6
CENTER
 62
2
 10
-87.500000
 20
-158.500000
 11
-87.500000
 21
-193.500000
  0
LINE
  8
0
  6
DASHED
 62
2
 10
-92.000000
 20
-167.000000
 11
-83.000000
 21
-167.000000
  0
LINE
  8
0
  6
DASHED
 62
2
 10
-83.000000
 20
-160.500000
 11
-83.000000
 21
-167.000000
  0
LINE
  8
0
  6
DASHED
 62
2
 10
-92.000000
 20
-191.500000
 11
-92.000000
 21
-185.000000
  0
LINE
  8
0
  6
DASHED
 62
2
 10
-92.000000
 20
-185.000000
 11
-83.000000
 21
-185.000000
  0
LINE
  8
0
  6
DASHED
 62
2
 10
-83.000000
 20
-191.500000
 11
-83.000000
 21
-185.000000
  0
LINE
  8
0
  6
DASHED
 62
2
 10
-84.800003
 20
-167.000000
 11
-84.800003
 21
-185.000000
  0
LINE
  8
0
  6
DASHED
 62
2
 10
-84.500000
 20
-167.000000
 11
-84.500000
 21
-185.000000
  0
LINE
  8
0
  6
DASHED
 62
2
 10
-207.000000
 20
-191.500000
 11
-207.000000
 21
-185.000000
  0
LINE
  8
0
  6
DASHED
 62
2
 10
-207.000000
 20
-185.000000
 11
-198.000000
 21
-185.000000
  0
LINE
  8
0
  6
DASHED
 62
2
 10
-198.000000
 20
-191.500000
 11
-198.000000
 21
-185.000000
  0
LINE
  8
0
  6
DASHED
 62
2
 10
-199.500000
 20
-167.000000
 11
-199.500000
 21
-185.000000
  0
LINE
  8
0
  6
DASHED
 62
2
 10
-199.800003
 20
-167.000000
 11
-199.800003
 21
-185.000000
  0
LINE
  8
0
  6
DASHED
 62
2
 10
-205.199997
 20
-167.000000
 11
-205.199997
 21
-185.000000
  0
LINE
  8
0
  6
DASHED
 62
2
 10
-205.500000
 20
-167.000000
 11
-205.500000
 21
-185.000000
  0
LINE
  8
0
  6
CENTER
 62
2
 10
-202.500000
 20
-158.500000
 11
-202.500000
 21
-193.500000
  0
LINE
  8
0
  6
DASHED
 62
2
 10
-198.000000
 20
-160.500000
 11
-198.000000
 21
-167.000000
  0
LINE
  8
0
  6
DASHED
 62
2
 10
-207.000000
 20
-167.000000
 11
-198.000000
 21
-167.000000
  0
LINE
  8
0
  6
DASHED
 62
2
 10
-207.000000
 20
-160.500000
 11
-207.000000
 21
-167.000000
  0
LINE
  8
0
  6
CONTINUOUS
 62
2
 10
-285.500000
 20
-92.699997
 11
-284.500000
 21
-92.699997
  0
LINE
  8
0
  6
CONTINUOUS
 62
2
 10
-289.299988
 20
-91.849998
 11
-285.500000
 21
-91.849998
  0
LINE
  8
0
  6
CONTINUOUS
 62
2
 10
-285.500000
 20
-91.849998
 11
-285.500000
 21
-92.699997
  0
LINE
  8
0
  6
CONTINUOUS
 62
2
 10
-290.799988
 20
-93.349998
 11
-290.799988
 21
-94.650002
  0
LINE
  8
0
  6
CONTINUOUS
 62
2
 10
-289.299988
 20
-96.150002
 11
-285.500000
 21
-96.150002
  0
LINE
  8
0
  6
CONTINUOUS
 62
2
 10
-285.500000
 20
-95.300003
 11
-285.500000
 21
-96.150002
  0
LINE
  8
0
  6
CONTINUOUS
 62
2
 10
-285.500000
 20
-95.300003
 11
-284.500000
 21
-95.300003
  0
LINE
  8
0
  6
CONTINUOUS
 62
7
 10
-284.500000
 20
-130.500000
 11
-284.500000
 21
-85.500000
  0
LINE
  8
0
  6
CONTINUOUS
 62
7
 10
-315.500000
 20
-130.500000
 11
-284.500000
 21
-130.500000
  0
LINE
  8
0
  6
CONTINUOUS
 62
7
 10
-315.500000
 20
-130.500000
 11
-315.500000
 21
-85.500000
  0
LINE
  8
0
  6
CONTINUOUS
 62
7
 10
-315.500000
 20
-85.500000
 11
-284.500000
 21
-85.500000
  0
LINE
  8
0
  6
CONTINUOUS
 62
7
 10
-310.500000
 20
-79.500000
 11
-289.500000
 21
-79.500000
  0
LINE
  8
0
  6
CONTINUOUS
 62
7
 10
-289.500000
 20
-85.500000
 11
-289.500000
 21
-79.500000
  0
LINE
  8
0
  6
CONTINUOUS
 62
7
 10
-310.500000
 20
-85.500000
 11
-310.500000
 21
-79.500000
  0
LINE
  8
0
  6
CENTER
 62
2
 10
-317.500000
 20
-108.000000
 11
-282.500000
 21
-108.000000
  0
LINE
  8
0
  6
CENTER
 62
2
 10
-300.000000
 20
-132.500000
 11
-300.000000
 21
-77.500000
  0
LINE
  8
0
  6
CENTER
 62
2
 10
-293.223999
 20
-122.000000
 11
-282.500000
 21
-122.000000
  0
LINE
  8
0
  6
CENTER
 62
2
 10
-293.223999
 20
-94.000000
 11
-282.500000
 21
-94.000000
  0
LINE
  8
0
  6
CENTER
 62
2
 10
-306.776001
 20
-122.000000
 11
-317.500000
 21
-122.000000
  0
LINE
  8
0
  6
CENTER
 62
2
 10
-306.776001
 20
-94.000000
 11
-317.500000
 21
-94.000000
  0
LINE
  8
0
  6
CONTINUOUS
 62
7
 10
-214.500000
 20
-24.500000
 11
-214.500000
 21
-55.500000
  0
LINE
  8
0
  6
CONTINUOUS
 62
7
 10
-214.500000
 20
-24.500000
 11
-7.500000
 21
-24.500000
  0
LINE
  8
0
  6
CONTINUOUS
 62
7
 10
-214.500000
 20
-55.500000
 11
-7.500000
 21
-55.500000
  0
LINE
  8
0
  6
CENTER
 62
2
 10
-256.500000
 20
-40.000000
 11
-5.500000
 21
-40.000000
  0
LINE
  8
0
  6
CONTINUOUS
 62
7
 10
-254.500000
 20
-46.500000
 11
-214.500000
 21
-46.500000
  0
LINE
  8
0
  6
CONTINUOUS
 62
7
 10
-254.500000
 20
-46.500000
 11
-254.500000
 21
-33.500000
  0
LINE
  8
0
  6
CONTINUOUS
 62
7
 10
-254.500000
 20
-33.500000
 11
-214.500000
 21
-33.500000
  0
LINE
  8
0
  6
DASHED
 62
2
 10
-172.500000
 20
-167.000000
 11
-172.500000
 21
-185.000000
  0
LINE
  8
0
  6
DASHED
 62
2
 10
-172.800003
 20
-167.000000
 11
-172.800003
 21
-185.000000
  0
LINE
  8
0
  6
DASHED
 62
2
 10
-178.199997
 20
-167.000000
 11
-178.199997
 21
-185.000000
  0
LINE
  8
0
  6
DASHED
 62
2
 10
-178.500000
 20
-167.000000
 11
-178.500000
 21
-185.000000
  0
LINE
  8
0
  6
CENTER
 62
2
 10
-175.500000
 20
-158.500000
 11
-175.500000
 21
-193.500000
  0
LINE
  8
0
  6
DASHED
 62
2
 10
-180.000000
 20
-167.000000
 11
-171.000000
 21
-167.000000
  0
LINE
  8
0
  6
DASHED
 62
2
 10
-171.000000
 20
-160.500000
 11
-171.000000
 21
-167.000000
  0
LINE
  8
0
  6
DASHED
 62
2
 10
-180.000000
 20
-160.500000
 11
-180.000000
 21
-167.000000
  0
LINE
  8
0
  6
DASHED
 62
2
 10
-180.000000
 20
-185.000000
 11
-171.000000
 21
-185.000000
  0
LINE
  8
0
  6
DASHED
 62
2
 10
-180.000000
 20
-191.500000
 11
-180.000000
 21
-185.000000
  0
LINE
  8
0
  6
DASHED
 62
2
 10
-171.000000
 20
-191.500000
 11
-171.000000
 21
-185.000000
  0
LINE
  8
0
  6
CONTINUOUS
 62
2
 10
-83.574501
 20
-123.300003
 11
-7.500000
 21
-123.300003
  0
LINE
  8
0
  6
CONTINUOUS
 62
2
 10
-83.574501
 20
-92.699997
 11
-7.500000
 21
-92.699997
  0
LINE
  8
0
  6
CONTINUOUS
 62
7
 10
-214.500000
 20
23.500000
 11
-214.500000
 21
54.500000
  0
LINE
  8
0
  6
CONTINUOUS
 62
7
 10
-214.500000
 20
23.500000
 11
-82.500000
 21
23.500000
  0
LINE
  8
0
  6
CONTINUOUS
 62
7
 10
-214.500000
 20
54.500000
 11
-82.500000
 21
54.500000
  0
LINE
  8
0
  6
CONTINUOUS
 62
7
 10
-214.500000
 20
84.500000
 11
-82.500000
 21
84.500000
  0
LINE
  8
0
  6
CONTINUOUS
 62
7
 10
-214.500000
 20
129.500000
 11
-82.500000
 21
129.500000
  0
LINE
  8
0
  6
CONTINUOUS
 62
7
 10
-214.500000
 20
84.500000
 11
-214.500000
 21
129.500000
  0
LINE
  8
0
  6
CONTINUOUS
 62
2
 10
-214.500000
 20
122.300003
 11
-206.425995
 21
122.300003
  0
LINE
  8
0
  6
CONTINUOUS
 62
2
 10
-198.574005
 20
122.300003
 11
-179.425995
 21
122.300003
  0
LINE
  8
0
  6
CONTINUOUS
 62
2
 10
-214.500000
 20
91.699997
 11
-206.425995
 21
91.699997
  0
LINE
  8
0
  6
CONTINUOUS
 62
2
 10
-214.500000
 20
94.300003
 11
-82.500000
 21
94.300003
  0
LINE
  8
0
  6
CONTINUOUS
 62
2
 10
-198.574005
 20
91.699997
 11
-179.425995
 21
91.699997
  0
LINE
  8
0
  6
CONTINUOUS
 62
2
 10
-171.574005
 20
91.699997
 11
-82.500000
 21
91.699997
  0
LINE
  8
0
  6
CONTINUOUS
 62
2
 10
-171.574005
 20
122.300003
 11
-82.500000
 21
122.300003
  0
LINE
  8
0
  6
CENTER
 62
2
 10
-256.500000
 20
39.000000
 11
-80.500000
 21
39.000000
  0
LINE
  8
0
  6
CENTER
 62
2
 10
-256.500000
 20
107.000000
 11
-80.500000
 21
107.000000
  0
LINE
  8
0
  6
CONTINUOUS
 62
7
 10
-82.500000
 20
159.500000
 11
-82.500000
 21
190.500000
  0
LINE
  8
0
  6
CONTINUOUS
 62
7
 10
-254.500000
 20
32.500000
 11
-214.500000
 21
32.500000
  0
LINE
  8
0
  6
CONTINUOUS
 62
7
 10
-254.500000
 20
32.500000
 11
-254.500000
 21
45.500000
  0
LINE
  8
0
  6
CONTINUOUS
 62
7
 10
-254.500000
 20
45.500000
 11
-214.500000
 21
45.500000
  0
LINE
  8
0
  6
CONTINUOUS
 62
7
 10
-110.000000
 20
185.500000
 11
-110.000000
 21
164.500000
  0
LINE
  8
0
  6
CONTINUOUS
 62
7
 10
-123.000000
 20
185.500000
 11
-123.000000
 21
164.500000
  0
LINE
  8
0
  6
CONTINUOUS
 62
7
 10
-123.000000
 20
185.500000
 11
-110.000000
 21
185.500000
  0
LINE
  8
0
  6
CONTINUOUS
 62
7
 10
-123.000000
 20
164.500000
 11
-110.000000
 21
164.500000
  0
LINE
  8
0
  6
CONTINUOUS
 62
7
 10
-254.500000
 20
113.500000
 11
-214.500000
 21
113.500000
  0
LINE
  8
0
  6
CONTINUOUS
 62
7
 10
-254.500000
 20
113.500000
 11
-254.500000
 21
100.500000
  0
LINE
  8
0
  6
CONTINUOUS
 62
7
 10
-254.500000
 20
100.500000
 11
-214.500000
 21
100.500000
  0
LINE
  8
0
  6
CONTINUOUS
 62
7
 10
-123.000000
 20
135.500000
 11
-110.000000
 21
135.500000
  0
LINE
  8
0
  6
CONTINUOUS
 62
7
 10
-123.000000
 20
135.500000
 11
-123.000000
 21
129.500000
  0
LINE
  8
0
  6
CONTINUOUS
 62
7
 10
-110.000000
 20
135.500000
 11
-110.000000
 21
129.500000
  0
LINE
  8
0
  6
CONTINUOUS
 62
7
 10
-82.500000
 20
84.500000
 11
-82.500000
 21
129.500000
  0
LINE
  8
0
  6
CONTINUOUS
 62
2
 10
-22.500000
 20
122.300003
 11
-21.500000
 21
122.300003
  0
LINE
  8
0
  6
CONTINUOUS
 62
2
 10
-26.299999
 20
123.150002
 11
-22.499901
 21
123.150002
  0
LINE
  8
0
  6
CONTINUOUS
 62
2
 10
-22.500000
 20
123.150002
 11
-22.500000
 21
122.300003
  0
LINE
  8
0
  6
CONTINUOUS
 62
2
 10
-27.799999
 20
121.650002
 11
-27.799999
 21
120.349998
  0
LINE
  8
0
  6
CONTINUOUS
 62
2
 10
-26.299999
 20
118.849998
 11
-22.499901
 21
118.849998
  0
LINE
  8
0
  6
CONTINUOUS
 62
2
 10
-22.500000
 20
119.699997
 11
-22.500000
 21
118.849998
  0
LINE
  8
0
  6
CONTINUOUS
 62
2
 10
-22.499901
 20
119.699997
 11
-21.500000
 21
119.699997
  0
LINE
  8
0
  6
CONTINUOUS
 62
7
 10
-21.500000
 20
84.500000
 11
-21.500000
 21
129.500000
  0
LINE
  8
0
  6
CONTINUOUS
 62
7
 10
-52.500000
 20
84.500000
 11
-21.500000
 21
84.500000
  0
LINE
  8
0
  6
CONTINUOUS
 62
7
 10
-52.500000
 20
84.500000
 11
-52.500000
 21
129.500000
  0
LINE
  8
0
  6
CONTINUOUS
 62
7
 10
-52.500000
 20
129.500000
 11
-21.500000
 21
129.500000
  0
LINE
  8
0
  6
CONTINUOUS
 62
7
 10
-47.500000
 20
135.500000
 11
-26.500000
 21
135.500000
  0
LINE
  8
0
  6
CONTINUOUS
 62
7
 10
-26.500000
 20
129.500000
 11
-26.500000
 21
135.500000
  0
LINE
  8
0
  6
CONTINUOUS
 62
7
 10
-47.500000
 20
129.500000
 11
-47.500000
 21
135.500000
  0
LINE
  8
0
  6
CENTER
 62
2
 10
-54.500000
 20
107.000000
 11
-19.500000
 21
107.000000
  0
LINE
  8
0
  6
CENTER
 62
2
 10
-36.999901
 20
82.500000
 11
-36.999901
 21
137.500000
  0
LINE
  8
0
  6
CONTINUOUS
 62
2
 10
-214.500000
 20
119.699997
 11
-82.500000
 21
119.699997
  0
LINE
  8
0
  6
CENTER
 62
2
 10
-30.223700
 20
93.000000
 11
-19.500000
 21
93.000000
  0
LINE
  8
0
  6
CENTER
 62
2
 10
-30.223700
 20
121.000000
 11
-19.500000
 21
121.000000
  0
LINE
  8
0
  6
CENTER
 62
2
 10
-43.776199
 20
93.000000
 11
-54.500000
 21
93.000000
  0
LINE
  8
0
  6
CENTER
 62
2
 10
-43.776199
 20
121.000000
 11
-54.500000
 21
121.000000
  0
LINE
  8
0
  6
CENTER
 62
2
 10
-116.500000
 20
137.500000
 11
-116.500000
 21
127.500000
  0
LINE
  8
0
  6
DASHED
 62
2
 10
-180.000000
 20
54.500000
 11
-180.000000
 21
48.000000
  0
LINE
  8
0
  6
DASHED
 62
2
 10
-178.500000
 20
48.000000
 11
-178.500000
 21
30.000000
  0
LINE
  8
0
  6
DASHED
 62
2
 10
-178.199997
 20
48.000000
 11
-178.199997
 21
30.000000
  0
LINE
  8
0
  6
CENTER
 62
2
 10
-175.500000
 20
56.500000
 11
-175.500000
 21
21.500000
  0
LINE
  8
0
  6
DASHED
 62
2
 10
-180.000000
 20
48.000000
 11
-171.000000
 21
48.000000
  0
LINE
  8
0
  6
DASHED
 62
2
 10
-171.000000
 20
54.500000
 11
-171.000000
 21
48.000000
  0
LINE
  8
0
  6
DASHED
 62
2
 10
-180.000000
 20
23.500000
 11
-180.000000
 21
30.000000
  0
LINE
  8
0
  6
DASHED
 62
2
 10
-180.000000
 20
30.000000
 11
-171.000000
 21
30.000000
  0
LINE
  8
0
  6
DASHED
 62
2
 10
-171.000000
 20
23.500000
 11
-171.000000
 21
30.000000
  0
LINE
  8
0
  6
DASHED
 62
2
 10
-172.800003
 20
48.000000
 11
-172.800003
 21
30.000000
  0
LINE
  8
0
  6
DASHED
 62
2
 10
-172.500000
 20
48.000000
 11
-172.500000
 21
30.000000
  0
LINE
  8
0
  6
DASHED
 62
2
 10
-207.000000
 20
23.500000
 11
-207.000000
 21
30.000000
  0
LINE
  8
0
  6
DASHED
 62
2
 10
-207.000000
 20
30.000000
 11
-198.000000
 21
30.000000
  0
LINE
  8
0
  6
DASHED
 62
2
 10
-198.000000
 20
23.500000
 11
-198.000000
 21
30.000000
  0
LINE
  8
0
  6
DASHED
 62
2
 10
-199.500000
 20
48.000000
 11
-199.500000
 21
30.000000
  0
LINE
  8
0
  6
DASHED
 62
2
 10
-199.800003
 20
48.000000
 11
-199.800003
 21
30.000000
  0
LINE
  8
0
  6
DASHED
 62
2
 10
-205.199997
 20
48.000000
 11
-205.199997
 21
30.000000
  0
LINE
  8
0
  6
DASHED
 62
2
 10
-205.500000
 20
48.000000
 11
-205.500000
 21
30.000000
  0
LINE
  8
0
  6
CENTER
 62
2
 10
-202.500000
 20
56.500000
 11
-202.500000
 21
21.500000
  0
LINE
  8
0
  6
DASHED
 62
2
 10
-198.000000
 20
54.500000
 11
-198.000000
 21
48.000000
  0
LINE
  8
0
  6
DASHED
 62
2
 10
-207.000000
 20
48.000000
 11
-198.000000
 21
48.000000
  0
LINE
  8
0
  6
DASHED
 62
2
 10
-207.000000
 20
54.500000
 11
-207.000000
 21
48.000000
  0
LINE
  8
0
  6
CONTINUOUS
 62
2
 10
-285.500000
 20
122.300003
 11
-284.500000
 21
122.300003
  0
LINE
  8
0
  6
CONTINUOUS
 62
2
 10
-289.299988
 20
123.150002
 11
-285.500000
 21
123.150002
  0
LINE
  8
0
  6
CONTINUOUS
 62
2
 10
-285.500000
 20
123.150002
 11
-285.500000
 21
122.300003
  0
LINE
  8
0
  6
CONTINUOUS
 62
2
 10
-290.799988
 20
121.650002
 11
-290.799988
 21
120.349998
  0
LINE
  8
0
  6
CONTINUOUS
 62
2
 10
-289.299988
 20
118.849998
 11
-285.500000
 21
118.849998
  0
LINE
  8
0
  6
CONTINUOUS
 62
2
 10
-285.500000
 20
119.699997
 11
-285.500000
 21
118.849998
  0
LINE
  8
0
  6
CONTINUOUS
 62
2
 10
-285.500000
 20
119.699997
 11
-284.500000
 21
119.699997
  0
LINE
  8
0
  6
CONTINUOUS
 62
7
 10
-284.500000
 20
84.500000
 11
-284.500000
 21
129.500000
  0
LINE
  8
0
  6
CONTINUOUS
 62
7
 10
-315.500000
 20
84.500000
 11
-284.500000
 21
84.500000
  0
LINE
  8
0
  6
CONTINUOUS
 62
7
 10
-315.500000
 20
84.500000
 11
-315.500000
 21
129.500000
  0
LINE
  8
0
  6
CONTINUOUS
 62
7
 10
-315.500000
 20
129.500000
 11
-284.500000
 21
129.500000
  0
LINE
  8
0
  6
CONTINUOUS
 62
7
 10
-310.500000
 20
135.500000
 11
-289.500000
 21
135.500000
  0
LINE
  8
0
  6
CONTINUOUS
 62
7
 10
-289.500000
 20
129.500000
 11
-289.500000
 21
135.500000
  0
LINE
  8
0
  6
CONTINUOUS
 62
7
 10
-310.500000
 20
129.500000
 11
-310.500000
 21
135.500000
  0
LINE
  8
0
  6
CENTER
 62
2
 10
-317.500000
 20
107.000000
 11
-282.500000
 21
107.000000
  0
LINE
  8
0
  6
CENTER
 62
2
 10
-300.000000
 20
82.500000
 11
-300.000000
 21
137.500000
  0
LINE
  8
0
  6
CENTER
 62
2
 10
-293.223999
 20
93.000000
 11
-282.500000
 21
93.000000
  0
LINE
  8
0
  6
CENTER
 62
2
 10
-293.223999
 20
121.000000
 11
-282.500000
 21
121.000000
  0
LINE
  8
0
  6
CENTER
 62
2
 10
-306.776001
 20
93.000000
 11
-317.500000
 21
93.000000
  0
LINE
  8
0
  6
CENTER
 62
2
 10
-306.776001
 20
121.000000
 11
-317.500000
 21
121.000000
  0
LINE
  8
0
  6
CONTINUOUS
 62
7
 10
-214.500000
 20
190.500000
 11
-214.500000
 21
159.500000
  0
LINE
  8
0
  6
CONTINUOUS
 62
7
 10
-214.500000
 20
190.500000
 11
-82.500000
 21
190.500000
  0
LINE
  8
0
  6
CONTINUOUS
 62
7
 10
-214.500000
 20
159.500000
 11
-82.500000
 21
159.500000
  0
LINE
  8
0
  6
CENTER
 62
2
 10
-256.500000
 20
175.000000
 11
-80.500000
 21
175.000000
  0
LINE
  8
0
  6
CONTINUOUS
 62
7
 10
-254.500000
 20
168.500000
 11
-214.500000
 21
168.500000
  0
LINE
  8
0
  6
CONTINUOUS
 62
7
 10
-254.500000
 20
168.500000
 11
-254.500000
 21
181.500000
  0
LINE
  8
0
  6
CONTINUOUS
 62
7
 10
-254.500000
 20
181.500000
 11
-214.500000
 21
181.500000
  0
LINE
  8
0
  6
CONTINUOUS
 62
7
 10
-82.500000
 20
23.500000
 11
-82.500000
 21
54.500000
  0
LINE
  8
0
  6
CENTER
 62
2
 10
-304.500000
 20
124.500000
 11
-295.500000
 21
124.500000
  0
LINE
  8
0
  6
CENTER
 62
2
 10
-304.500000
 20
89.500000
 11
-295.500000
 21
89.500000
  0
LINE
  8
0
  6
CENTER
 62
2
 10
-166.500000
 20
182.500000
 11
-166.500000
 21
173.500000
  0
LINE
  8
0
  6
CENTER
 62
2
 10
-171.000000
 20
178.000000
 11
-162.000000
 21
178.000000
  0
LINE
  8
0
  6
CENTER
 62
2
 10
-116.500000
 20
178.250000
 11
-116.500000
 21
171.750000
  0
LINE
  8
0
  6
CENTER
 62
2
 10
-97.500000
 20
176.500000
 11
-97.500000
 21
167.500000
  0
LINE
  8
0
  6
CENTER
 62
2
 10
-102.000000
 20
172.000000
 11
-93.000000
 21
172.000000
  0
LINE
  8
0
  6
CENTER
 62
2
 10
-202.500000
 20
131.000000
 11
-202.500000
 21
118.000000
  0
LINE
  8
0
  6
CENTER
 62
2
 10
-209.000000
 20
124.500000
 11
-196.000000
 21
124.500000
  0
LINE
  8
0
  6
CENTER
 62
2
 10
-175.500000
 20
131.000000
 11
-175.500000
 21
118.000000
  0
LINE
  8
0
  6
CENTER
 62
2
 10
-182.000000
 20
124.500000
 11
-169.000000
 21
124.500000
  0
LINE
  8
0
  6
CENTER
 62
2
 10
-175.500000
 20
96.000000
 11
-175.500000
 21
83.000000
  0
LINE
  8
0
  6
CENTER
 62
2
 10
-182.000000
 20
89.500000
 11
-169.000000
 21
89.500000
  0
LINE
  8
0
  6
CENTER
 62
2
 10
-202.500000
 20
96.000000
 11
-202.500000
 21
83.000000
  0
LINE
  8
0
  6
CENTER
 62
2
 10
-209.000000
 20
89.500000
 11
-196.000000
 21
89.500000
  0
LINE
  8
0
  6
CENTER
 62
2
 10
-194.500000
 20
54.000000
 11
-194.500000
 21
45.000000
  0
LINE
  8
0
  6
CENTER
 62
2
 10
-199.000000
 20
49.500000
 11
-190.000000
 21
49.500000
  0
LINE
  8
0
  6
CENTER
 62
2
 10
-167.500000
 20
54.000000
 11
-167.500000
 21
45.000000
  0
LINE
  8
0
  6
CENTER
 62
2
 10
-172.000000
 20
49.500000
 11
-163.000000
 21
49.500000
  0
LINE
  8
0
  6
CENTER
 62
2
 10
-167.500000
 20
33.000000
 11
-167.500000
 21
24.000000
  0
LINE
  8
0
  6
CENTER
 62
2
 10
-172.000000
 20
28.500000
 11
-163.000000
 21
28.500000
  0
LINE
  8
0
  6
CENTER
 62
2
 10
-194.500000
 20
33.000000
 11
-194.500000
 21
24.000000
  0
LINE
  8
0
  6
CENTER
 62
2
 10
-199.000000
 20
28.500000
 11
-190.000000
 21
28.500000
  0
LINE
  8
0
  6
CENTER
 62
2
 10
-304.500000
 20
-90.500000
 11
-295.500000
 21
-90.500000
  0
LINE
  8
0
  6
CENTER
 62
2
 10
-304.500000
 20
-125.500000
 11
-295.500000
 21
-125.500000
  0
LINE
  8
0
  6
CENTER
 62
2
 10
-166.500000
 20
-32.500000
 11
-166.500000
 21
-41.500000
  0
LINE
  8
0
  6
CENTER
 62
2
 10
-171.000000
 20
-37.000000
 11
-162.000000
 21
-37.000000
  0
LINE
  8
0
  6
CENTER
 62
2
 10
-41.500000
 20
-36.750000
 11
-41.500000
 21
-43.250000
  0
LINE
  8
0
  6
CENTER
 62
2
 10
-22.500000
 20
-38.500000
 11
-22.500000
 21
-47.500000
  0
LINE
  8
0
  6
CENTER
 62
2
 10
-27.000000
 20
-43.000000
 11
-18.000000
 21
-43.000000
  0
LINE
  8
0
  6
CENTER
 62
2
 10
-87.500000
 20
-84.000000
 11
-87.500000
 21
-97.000000
  0
LINE
  8
0
  6
CENTER
 62
2
 10
-94.000000
 20
-90.500000
 11
-81.000000
 21
-90.500000
  0
LINE
  8
0
  6
CENTER
 62
2
 10
-87.500000
 20
-119.000000
 11
-87.500000
 21
-132.000000
  0
LINE
  8
0
  6
CENTER
 62
2
 10
-94.000000
 20
-125.500000
 11
-81.000000
 21
-125.500000
  0
LINE
  8
0
  6
CENTER
 62
2
 10
-175.500000
 20
-119.000000
 11
-175.500000
 21
-132.000000
  0
LINE
  8
0
  6
CENTER
 62
2
 10
-182.000000
 20
-125.500000
 11
-169.000000
 21
-125.500000
  0
LINE
  8
0
  6
CENTER
 62
2
 10
-175.500000
 20
-84.000000
 11
-175.500000
 21
-97.000000
  0
LINE
  8
0
  6
CENTER
 62
2
 10
-182.000000
 20
-90.500000
 11
-169.000000
 21
-90.500000
  0
LINE
  8
0
  6
CENTER
 62
2
 10
-202.500000
 20
-84.000000
 11
-202.500000
 21
-97.000000
  0
LINE
  8
0
  6
CENTER
 62
2
 10
-209.000000
 20
-90.500000
 11
-196.000000
 21
-90.500000
  0
LINE
  8
0
  6
CENTER
 62
2
 10
-202.500000
 20
-119.000000
 11
-202.500000
 21
-132.000000
  0
LINE
  8
0
  6
CENTER
 62
2
 10
-209.000000
 20
-125.500000
 11
-196.000000
 21
-125.500000
  0
LINE
  8
0
  6
CENTER
 62
2
 10
-194.500000
 20
-161.000000
 11
-194.500000
 21
-170.000000
  0
LINE
  8
0
  6
CENTER
 62
2
 10
-199.000000
 20
-165.500000
 11
-190.000000
 21
-165.500000
  0
LINE
  8
0
  6
CENTER
 62
2
 10
-167.500000
 20
-161.000000
 11
-167.500000
 21
-170.000000
  0
LINE
  8
0
  6
CENTER
 62
2
 10
-172.000000
 20
-165.500000
 11
-163.000000
 21
-165.500000
  0
LINE
  8
0
  6
CENTER
 62
2
 10
-167.500000
 20
-182.000000
 11
-167.500000
 21
-191.000000
  0
LINE
  8
0
  6
CENTER
 62
2
 10
-172.000000
 20
-186.500000
 11
-163.000000
 21
-186.500000
  0
LINE
  8
0
  6
CENTER
 62
2
 10
-194.500000
 20
-182.000000
 11
-194.500000
 21
-191.000000
  0
LINE
  8
0
  6
CENTER
 62
2
 10
-199.000000
 20
-186.500000
 11
-190.000000
 21
-186.500000
  0
LINE
  8
0
  6
CENTER
 62
2
 10
-79.500000
 20
-161.000000
 11
-79.500000
 21
-170.000000
  0
LINE
  8
0
  6
CENTER
 62
2
 10
-84.000000
 20
-165.500000
 11
-75.000000
 21
-165.500000
  0
LINE
  8
0
  6
CENTER
 62
2
 10
-79.500000
 20
-182.000000
 11
-79.500000
 21
-191.000000
  0
LINE
  8
0
  6
CENTER
 62
2
 10
-84.000000
 20
-186.500000
 11
-75.000000
 21
-186.500000
  0
LINE
  8
0
  6
CONTINUOUS
 62
7
 10
207.431000
 20
-20.500000
 11
207.431000
 21
-51.500000
  0
LINE
  8
0
  6
CONTINUOUS
 62
7
 10
207.431000
 20
-20.500000
 11
217.431000
 21
-20.500000
  0
LINE
  8
0
  6
CONTINUOUS
 62
7
 10
207.431000
 20
-51.500000
 11
217.431000
 21
-51.500000
  0
LINE
  8
0
  6
CENTER
 62
1
 10
165.431000
 20
-36.000000
 11
217.431000
 21
-36.000000
  0
LINE
  8
0
  6
CONTINUOUS
 62
4
 10
176.431000
 20
-26.184999
 11
176.431000
 21
-45.814999
  0
LINE
  8
0
  6
CONTINUOUS
 62
4
 10
182.431000
 20
-26.184999
 11
182.431000
 21
-45.814999
  0
LINE
  8
0
  6
CONTINUOUS
 62
4
 10
176.431000
 20
-31.092501
 11
182.431000
 21
-31.092501
  0
LINE
  8
0
  6
CONTINUOUS
 62
4
 10
176.431000
 20
-40.907501
 11
182.431000
 21
-40.907501
  0
LINE
  8
0
  6
CONTINUOUS
 62
4
 10
176.431000
 20
-26.184999
 11
182.431000
 21
-26.184999
  0
LINE
  8
0
  6
CONTINUOUS
 62
4
 10
176.431000
 20
-45.814999
 11
182.431000
 21
-45.814999
  0
LINE
  8
0
  6
CONTINUOUS
 62
4
 10
167.431000
 20
-41.000000
 11
167.431000
 21
-31.000000
  0
LINE
  8
0
  6
CONTINUOUS
 62
4
 10
233.250000
 20
167.750000
 11
233.250000
 21
142.750000
  0
LINE
  8
0
  6
CONTINUOUS
 62
4
 10
170.750000
 20
175.250000
 11
220.750000
 21
175.250000
  0
LINE
  8
0
  6
CENTER
 62
1
 10
195.750000
 20
197.250000
 11
195.750000
 21
173.250000
  0
LINE
  8
0
  6
CENTER
 62
1
 10
231.250000
 20
155.250000
 11
255.250000
 21
155.250000
  0
LINE
  8
0
  6
CONTINUOUS
 62
4
 10
170.750000
 20
167.750000
 11
170.750000
 21
142.750000
  0
LINE
  8
0
  6
CONTINUOUS
 62
4
 10
220.750000
 20
167.750000
 11
220.750000
 21
142.750000
  0
LINE
  8
0
  6
CONTINUOUS
 62
4
 10
220.750000
 20
167.750000
 11
170.750000
 21
167.750000
  0
LINE
  8
0
  6
CONTINUOUS
 62
4
 10
220.750000
 20
142.750000
 11
170.750000
 21
142.750000
  0
LINE
  8
0
  6
CONTINUOUS
 62
4
 10
181.750000
 20
195.250000
 11
209.750000
 21
195.250000
  0
LINE
  8
0
  6
CONTINUOUS
 62
4
 10
170.750000
 20
188.949997
 11
181.750000
 21
188.949997
  0
LINE
  8
0
  6
CONTINUOUS
 62
4
 10
170.750000
 20
188.949997
 11
170.750000
 21
175.250000
  0
LINE
  8
0
  6
CONTINUOUS
 62
4
 10
220.750000
 20
188.949997
 11
220.750000
 21
175.250000
  0
LINE
  8
0
  6
CONTINUOUS
 62
4
 10
209.750000
 20
188.949997
 11
220.750000
 21
188.949997
  0
LINE
  8
0
  6
CONTINUOUS
 62
4
 10
181.750000
 20
195.250000
 11
181.750000
 21
188.949997
  0
LINE
  8
0
  6
CONTINUOUS
 62
4
 10
209.750000
 20
195.250000
 11
209.750000
 21
188.949997
  0
LINE
  8
0
  6
CENTER
 62
1
 10
214.750000
 20
190.949997
 11
214.750000
 21
173.250000
  0
LINE
  8
0
  6
CENTER
 62
1
 10
176.750000
 20
190.949997
 11
176.750000
 21
173.250000
  0
LINE
  8
0
  6
DASHED
 62
1
 10
212.000000
 20
188.949997
 11
212.000000
 21
175.250000
  0
LINE
  8
0
  6
DASHED
 62
1
 10
217.500000
 20
188.949997
 11
217.500000
 21
175.250000
  0
LINE
  8
0
  6
CONTINUOUS
 62
4
 10
253.250000
 20
167.750000
 11
253.250000
 21
142.750000
  0
LINE
  8
0
  6
CONTINUOUS
 62
4
 10
246.949997
 20
167.750000
 11
246.949997
 21
142.750000
  0
LINE
  8
0
  6
CONTINUOUS
 62
4
 10
233.250000
 20
142.750000
 11
253.250000
 21
142.750000
  0
LINE
  8
0
  6
CONTINUOUS
 62
4
 10
233.250000
 20
167.750000
 11
253.250000
 21
167.750000
  0
LINE
  8
0
  6
CONTINUOUS
 62
4
 10
192.029007
 20
-42.500000
 11
207.431000
 21
-42.500000
  0
LINE
  8
0
  6
CONTINUOUS
 62
4
 10
192.029007
 20
-29.500000
 11
207.431000
 21
-29.500000
  0
LINE
  8
0
  6
CONTINUOUS
 62
7
 10
207.431000
 20
74.500000
 11
207.431000
 21
43.500000
  0
LINE
  8
0
  6
CONTINUOUS
 62
7
 10
207.431000
 20
74.500000
 11
217.431000
 21
74.500000
  0
LINE
  8
0
  6
CONTINUOUS
 62
7
 10
207.431000
 20
43.500000
 11
217.431000
 21
43.500000
  0
LINE
  8
0
  6
CENTER
 62
1
 10
165.431000
 20
59.000000
 11
217.431000
 21
59.000000
  0
LINE
  8
0
  6
CONTINUOUS
 62
4
 10
167.431000
 20
52.500000
 11
174.431000
 21
52.500000
  0
LINE
  8
0
  6
CONTINUOUS
 62
4
 10
167.431000
 20
52.500000
 11
167.431000
 21
65.500000
  0
LINE
  8
0
  6
CONTINUOUS
 62
4
 10
167.431000
 20
65.500000
 11
174.431000
 21
65.500000
  0
LINE
  8
0
  6
DASHED
 62
1
 10
180.431000
 20
55.000000
 11
180.431000
 21
63.000000
  0
LINE
  8
0
  6
DASHED
 62
1
 10
167.431000
 20
63.000000
 11
180.431000
 21
63.000000
  0
LINE
  8
0
  6
DASHED
 62
1
 10
167.431000
 20
55.000000
 11
180.431000
 21
55.000000
  0
LINE
  8
0
  6
DASHED
 62
1
 10
167.431000
 20
55.700001
 11
184.431000
 21
55.700001
  0
LINE
  8
0
  6
DASHED
 62
1
 10
167.431000
 20
62.299999
 11
184.431000
 21
62.299999
  0
LINE
  8
0
  6
DASHED
 62
1
 10
184.431000
 20
55.700001
 11
184.431000
 21
62.299999
  0
LINE
  8
0
  6
CONTINUOUS
 62
4
 10
174.431000
 20
52.500000
 11
174.431000
 21
54.000000
  0
LINE
  8
0
  6
CONTINUOUS
 62
4
 10
179.931000
 20
52.500000
 11
179.931000
 21
54.000000
  0
LINE
  8
0
  6
CONTINUOUS
 62
4
 10
179.931000
 20
52.500000
 11
207.431000
 21
52.500000
  0
LINE
  8
0
  6
CONTINUOUS
 62
4
 10
179.931000
 20
65.500000
 11
207.431000
 21
65.500000
  0
LINE
  8
0
  6
CONTINUOUS
 62
4
 10
174.431000
 20
64.000000
 11
174.431000
 21
65.500000
  0
LINE
  8
0
  6
CONTINUOUS
 62
4
 10
179.931000
 20
64.000000
 11
179.931000
 21
65.500000
  0
LINE
  8
0
  6
CONTINUOUS
 62
4
 10
174.431000
 20
54.000000
 11
179.931000
 21
54.000000
  0
LINE
  8
0
  6
CONTINUOUS
 62
4
 10
174.431000
 20
64.000000
 11
179.931000
 21
64.000000
  0
LINE
  8
0
  6
CONTINUOUS
 62
4
 10
167.431000
 20
-31.000000
 11
176.431000
 21
-31.000000
  0
LINE
  8
0
  6
CONTINUOUS
 62
4
 10
167.431000
 20
-41.000000
 11
176.431000
 21
-41.000000
  0
LINE
  8
0
  6
CONTINUOUS
 62
1
 10
167.431000
 20
-40.099998
 11
176.431000
 21
-40.099998
  0
LINE
  8
0
  6
CONTINUOUS
 62
1
 10
167.431000
 20
-31.900000
 11
176.431000
 21
-31.900000
  0
LINE
  8
0
  6
CONTINUOUS
 62
4
 10
186.931000
 20
-41.000000
 11
186.931000
 21
-31.000000
  0
LINE
  8
0
  6
CONTINUOUS
 62
4
 10
189.431000
 20
-41.000000
 11
189.431000
 21
-31.000000
  0
LINE
  8
0
  6
CONTINUOUS
 62
4
 10
194.931000
 20
-40.153301
 11
194.931000
 21
-31.846701
  0
LINE
  8
0
  6
CENTER
 62
1
 10
184.681000
 20
80.500000
 11
169.681000
 21
80.500000
  0
LINE
  8
0
  6
CENTER
 62
1
 10
177.181000
 20
88.000000
 11
177.181000
 21
73.000000
  0
LINE
  8
0
  6
CONTINUOUS
 62
4
 10
173.026993
 20
75.500000
 11
181.334000
 21
75.500000
  0
LINE
  8
0
  6
CONTINUOUS
 62
4
 10
173.026993
 20
85.500000
 11
181.334000
 21
85.500000
  0
LINE
  8
0
  6
CONTINUOUS
 62
4
 10
189.431000
 20
-40.153301
 11
194.931000
 21
-40.153301
  0
LINE
  8
0
  6
CONTINUOUS
 62
4
 10
189.431000
 20
-31.846701
 11
194.931000
 21
-31.846701
  0
LINE
  8
0
  6
CONTINUOUS
 62
1
 10
189.431000
 20
-40.153599
 11
194.931000
 21
-31.847000
  0
LINE
  8
0
  6
CONTINUOUS
 62
1
 10
189.431000
 20
-31.846600
 11
194.931000
 21
-40.153198
  0
LINE
  8
0
  6
CONTINUOUS
 62
4
 10
189.431000
 20
-30.999901
 11
192.029007
 21
-29.499901
  0
LINE
  8
0
  6
CONTINUOUS
 62
4
 10
189.431000
 20
-41.000000
 11
192.029007
 21
-42.500000
  0
LINE
  8
0
  6
CONTINUOUS
 62
4
 10
192.029007
 20
-29.500000
 11
192.029007
 21
-31.846701
  0
LINE
  8
0
  6
CONTINUOUS
 62
4
 10
192.029007
 20
-40.153301
 11
192.029007
 21
-42.500000
  0
LINE
  8
0
  6
CENTER
 62
1
 10
199.681000
 20
-14.500000
 11
184.681000
 21
-14.500000
  0
LINE
  8
0
  6
CENTER
 62
1
 10
192.181000
 20
-6.999980
 11
192.181000
 21
-22.000000
  0
LINE
  8
0
  6
CONTINUOUS
 62
4
 10
187.181000
 20
-10.346700
 11
187.181000
 21
-18.653299
  0
LINE
  8
0
  6
CONTINUOUS
 62
4
 10
197.181000
 20
-10.346700
 11
197.181000
 21
-18.653299
  0
LINE
  8
0
  6
CONTINUOUS
 62
4
 10
182.431000
 20
-41.000000
 11
189.431000
 21
-41.000000
  0
LINE
  8
0
  6
CONTINUOUS
 62
1
 10
182.431000
 20
-40.099998
 11
186.931000
 21
-40.099998
  0
LINE
  8
0
  6
CONTINUOUS
 62
1
 10
182.431000
 20
-31.900000
 11
186.931000
 21
-31.900000
  0
LINE
  8
0
  6
CONTINUOUS
 62
4
 10
182.431000
 20
-31.000000
 11
189.431000
 21
-31.000000
  0
LINE
  8
0
  6
CENTER
 62
1
 10
214.750000
 20
167.000000
 11
214.750000
 21
157.500000
  0
LINE
  8
0
  6
CENTER
 62
1
 10
210.000000
 20
162.250000
 11
219.500000
 21
162.250000
  0
LINE
  8
0
  6
CENTER
 62
1
 10
214.750000
 20
153.000000
 11
214.750000
 21
143.500000
  0
LINE
  8
0
  6
CENTER
 62
1
 10
210.000000
 20
148.250000
 11
219.500000
 21
148.250000
  0
LINE
  8
0
  6
CENTER
 62
1
 10
195.750000
 20
163.750000
 11
195.750000
 21
146.750000
  0
LINE
  8
0
  6
CENTER
 62
1
 10
187.250000
 20
155.250000
 11
204.250000
 21
155.250000
  0
LINE
  8
0
  6
CENTER
 62
1
 10
176.750000
 20
167.000000
 11
176.750000
 21
157.500000
  0
LINE
  8
0
  6
CENTER
 62
1
 10
172.000000
 20
162.250000
 11
181.500000
 21
162.250000
  0
LINE
  8
0
  6
CENTER
 62
1
 10
176.750000
 20
153.000000
 11
176.750000
 21
143.500000
  0
LINE
  8
0
  6
CENTER
 62
1
 10
172.000000
 20
148.250000
 11
181.500000
 21
148.250000
  0
LINE
  8
0
  6
CONTINUOUS
 62
2
 10
282.431000
 20
-144.699997
 11
292.431000
 21
-144.699997
  0
LINE
  8
0
  6
CONTINUOUS
 62
2
 10
282.431000
 20
-175.300003
 11
292.431000
 21
-175.300003
  0
LINE
  8
0
  6
CENTER
 62
1
 10
235.931000
 20
-132.000000
 11
254.931000
 21
-132.000000
  0
LINE
  8
0
  6
CENTER
 62
1
 10
205.431000
 20
-160.000000
 11
292.431000
 21
-160.000000
  0
LINE
  8
0
  6
CONTINUOUS
 62
4
 10
207.431000
 20
-153.500000
 11
227.431000
 21
-153.500000
  0
LINE
  8
0
  6
CONTINUOUS
 62
4
 10
207.431000
 20
-153.500000
 11
207.431000
 21
-166.500000
  0
LINE
  8
0
  6
CONTINUOUS
 62
4
 10
207.431000
 20
-166.500000
 11
227.431000
 21
-166.500000
  0
LINE
  8
0
  6
CONTINUOUS
 62
7
 10
282.431000
 20
-137.500000
 11
292.431000
 21
-137.500000
  0
LINE
  8
0
  6
CONTINUOUS
 62
2
 10
282.431000
 20
-172.699997
 11
292.431000
 21
-172.699997
  0
LINE
  8
0
  6
CONTINUOUS
 62
7
 10
282.431000
 20
-182.500000
 11
292.431000
 21
-182.500000
  0
LINE
  8
0
  6
CONTINUOUS
 62
2
 10
282.431000
 20
-147.300003
 11
292.431000
 21
-147.300003
  0
LINE
  8
0
  6
CONTINUOUS
 62
4
 10
263.431000
 20
-153.500000
 11
282.431000
 21
-153.500000
  0
LINE
  8
0
  6
CONTINUOUS
 62
4
 10
263.431000
 20
-166.500000
 11
282.431000
 21
-166.500000
  0
LINE
  8
0
  6
DASHED
 62
1
 10
219.431000
 20
-157.000000
 11
219.431000
 21
-163.000000
  0
LINE
  8
0
  6
DASHED
 62
1
 10
222.431000
 20
-157.541000
 11
222.431000
 21
-162.457993
  0
LINE
  8
0
  6
DASHED
 62
1
 10
207.431000
 20
-163.000000
 11
219.431000
 21
-163.000000
  0
LINE
  8
0
  6
DASHED
 62
1
 10
207.431000
 20
-157.000000
 11
219.431000
 21
-157.000000
  0
LINE
  8
0
  6
CONTINUOUS
 62
4
 10
227.431000
 20
-147.000000
 11
227.431000
 21
-173.000000
  0
LINE
  8
0
  6
CONTINUOUS
 62
4
 10
263.431000
 20
-147.000000
 11
263.431000
 21
-173.000000
  0
LINE
  8
0
  6
DASHED
 62
1
 10
237.931000
 20
-147.000000
 11
237.931000
 21
-148.500000
  0
LINE
  8
0
  6
DASHED
 62
1
 10
252.931000
 20
-148.500000
 11
252.931000
 21
-147.000000
  0
LINE
  8
0
  6
CONTINUOUS
 62
4
 10
227.431000
 20
-173.000000
 11
263.431000
 21
-173.000000
  0
LINE
  8
0
  6
CONTINUOUS
 62
4
 10
227.431000
 20
-147.000000
 11
263.431000
 21
-147.000000
  0
LINE
  8
0
  6
DASHED
 62
1
 10
237.931000
 20
-148.500000
 11
252.931000
 21
-148.500000
  0
LINE
  8
0
  6
CONTINUOUS
 62
4
 10
239.419998
 20
-130.500000
 11
251.431000
 21
-130.500000
  0
LINE
  8
0
  6
CONTINUOUS
 62
4
 10
239.440002
 20
-133.500000
 11
251.431000
 21
-133.500000
  0
LINE
  8
0
  6
CENTER
 62
1
 10
187.431000
 20
-160.000000
 11
157.431000
 21
-160.000000
  0
LINE
  8
0
  6
CENTER
 62
1
 10
173.216003
 20
-145.020996
 11
172.431000
 21
-160.000000
  0
LINE
  8
0
  6
DASHED
 62
1
 10
207.431000
 20
-157.541000
 11
222.431000
 21
-157.541000
  0
LINE
  8
0
  6
DASHED
 62
1
 10
207.431000
 20
-162.457993
 11
222.431000
 21
-162.457993
  0
LINE
  8
0
  6
CENTER
 62
1
 10
172.431000
 20
-145.000000
 11
172.431000
 21
-175.000000
  0
LINE
  8
0
  6
CENTER
 62
1
 10
171.645996
 20
-145.020996
 11
172.431000
 21
-160.000000
  0
LINE
  8
0
  6
CONTINUOUS
 62
4
 10
283.557007
 20
-111.018997
 11
283.557007
 21
-114.018997
  0
LINE
  8
0
  6
CONTINUOUS
 62
4
 10
283.557007
 20
-111.018997
 11
286.557007
 21
-111.018997
  0
LINE
  8
0
  6
CONTINUOUS
 62
4
 10
283.557007
 20
-114.018997
 11
286.557007
 21
-114.018997
  0
LINE
  8
0
  6
CONTINUOUS
 62
4
 10
286.557007
 20
-111.018997
 11
286.557007
 21
-114.018997
  0
LINE
  8
0
  6
CENTER
 62
1
 10
285.057007
 20
-109.018997
 11
285.057007
 21
-116.018997
  0
LINE
  8
0
  6
CONTINUOUS
 62
4
 10
298.057007
 20
-111.018997
 11
298.057007
 21
-114.018997
  0
LINE
  8
0
  6
CONTINUOUS
 62
4
 10
298.057007
 20
-111.018997
 11
313.057007
 21
-111.018997
  0
LINE
  8
0
  6
CONTINUOUS
 62
4
 10
298.057007
 20
-114.018997
 11
313.057007
 21
-114.018997
  0
LINE
  8
0
  6
CONTINUOUS
 62
4
 10
313.057007
 20
-111.018997
 11
313.057007
 21
-114.018997
  0
LINE
  8
0
  6
CONTINUOUS
 62
4
 10
299.557007
 20
-104.018997
 11
311.557007
 21
-104.018997
  0
LINE
  8
0
  6
CONTINUOUS
 62
4
 10
299.557007
 20
-101.018997
 11
311.557007
 21
-101.018997
  0
LINE
  8
0
  6
CENTER
 62
1
 10
315.057007
 20
-102.518997
 11
296.057007
 21
-102.518997
  0
LINE
  8
0
  6
CONTINUOUS
 62
7
 10
282.431000
 20
-137.500000
 11
282.431000
 21
-182.500000
  0
LINE
  8
0
  6
DASHED
 62
1
 10
170.931000
 20
-147.087006
 11
170.931000
 21
-148.500000
  0
LINE
  8
0
  6
DASHED
 62
1
 10
173.931000
 20
-147.087006
 11
173.931000
 21
-148.500000
  0
LINE
  8
0
  6
DASHED
 62
1
 10
170.931000
 20
-148.500000
 11
173.931000
 21
-148.500000
  0
CIRCLE
  8
0
  6
CONTINUOUS
 62
7
 10
-166.500000
 20
-37.000000
 40
2.100000
  0
CIRCLE
  8
0
  6
CONTINUOUS
 62
7
 10
-22.500000
 20
-43.000000
 40
2.100000
  0
CIRCLE
  8
0
  6
CONTINUOUS
 62
7
 10
-202.500000
 20
-90.500000
 40
4.500000
  0
CIRCLE
  8
0
  6
CONTINUOUS
 62
7
 10
-202.500000
 20
-90.500000
 40
2.700000
  0
CIRCLE
  8
0
  6
CONTINUOUS
 62
7
 10
-202.500000
 20
-125.500000
 40
2.700000
  0
CIRCLE
  8
0
  6
CONTINUOUS
 62
7
 10
-202.500000
 20
-125.500000
 40
4.500000
  0
CIRCLE
  8
0
  6
CONTINUOUS
 62
7
 10
-175.500000
 20
-90.500000
 40
2.700000
  0
CIRCLE
  8
0
  6
CONTINUOUS
 62
7
 10
-175.500000
 20
-125.500000
 40
2.700000
  0
CIRCLE
  8
0
  6
CONTINUOUS
 62
7
 10
-87.500000
 20
-90.500000
 40
4.500000
  0
CIRCLE
  8
0
  6
CONTINUOUS
 62
7
 10
-87.500000
 20
-125.500000
 40
4.500000
  0
CIRCLE
  8
0
  6
CONTINUOUS
 62
2
 10
-166.500000
 20
-37.000000
 40
2.500000
  0
CIRCLE
  8
0
  6
CONTINUOUS
 62
2
 10
-22.500000
 20
-43.000000
 40
2.500000
  0
CIRCLE
  8
0
  6
CONTINUOUS
 62
2
 10
-202.500000
 20
-125.500000
 40
3.000000
  0
CIRCLE
  8
0
  6
CONTINUOUS
 62
2
 10
-202.500000
 20
-90.500000
 40
3.000000
  0
CIRCLE
  8
0
  6
CONTINUOUS
 62
2
 10
-87.500000
 20
-125.500000
 40
3.000000
  0
CIRCLE
  8
0
  6
CONTINUOUS
 62
2
 10
-87.500000
 20
-90.500000
 40
3.000000
  0
ARC
  8
0
  6
CONTINUOUS
 62
2
 10
48.700001
 20
-93.349998
 40
1.500000
 50
90.000000
 51
180.000000
  0
CIRCLE
  8
0
  6
CONTINUOUS
 62
2
 10
-194.500000
 20
-186.500000
 40
2.500000
  0
CIRCLE
  8
0
  6
CONTINUOUS
 62
2
 10
-194.500000
 20
-165.500000
 40
2.500000
  0
CIRCLE
  8
0
  6
CONTINUOUS
 62
2
 10
-79.500000
 20
-165.500000
 40
2.500000
  0
CIRCLE
  8
0
  6
CONTINUOUS
 62
2
 10
-79.500000
 20
-186.500000
 40
2.500000
  0
CIRCLE
  8
0
  6
CONTINUOUS
 62
2
 10
-41.500000
 20
-40.000000
 40
1.250000
  0
CIRCLE
  8
0
  6
CONTINUOUS
 62
7
 10
-41.500000
 20
-40.000000
 40
1.000000
  0
CIRCLE
  8
0
  6
CONTINUOUS
 62
7
 10
-79.500000
 20
-186.500000
 40
2.100000
  0
CIRCLE
  8
0
  6
CONTINUOUS
 62
7
 10
-194.500000
 20
-186.500000
 40
2.100000
  0
CIRCLE
  8
0
  6
CONTINUOUS
 62
7
 10
-194.500000
 20
-165.500000
 40
2.100000
  0
CIRCLE
  8
0
  6
CONTINUOUS
 62
7
 10
-79.500000
 20
-165.500000
 40
2.100000
  0
ARC
  8
0
  6
CONTINUOUS
 62
2
 10
-289.299988
 20
-93.349998
 40
1.500000
 50
90.000000
 51
180.000000
  0
CIRCLE
  8
0
  6
CONTINUOUS
 62
7
 10
-300.000000
 20
-90.500000
 40
2.100000
  0
CIRCLE
  8
0
  6
CONTINUOUS
 62
7
 10
-300.000000
 20
-125.500000
 40
2.100000
  0
ARC
  8
0
  6
CONTINUOUS
 62
2
 10
-289.299988
 20
-94.650002
 40
1.500000
 50
180.000000
 51
270.000000
  0
CIRCLE
  8
0
  6
CONTINUOUS
 62
2
 10
-300.000000
 20
-90.500000
 40
2.500000
  0
CIRCLE
  8
0
  6
CONTINUOUS
 62
2
 10
-300.000000
 20
-125.500000
 40
2.500000
  0
CIRCLE
  8
0
  6
CONTINUOUS
 62
7
 10
-300.000000
 20
-108.000000
 40
6.500000
  0
ARC
  8
0
  6
CONTINUOUS
 62
2
 10
48.700001
 20
-94.650002
 40
1.500000
 50
180.000000
 51
270.000000
  0
CIRCLE
  8
0
  6
CONTINUOUS
 62
2
 10
-167.500000
 20
-186.500000
 40
2.500000
  0
CIRCLE
  8
0
  6
CONTINUOUS
 62
7
 10
-167.500000
 20
-186.500000
 40
2.100000
  0
CIRCLE
  8
0
  6
CONTINUOUS
 62
2
 10
-167.500000
 20
-165.500000
 40
2.500000
  0
CIRCLE
  8
0
  6
CONTINUOUS
 62
7
 10
-167.500000
 20
-165.500000
 40
2.100000
  0
CIRCLE
  8
0
  6
CONTINUOUS
 62
7
 10
-175.500000
 20
-125.500000
 40
4.500000
  0
CIRCLE
  8
0
  6
CONTINUOUS
 62
2
 10
-175.500000
 20
-125.500000
 40
3.000000
  0
CIRCLE
  8
0
  6
CONTINUOUS
 62
7
 10
-175.500000
 20
-90.500000
 40
4.500000
  0
CIRCLE
  8
0
  6
CONTINUOUS
 62
2
 10
-175.500000
 20
-90.500000
 40
3.000000
  0
CIRCLE
  8
0
  6
CONTINUOUS
 62
7
 10
-166.500000
 20
178.000000
 40
2.100000
  0
CIRCLE
  8
0
  6
CONTINUOUS
 62
7
 10
-97.500000
 20
172.000000
 40
2.100000
  0
CIRCLE
  8
0
  6
CONTINUOUS
 62
7
 10
-202.500000
 20
124.500000
 40
4.500000
  0
CIRCLE
  8
0
  6
CONTINUOUS
 62
7
 10
-202.500000
 20
124.500000
 40
2.700000
  0
CIRCLE
  8
0
  6
CONTINUOUS
 62
7
 10
-202.500000
 20
89.500000
 40
2.700000
  0
CIRCLE
  8
0
  6
CONTINUOUS
 62
7
 10
-202.500000
 20
89.500000
 40
4.500000
  0
CIRCLE
  8
0
  6
CONTINUOUS
 62
7
 10
-175.500000
 20
124.500000
 40
2.700000
  0
CIRCLE
  8
0
  6
CONTINUOUS
 62
7
 10
-175.500000
 20
89.500000
 40
2.700000
  0
CIRCLE
  8
0
  6
CONTINUOUS
 62
7
 10
-175.500000
 20
124.500000
 40
4.500000
  0
CIRCLE
  8
0
  6
CONTINUOUS
 62
7
 10
-175.500000
 20
89.500000
 40
4.500000
  0
CIRCLE
  8
0
  6
CONTINUOUS
 62
2
 10
-166.500000
 20
178.000000
 40
2.500000
  0
CIRCLE
  8
0
  6
CONTINUOUS
 62
2
 10
-97.500000
 20
172.000000
 40
2.500000
  0
CIRCLE
  8
0
  6
CONTINUOUS
 62
2
 10
-202.500000
 20
89.500000
 40
3.000000
  0
CIRCLE
  8
0
  6
CONTINUOUS
 62
2
 10
-202.500000
 20
124.500000
 40
3.000000
  0
CIRCLE
  8
0
  6
CONTINUOUS
 62
2
 10
-175.500000
 20
89.500000
 40
3.000000
  0
CIRCLE
  8
0
  6
CONTINUOUS
 62
2
 10
-175.500000
 20
124.500000
 40
3.000000
  0
ARC
  8
0
  6
CONTINUOUS
 62
2
 10
-26.299999
 20
121.650002
 40
1.500000
 50
90.000099
 51
180.000000
  0
CIRCLE
  8
0
  6
CONTINUOUS
 62
2
 10
-194.500000
 20
28.500000
 40
2.500000
  0
CIRCLE
  8
0
  6
CONTINUOUS
 62
2
 10
-194.500000
 20
49.500000
 40
2.500000
  0
CIRCLE
  8
0
  6
CONTINUOUS
 62
2
 10
-167.500000
 20
49.500000
 40
2.500000
  0
CIRCLE
  8
0
  6
CONTINUOUS
 62
2
 10
-167.500000
 20
28.500000
 40
2.500000
  0
CIRCLE
  8
0
  6
CONTINUOUS
 62
2
 10
-116.500000
 20
175.000000
 40
1.250000
  0
CIRCLE
  8
0
  6
CONTINUOUS
 62
7
 10
-116.500000
 20
175.000000
 40
1.000000
  0
CIRCLE
  8
0
  6
CONTINUOUS
 62
7
 10
-167.500000
 20
28.500000
 40
2.100000
  0
CIRCLE
  8
0
  6
CONTINUOUS
 62
7
 10
-194.500000
 20
28.500000
 40
2.100000
  0
CIRCLE
  8
0
  6
CONTINUOUS
 62
7
 10
-194.500000
 20
49.500000
 40
2.100000
  0
CIRCLE
  8
0
  6
CONTINUOUS
 62
7
 10
-167.500000
 20
49.500000
 40
2.100000
  0
ARC
  8
0
  6
CONTINUOUS
 62
2
 10
-289.299988
 20
121.650002
 40
1.500000
 50
90.000000
 51
180.000000
  0
CIRCLE
  8
0
  6
CONTINUOUS
 62
7
 10
-300.000000
 20
124.500000
 40
2.100000
  0
CIRCLE
  8
0
  6
CONTINUOUS
 62
7
 10
-300.000000
 20
89.500000
 40
2.100000
  0
ARC
  8
0
  6
CONTINUOUS
 62
2
 10
-289.299988
 20
120.349998
 40
1.500000
 50
180.000000
 51
270.000000
  0
CIRCLE
  8
0
  6
CONTINUOUS
 62
2
 10
-300.000000
 20
124.500000
 40
2.500000
  0
CIRCLE
  8
0
  6
CONTINUOUS
 62
2
 10
-300.000000
 20
89.500000
 40
2.500000
  0
CIRCLE
  8
0
  6
CONTINUOUS
 62
7
 10
-300.000000
 20
107.000000
 40
6.500000
  0
ARC
  8
0
  6
CONTINUOUS
 62
2
 10
-26.299999
 20
120.349998
 40
1.500000
 50
180.000000
 51
270.000000
  0
CIRCLE
  8
0
  6
CONTINUOUS
 62
7
 10
-87.500000
 20
-125.500000
 40
2.700000
  0
CIRCLE
  8
0
  6
CONTINUOUS
 62
7
 10
-87.500000
 20
-90.500000
 40
2.700000
  0
CIRCLE
  8
0
  6
CONTINUOUS
 62
4
 10
214.750000
 20
148.250000
 40
2.750000
  0
CIRCLE
  8
0
  6
CONTINUOUS
 62
4
 10
214.750000
 20
162.250000
 40
2.750000
  0
CIRCLE
  8
0
  6
CONTINUOUS
 62
4
 10
176.750000
 20
162.250000
 40
2.750000
  0
CIRCLE
  8
0
  6
CONTINUOUS
 62
4
 10
176.750000
 20
148.250000
 40
2.750000
  0
CIRCLE
  8
0
  6
CONTINUOUS
 62
4
 10
195.750000
 20
155.250000
 40
6.500000
  0
CIRCLE
  8
0
  6
CONTINUOUS
 62
4
 10
177.181000
 20
80.500000
 40
6.500000
  0
CIRCLE
  8
0
  6
CONTINUOUS
 62
4
 10
192.181000
 20
-14.500000
 40
6.500000
  0
ARC
  8
0
  6
CONTINUOUS
 62
4
 10
251.431000
 20
-132.000000
 40
1.500000
 50
270.000000
 51
90.000000
  0
ARC
  8
0
  6
CONTINUOUS
 62
4
 10
239.431000
 20
-132.000000
 40
1.500000
 50
90.000000
 51
270.000000
  0
CIRCLE
  8
0
  6
CONTINUOUS
 62
1
 10
172.431000
 20
-160.000000
 40
3.000000
  0
CIRCLE
  8
0
  6
CONTINUOUS
 62
4
 10
172.431000
 20
-160.000000
 40
6.500000
  0
CIRCLE
  8
0
  6
CONTINUOUS
 62
4
 10
172.431000
 20
-160.000000
 40
13.000000
  0
CIRCLE
  8
0
  6
CONTINUOUS
 62
4
 10
172.431000
 20
-160.000000
 40
2.458500
  0
ARC
  8
0
  6
CONTINUOUS
 62
4
 10
311.557007
 20
-102.518997
 40
1.500000
 50
270.000000
 51
90.000000
  0
ARC
  8
0
  6
CONTINUOUS
 62
4
 10
299.557007
 20
-102.518997
 40
1.500000
 50
90.000000
 51
270.000000
  0
TEXT
  8
0
 62
7
 10
249.264832
 20
-267.375000
 40
12.500000
  1
KOGANEI CORP.
 50
0.000000
 41
0.771525
 51
0.000000
  7
STANDARD
  0
TEXT
  8
0
 62
7
 10
292.414673
 20
261.500000
 40
9.000000
  1
Ver.1.0
 50
0.000000
 41
1.010331
 51
0.000000
  7
STANDARD
  0
TEXT
  8
0
 62
7
 10
-383.750580
 20
229.000000
 40
9.000000
  1
MODEL:AXAHS-SD25-25-R***
 50
0.000000
 41
0.754892
 51
0.000000
  7
STANDARD
  0
TEXT
  8
0
 62
7
 10
-364.635315
 20
261.500000
 40
9.000000
  1
AX CYLINDER
 50
0.000000
 41
0.783349
 51
0.000000
  7
STANDARD
  0
TEXT
  8
0
 62
7
 10
-5.900000
 20
-24.500000
 40
3.200000
  1
100st
 50
90.000000
 41
0.985838
 51
0.000000
  7
STANDARD
  0
TEXT
  8
0
 62
7
 10
44.099998
 20
-24.500000
 40
3.200000
  1
150st
 50
90.000000
 41
0.938893
 51
0.000000
  7
STANDARD
  0
TEXT
  8
0
 62
7
 10
19.100000
 20
-24.500000
 40
3.200000
  1
125st
 50
90.000000
 41
0.896216
 51
0.000000
  7
STANDARD
  0
TEXT
  8
0
 62
7
 10
69.099998
 20
-24.500000
 40
3.200000
  1
175st
 50
90.000000
 41
0.896216
 51
0.000000
  7
STANDARD
  0
TEXT
  8
0
 62
7
 10
94.099998
 20
-24.500000
 40
3.200000
  1
200st
 50
90.000000
 41
0.896216
 51
0.000000
  7
STANDARD
  0
TEXT
  8
0
 62
7
 10
-80.900002
 20
190.500000
 40
3.200000
  1
25st
 50
90.000000
 41
0.857250
 51
0.000000
  7
STANDARD
  0
TEXT
  8
0
 62
7
 10
-55.900002
 20
190.500000
 40
3.200000
  1
50st
 50
90.000000
 41
0.907676
 51
0.000000
  7
STANDARD
  0
TEXT
  8
0
 62
7
 10
-30.900000
 20
190.500000
 40
3.200000
  1
75st
 50
90.000000
 41
0.857250
 51
0.000000
  7
STANDARD
  0
TEXT
  8
0
 62
7
 10
176.057343
 20
125.500000
 40
4.500000
  1
ZT(FLANGE ROD END)
 50
0.000000
 41
0.754381
 51
0.000000
  7
STANDARD
  0
TEXT
  8
0
 62
7
 10
173.807343
 20
26.250000
 40
4.500000
  1
WS(INTERNAL THREAD)
 50
0.000000
 41
0.752116
 51
0.000000
  7
STANDARD
  0
TEXT
  8
0
 62
7
 10
173.807343
 20
-68.750000
 40
4.500000
  1
WT(EXTERNAL THREAD)
 50
0.000000
 41
0.738188
 51
0.000000
  7
STANDARD
  0
TEXT
  8
0
 62
7
 10
149.549576
 20
210.849991
 40
6.700000
  1
OPTION
 50
0.000000
 41
0.857250
 51
0.000000
  7
STANDARD
  0
TEXT
  8
0
 62
7
 10
269.530701
 20
-104.900002
 40
4.800000
  1
KEY
 50
0.000000
 41
0.928687
 51
0.000000
  7
STANDARD
  0
TEXT
  8
0
 62
7
 10
167.557144
 20
-200.750000
 40
4.500000
  1
      FOR FLOATING UNIT)
 50
0.000000
 41
0.754798
 51
0.000000
  7
STANDARD
  0
TEXT
  8
0
 62
7
 10
168.807144
 20
-192.750000
 40
4.500000
  1
FN(WITH BEARING NUT
 50
0.000000
 41
0.766484
 51
0.000000
  7
STANDARD
  0
TEXT
  8
0
 62
7
 10
156.830994
 20
-120.400002
 40
3.200000
  1
(KEYWAY
 50
0.000000
 41
0.766485
 51
0.000000
  7
STANDARD
  0
TEXT
  8
0
 62
7
 10
156.830994
 20
-123.599998
 40
3.200000
  1
  POSITION)
 50
0.000000
 41
0.766485
 51
0.000000
  7
STANDARD
  0
DIMENSION
  8
0
  2
*DIM0
 62
0
 10
171.147995
 20
-135.533997
 30
0.0
 11
164.431000
 21
-135.800003
 31
0.0
 13
173.712997
 23
-135.533997
 33
0.0
 14
173.216003
 24
-145.020996
 34
0.0
  15
171.645996
 25
-145.020996
 35
0.0
 16
173.634720
 26
-137.031525
 36
0.0
 70
2
  0
DIMENSION
  8
0
  2
*DIM1
 62
2
  10
199.431000
 20
-147.000000
 30
0.0
 11
199.431000
 21
-160.000000
 31
0.0
  13
227.431000
 23
-147.000000
 33
0.0
14
227.431000
 24
-173.000000
 34
0.0
 70
1
 50
90
  0
DIMENSION
  8
0
  2
*DIM2
 62
2
  10
260.931000
 20
-124.500000
 30
0.0
 11
260.931000
 21
-120.599998
 31
0.0
  13
251.431000
 23
-130.500000
 33
0.0
14
251.431000
 24
-133.500000
 34
0.0
 70
1
 50
90
  0
DIMENSION
  8
0
  2
*DIM3
 62
2
  10
283.557007
 20
-122.018997
 30
0.0
 11
273.842010
 21
-122.018997
 31
0.0
  13
283.557007
 23
-122.018997
 33
0.0
14
283.557007
 24
-114.018997
 34
0.0
 70
1
 50
0
  0
ENDSEC
  0
EOF
