  0
SECTION
  2
HEADER
  0
ENDSEC
  0
SECTION
  2
TABLES
  0
TABLE
  2
LTYPE
 70
     4
  0
LTYPE
  2
CONTINUOUS
 70
    64
  3
Solid line
 72
    65
 73
     0
 40
0.000000
  0
LTYPE
  2
DASHED
 70
    64
  3
__ __ __ __ __ __ __ __ __ __ __ __ __ __ __
 72
    65
 73
     2
 40
3.500000
 49
2.000000
 49
-1.500000
  0
LTYPE
  2
CENTER
 70
    64
  3
____ _ ____ _ ____ _ ____ _ ____ _ ____ _ ____
 72
    65
 73
     4
 40
17.500000
 49
13.000000
 49
-1.500000
 49
1.500000
 49
-1.500000
  0
LTYPE
  2
PHANTOM
 70
    64
  3
_____ _ _ _____ _ _ _____ _ _ _____ _ _ ____  
 72
    65
 73
     6
 40
15.500000
 49
8.000000
 49
-1.500000
 49
1.500000
 49
-1.500000
 49
1.500000
 49
-1.500000
  0
ENDTAB
  0
TABLE
  2
LAYER
 70
     1
  0
LAYER
  2
0
 70
     0
 62
     7
  6
CONTINUOUS
  0
ENDTAB
  0
TABLE
  2
STYLE
 70
     1
  0
STYLE
  2
STANDARD
 70
     0
 40
0.000000
 41
1.000000
 50
0.000000
 71
     0
 42
0.200000
  3
txt
  4
BIGFONT
  0
ENDTAB
  0
TABLE
  2
VIEW
 70
     0
  0
ENDTAB
  0
ENDSEC
  0
SECTION
  2
BLOCKS
  0
BLOCK
  8
0
 70
65
  2
*DIM0
 10
0.0
 20
0.0
 30
0.0
  0
ARC
  8
0
  6
BYBLOCK
 62
0
 10
251.681000
 20
-161.899994
 40
23.000000
 50
77.035515
 51
102.964485
  0
LINE
  8
0
  6
BYBLOCK
 62
0
 10
252.466003
 20
-146.921005
 11
252.962997
 21
-137.434006
  0
LINE
  8
0
  6
BYBLOCK
 62
0
 10
250.895996
 20
-146.921005
 11
250.397995
 21
-137.434006
  0
LINE
  8
0
  6
BYBLOCK
 62
0
 10
252.884720
 20
-138.931519
 11
255.534439
 21
-140.338287
  0
LINE
  8
0
  6
BYBLOCK
 62
0
 10
252.884720
 20
-138.931519
 11
255.882828
 21
-138.824951
  0
LINE
  8
0
  6
BYBLOCK
 62
0
 10
250.477280
 20
-138.931519
 11
247.479172
 21
-138.824951
  0
LINE
  8
0
  6
BYBLOCK
 62
0
 10
250.477280
 20
-138.931519
 11
247.827560
 21
-140.338287
  0
TEXT
  8
0
 62
2
 10
243.681000
 20
-137.699997
 40
3.200000
  1
ü}3üï
 50
0.000000
 41
1.500330
 51
0.000000
  7
STANDARD
  0
ENDBLK
  8
3
  0
BLOCK
  8
0
 70
65
  2
*DIM1
 10
0.0
 20
0.0
 30
0.0
  0
LINE
  8
0
  6
BYBLOCK
 62
2
 10
306.681000
 20
-148.899994
 11
277.181000
 21
-148.899994
  0
LINE
  8
0
  6
BYBLOCK
 62
2
 10
306.681000
 20
-174.899994
 11
277.181000
 21
-174.899994
  0
LINE
  8
0
  6
BYBLOCK
 62
2
 10
278.681000
 20
-148.899994
 11
278.681000
 21
-174.899994
  0
LINE
  8
0
  6
BYBLOCK
 62
2
 10
278.681000
 20
-148.899994
 11
277.904541
 21
-151.797775
  0
LINE
  8
0
  6
BYBLOCK
 62
2
 10
278.681000
 20
-148.899994
 11
279.457458
 21
-151.797775
  0
LINE
  8
0
  6
BYBLOCK
 62
2
 10
278.681000
 20
-174.899994
 11
279.457458
 21
-172.002213
  0
LINE
  8
0
  6
BYBLOCK
 62
2
 10
278.681000
 20
-174.899994
 11
277.904541
 21
-172.002213
  0
TEXT
  8
0
 62
2
 10
277.480988
 20
-173.099991
 40
3.200000
  1
âË26
 50
90.000000
 41
0.908729
 51
0.000000
  7
STANDARD
  0
TEXT
  8
0
 62
2
 10
275.881378
 20
-164.376114
 40
1.600000
  1
 0
 50
90.000000
 41
0.908729
 51
0.000000
  7
STANDARD
  0
TEXT
  8
0
 62
2
 10
277.481384
 20
-164.376190
 40
1.600000
  1
-0.013
 50
90.000000
 41
0.908729
 51
0.000000
  7
STANDARD
  0
ENDBLK
  8
0
  0
BLOCK
  8
0
 70
65
  2
*DIM2
 10
0.0
 20
0.0
 30
0.0
  0
LINE
  8
0
  6
BYBLOCK
 62
2
 10
330.681000
 20
-132.399994
 11
341.681000
 21
-132.399994
  0
LINE
  8
0
  6
BYBLOCK
 62
2
 10
330.681000
 20
-135.399994
 11
341.681000
 21
-135.399994
  0
LINE
  8
0
  6
BYBLOCK
 62
2
 10
340.181000
 20
-126.399994
 11
340.181000
 21
-141.399994
  0
LINE
  8
0
  6
BYBLOCK
 62
2
 10
340.181000
 20
-132.399994
 11
340.181000
 21
-116.957001
  0
LINE
  8
0
  6
BYBLOCK
 62
2
 10
340.181000
 20
-132.399994
 11
340.957458
 21
-129.502213
  0
LINE
  8
0
  6
BYBLOCK
 62
2
 10
340.181000
 20
-132.399994
 11
339.404541
 21
-129.502213
  0
LINE
  8
0
  6
BYBLOCK
 62
2
 10
340.181000
 20
-135.399994
 11
339.404541
 21
-138.297775
  0
LINE
  8
0
  6
BYBLOCK
 62
2
 10
340.181000
 20
-135.399994
 11
340.957458
 21
-138.297775
  0
TEXT
  8
0
 62
2
 10
338.980988
 20
-128.899994
 40
3.200000
  1
3
 50
90.000000
 41
0.873629
 51
0.000000
  7
STANDARD
  0
TEXT
  8
0
 62
2
 10
337.381104
 20
-126.104309
 40
1.600000
  1
+0.014
 50
90.000000
 41
0.873629
 51
0.000000
  7
STANDARD
  0
TEXT
  8
0
 62
2
 10
338.981110
 20
-126.104385
 40
1.600000
  1
 0
 50
90.000000
 41
0.873629
 51
0.000000
  7
STANDARD
  0
ENDBLK
  8
0
  0
BLOCK
  8
0
 70
65
  2
*DIM3
 10
0.0
 20
0.0
 30
0.0
  0
LINE
  8
0
  6
BYBLOCK
 62
2
 10
362.807007
 20
-123.918999
 11
365.807007
 21
-123.918999
  0
LINE
  8
0
  6
BYBLOCK
 62
2
 10
362.807007
 20
-115.918999
 11
362.807007
 21
-125.418999
  0
LINE
  8
0
  6
BYBLOCK
 62
2
 10
362.807007
 20
-123.918999
 11
365.807007
 21
-123.918999
  0
LINE
  8
0
  6
BYBLOCK
 62
2
 10
362.807007
 20
-123.918999
 11
347.549011
 21
-123.918999
  0
TEXT
  8
0
 62
2
 10
346.692017
 20
-122.719002
 40
3.200000
  1
3
 50
0.000000
 41
0.906835
 51
0.000000
  7
STANDARD
  0
TEXT
  8
0
 62
2
 10
349.593872
 20
-121.119003
 40
1.600000
  1
+0.016
 50
0.000000
 41
0.906835
 51
0.000000
  7
STANDARD
  0
TEXT
  8
0
 62
2
 10
349.593872
 20
-122.719002
 40
1.600000
  1
+0.006
 50
0.000000
 41
0.906835
 51
0.000000
  7
STANDARD
  0
ENDBLK
  8
0
  0
ENDSEC
  0
SECTION
  2
ENTITIES
  0
POINT
  8
0
  62
7
  10
-179.750000
  20
180.500000
  30
0.0
  0
POINT
  8
0
  62
7
  10
-154.750000
  20
180.500000
  30
0.0
  0
POINT
  8
0
  62
7
  10
-129.750000
  20
180.500000
  30
0.0
  0
POINT
  8
0
  62
7
  10
-115.750000
  20
170.000000
  30
0.0
  0
POINT
  8
0
  62
7
  10
-65.750000
  20
170.000000
  30
0.0
  0
POINT
  8
0
  62
7
  10
-15.750000
  20
170.000000
  30
0.0
  0
POINT
  8
0
  62
7
  10
234.250000
  20
-40.000000
  30
0.0
  0
POINT
  8
0
  62
7
  10
184.250000
  20
-40.000000
  30
0.0
  0
POINT
  8
0
  62
7
  10
134.250000
  20
-40.000000
  30
0.0
  0
POINT
  8
0
  62
7
  10
84.250000
  20
-40.000000
  30
0.0
  0
POINT
  8
0
  62
7
  10
34.250000
  20
-40.000000
  30
0.0
  0
POINT
  8
0
  62
7
  10
-4.750000
  20
-29.500000
  30
0.0
  0
POINT
  8
0
  62
7
  10
-29.750000
  20
-29.500000
  30
0.0
  0
POINT
  8
0
  62
7
  10
-54.750000
  20
-29.500000
  30
0.0
  0
POINT
  8
0
  62
7
  10
-79.750000
  20
-29.500000
  30
0.0
  0
POINT
  8
0
  62
7
  10
-104.750000
  20
-29.500000
  30
0.0
  0
LINE
  8
0
  6
CONTINUOUS
 62
7
 10
399.799988
 20
276.250000
 11
399.799988
 21
-276.750000
  0
LINE
  8
0
  6
CONTINUOUS
 62
7
 10
-399.250000
 20
276.250000
 11
-399.250000
 21
-276.750000
  0
LINE
  8
0
  6
CONTINUOUS
 62
7
 10
-399.250000
 20
276.250000
 11
399.799988
 21
276.250000
  0
LINE
  8
0
  6
CONTINUOUS
 62
7
 10
-399.250000
 20
-276.750000
 11
399.799988
 21
-276.750000
  0
LINE
  8
0
  6
CONTINUOUS
 62
7
 10
239.800003
 20
-251.750000
 11
399.799988
 21
-251.750000
  0
LINE
  8
0
  6
CONTINUOUS
 62
7
 10
239.800003
 20
251.250000
 11
399.799988
 21
251.250000
  0
LINE
  8
0
  6
CONTINUOUS
 62
7
 10
-399.250000
 20
251.250000
 11
-239.250000
 21
251.250000
  0
LINE
  8
0
  6
CONTINUOUS
 62
7
 10
239.800003
 20
-251.750000
 11
239.800003
 21
-276.750000
  0
LINE
  8
0
  6
CONTINUOUS
 62
7
 10
239.800003
 20
251.250000
 11
239.800003
 21
276.250000
  0
LINE
  8
0
  6
CONTINUOUS
 62
7
 10
-239.250000
 20
276.250000
 11
-239.250000
 21
251.250000
  0
LINE
  8
0
  6
CONTINUOUS
 62
7
 10
-311.750000
 20
-196.500000
 11
-311.750000
 21
-165.500000
  0
LINE
  8
0
  6
CONTINUOUS
 62
7
 10
-311.750000
 20
-196.500000
 11
-104.750000
 21
-196.500000
  0
LINE
  8
0
  6
CONTINUOUS
 62
7
 10
-311.750000
 20
-165.500000
 11
-104.750000
 21
-165.500000
  0
LINE
  8
0
  6
CONTINUOUS
 62
7
 10
-311.750000
 20
-135.500000
 11
-104.750000
 21
-135.500000
  0
LINE
  8
0
  6
CONTINUOUS
 62
7
 10
-311.750000
 20
-90.500000
 11
-104.750000
 21
-90.500000
  0
LINE
  8
0
  6
CONTINUOUS
 62
7
 10
-311.750000
 20
-135.500000
 11
-311.750000
 21
-90.500000
  0
LINE
  8
0
  6
CONTINUOUS
 62
2
 10
-311.750000
 20
-97.699997
 11
-303.675995
 21
-97.699997
  0
LINE
  8
0
  6
CONTINUOUS
 62
2
 10
-295.824005
 20
-97.699997
 11
-276.675995
 21
-97.699997
  0
LINE
  8
0
  6
CONTINUOUS
 62
2
 10
-311.750000
 20
-128.300003
 11
-303.675995
 21
-128.300003
  0
LINE
  8
0
  6
CONTINUOUS
 62
2
 10
-311.750000
 20
-125.699997
 11
-104.750000
 21
-125.699997
  0
LINE
  8
0
  6
CONTINUOUS
 62
2
 10
-295.824005
 20
-128.300003
 11
-276.675995
 21
-128.300003
  0
LINE
  8
0
  6
CONTINUOUS
 62
2
 10
-268.824005
 20
-128.300003
 11
-188.675995
 21
-128.300003
  0
LINE
  8
0
  6
CONTINUOUS
 62
2
 10
-268.824005
 20
-97.699997
 11
-188.675995
 21
-97.699997
  0
LINE
  8
0
  6
CENTER
 62
2
 10
-353.750000
 20
-181.000000
 11
36.250000
 21
-181.000000
  0
LINE
  8
0
  6
CENTER
 62
2
 10
-391.750000
 20
-113.000000
 11
-356.750000
 21
-113.000000
  0
LINE
  8
0
  6
CONTINUOUS
 62
7
 10
-104.750000
 20
-196.500000
 11
-104.750000
 21
-165.500000
  0
LINE
  8
0
  6
CONTINUOUS
 62
7
 10
-104.750000
 20
-60.500000
 11
-104.750000
 21
-29.500000
  0
LINE
  8
0
  6
CONTINUOUS
 62
7
 10
-351.750000
 20
-187.500000
 11
-311.750000
 21
-187.500000
  0
LINE
  8
0
  6
CONTINUOUS
 62
7
 10
-351.750000
 20
-187.500000
 11
-351.750000
 21
-174.500000
  0
LINE
  8
0
  6
CONTINUOUS
 62
7
 10
-351.750000
 20
-174.500000
 11
-311.750000
 21
-174.500000
  0
LINE
  8
0
  6
CONTINUOUS
 62
2
 10
31.749901
 20
-49.299999
 11
34.250000
 21
-49.299999
  0
LINE
  8
0
  6
CONTINUOUS
 62
2
 10
31.749901
 20
-40.700001
 11
34.250000
 21
-40.700001
  0
LINE
  8
0
  6
CONTINUOUS
 62
7
 10
31.749901
 20
-40.000000
 11
34.250000
 21
-40.000000
  0
LINE
  8
0
  6
CONTINUOUS
 62
7
 10
31.749901
 20
-50.000000
 11
34.250000
 21
-50.000000
  0
LINE
  8
0
  6
CONTINUOUS
 62
7
 10
34.250000
 20
-50.000000
 11
34.250000
 21
-40.000000
  0
LINE
  8
0
  6
CONTINUOUS
 62
7
 10
-102.250000
 20
-51.000000
 11
-2.250000
 21
-51.000000
  0
LINE
  8
0
  6
CONTINUOUS
 62
7
 10
-102.250000
 20
-39.000000
 11
-2.250000
 21
-39.000000
  0
LINE
  8
0
  6
CONTINUOUS
 62
7
 10
-104.750000
 20
-30.250000
 11
-103.250000
 21
-30.250000
  0
LINE
  8
0
  6
CONTINUOUS
 62
7
 10
-104.750000
 20
-59.750000
 11
-103.250000
 21
-59.750000
  0
LINE
  8
0
  6
CONTINUOUS
 62
7
 10
-103.250000
 20
-54.500000
 11
-102.250000
 21
-54.500000
  0
LINE
  8
0
  6
CONTINUOUS
 62
7
 10
-103.250000
 20
-35.500000
 11
-102.250000
 21
-35.500000
  0
LINE
  8
0
  6
CONTINUOUS
 62
7
 10
-102.250000
 20
-54.500000
 11
-102.250000
 21
-35.500000
  0
LINE
  8
0
  6
CONTINUOUS
 62
7
 10
-102.250000
 20
-122.500000
 11
-102.250000
 21
-103.500000
  0
LINE
  8
0
  6
CONTINUOUS
 62
7
 10
-103.250000
 20
-127.750000
 11
-103.250000
 21
-98.250000
  0
LINE
  8
0
  6
CONTINUOUS
 62
7
 10
-103.250000
 20
-122.500000
 11
-102.250000
 21
-122.500000
  0
LINE
  8
0
  6
CONTINUOUS
 62
7
 10
-103.250000
 20
-103.500000
 11
-102.250000
 21
-103.500000
  0
LINE
  8
0
  6
CONTINUOUS
 62
7
 10
-2.250000
 20
-34.000000
 11
-2.250000
 21
-56.000000
  0
LINE
  8
0
  6
CONTINUOUS
 62
7
 10
-2.250000
 20
-56.000000
 11
17.750000
 21
-56.000000
  0
LINE
  8
0
  6
CONTINUOUS
 62
7
 10
-2.250000
 20
-34.000000
 11
17.750000
 21
-34.000000
  0
LINE
  8
0
  6
CONTINUOUS
 62
7
 10
17.750000
 20
-35.500000
 11
25.750000
 21
-35.500000
  0
LINE
  8
0
  6
CONTINUOUS
 62
7
 10
17.750000
 20
-54.500000
 11
25.750000
 21
-54.500000
  0
LINE
  8
0
  6
CONTINUOUS
 62
7
 10
17.750000
 20
-34.000000
 11
17.750000
 21
-35.500000
  0
LINE
  8
0
  6
CONTINUOUS
 62
7
 10
17.750000
 20
-54.500000
 11
17.750000
 21
-56.000000
  0
LINE
  8
0
  6
CONTINUOUS
 62
7
 10
-132.250000
 20
-34.500000
 11
-132.250000
 21
-55.500000
  0
LINE
  8
0
  6
CONTINUOUS
 62
7
 10
-145.250000
 20
-34.500000
 11
-145.250000
 21
-55.500000
  0
LINE
  8
0
  6
CONTINUOUS
 62
7
 10
-145.250000
 20
-34.500000
 11
-132.250000
 21
-34.500000
  0
LINE
  8
0
  6
CONTINUOUS
 62
7
 10
-145.250000
 20
-55.500000
 11
-132.250000
 21
-55.500000
  0
LINE
  8
0
  6
CONTINUOUS
 62
7
 10
-103.250000
 20
-190.500000
 11
-102.250000
 21
-190.500000
  0
LINE
  8
0
  6
CONTINUOUS
 62
7
 10
-102.250000
 20
-171.500000
 11
-102.250000
 21
-190.500000
  0
LINE
  8
0
  6
CONTINUOUS
 62
7
 10
-104.750000
 20
-195.750000
 11
-103.250000
 21
-195.750000
  0
LINE
  8
0
  6
CONTINUOUS
 62
7
 10
-104.750000
 20
-166.250000
 11
-103.250000
 21
-166.250000
  0
LINE
  8
0
  6
CONTINUOUS
 62
7
 10
-103.250000
 20
-171.500000
 11
-102.250000
 21
-171.500000
  0
LINE
  8
0
  6
CONTINUOUS
 62
2
 10
31.749901
 20
-176.699997
 11
34.250000
 21
-176.699997
  0
LINE
  8
0
  6
CONTINUOUS
 62
2
 10
31.749901
 20
-185.300003
 11
34.250000
 21
-185.300003
  0
LINE
  8
0
  6
CONTINUOUS
 62
7
 10
31.749901
 20
-186.000000
 11
34.250000
 21
-186.000000
  0
LINE
  8
0
  6
CONTINUOUS
 62
7
 10
31.749901
 20
-176.000000
 11
34.250000
 21
-176.000000
  0
LINE
  8
0
  6
CONTINUOUS
 62
7
 10
34.250000
 20
-176.000000
 11
34.250000
 21
-186.000000
  0
LINE
  8
0
  6
CONTINUOUS
 62
7
 10
-102.250000
 20
-175.000000
 11
-2.250000
 21
-175.000000
  0
LINE
  8
0
  6
CONTINUOUS
 62
7
 10
-102.250000
 20
-187.000000
 11
-2.250000
 21
-187.000000
  0
LINE
  8
0
  6
CONTINUOUS
 62
7
 10
-2.250000
 20
-192.000000
 11
-2.250000
 21
-170.000000
  0
LINE
  8
0
  6
CONTINUOUS
 62
7
 10
25.750000
 20
-190.815002
 11
25.750000
 21
-171.184998
  0
LINE
  8
0
  6
CONTINUOUS
 62
7
 10
-2.250000
 20
-170.000000
 11
17.750000
 21
-170.000000
  0
LINE
  8
0
  6
CONTINUOUS
 62
7
 10
-2.250000
 20
-192.000000
 11
17.750000
 21
-192.000000
  0
LINE
  8
0
  6
CONTINUOUS
 62
7
 10
17.750000
 20
-190.500000
 11
25.750000
 21
-190.500000
  0
LINE
  8
0
  6
CONTINUOUS
 62
7
 10
17.750000
 20
-171.500000
 11
25.750000
 21
-171.500000
  0
LINE
  8
0
  6
CONTINUOUS
 62
7
 10
17.750000
 20
-192.000000
 11
17.750000
 21
-190.500000
  0
LINE
  8
0
  6
CONTINUOUS
 62
7
 10
17.750000
 20
-171.500000
 11
17.750000
 21
-170.000000
  0
LINE
  8
0
  6
CONTINUOUS
 62
7
 10
31.749901
 20
-190.815002
 11
31.749901
 21
-171.184998
  0
LINE
  8
0
  6
CONTINUOUS
 62
7
 10
25.750000
 20
-176.093002
 11
31.749901
 21
-176.093002
  0
LINE
  8
0
  6
CONTINUOUS
 62
7
 10
25.750000
 20
-190.815002
 11
31.749901
 21
-190.815002
  0
LINE
  8
0
  6
CONTINUOUS
 62
7
 10
25.750000
 20
-171.184998
 11
31.749901
 21
-171.184998
  0
LINE
  8
0
  6
CONTINUOUS
 62
7
 10
-351.750000
 20
-106.500000
 11
-311.750000
 21
-106.500000
  0
LINE
  8
0
  6
CONTINUOUS
 62
7
 10
-351.750000
 20
-106.500000
 11
-351.750000
 21
-119.500000
  0
LINE
  8
0
  6
CONTINUOUS
 62
7
 10
-351.750000
 20
-119.500000
 11
-311.750000
 21
-119.500000
  0
LINE
  8
0
  6
CONTINUOUS
 62
2
 10
31.749901
 20
-117.300003
 11
34.250000
 21
-117.300003
  0
LINE
  8
0
  6
CONTINUOUS
 62
2
 10
31.749901
 20
-108.699997
 11
34.250000
 21
-108.699997
  0
LINE
  8
0
  6
CONTINUOUS
 62
7
 10
31.749901
 20
-108.000000
 11
34.250000
 21
-108.000000
  0
LINE
  8
0
  6
CONTINUOUS
 62
7
 10
31.749901
 20
-118.000000
 11
34.250000
 21
-118.000000
  0
LINE
  8
0
  6
CONTINUOUS
 62
7
 10
34.250000
 20
-118.000000
 11
34.250000
 21
-108.000000
  0
LINE
  8
0
  6
CONTINUOUS
 62
7
 10
-102.250000
 20
-119.000000
 11
-2.250000
 21
-119.000000
  0
LINE
  8
0
  6
CONTINUOUS
 62
7
 10
-102.250000
 20
-107.000000
 11
-2.250000
 21
-107.000000
  0
LINE
  8
0
  6
CONTINUOUS
 62
7
 10
-2.250000
 20
-102.000000
 11
-2.250000
 21
-124.000000
  0
LINE
  8
0
  6
CONTINUOUS
 62
7
 10
-2.250000
 20
-124.000000
 11
25.750000
 21
-124.000000
  0
LINE
  8
0
  6
CONTINUOUS
 62
7
 10
-2.250000
 20
-102.000000
 11
25.750000
 21
-102.000000
  0
LINE
  8
0
  6
CONTINUOUS
 62
7
 10
31.749901
 20
-104.500000
 11
31.749901
 21
-121.500000
  0
LINE
  8
0
  6
CONTINUOUS
 62
7
 10
25.750000
 20
-102.000000
 11
25.750000
 21
-124.000000
  0
LINE
  8
0
  6
CONTINUOUS
 62
7
 10
17.750000
 20
-118.545998
 11
25.750000
 21
-118.545998
  0
LINE
  8
0
  6
CONTINUOUS
 62
7
 10
17.750000
 20
-107.454002
 11
25.750000
 21
-107.454002
  0
LINE
  8
0
  6
CONTINUOUS
 62
7
 10
17.750000
 20
-107.454002
 11
17.750000
 21
-118.545998
  0
LINE
  8
0
  6
CONTINUOUS
 62
2
 10
17.750000
 20
-118.545998
 11
25.749901
 21
-107.455002
  0
LINE
  8
0
  6
CONTINUOUS
 62
2
 10
17.750099
 20
-107.454002
 11
25.750000
 21
-118.544998
  0
LINE
  8
0
  6
CONTINUOUS
 62
7
 10
-145.250000
 20
-84.500000
 11
-132.250000
 21
-84.500000
  0
LINE
  8
0
  6
CONTINUOUS
 62
7
 10
-145.250000
 20
-84.500000
 11
-145.250000
 21
-90.500000
  0
LINE
  8
0
  6
CONTINUOUS
 62
7
 10
-132.250000
 20
-84.500000
 11
-132.250000
 21
-90.500000
  0
LINE
  8
0
  6
CONTINUOUS
 62
7
 10
-104.750000
 20
-135.500000
 11
-104.750000
 21
-90.500000
  0
LINE
  8
0
  6
CONTINUOUS
 62
2
 10
74.250000
 20
-97.699997
 11
75.250000
 21
-97.699997
  0
LINE
  8
0
  6
CONTINUOUS
 62
2
 10
70.450104
 20
-96.849998
 11
74.250099
 21
-96.849998
  0
LINE
  8
0
  6
CONTINUOUS
 62
2
 10
74.250000
 20
-96.849998
 11
74.250000
 21
-97.699997
  0
LINE
  8
0
  6
CONTINUOUS
 62
2
 10
68.950104
 20
-98.349998
 11
68.950104
 21
-99.650002
  0
LINE
  8
0
  6
CONTINUOUS
 62
2
 10
70.450104
 20
-101.150002
 11
74.250099
 21
-101.150002
  0
LINE
  8
0
  6
CONTINUOUS
 62
2
 10
74.250000
 20
-100.300003
 11
74.250000
 21
-101.150002
  0
LINE
  8
0
  6
CONTINUOUS
 62
2
 10
74.250099
 20
-100.300003
 11
75.250000
 21
-100.300003
  0
LINE
  8
0
  6
CONTINUOUS
 62
7
 10
75.250000
 20
-135.500000
 11
75.250000
 21
-90.500000
  0
LINE
  8
0
  6
CONTINUOUS
 62
7
 10
44.250000
 20
-135.500000
 11
75.250000
 21
-135.500000
  0
LINE
  8
0
  6
CONTINUOUS
 62
7
 10
44.250000
 20
-135.500000
 11
44.250000
 21
-90.500000
  0
LINE
  8
0
  6
CONTINUOUS
 62
7
 10
44.250000
 20
-90.500000
 11
75.250000
 21
-90.500000
  0
LINE
  8
0
  6
CONTINUOUS
 62
7
 10
49.250000
 20
-84.500000
 11
70.250000
 21
-84.500000
  0
LINE
  8
0
  6
CONTINUOUS
 62
7
 10
70.250000
 20
-90.500000
 11
70.250000
 21
-84.500000
  0
LINE
  8
0
  6
CONTINUOUS
 62
7
 10
49.250000
 20
-90.500000
 11
49.250000
 21
-84.500000
  0
LINE
  8
0
  6
CENTER
 62
2
 10
59.750099
 20
-137.500000
 11
59.750099
 21
-82.500000
  0
LINE
  8
0
  6
CONTINUOUS
 62
7
 10
-103.250000
 20
-166.250000
 11
-103.250000
 21
-195.750000
  0
LINE
  8
0
  6
CONTINUOUS
 62
7
 10
-103.250000
 20
-59.750000
 11
-103.250000
 21
-30.250000
  0
LINE
  8
0
  6
CONTINUOUS
 62
2
 10
-311.750000
 20
-100.300003
 11
-104.750000
 21
-100.300003
  0
LINE
  8
0
  6
CONTINUOUS
 62
7
 10
-104.750000
 20
-127.750000
 11
-103.250000
 21
-127.750000
  0
LINE
  8
0
  6
CONTINUOUS
 62
7
 10
-104.750000
 20
-98.250000
 11
-103.250000
 21
-98.250000
  0
LINE
  8
0
  6
CENTER
 62
2
 10
66.526199
 20
-127.000000
 11
77.250000
 21
-127.000000
  0
LINE
  8
0
  6
CENTER
 62
2
 10
66.526199
 20
-99.000000
 11
76.889999
 21
-99.000000
  0
LINE
  8
0
  6
CENTER
 62
2
 10
52.973801
 20
-127.000000
 11
42.250000
 21
-127.000000
  0
LINE
  8
0
  6
CENTER
 62
2
 10
52.973801
 20
-99.000000
 11
42.250000
 21
-99.000000
  0
LINE
  8
0
  6
CONTINUOUS
 62
7
 10
25.750000
 20
-185.906998
 11
31.749901
 21
-185.906998
  0
LINE
  8
0
  6
CENTER
 62
2
 10
-138.750000
 20
-82.500000
 11
-138.750000
 21
-92.500000
  0
LINE
  8
0
  6
DASHED
 62
2
 10
-189.250000
 20
-165.500000
 11
-189.250000
 21
-172.000000
  0
LINE
  8
0
  6
DASHED
 62
2
 10
-187.750000
 20
-172.000000
 11
-187.750000
 21
-190.000000
  0
LINE
  8
0
  6
DASHED
 62
2
 10
-187.449997
 20
-172.000000
 11
-187.449997
 21
-190.000000
  0
LINE
  8
0
  6
CENTER
 62
2
 10
-184.750000
 20
-163.500000
 11
-184.750000
 21
-198.500000
  0
LINE
  8
0
  6
DASHED
 62
2
 10
-189.250000
 20
-172.000000
 11
-180.250000
 21
-172.000000
  0
LINE
  8
0
  6
DASHED
 62
2
 10
-180.250000
 20
-165.500000
 11
-180.250000
 21
-172.000000
  0
LINE
  8
0
  6
DASHED
 62
2
 10
-189.250000
 20
-196.500000
 11
-189.250000
 21
-190.000000
  0
LINE
  8
0
  6
DASHED
 62
2
 10
-189.250000
 20
-190.000000
 11
-180.250000
 21
-190.000000
  0
LINE
  8
0
  6
DASHED
 62
2
 10
-180.250000
 20
-196.500000
 11
-180.250000
 21
-190.000000
  0
LINE
  8
0
  6
DASHED
 62
2
 10
-182.050003
 20
-172.000000
 11
-182.050003
 21
-190.000000
  0
LINE
  8
0
  6
DASHED
 62
2
 10
-181.750000
 20
-172.000000
 11
-181.750000
 21
-190.000000
  0
LINE
  8
0
  6
DASHED
 62
2
 10
-304.250000
 20
-196.500000
 11
-304.250000
 21
-190.000000
  0
LINE
  8
0
  6
DASHED
 62
2
 10
-304.250000
 20
-190.000000
 11
-295.250000
 21
-190.000000
  0
LINE
  8
0
  6
DASHED
 62
7
 10
-295.250000
 20
-196.500000
 11
-295.250000
 21
-190.000000
  0
LINE
  8
0
  6
DASHED
 62
2
 10
-296.750000
 20
-172.000000
 11
-296.750000
 21
-190.000000
  0
LINE
  8
0
  6
DASHED
 62
2
 10
-297.049988
 20
-172.000000
 11
-297.049988
 21
-190.000000
  0
LINE
  8
0
  6
DASHED
 62
2
 10
-302.450012
 20
-172.000000
 11
-302.450012
 21
-190.000000
  0
LINE
  8
0
  6
DASHED
 62
2
 10
-302.750000
 20
-172.000000
 11
-302.750000
 21
-190.000000
  0
LINE
  8
0
  6
CENTER
 62
2
 10
-299.750000
 20
-163.500000
 11
-299.750000
 21
-198.500000
  0
LINE
  8
0
  6
DASHED
 62
7
 10
-295.250000
 20
-165.500000
 11
-295.250000
 21
-172.000000
  0
LINE
  8
0
  6
DASHED
 62
2
 10
-304.250000
 20
-172.000000
 11
-295.250000
 21
-172.000000
  0
LINE
  8
0
  6
DASHED
 62
2
 10
-304.250000
 20
-165.500000
 11
-304.250000
 21
-172.000000
  0
LINE
  8
0
  6
CONTINUOUS
 62
2
 10
-359.750000
 20
-97.699997
 11
-358.750000
 21
-97.699997
  0
LINE
  8
0
  6
CONTINUOUS
 62
2
 10
-363.549988
 20
-96.849998
 11
-359.750000
 21
-96.849998
  0
LINE
  8
0
  6
CONTINUOUS
 62
2
 10
-359.750000
 20
-96.849998
 11
-359.750000
 21
-97.699997
  0
LINE
  8
0
  6
CONTINUOUS
 62
2
 10
-365.049988
 20
-98.349998
 11
-365.049988
 21
-99.650002
  0
LINE
  8
0
  6
CONTINUOUS
 62
2
 10
-363.549988
 20
-101.150002
 11
-359.750000
 21
-101.150002
  0
LINE
  8
0
  6
CONTINUOUS
 62
2
 10
-359.750000
 20
-100.300003
 11
-359.750000
 21
-101.150002
  0
LINE
  8
0
  6
CONTINUOUS
 62
2
 10
-359.750000
 20
-100.300003
 11
-358.750000
 21
-100.300003
  0
LINE
  8
0
  6
CONTINUOUS
 62
7
 10
-358.750000
 20
-135.500000
 11
-358.750000
 21
-90.500000
  0
LINE
  8
0
  6
CONTINUOUS
 62
7
 10
-389.750000
 20
-135.500000
 11
-358.750000
 21
-135.500000
  0
LINE
  8
0
  6
CONTINUOUS
 62
7
 10
-389.750000
 20
-135.500000
 11
-389.750000
 21
-90.500000
  0
LINE
  8
0
  6
CONTINUOUS
 62
7
 10
-389.750000
 20
-90.500000
 11
-358.750000
 21
-90.500000
  0
LINE
  8
0
  6
CENTER
 62
2
 10
-378.695007
 20
-95.500000
 11
-369.691986
 21
-95.500000
  0
LINE
  8
0
  6
CENTER
 62
2
 10
-378.695007
 20
-130.500000
 11
-369.691986
 21
-130.500000
  0
LINE
  8
0
  6
CONTINUOUS
 62
7
 10
-384.750000
 20
-84.500000
 11
-363.750000
 21
-84.500000
  0
LINE
  8
0
  6
CONTINUOUS
 62
7
 10
-363.750000
 20
-90.500000
 11
-363.750000
 21
-84.500000
  0
LINE
  8
0
  6
CONTINUOUS
 62
7
 10
-384.750000
 20
-90.500000
 11
-384.750000
 21
-84.500000
  0
LINE
  8
0
  6
CENTER
 62
2
 10
-374.250000
 20
-137.500000
 11
-374.250000
 21
-82.500000
  0
LINE
  8
0
  6
CENTER
 62
2
 10
-367.473999
 20
-127.000000
 11
-356.750000
 21
-127.000000
  0
LINE
  8
0
  6
CENTER
 62
2
 10
-367.473999
 20
-99.000000
 11
-356.750000
 21
-99.000000
  0
LINE
  8
0
  6
CENTER
 62
2
 10
-381.026001
 20
-127.000000
 11
-391.750000
 21
-127.000000
  0
LINE
  8
0
  6
CENTER
 62
2
 10
-381.026001
 20
-99.000000
 11
-391.750000
 21
-99.000000
  0
LINE
  8
0
  6
CONTINUOUS
 62
7
 10
25.750000
 20
-113.000000
 11
31.749901
 21
-113.000000
  0
LINE
  8
0
  6
CONTINUOUS
 62
7
 10
50.250099
 20
-118.544998
 11
50.250099
 21
-113.544998
  0
LINE
  8
0
  6
CONTINUOUS
 62
7
 10
69.250099
 20
-118.544998
 11
69.250099
 21
-113.544998
  0
LINE
  8
0
  6
CONTINUOUS
 62
7
 10
-311.750000
 20
-29.500000
 11
-311.750000
 21
-60.500000
  0
LINE
  8
0
  6
CONTINUOUS
 62
7
 10
-311.750000
 20
-29.500000
 11
-104.750000
 21
-29.500000
  0
LINE
  8
0
  6
CONTINUOUS
 62
7
 10
-311.750000
 20
-60.500000
 11
-104.750000
 21
-60.500000
  0
LINE
  8
0
  6
CENTER
 62
2
 10
-353.750000
 20
-45.000000
 11
36.250000
 21
-45.000000
  0
LINE
  8
0
  6
CONTINUOUS
 62
7
 10
-351.750000
 20
-51.500000
 11
-311.750000
 21
-51.500000
  0
LINE
  8
0
  6
CONTINUOUS
 62
7
 10
-351.750000
 20
-51.500000
 11
-351.750000
 21
-38.500000
  0
LINE
  8
0
  6
CONTINUOUS
 62
7
 10
-351.750000
 20
-38.500000
 11
-311.750000
 21
-38.500000
  0
LINE
  8
0
  6
CONTINUOUS
 62
7
 10
25.750000
 20
-35.185101
 11
25.750000
 21
-54.814899
  0
LINE
  8
0
  6
CONTINUOUS
 62
7
 10
25.750000
 20
-49.907501
 11
31.749901
 21
-49.907501
  0
LINE
  8
0
  6
CONTINUOUS
 62
7
 10
25.750000
 20
-40.092499
 11
31.749901
 21
-40.092499
  0
LINE
  8
0
  6
CONTINUOUS
 62
7
 10
25.750000
 20
-35.185101
 11
31.749901
 21
-35.185101
  0
LINE
  8
0
  6
CONTINUOUS
 62
7
 10
31.749901
 20
-35.185101
 11
31.749901
 21
-54.814899
  0
LINE
  8
0
  6
CONTINUOUS
 62
7
 10
25.750000
 20
-54.814899
 11
31.749901
 21
-54.814899
  0
LINE
  8
0
  6
DASHED
 62
2
 10
-269.750000
 20
-172.000000
 11
-269.750000
 21
-190.000000
  0
LINE
  8
0
  6
DASHED
 62
2
 10
-270.049988
 20
-172.000000
 11
-270.049988
 21
-190.000000
  0
LINE
  8
0
  6
DASHED
 62
2
 10
-275.450012
 20
-172.000000
 11
-275.450012
 21
-190.000000
  0
LINE
  8
0
  6
DASHED
 62
2
 10
-275.750000
 20
-172.000000
 11
-275.750000
 21
-190.000000
  0
LINE
  8
0
  6
CENTER
 62
2
 10
-272.750000
 20
-163.500000
 11
-272.750000
 21
-198.500000
  0
LINE
  8
0
  6
DASHED
 62
2
 10
-277.250000
 20
-172.000000
 11
-268.250000
 21
-172.000000
  0
LINE
  8
0
  6
DASHED
 62
2
 10
-268.250000
 20
-165.500000
 11
-268.250000
 21
-172.000000
  0
LINE
  8
0
  6
DASHED
 62
2
 10
-277.250000
 20
-165.500000
 11
-277.250000
 21
-172.000000
  0
LINE
  8
0
  6
DASHED
 62
2
 10
-277.250000
 20
-190.000000
 11
-268.250000
 21
-190.000000
  0
LINE
  8
0
  6
DASHED
 62
2
 10
-277.250000
 20
-196.500000
 11
-277.250000
 21
-190.000000
  0
LINE
  8
0
  6
DASHED
 62
2
 10
-268.250000
 20
-196.500000
 11
-268.250000
 21
-190.000000
  0
LINE
  8
0
  6
CONTINUOUS
 62
2
 10
-180.824005
 20
-128.300003
 11
-104.750000
 21
-128.300003
  0
LINE
  8
0
  6
CONTINUOUS
 62
2
 10
-180.824005
 20
-97.699997
 11
-104.750000
 21
-97.699997
  0
LINE
  8
0
  6
CONTINUOUS
 62
7
 10
54.842701
 20
-104.500000
 11
64.657501
 21
-104.500000
  0
LINE
  8
0
  6
CONTINUOUS
 62
7
 10
25.750000
 20
-104.500000
 11
31.749901
 21
-104.500000
  0
LINE
  8
0
  6
CONTINUOUS
 62
7
 10
49.935398
 20
-113.000000
 11
54.842899
 21
-104.500000
  0
LINE
  8
0
  6
CONTINUOUS
 62
7
 10
25.750000
 20
-121.500000
 11
31.749901
 21
-121.500000
  0
LINE
  8
0
  6
CONTINUOUS
 62
7
 10
49.935299
 20
-113.000000
 11
54.842800
 21
-121.500000
  0
LINE
  8
0
  6
CONTINUOUS
 62
7
 10
54.842701
 20
-121.500000
 11
64.657501
 21
-121.500000
  0
LINE
  8
0
  6
CONTINUOUS
 62
7
 10
69.565201
 20
-113.000000
 11
64.657799
 21
-121.500000
  0
LINE
  8
0
  6
CONTINUOUS
 62
7
 10
69.565102
 20
-113.000000
 11
64.657600
 21
-104.500000
  0
LINE
  8
0
  6
CONTINUOUS
 62
7
 10
50.250099
 20
-112.455002
 11
50.250099
 21
-107.455002
  0
LINE
  8
0
  6
CONTINUOUS
 62
7
 10
69.250099
 20
-112.455002
 11
69.250099
 21
-107.455002
  0
LINE
  8
0
  6
CONTINUOUS
 62
7
 10
-311.750000
 20
13.500000
 11
-311.750000
 21
44.500000
  0
LINE
  8
0
  6
CONTINUOUS
 62
7
 10
-311.750000
 20
13.500000
 11
-179.750000
 21
13.500000
  0
LINE
  8
0
  6
CONTINUOUS
 62
7
 10
-311.750000
 20
44.500000
 11
-179.750000
 21
44.500000
  0
LINE
  8
0
  6
CONTINUOUS
 62
7
 10
-311.750000
 20
74.500000
 11
-179.750000
 21
74.500000
  0
LINE
  8
0
  6
CONTINUOUS
 62
7
 10
-311.750000
 20
119.500000
 11
-179.750000
 21
119.500000
  0
LINE
  8
0
  6
CONTINUOUS
 62
7
 10
-311.750000
 20
74.500000
 11
-311.750000
 21
119.500000
  0
LINE
  8
0
  6
CONTINUOUS
 62
2
 10
-311.750000
 20
112.300003
 11
-303.675995
 21
112.300003
  0
LINE
  8
0
  6
CONTINUOUS
 62
2
 10
-295.824005
 20
112.300003
 11
-276.675995
 21
112.300003
  0
LINE
  8
0
  6
CONTINUOUS
 62
2
 10
-311.750000
 20
81.699997
 11
-303.675995
 21
81.699997
  0
LINE
  8
0
  6
CONTINUOUS
 62
2
 10
-311.750000
 20
84.300003
 11
-179.750000
 21
84.300003
  0
LINE
  8
0
  6
CONTINUOUS
 62
2
 10
-295.824005
 20
81.699997
 11
-276.675995
 21
81.699997
  0
LINE
  8
0
  6
CONTINUOUS
 62
2
 10
-268.824005
 20
81.699997
 11
-179.750000
 21
81.699997
  0
LINE
  8
0
  6
CONTINUOUS
 62
2
 10
-268.824005
 20
112.300003
 11
-179.750000
 21
112.300003
  0
LINE
  8
0
  6
CENTER
 62
2
 10
-353.750000
 20
29.000000
 11
-113.750000
 21
29.000000
  0
LINE
  8
0
  6
CENTER
 62
2
 10
-353.750000
 20
97.000000
 11
-113.750000
 21
97.000000
  0
LINE
  8
0
  6
CONTINUOUS
 62
7
 10
-179.750000
 20
13.500000
 11
-179.750000
 21
44.500000
  0
LINE
  8
0
  6
CONTINUOUS
 62
7
 10
-179.750000
 20
149.500000
 11
-179.750000
 21
180.500000
  0
LINE
  8
0
  6
CONTINUOUS
 62
7
 10
-351.750000
 20
22.500000
 11
-311.750000
 21
22.500000
  0
LINE
  8
0
  6
CONTINUOUS
 62
7
 10
-351.750000
 20
22.500000
 11
-351.750000
 21
35.500000
  0
LINE
  8
0
  6
CONTINUOUS
 62
7
 10
-351.750000
 20
35.500000
 11
-311.750000
 21
35.500000
  0
LINE
  8
0
  6
CONTINUOUS
 62
2
 10
-118.250000
 20
160.699997
 11
-115.750000
 21
160.699997
  0
LINE
  8
0
  6
CONTINUOUS
 62
2
 10
-118.250000
 20
169.300003
 11
-115.750000
 21
169.300003
  0
LINE
  8
0
  6
CONTINUOUS
 62
7
 10
-118.250000
 20
170.000000
 11
-115.750000
 21
170.000000
  0
LINE
  8
0
  6
CONTINUOUS
 62
7
 10
-118.250000
 20
160.000000
 11
-115.750000
 21
160.000000
  0
LINE
  8
0
  6
CONTINUOUS
 62
7
 10
-115.750000
 20
160.000000
 11
-115.750000
 21
170.000000
  0
LINE
  8
0
  6
CONTINUOUS
 62
7
 10
-177.250000
 20
159.000000
 11
-152.250000
 21
159.000000
  0
LINE
  8
0
  6
CONTINUOUS
 62
7
 10
-177.250000
 20
171.000000
 11
-152.250000
 21
171.000000
  0
LINE
  8
0
  6
CONTINUOUS
 62
7
 10
-179.750000
 20
179.750000
 11
-178.250000
 21
179.750000
  0
LINE
  8
0
  6
CONTINUOUS
 62
7
 10
-179.750000
 20
150.250000
 11
-178.250000
 21
150.250000
  0
LINE
  8
0
  6
CONTINUOUS
 62
7
 10
-178.250000
 20
155.500000
 11
-177.250000
 21
155.500000
  0
LINE
  8
0
  6
CONTINUOUS
 62
7
 10
-178.250000
 20
174.500000
 11
-177.250000
 21
174.500000
  0
LINE
  8
0
  6
CONTINUOUS
 62
7
 10
-177.250000
 20
155.500000
 11
-177.250000
 21
174.500000
  0
LINE
  8
0
  6
CONTINUOUS
 62
7
 10
-177.250000
 20
87.500000
 11
-177.250000
 21
106.500000
  0
LINE
  8
0
  6
CONTINUOUS
 62
7
 10
-178.250000
 20
82.250000
 11
-178.250000
 21
111.750000
  0
LINE
  8
0
  6
CONTINUOUS
 62
7
 10
-178.250000
 20
87.500000
 11
-177.250000
 21
87.500000
  0
LINE
  8
0
  6
CONTINUOUS
 62
7
 10
-178.250000
 20
106.500000
 11
-177.250000
 21
106.500000
  0
LINE
  8
0
  6
CONTINUOUS
 62
7
 10
-152.250000
 20
176.000000
 11
-152.250000
 21
154.000000
  0
LINE
  8
0
  6
CONTINUOUS
 62
7
 10
-152.250000
 20
154.000000
 11
-132.250000
 21
154.000000
  0
LINE
  8
0
  6
CONTINUOUS
 62
7
 10
-152.250000
 20
176.000000
 11
-132.250000
 21
176.000000
  0
LINE
  8
0
  6
CONTINUOUS
 62
7
 10
-132.250000
 20
174.500000
 11
-124.250000
 21
174.500000
  0
LINE
  8
0
  6
CONTINUOUS
 62
7
 10
-132.250000
 20
155.500000
 11
-124.250000
 21
155.500000
  0
LINE
  8
0
  6
CONTINUOUS
 62
7
 10
-132.250000
 20
176.000000
 11
-132.250000
 21
174.500000
  0
LINE
  8
0
  6
CONTINUOUS
 62
7
 10
-132.250000
 20
155.500000
 11
-132.250000
 21
154.000000
  0
LINE
  8
0
  6
CONTINUOUS
 62
7
 10
-207.250000
 20
175.500000
 11
-207.250000
 21
154.500000
  0
LINE
  8
0
  6
CONTINUOUS
 62
7
 10
-220.250000
 20
175.500000
 11
-220.250000
 21
154.500000
  0
LINE
  8
0
  6
CONTINUOUS
 62
7
 10
-220.250000
 20
175.500000
 11
-207.250000
 21
175.500000
  0
LINE
  8
0
  6
CONTINUOUS
 62
7
 10
-220.250000
 20
154.500000
 11
-207.250000
 21
154.500000
  0
LINE
  8
0
  6
CONTINUOUS
 62
7
 10
-178.250000
 20
19.500000
 11
-177.250000
 21
19.500000
  0
LINE
  8
0
  6
CONTINUOUS
 62
7
 10
-177.250000
 20
38.500000
 11
-177.250000
 21
19.500000
  0
LINE
  8
0
  6
CONTINUOUS
 62
7
 10
-179.750000
 20
14.250000
 11
-178.250000
 21
14.250000
  0
LINE
  8
0
  6
CONTINUOUS
 62
7
 10
-179.750000
 20
43.750000
 11
-178.250000
 21
43.750000
  0
LINE
  8
0
  6
CONTINUOUS
 62
7
 10
-178.250000
 20
38.500000
 11
-177.250000
 21
38.500000
  0
LINE
  8
0
  6
CONTINUOUS
 62
2
 10
-118.250000
 20
33.299999
 11
-115.750000
 21
33.299999
  0
LINE
  8
0
  6
CONTINUOUS
 62
2
 10
-118.250000
 20
24.700001
 11
-115.750000
 21
24.700001
  0
LINE
  8
0
  6
CONTINUOUS
 62
7
 10
-118.250000
 20
24.000000
 11
-115.750000
 21
24.000000
  0
LINE
  8
0
  6
CONTINUOUS
 62
7
 10
-118.250000
 20
34.000000
 11
-115.750000
 21
34.000000
  0
LINE
  8
0
  6
CONTINUOUS
 62
7
 10
-115.750000
 20
34.000000
 11
-115.750000
 21
24.000000
  0
LINE
  8
0
  6
CONTINUOUS
 62
7
 10
-177.250000
 20
35.000000
 11
-152.250000
 21
35.000000
  0
LINE
  8
0
  6
CONTINUOUS
 62
7
 10
-177.250000
 20
23.000000
 11
-152.250000
 21
23.000000
  0
LINE
  8
0
  6
CONTINUOUS
 62
7
 10
-152.250000
 20
18.000000
 11
-152.250000
 21
40.000000
  0
LINE
  8
0
  6
CONTINUOUS
 62
7
 10
-124.250000
 20
19.185101
 11
-124.250000
 21
38.814999
  0
LINE
  8
0
  6
CONTINUOUS
 62
7
 10
-152.250000
 20
40.000000
 11
-132.250000
 21
40.000000
  0
LINE
  8
0
  6
CONTINUOUS
 62
7
 10
-152.250000
 20
18.000000
 11
-132.250000
 21
18.000000
  0
LINE
  8
0
  6
CONTINUOUS
 62
7
 10
-132.250000
 20
19.500000
 11
-124.250000
 21
19.500000
  0
LINE
  8
0
  6
CONTINUOUS
 62
7
 10
-132.250000
 20
38.500000
 11
-124.250000
 21
38.500000
  0
LINE
  8
0
  6
CONTINUOUS
 62
7
 10
-132.250000
 20
18.000000
 11
-132.250000
 21
19.500000
  0
LINE
  8
0
  6
CONTINUOUS
 62
7
 10
-132.250000
 20
38.500000
 11
-132.250000
 21
40.000000
  0
LINE
  8
0
  6
CONTINUOUS
 62
7
 10
-118.250000
 20
19.185101
 11
-118.250000
 21
38.814999
  0
LINE
  8
0
  6
CONTINUOUS
 62
7
 10
-124.250000
 20
33.907501
 11
-118.250000
 21
33.907501
  0
LINE
  8
0
  6
CONTINUOUS
 62
7
 10
-124.250000
 20
19.185101
 11
-118.250000
 21
19.185101
  0
LINE
  8
0
  6
CONTINUOUS
 62
7
 10
-124.250000
 20
38.814999
 11
-118.250000
 21
38.814999
  0
LINE
  8
0
  6
CONTINUOUS
 62
7
 10
-351.750000
 20
103.500000
 11
-311.750000
 21
103.500000
  0
LINE
  8
0
  6
CONTINUOUS
 62
7
 10
-351.750000
 20
103.500000
 11
-351.750000
 21
90.500000
  0
LINE
  8
0
  6
CONTINUOUS
 62
7
 10
-351.750000
 20
90.500000
 11
-311.750000
 21
90.500000
  0
LINE
  8
0
  6
CONTINUOUS
 62
2
 10
-118.250000
 20
92.699997
 11
-115.750000
 21
92.699997
  0
LINE
  8
0
  6
CONTINUOUS
 62
2
 10
-118.250000
 20
101.300003
 11
-115.750000
 21
101.300003
  0
LINE
  8
0
  6
CONTINUOUS
 62
7
 10
-118.250000
 20
102.000000
 11
-115.750000
 21
102.000000
  0
LINE
  8
0
  6
CONTINUOUS
 62
7
 10
-118.250000
 20
92.000000
 11
-115.750000
 21
92.000000
  0
LINE
  8
0
  6
CONTINUOUS
 62
7
 10
-115.750000
 20
92.000000
 11
-115.750000
 21
102.000000
  0
LINE
  8
0
  6
CONTINUOUS
 62
7
 10
-177.250000
 20
91.000000
 11
-152.250000
 21
91.000000
  0
LINE
  8
0
  6
CONTINUOUS
 62
7
 10
-177.250000
 20
103.000000
 11
-152.250000
 21
103.000000
  0
LINE
  8
0
  6
CONTINUOUS
 62
7
 10
-152.250000
 20
108.000000
 11
-152.250000
 21
86.000000
  0
LINE
  8
0
  6
CONTINUOUS
 62
7
 10
-152.250000
 20
86.000000
 11
-124.250000
 21
86.000000
  0
LINE
  8
0
  6
CONTINUOUS
 62
7
 10
-152.250000
 20
108.000000
 11
-124.250000
 21
108.000000
  0
LINE
  8
0
  6
CONTINUOUS
 62
7
 10
-118.250000
 20
105.500000
 11
-118.250000
 21
88.500000
  0
LINE
  8
0
  6
CONTINUOUS
 62
7
 10
-124.250000
 20
108.000000
 11
-124.250000
 21
86.000000
  0
LINE
  8
0
  6
CONTINUOUS
 62
7
 10
-132.250000
 20
91.454498
 11
-124.250000
 21
91.454498
  0
LINE
  8
0
  6
CONTINUOUS
 62
7
 10
-132.250000
 20
102.545998
 11
-124.250000
 21
102.545998
  0
LINE
  8
0
  6
CONTINUOUS
 62
7
 10
-132.250000
 20
102.545998
 11
-132.250000
 21
91.454498
  0
LINE
  8
0
  6
CONTINUOUS
 62
2
 10
-132.250000
 20
91.454498
 11
-124.250000
 21
102.544998
  0
LINE
  8
0
  6
CONTINUOUS
 62
2
 10
-132.250000
 20
102.545998
 11
-124.250000
 21
91.454498
  0
LINE
  8
0
  6
CONTINUOUS
 62
7
 10
-220.250000
 20
125.500000
 11
-207.250000
 21
125.500000
  0
LINE
  8
0
  6
CONTINUOUS
 62
7
 10
-220.250000
 20
125.500000
 11
-220.250000
 21
119.500000
  0
LINE
  8
0
  6
CONTINUOUS
 62
7
 10
-207.250000
 20
125.500000
 11
-207.250000
 21
119.500000
  0
LINE
  8
0
  6
CONTINUOUS
 62
7
 10
-179.750000
 20
74.500000
 11
-179.750000
 21
119.500000
  0
LINE
  8
0
  6
CONTINUOUS
 62
2
 10
-75.750000
 20
112.300003
 11
-74.750000
 21
112.300003
  0
LINE
  8
0
  6
CONTINUOUS
 62
2
 10
-79.549896
 20
113.150002
 11
-75.749901
 21
113.150002
  0
LINE
  8
0
  6
CONTINUOUS
 62
2
 10
-75.750000
 20
113.150002
 11
-75.750000
 21
112.300003
  0
LINE
  8
0
  6
CONTINUOUS
 62
2
 10
-81.049896
 20
111.650002
 11
-81.049896
 21
110.349998
  0
LINE
  8
0
  6
CONTINUOUS
 62
2
 10
-79.549896
 20
108.849998
 11
-75.749901
 21
108.849998
  0
LINE
  8
0
  6
CONTINUOUS
 62
2
 10
-75.750000
 20
109.699997
 11
-75.750000
 21
108.849998
  0
LINE
  8
0
  6
CONTINUOUS
 62
2
 10
-75.749901
 20
109.699997
 11
-74.750000
 21
109.699997
  0
LINE
  8
0
  6
CONTINUOUS
 62
7
 10
-74.750000
 20
74.500000
 11
-74.750000
 21
119.500000
  0
LINE
  8
0
  6
CONTINUOUS
 62
7
 10
-105.750000
 20
74.500000
 11
-74.750000
 21
74.500000
  0
LINE
  8
0
  6
CONTINUOUS
 62
7
 10
-105.750000
 20
74.500000
 11
-105.750000
 21
119.500000
  0
LINE
  8
0
  6
CONTINUOUS
 62
7
 10
-105.750000
 20
119.500000
 11
-74.750000
 21
119.500000
  0
LINE
  8
0
  6
CONTINUOUS
 62
7
 10
-100.750000
 20
125.500000
 11
-79.750000
 21
125.500000
  0
LINE
  8
0
  6
CONTINUOUS
 62
7
 10
-79.750000
 20
119.500000
 11
-79.750000
 21
125.500000
  0
LINE
  8
0
  6
CONTINUOUS
 62
7
 10
-100.750000
 20
119.500000
 11
-100.750000
 21
125.500000
  0
LINE
  8
0
  6
CENTER
 62
2
 10
-90.249901
 20
72.500000
 11
-90.249901
 21
127.500000
  0
LINE
  8
0
  6
CONTINUOUS
 62
7
 10
-178.250000
 20
43.750000
 11
-178.250000
 21
14.250000
  0
LINE
  8
0
  6
CONTINUOUS
 62
7
 10
-178.250000
 20
150.250000
 11
-178.250000
 21
179.750000
  0
LINE
  8
0
  6
CENTER
 62
2
 10
-213.750000
 20
168.250000
 11
-213.750000
 21
161.750000
  0
LINE
  8
0
  6
CONTINUOUS
 62
2
 10
-311.750000
 20
109.699997
 11
-179.750000
 21
109.699997
  0
LINE
  8
0
  6
CONTINUOUS
 62
7
 10
-179.750000
 20
82.250000
 11
-178.250000
 21
82.250000
  0
LINE
  8
0
  6
CONTINUOUS
 62
7
 10
-179.750000
 20
111.750000
 11
-178.250000
 21
111.750000
  0
LINE
  8
0
  6
CENTER
 62
2
 10
-83.473801
 20
83.000000
 11
-72.750000
 21
83.000000
  0
LINE
  8
0
  6
CENTER
 62
2
 10
-83.473801
 20
111.000000
 11
-72.750000
 21
111.000000
  0
LINE
  8
0
  6
CENTER
 62
2
 10
-97.026199
 20
83.000000
 11
-107.750000
 21
83.000000
  0
LINE
  8
0
  6
CENTER
 62
2
 10
-97.026199
 20
111.000000
 11
-107.389999
 21
111.000000
  0
LINE
  8
0
  6
CONTINUOUS
 62
7
 10
-124.250000
 20
24.092501
 11
-118.250000
 21
24.092501
  0
LINE
  8
0
  6
CENTER
 62
2
 10
-213.750000
 20
127.500000
 11
-213.750000
 21
117.500000
  0
LINE
  8
0
  6
DASHED
 62
2
 10
-277.250000
 20
44.500000
 11
-277.250000
 21
38.000000
  0
LINE
  8
0
  6
DASHED
 62
2
 10
-275.750000
 20
38.000000
 11
-275.750000
 21
20.000000
  0
LINE
  8
0
  6
DASHED
 62
2
 10
-275.450012
 20
38.000000
 11
-275.450012
 21
20.000000
  0
LINE
  8
0
  6
CENTER
 62
2
 10
-272.750000
 20
46.500000
 11
-272.750000
 21
11.500000
  0
LINE
  8
0
  6
DASHED
 62
2
 10
-277.250000
 20
38.000000
 11
-268.250000
 21
38.000000
  0
LINE
  8
0
  6
DASHED
 62
2
 10
-268.250000
 20
44.500000
 11
-268.250000
 21
38.000000
  0
LINE
  8
0
  6
DASHED
 62
2
 10
-277.250000
 20
13.500000
 11
-277.250000
 21
20.000000
  0
LINE
  8
0
  6
DASHED
 62
2
 10
-277.250000
 20
20.000000
 11
-268.250000
 21
20.000000
  0
LINE
  8
0
  6
DASHED
 62
2
 10
-268.250000
 20
13.500000
 11
-268.250000
 21
20.000000
  0
LINE
  8
0
  6
DASHED
 62
2
 10
-270.049988
 20
38.000000
 11
-270.049988
 21
20.000000
  0
LINE
  8
0
  6
DASHED
 62
2
 10
-269.750000
 20
38.000000
 11
-269.750000
 21
20.000000
  0
LINE
  8
0
  6
DASHED
 62
2
 10
-304.250000
 20
13.500000
 11
-304.250000
 21
20.000000
  0
LINE
  8
0
  6
DASHED
 62
2
 10
-304.250000
 20
20.000000
 11
-295.250000
 21
20.000000
  0
LINE
  8
0
  6
DASHED
 62
2
 10
-295.250000
 20
13.500000
 11
-295.250000
 21
20.000000
  0
LINE
  8
0
  6
DASHED
 62
2
 10
-296.750000
 20
38.000000
 11
-296.750000
 21
20.000000
  0
LINE
  8
0
  6
DASHED
 62
2
 10
-297.049988
 20
38.000000
 11
-297.049988
 21
20.000000
  0
LINE
  8
0
  6
DASHED
 62
2
 10
-302.450012
 20
38.000000
 11
-302.450012
 21
20.000000
  0
LINE
  8
0
  6
DASHED
 62
2
 10
-302.750000
 20
38.000000
 11
-302.750000
 21
20.000000
  0
LINE
  8
0
  6
CENTER
 62
2
 10
-299.750000
 20
46.500000
 11
-299.750000
 21
11.500000
  0
LINE
  8
0
  6
DASHED
 62
2
 10
-295.250000
 20
44.500000
 11
-295.250000
 21
38.000000
  0
LINE
  8
0
  6
DASHED
 62
2
 10
-304.250000
 20
38.000000
 11
-295.250000
 21
38.000000
  0
LINE
  8
0
  6
DASHED
 62
2
 10
-304.250000
 20
44.500000
 11
-304.250000
 21
38.000000
  0
LINE
  8
0
  6
CONTINUOUS
 62
2
 10
-359.750000
 20
112.300003
 11
-358.750000
 21
112.300003
  0
LINE
  8
0
  6
CONTINUOUS
 62
2
 10
-363.549988
 20
113.150002
 11
-359.750000
 21
113.150002
  0
LINE
  8
0
  6
CONTINUOUS
 62
2
 10
-359.750000
 20
113.150002
 11
-359.750000
 21
112.300003
  0
LINE
  8
0
  6
CONTINUOUS
 62
2
 10
-365.049988
 20
111.650002
 11
-365.049988
 21
110.349998
  0
LINE
  8
0
  6
CONTINUOUS
 62
2
 10
-363.549988
 20
108.849998
 11
-359.750000
 21
108.849998
  0
LINE
  8
0
  6
CONTINUOUS
 62
2
 10
-359.750000
 20
109.699997
 11
-359.750000
 21
108.849998
  0
LINE
  8
0
  6
CONTINUOUS
 62
2
 10
-359.750000
 20
109.699997
 11
-358.750000
 21
109.699997
  0
LINE
  8
0
  6
CONTINUOUS
 62
7
 10
-358.750000
 20
74.500000
 11
-358.750000
 21
119.500000
  0
LINE
  8
0
  6
CONTINUOUS
 62
7
 10
-389.750000
 20
74.500000
 11
-358.750000
 21
74.500000
  0
LINE
  8
0
  6
CONTINUOUS
 62
7
 10
-389.750000
 20
74.500000
 11
-389.750000
 21
119.500000
  0
LINE
  8
0
  6
CONTINUOUS
 62
7
 10
-389.750000
 20
119.500000
 11
-358.750000
 21
119.500000
  0
LINE
  8
0
  6
CONTINUOUS
 62
7
 10
-384.750000
 20
125.500000
 11
-363.750000
 21
125.500000
  0
LINE
  8
0
  6
CONTINUOUS
 62
7
 10
-363.750000
 20
119.500000
 11
-363.750000
 21
125.500000
  0
LINE
  8
0
  6
CONTINUOUS
 62
7
 10
-384.750000
 20
119.500000
 11
-384.750000
 21
125.500000
  0
LINE
  8
0
  6
CENTER
 62
2
 10
-374.250000
 20
72.500000
 11
-374.250000
 21
127.500000
  0
LINE
  8
0
  6
CENTER
 62
2
 10
-367.473999
 20
83.000000
 11
-356.750000
 21
83.000000
  0
LINE
  8
0
  6
CENTER
 62
2
 10
-367.473999
 20
111.000000
 11
-356.750000
 21
111.000000
  0
LINE
  8
0
  6
CENTER
 62
2
 10
-381.026001
 20
83.000000
 11
-391.750000
 21
83.000000
  0
LINE
  8
0
  6
CENTER
 62
2
 10
-381.026001
 20
111.000000
 11
-391.750000
 21
111.000000
  0
LINE
  8
0
  6
CONTINUOUS
 62
7
 10
-124.250000
 20
97.000000
 11
-118.250000
 21
97.000000
  0
LINE
  8
0
  6
CONTINUOUS
 62
7
 10
-99.749901
 20
91.454697
 11
-99.749901
 21
96.454498
  0
LINE
  8
0
  6
CONTINUOUS
 62
7
 10
-80.749901
 20
91.454697
 11
-80.749901
 21
96.454498
  0
LINE
  8
0
  6
CONTINUOUS
 62
7
 10
-311.750000
 20
180.500000
 11
-311.750000
 21
149.500000
  0
LINE
  8
0
  6
CONTINUOUS
 62
7
 10
-311.750000
 20
180.500000
 11
-179.750000
 21
180.500000
  0
LINE
  8
0
  6
CONTINUOUS
 62
7
 10
-311.750000
 20
149.500000
 11
-179.750000
 21
149.500000
  0
LINE
  8
0
  6
CENTER
 62
2
 10
-353.750000
 20
165.000000
 11
-113.750000
 21
165.000000
  0
LINE
  8
0
  6
CONTINUOUS
 62
7
 10
-351.750000
 20
158.500000
 11
-311.750000
 21
158.500000
  0
LINE
  8
0
  6
CONTINUOUS
 62
7
 10
-351.750000
 20
158.500000
 11
-351.750000
 21
171.500000
  0
LINE
  8
0
  6
CONTINUOUS
 62
7
 10
-351.750000
 20
171.500000
 11
-311.750000
 21
171.500000
  0
LINE
  8
0
  6
CONTINUOUS
 62
7
 10
-124.250000
 20
174.815002
 11
-124.250000
 21
155.184998
  0
LINE
  8
0
  6
CONTINUOUS
 62
7
 10
-124.250000
 20
160.093002
 11
-118.250000
 21
160.093002
  0
LINE
  8
0
  6
CONTINUOUS
 62
7
 10
-124.250000
 20
169.906998
 11
-118.250000
 21
169.906998
  0
LINE
  8
0
  6
CONTINUOUS
 62
7
 10
-124.250000
 20
174.815002
 11
-118.250000
 21
174.815002
  0
LINE
  8
0
  6
CONTINUOUS
 62
7
 10
-118.250000
 20
174.815002
 11
-118.250000
 21
155.184998
  0
LINE
  8
0
  6
CONTINUOUS
 62
7
 10
-124.250000
 20
155.184998
 11
-118.250000
 21
155.184998
  0
LINE
  8
0
  6
CONTINUOUS
 62
7
 10
-124.250000
 20
88.500000
 11
-118.250000
 21
88.500000
  0
LINE
  8
0
  6
CONTINUOUS
 62
7
 10
-124.250000
 20
105.500000
 11
-118.250000
 21
105.500000
  0
LINE
  8
0
  6
CONTINUOUS
 62
7
 10
-95.157402
 20
105.500000
 11
-85.342400
 21
105.500000
  0
LINE
  8
0
  6
CONTINUOUS
 62
7
 10
-95.157402
 20
88.500000
 11
-85.342400
 21
88.500000
  0
LINE
  8
0
  6
CONTINUOUS
 62
7
 10
-99.749901
 20
97.545502
 11
-99.749901
 21
102.544998
  0
LINE
  8
0
  6
CONTINUOUS
 62
7
 10
-80.749901
 20
97.545502
 11
-80.749901
 21
102.544998
  0
LINE
  8
0
  6
CONTINUOUS
 62
7
 10
-100.065002
 20
97.000000
 11
-95.157402
 21
105.500000
  0
LINE
  8
0
  6
CONTINUOUS
 62
7
 10
-85.342499
 20
88.500000
 11
-80.434998
 21
96.999901
  0
LINE
  8
0
  6
CONTINUOUS
 62
7
 10
-85.342400
 20
105.500000
 11
-80.434998
 21
97.000000
  0
LINE
  8
0
  6
CONTINUOUS
 62
7
 10
-100.065002
 20
97.000000
 11
-95.157303
 21
88.500000
  0
LINE
  8
0
  6
CENTER
 62
2
 10
-378.750000
 20
114.500000
 11
-369.750000
 21
114.500000
  0
LINE
  8
0
  6
CENTER
 62
2
 10
-391.750000
 20
97.000000
 11
-356.750000
 21
97.000000
  0
LINE
  8
0
  6
CENTER
 62
2
 10
-378.750000
 20
79.500000
 11
-369.750000
 21
79.500000
  0
LINE
  8
0
  6
CENTER
 62
2
 10
-107.750000
 20
97.000000
 11
-72.750000
 21
97.000000
  0
LINE
  8
0
  6
CENTER
 62
2
 10
-263.750000
 20
172.500000
 11
-263.750000
 21
163.500000
  0
LINE
  8
0
  6
CENTER
 62
2
 10
-268.250000
 20
168.000000
 11
-259.250000
 21
168.000000
  0
LINE
  8
0
  6
CENTER
 62
2
 10
-194.750000
 20
166.500000
 11
-194.750000
 21
157.500000
  0
LINE
  8
0
  6
CENTER
 62
2
 10
-199.250000
 20
162.000000
 11
-190.250000
 21
162.000000
  0
LINE
  8
0
  6
CENTER
 62
2
 10
-299.750000
 20
86.000000
 11
-299.750000
 21
73.000000
  0
LINE
  8
0
  6
CENTER
 62
2
 10
-306.250000
 20
79.500000
 11
-293.250000
 21
79.500000
  0
LINE
  8
0
  6
CENTER
 62
2
 10
-299.750000
 20
121.000000
 11
-299.750000
 21
108.000000
  0
LINE
  8
0
  6
CENTER
 62
2
 10
-306.250000
 20
114.500000
 11
-293.250000
 21
114.500000
  0
LINE
  8
0
  6
CENTER
 62
2
 10
-272.750000
 20
121.000000
 11
-272.750000
 21
108.000000
  0
LINE
  8
0
  6
CENTER
 62
2
 10
-279.250000
 20
114.500000
 11
-266.250000
 21
114.500000
  0
LINE
  8
0
  6
CENTER
 62
2
 10
-272.750000
 20
86.000000
 11
-272.750000
 21
73.000000
  0
LINE
  8
0
  6
CENTER
 62
2
 10
-279.250000
 20
79.500000
 11
-266.250000
 21
79.500000
  0
LINE
  8
0
  6
CENTER
 62
2
 10
-291.750000
 20
44.000000
 11
-291.750000
 21
35.000000
  0
LINE
  8
0
  6
CENTER
 62
2
 10
-296.250000
 20
39.500000
 11
-287.250000
 21
39.500000
  0
LINE
  8
0
  6
CENTER
 62
2
 10
-264.750000
 20
44.000000
 11
-264.750000
 21
35.000000
  0
LINE
  8
0
  6
CENTER
 62
2
 10
-269.250000
 20
39.500000
 11
-260.250000
 21
39.500000
  0
LINE
  8
0
  6
CENTER
 62
2
 10
-264.750000
 20
23.000000
 11
-264.750000
 21
14.000000
  0
LINE
  8
0
  6
CENTER
 62
2
 10
-269.250000
 20
18.500000
 11
-260.250000
 21
18.500000
  0
LINE
  8
0
  6
CENTER
 62
2
 10
-291.750000
 20
23.000000
 11
-291.750000
 21
14.000000
  0
LINE
  8
0
  6
CENTER
 62
2
 10
-296.250000
 20
18.500000
 11
-287.250000
 21
18.500000
  0
LINE
  8
0
  6
CENTER
 62
2
 10
-353.750000
 20
-113.000000
 11
36.250000
 21
-113.000000
  0
LINE
  8
0
  6
CENTER
 62
2
 10
42.250000
 20
-113.000000
 11
77.250000
 21
-113.000000
  0
LINE
  8
0
  6
CENTER
 62
2
 10
-263.750000
 20
-37.500000
 11
-263.750000
 21
-46.500000
  0
LINE
  8
0
  6
CENTER
 62
2
 10
-268.250000
 20
-42.000000
 11
-259.250000
 21
-42.000000
  0
LINE
  8
0
  6
CENTER
 62
2
 10
-138.750000
 20
-41.750000
 11
-138.750000
 21
-48.250000
  0
LINE
  8
0
  6
CENTER
 62
2
 10
-119.750000
 20
-43.500000
 11
-119.750000
 21
-52.500000
  0
LINE
  8
0
  6
CENTER
 62
2
 10
-124.250000
 20
-48.000000
 11
-115.250000
 21
-48.000000
  0
LINE
  8
0
  6
CENTER
 62
2
 10
-299.750000
 20
-89.000000
 11
-299.750000
 21
-102.000000
  0
LINE
  8
0
  6
CENTER
 62
2
 10
-306.250000
 20
-95.500000
 11
-293.250000
 21
-95.500000
  0
LINE
  8
0
  6
CENTER
 62
2
 10
-272.750000
 20
-89.000000
 11
-272.750000
 21
-102.000000
  0
LINE
  8
0
  6
CENTER
 62
2
 10
-279.250000
 20
-95.500000
 11
-266.250000
 21
-95.500000
  0
LINE
  8
0
  6
CENTER
 62
2
 10
-184.750000
 20
-89.000000
 11
-184.750000
 21
-102.000000
  0
LINE
  8
0
  6
CENTER
 62
2
 10
-191.250000
 20
-95.500000
 11
-178.250000
 21
-95.500000
  0
LINE
  8
0
  6
CENTER
 62
2
 10
-184.750000
 20
-124.000000
 11
-184.750000
 21
-137.000000
  0
LINE
  8
0
  6
CENTER
 62
2
 10
-191.250000
 20
-130.500000
 11
-178.250000
 21
-130.500000
  0
LINE
  8
0
  6
CENTER
 62
2
 10
-272.750000
 20
-124.000000
 11
-272.750000
 21
-137.000000
  0
LINE
  8
0
  6
CENTER
 62
2
 10
-279.250000
 20
-130.500000
 11
-266.250000
 21
-130.500000
  0
LINE
  8
0
  6
CENTER
 62
2
 10
-299.750000
 20
-124.000000
 11
-299.750000
 21
-137.000000
  0
LINE
  8
0
  6
CENTER
 62
2
 10
-306.250000
 20
-130.500000
 11
-293.250000
 21
-130.500000
  0
LINE
  8
0
  6
CENTER
 62
2
 10
-291.750000
 20
-187.000000
 11
-291.750000
 21
-196.000000
  0
LINE
  8
0
  6
CENTER
 62
2
 10
-296.250000
 20
-191.500000
 11
-287.250000
 21
-191.500000
  0
LINE
  8
0
  6
CENTER
 62
2
 10
-264.750000
 20
-187.000000
 11
-264.750000
 21
-196.000000
  0
LINE
  8
0
  6
CENTER
 62
2
 10
-269.250000
 20
-191.500000
 11
-260.250000
 21
-191.500000
  0
LINE
  8
0
  6
CENTER
 62
2
 10
-264.750000
 20
-166.000000
 11
-264.750000
 21
-175.000000
  0
LINE
  8
0
  6
CENTER
 62
2
 10
-269.250000
 20
-170.500000
 11
-260.250000
 21
-170.500000
  0
LINE
  8
0
  6
CENTER
 62
2
 10
-291.750000
 20
-166.000000
 11
-291.750000
 21
-175.000000
  0
LINE
  8
0
  6
CENTER
 62
2
 10
-296.250000
 20
-170.500000
 11
-287.250000
 21
-170.500000
  0
LINE
  8
0
  6
CENTER
 62
2
 10
-176.750000
 20
-166.000000
 11
-176.750000
 21
-175.000000
  0
LINE
  8
0
  6
CENTER
 62
2
 10
-181.250000
 20
-170.500000
 11
-172.250000
 21
-170.500000
  0
LINE
  8
0
  6
CENTER
 62
2
 10
-176.750000
 20
-187.000000
 11
-176.750000
 21
-196.000000
  0
LINE
  8
0
  6
CENTER
 62
2
 10
-181.250000
 20
-191.500000
 11
-172.250000
 21
-191.500000
  0
LINE
  8
0
  6
CONTINUOUS
 62
7
 10
291.681000
 20
-21.400000
 11
291.681000
 21
-52.400002
  0
LINE
  8
0
  6
CONTINUOUS
 62
7
 10
291.681000
 20
-21.400000
 11
301.681000
 21
-21.400000
  0
LINE
  8
0
  6
CONTINUOUS
 62
7
 10
291.681000
 20
-52.400002
 11
301.681000
 21
-52.400002
  0
LINE
  8
0
  6
CENTER
 62
1
 10
249.681000
 20
-36.900002
 11
301.681000
 21
-36.900002
  0
LINE
  8
0
  6
CONTINUOUS
 62
4
 10
260.681000
 20
-27.084999
 11
260.681000
 21
-46.715000
  0
LINE
  8
0
  6
CONTINUOUS
 62
4
 10
266.681000
 20
-27.084999
 11
266.681000
 21
-46.715000
  0
LINE
  8
0
  6
CONTINUOUS
 62
4
 10
260.681000
 20
-31.992500
 11
266.681000
 21
-31.992500
  0
LINE
  8
0
  6
CONTINUOUS
 62
4
 10
260.681000
 20
-41.807400
 11
266.681000
 21
-41.807400
  0
LINE
  8
0
  6
CONTINUOUS
 62
4
 10
260.681000
 20
-27.084999
 11
266.681000
 21
-27.084999
  0
LINE
  8
0
  6
CONTINUOUS
 62
4
 10
260.681000
 20
-46.715000
 11
266.681000
 21
-46.715000
  0
LINE
  8
0
  6
CONTINUOUS
 62
4
 10
251.681000
 20
-41.900002
 11
251.681000
 21
-31.900000
  0
LINE
  8
0
  6
CONTINUOUS
 62
4
 10
317.500000
 20
171.850006
 11
317.500000
 21
146.850006
  0
LINE
  8
0
  6
CONTINUOUS
 62
4
 10
255.000000
 20
184.350006
 11
305.000000
 21
184.350006
  0
LINE
  8
0
  6
CENTER
 62
1
 10
280.000000
 20
206.350006
 11
280.000000
 21
182.350006
  0
LINE
  8
0
  6
CENTER
 62
1
 10
315.500000
 20
159.350006
 11
339.500000
 21
159.350006
  0
LINE
  8
0
  6
CONTINUOUS
 62
4
 10
255.000000
 20
171.850006
 11
255.000000
 21
146.850006
  0
LINE
  8
0
  6
CONTINUOUS
 62
4
 10
305.000000
 20
171.850006
 11
305.000000
 21
146.850006
  0
LINE
  8
0
  6
CONTINUOUS
 62
4
 10
305.000000
 20
171.850006
 11
255.000000
 21
171.850006
  0
LINE
  8
0
  6
CONTINUOUS
 62
4
 10
305.000000
 20
146.850006
 11
255.000000
 21
146.850006
  0
LINE
  8
0
  6
CONTINUOUS
 62
4
 10
266.000000
 20
204.350006
 11
294.000000
 21
204.350006
  0
LINE
  8
0
  6
CONTINUOUS
 62
4
 10
255.000000
 20
198.050003
 11
266.000000
 21
198.050003
  0
LINE
  8
0
  6
CONTINUOUS
 62
4
 10
255.000000
 20
198.050003
 11
255.000000
 21
184.350006
  0
LINE
  8
0
  6
CONTINUOUS
 62
4
 10
305.000000
 20
198.050003
 11
305.000000
 21
184.350006
  0
LINE
  8
0
  6
CONTINUOUS
 62
4
 10
294.000000
 20
198.050003
 11
305.000000
 21
198.050003
  0
LINE
  8
0
  6
CONTINUOUS
 62
4
 10
266.000000
 20
204.350006
 11
266.000000
 21
198.050003
  0
LINE
  8
0
  6
CONTINUOUS
 62
4
 10
294.000000
 20
204.350006
 11
294.000000
 21
198.050003
  0
LINE
  8
0
  6
CENTER
 62
1
 10
299.000000
 20
200.050003
 11
299.000000
 21
182.350006
  0
LINE
  8
0
  6
CENTER
 62
1
 10
261.000000
 20
200.050003
 11
261.000000
 21
182.350006
  0
LINE
  8
0
  6
DASHED
 62
1
 10
296.250000
 20
198.050003
 11
296.250000
 21
184.350006
  0
LINE
  8
0
  6
DASHED
 62
1
 10
301.750000
 20
198.050003
 11
301.750000
 21
184.350006
  0
LINE
  8
0
  6
CONTINUOUS
 62
4
 10
337.500000
 20
171.850006
 11
337.500000
 21
146.850006
  0
LINE
  8
0
  6
CONTINUOUS
 62
4
 10
331.200012
 20
171.850006
 11
331.200012
 21
146.850006
  0
LINE
  8
0
  6
CONTINUOUS
 62
4
 10
317.500000
 20
146.850006
 11
337.500000
 21
146.850006
  0
LINE
  8
0
  6
CONTINUOUS
 62
4
 10
317.500000
 20
171.850006
 11
337.500000
 21
171.850006
  0
LINE
  8
0
  6
CONTINUOUS
 62
4
 10
276.278992
 20
-43.400002
 11
291.681000
 21
-43.400002
  0
LINE
  8
0
  6
CONTINUOUS
 62
4
 10
276.278992
 20
-30.400000
 11
291.681000
 21
-30.400000
  0
LINE
  8
0
  6
CONTINUOUS
 62
7
 10
291.681000
 20
78.599998
 11
291.681000
 21
47.599998
  0
LINE
  8
0
  6
CONTINUOUS
 62
7
 10
291.681000
 20
78.599998
 11
301.681000
 21
78.599998
  0
LINE
  8
0
  6
CONTINUOUS
 62
7
 10
291.681000
 20
47.599998
 11
301.681000
 21
47.599998
  0
LINE
  8
0
  6
CENTER
 62
1
 10
249.681000
 20
63.099998
 11
301.681000
 21
63.099998
  0
LINE
  8
0
  6
CONTINUOUS
 62
4
 10
251.681000
 20
56.599998
 11
258.681000
 21
56.599998
  0
LINE
  8
0
  6
CONTINUOUS
 62
4
 10
251.681000
 20
56.599998
 11
251.681000
 21
69.599998
  0
LINE
  8
0
  6
CONTINUOUS
 62
4
 10
251.681000
 20
69.599998
 11
258.681000
 21
69.599998
  0
LINE
  8
0
  6
DASHED
 62
1
 10
264.681000
 20
59.099998
 11
264.681000
 21
67.099998
  0
LINE
  8
0
  6
DASHED
 62
1
 10
251.681000
 20
67.099998
 11
264.681000
 21
67.099998
  0
LINE
  8
0
  6
DASHED
 62
1
 10
251.681000
 20
59.099998
 11
264.681000
 21
59.099998
  0
LINE
  8
0
  6
DASHED
 62
1
 10
251.681000
 20
59.799999
 11
268.681000
 21
59.799999
  0
LINE
  8
0
  6
DASHED
 62
1
 10
251.681000
 20
66.400002
 11
268.681000
 21
66.400002
  0
LINE
  8
0
  6
DASHED
 62
1
 10
268.681000
 20
59.799999
 11
268.681000
 21
66.400002
  0
LINE
  8
0
  6
CONTINUOUS
 62
4
 10
258.681000
 20
56.599998
 11
258.681000
 21
58.099998
  0
LINE
  8
0
  6
CONTINUOUS
 62
4
 10
264.181000
 20
56.599998
 11
264.181000
 21
58.099998
  0
LINE
  8
0
  6
CONTINUOUS
 62
4
 10
264.181000
 20
56.599998
 11
291.681000
 21
56.599998
  0
LINE
  8
0
  6
CONTINUOUS
 62
4
 10
264.181000
 20
69.599998
 11
291.681000
 21
69.599998
  0
LINE
  8
0
  6
CONTINUOUS
 62
4
 10
258.681000
 20
68.099998
 11
258.681000
 21
69.599998
  0
LINE
  8
0
  6
CONTINUOUS
 62
4
 10
264.181000
 20
68.099998
 11
264.181000
 21
69.599998
  0
LINE
  8
0
  6
CONTINUOUS
 62
4
 10
258.681000
 20
58.099998
 11
264.181000
 21
58.099998
  0
LINE
  8
0
  6
CONTINUOUS
 62
4
 10
258.681000
 20
68.099998
 11
264.181000
 21
68.099998
  0
LINE
  8
0
  6
CONTINUOUS
 62
4
 10
251.681000
 20
-31.900000
 11
260.681000
 21
-31.900000
  0
LINE
  8
0
  6
CONTINUOUS
 62
4
 10
251.681000
 20
-41.900002
 11
260.681000
 21
-41.900002
  0
LINE
  8
0
  6
CONTINUOUS
 62
1
 10
251.681000
 20
-41.000000
 11
260.681000
 21
-41.000000
  0
LINE
  8
0
  6
CONTINUOUS
 62
1
 10
251.681000
 20
-32.799999
 11
260.681000
 21
-32.799999
  0
LINE
  8
0
  6
CONTINUOUS
 62
4
 10
271.181000
 20
-41.900002
 11
271.181000
 21
-31.900000
  0
LINE
  8
0
  6
CONTINUOUS
 62
4
 10
273.681000
 20
-41.900002
 11
273.681000
 21
-31.900000
  0
LINE
  8
0
  6
CONTINUOUS
 62
4
 10
279.181000
 20
-41.053299
 11
279.181000
 21
-32.746700
  0
LINE
  8
0
  6
CENTER
 62
1
 10
268.931000
 20
84.599998
 11
253.931000
 21
84.599998
  0
LINE
  8
0
  6
CENTER
 62
1
 10
261.431000
 20
92.099998
 11
261.431000
 21
77.099998
  0
LINE
  8
0
  6
CONTINUOUS
 62
4
 10
257.277008
 20
79.599998
 11
265.584015
 21
79.599998
  0
LINE
  8
0
  6
CONTINUOUS
 62
4
 10
257.277008
 20
89.599998
 11
265.584015
 21
89.599998
  0
LINE
  8
0
  6
CONTINUOUS
 62
4
 10
273.681000
 20
-41.053299
 11
279.181000
 21
-41.053299
  0
LINE
  8
0
  6
CONTINUOUS
 62
4
 10
273.681000
 20
-32.746700
 11
279.181000
 21
-32.746700
  0
LINE
  8
0
  6
CONTINUOUS
 62
1
 10
273.681000
 20
-41.053600
 11
279.181000
 21
-32.747002
  0
LINE
  8
0
  6
CONTINUOUS
 62
1
 10
273.681000
 20
-32.746601
 11
279.181000
 21
-41.053200
  0
LINE
  8
0
  6
CONTINUOUS
 62
4
 10
273.681000
 20
-31.899900
 11
276.278992
 21
-30.399900
  0
LINE
  8
0
  6
CONTINUOUS
 62
4
 10
273.681000
 20
-41.900002
 11
276.278992
 21
-43.400002
  0
LINE
  8
0
  6
CONTINUOUS
 62
4
 10
276.278992
 20
-30.400000
 11
276.278992
 21
-32.746700
  0
LINE
  8
0
  6
CONTINUOUS
 62
4
 10
276.278992
 20
-41.053299
 11
276.278992
 21
-43.400002
  0
LINE
  8
0
  6
CENTER
 62
1
 10
283.931000
 20
-15.400000
 11
268.931000
 21
-15.400000
  0
LINE
  8
0
  6
CENTER
 62
1
 10
276.431000
 20
-7.899980
 11
276.431000
 21
-22.900000
  0
LINE
  8
0
  6
CONTINUOUS
 62
4
 10
271.431000
 20
-11.246700
 11
271.431000
 21
-19.553301
  0
LINE
  8
0
  6
CONTINUOUS
 62
4
 10
281.431000
 20
-11.246700
 11
281.431000
 21
-19.553301
  0
LINE
  8
0
  6
CONTINUOUS
 62
4
 10
266.681000
 20
-41.900002
 11
273.681000
 21
-41.900002
  0
LINE
  8
0
  6
CONTINUOUS
 62
1
 10
266.681000
 20
-41.000000
 11
271.181000
 21
-41.000000
  0
LINE
  8
0
  6
CONTINUOUS
 62
1
 10
266.681000
 20
-32.799999
 11
271.181000
 21
-32.799999
  0
LINE
  8
0
  6
CONTINUOUS
 62
4
 10
266.681000
 20
-31.900000
 11
273.681000
 21
-31.900000
  0
LINE
  8
0
  6
CENTER
 62
1
 10
299.000000
 20
171.100006
 11
299.000000
 21
161.600006
  0
LINE
  8
0
  6
CENTER
 62
1
 10
294.250000
 20
166.350006
 11
303.750000
 21
166.350006
  0
LINE
  8
0
  6
CENTER
 62
1
 10
299.000000
 20
157.100006
 11
299.000000
 21
147.600006
  0
LINE
  8
0
  6
CENTER
 62
1
 10
294.250000
 20
152.350006
 11
303.750000
 21
152.350006
  0
LINE
  8
0
  6
CENTER
 62
1
 10
280.000000
 20
167.850006
 11
280.000000
 21
150.850006
  0
LINE
  8
0
  6
CENTER
 62
1
 10
271.500000
 20
159.350006
 11
288.500000
 21
159.350006
  0
LINE
  8
0
  6
CENTER
 62
1
 10
261.000000
 20
171.100006
 11
261.000000
 21
161.600006
  0
LINE
  8
0
  6
CENTER
 62
1
 10
256.250000
 20
166.350006
 11
265.750000
 21
166.350006
  0
LINE
  8
0
  6
CENTER
 62
1
 10
261.000000
 20
157.100006
 11
261.000000
 21
147.600006
  0
LINE
  8
0
  6
CENTER
 62
1
 10
256.250000
 20
152.350006
 11
265.750000
 21
152.350006
  0
LINE
  8
0
  6
CONTINUOUS
 62
2
 10
361.681000
 20
-146.600006
 11
371.681000
 21
-146.600006
  0
LINE
  8
0
  6
CONTINUOUS
 62
2
 10
361.681000
 20
-177.199997
 11
371.681000
 21
-177.199997
  0
LINE
  8
0
  6
CENTER
 62
1
 10
315.181000
 20
-133.899994
 11
334.181000
 21
-133.899994
  0
LINE
  8
0
  6
CENTER
 62
1
 10
284.681000
 20
-161.899994
 11
371.681000
 21
-161.899994
  0
LINE
  8
0
  6
CONTINUOUS
 62
4
 10
286.681000
 20
-155.399994
 11
306.681000
 21
-155.399994
  0
LINE
  8
0
  6
CONTINUOUS
 62
4
 10
286.681000
 20
-155.399994
 11
286.681000
 21
-168.399994
  0
LINE
  8
0
  6
CONTINUOUS
 62
4
 10
286.681000
 20
-168.399994
 11
306.681000
 21
-168.399994
  0
LINE
  8
0
  6
CONTINUOUS
 62
7
 10
361.681000
 20
-139.399994
 11
371.681000
 21
-139.399994
  0
LINE
  8
0
  6
CONTINUOUS
 62
2
 10
361.681000
 20
-174.600006
 11
371.681000
 21
-174.600006
  0
LINE
  8
0
  6
CONTINUOUS
 62
7
 10
361.681000
 20
-184.399994
 11
371.681000
 21
-184.399994
  0
LINE
  8
0
  6
CONTINUOUS
 62
2
 10
361.681000
 20
-149.199997
 11
371.681000
 21
-149.199997
  0
LINE
  8
0
  6
CONTINUOUS
 62
4
 10
342.681000
 20
-155.399994
 11
361.681000
 21
-155.399994
  0
LINE
  8
0
  6
CONTINUOUS
 62
4
 10
342.681000
 20
-168.399994
 11
361.681000
 21
-168.399994
  0
LINE
  8
0
  6
DASHED
 62
1
 10
298.681000
 20
-158.899994
 11
298.681000
 21
-164.899994
  0
LINE
  8
0
  6
DASHED
 62
1
 10
301.681000
 20
-159.440994
 11
301.681000
 21
-164.358002
  0
LINE
  8
0
  6
DASHED
 62
1
 10
286.681000
 20
-164.899994
 11
298.681000
 21
-164.899994
  0
LINE
  8
0
  6
DASHED
 62
1
 10
286.681000
 20
-158.899994
 11
298.681000
 21
-158.899994
  0
LINE
  8
0
  6
CONTINUOUS
 62
4
 10
306.681000
 20
-148.899994
 11
306.681000
 21
-174.899994
  0
LINE
  8
0
  6
CONTINUOUS
 62
4
 10
342.681000
 20
-148.899994
 11
342.681000
 21
-174.899994
  0
LINE
  8
0
  6
DASHED
 62
1
 10
317.181000
 20
-148.899994
 11
317.181000
 21
-150.399994
  0
LINE
  8
0
  6
DASHED
 62
1
 10
332.181000
 20
-150.399994
 11
332.181000
 21
-148.899994
  0
LINE
  8
0
  6
CONTINUOUS
 62
4
 10
306.681000
 20
-174.899994
 11
342.681000
 21
-174.899994
  0
LINE
  8
0
  6
CONTINUOUS
 62
4
 10
306.681000
 20
-148.899994
 11
342.681000
 21
-148.899994
  0
LINE
  8
0
  6
DASHED
 62
1
 10
317.181000
 20
-150.399994
 11
332.181000
 21
-150.399994
  0
LINE
  8
0
  6
CONTINUOUS
 62
4
 10
318.681000
 20
-132.399994
 11
330.681000
 21
-132.399994
  0
LINE
  8
0
  6
CONTINUOUS
 62
4
 10
318.690002
 20
-135.399994
 11
330.681000
 21
-135.399994
  0
LINE
  8
0
  6
CENTER
 62
1
 10
266.681000
 20
-161.899994
 11
236.681000
 21
-161.899994
  0
LINE
  8
0
  6
CENTER
 62
1
 10
252.466003
 20
-146.921005
 11
251.681000
 21
-161.899994
  0
LINE
  8
0
  6
DASHED
 62
1
 10
286.681000
 20
-159.440994
 11
301.681000
 21
-159.440994
  0
LINE
  8
0
  6
DASHED
 62
1
 10
286.681000
 20
-164.358002
 11
301.681000
 21
-164.358002
  0
LINE
  8
0
  6
CENTER
 62
1
 10
251.681000
 20
-146.899994
 11
251.681000
 21
-176.899994
  0
LINE
  8
0
  6
CENTER
 62
1
 10
250.895996
 20
-146.921005
 11
251.681000
 21
-161.899994
  0
LINE
  8
0
  6
CONTINUOUS
 62
4
 10
362.807007
 20
-112.918999
 11
362.807007
 21
-115.918999
  0
LINE
  8
0
  6
CONTINUOUS
 62
4
 10
362.807007
 20
-112.918999
 11
365.807007
 21
-112.918999
  0
LINE
  8
0
  6
CONTINUOUS
 62
4
 10
362.807007
 20
-115.918999
 11
365.807007
 21
-115.918999
  0
LINE
  8
0
  6
CONTINUOUS
 62
4
 10
365.807007
 20
-112.918999
 11
365.807007
 21
-115.918999
  0
LINE
  8
0
  6
CENTER
 62
1
 10
364.307007
 20
-110.918999
 11
364.307007
 21
-117.918999
  0
LINE
  8
0
  6
CONTINUOUS
 62
4
 10
377.307007
 20
-112.918999
 11
377.307007
 21
-115.918999
  0
LINE
  8
0
  6
CONTINUOUS
 62
4
 10
377.307007
 20
-112.918999
 11
392.307007
 21
-112.918999
  0
LINE
  8
0
  6
CONTINUOUS
 62
4
 10
377.307007
 20
-115.918999
 11
392.307007
 21
-115.918999
  0
LINE
  8
0
  6
CONTINUOUS
 62
4
 10
392.307007
 20
-112.918999
 11
392.307007
 21
-115.918999
  0
LINE
  8
0
  6
CONTINUOUS
 62
4
 10
378.807007
 20
-105.918999
 11
390.807007
 21
-105.918999
  0
LINE
  8
0
  6
CONTINUOUS
 62
4
 10
378.807007
 20
-102.918999
 11
390.807007
 21
-102.918999
  0
LINE
  8
0
  6
CENTER
 62
1
 10
394.307007
 20
-104.418999
 11
375.307007
 21
-104.418999
  0
LINE
  8
0
  6
CONTINUOUS
 62
7
 10
361.681000
 20
-139.399994
 11
361.681000
 21
-184.399994
  0
LINE
  8
0
  6
DASHED
 62
1
 10
250.181000
 20
-148.987000
 11
250.181000
 21
-150.399994
  0
LINE
  8
0
  6
DASHED
 62
1
 10
253.181000
 20
-148.987000
 11
253.181000
 21
-150.399994
  0
LINE
  8
0
  6
DASHED
 62
1
 10
250.181000
 20
-150.399994
 11
253.181000
 21
-150.399994
  0
CIRCLE
  8
0
  6
CONTINUOUS
 62
7
 10
-263.750000
 20
-42.000000
 40
2.100000
  0
CIRCLE
  8
0
  6
CONTINUOUS
 62
7
 10
-119.750000
 20
-48.000000
 40
2.100000
  0
CIRCLE
  8
0
  6
CONTINUOUS
 62
7
 10
-299.750000
 20
-95.500000
 40
4.500000
  0
CIRCLE
  8
0
  6
CONTINUOUS
 62
7
 10
-299.750000
 20
-95.500000
 40
2.700000
  0
CIRCLE
  8
0
  6
CONTINUOUS
 62
7
 10
-299.750000
 20
-130.500000
 40
2.700000
  0
CIRCLE
  8
0
  6
CONTINUOUS
 62
7
 10
-299.750000
 20
-130.500000
 40
4.500000
  0
CIRCLE
  8
0
  6
CONTINUOUS
 62
7
 10
-272.750000
 20
-95.500000
 40
2.700000
  0
CIRCLE
  8
0
  6
CONTINUOUS
 62
7
 10
-272.750000
 20
-130.500000
 40
2.700000
  0
CIRCLE
  8
0
  6
CONTINUOUS
 62
7
 10
-184.750000
 20
-95.500000
 40
4.500000
  0
CIRCLE
  8
0
  6
CONTINUOUS
 62
7
 10
-184.750000
 20
-130.500000
 40
4.500000
  0
CIRCLE
  8
0
  6
CONTINUOUS
 62
2
 10
-263.750000
 20
-42.000000
 40
2.500000
  0
CIRCLE
  8
0
  6
CONTINUOUS
 62
2
 10
-119.750000
 20
-48.000000
 40
2.500000
  0
CIRCLE
  8
0
  6
CONTINUOUS
 62
2
 10
-299.750000
 20
-130.500000
 40
3.000000
  0
CIRCLE
  8
0
  6
CONTINUOUS
 62
2
 10
-299.750000
 20
-95.500000
 40
3.000000
  0
CIRCLE
  8
0
  6
CONTINUOUS
 62
2
 10
-184.750000
 20
-130.500000
 40
3.000000
  0
CIRCLE
  8
0
  6
CONTINUOUS
 62
2
 10
-184.750000
 20
-95.500000
 40
3.000000
  0
ARC
  8
0
  6
CONTINUOUS
 62
2
 10
70.450104
 20
-98.349998
 40
1.500000
 50
90.000000
 51
180.000000
  0
CIRCLE
  8
0
  6
CONTINUOUS
 62
2
 10
-291.750000
 20
-191.500000
 40
2.500000
  0
CIRCLE
  8
0
  6
CONTINUOUS
 62
2
 10
-291.750000
 20
-170.500000
 40
2.500000
  0
CIRCLE
  8
0
  6
CONTINUOUS
 62
2
 10
-176.750000
 20
-170.500000
 40
2.500000
  0
CIRCLE
  8
0
  6
CONTINUOUS
 62
2
 10
-176.750000
 20
-191.500000
 40
2.500000
  0
CIRCLE
  8
0
  6
CONTINUOUS
 62
2
 10
-138.750000
 20
-45.000000
 40
1.250000
  0
CIRCLE
  8
0
  6
CONTINUOUS
 62
7
 10
-138.750000
 20
-45.000000
 40
1.000000
  0
CIRCLE
  8
0
  6
CONTINUOUS
 62
7
 10
-176.750000
 20
-191.500000
 40
2.100000
  0
CIRCLE
  8
0
  6
CONTINUOUS
 62
7
 10
-291.750000
 20
-191.500000
 40
2.100000
  0
CIRCLE
  8
0
  6
CONTINUOUS
 62
7
 10
-291.750000
 20
-170.500000
 40
2.100000
  0
CIRCLE
  8
0
  6
CONTINUOUS
 62
7
 10
-176.750000
 20
-170.500000
 40
2.100000
  0
ARC
  8
0
  6
CONTINUOUS
 62
2
 10
-363.549988
 20
-98.349998
 40
1.500000
 50
90.000000
 51
180.000000
  0
CIRCLE
  8
0
  6
CONTINUOUS
 62
7
 10
-374.250000
 20
-95.500000
 40
2.100000
  0
CIRCLE
  8
0
  6
CONTINUOUS
 62
7
 10
-374.250000
 20
-130.500000
 40
2.100000
  0
ARC
  8
0
  6
CONTINUOUS
 62
2
 10
-363.549988
 20
-99.650002
 40
1.500000
 50
180.000000
 51
270.000000
  0
CIRCLE
  8
0
  6
CONTINUOUS
 62
2
 10
-374.250000
 20
-95.500000
 40
2.500000
  0
CIRCLE
  8
0
  6
CONTINUOUS
 62
2
 10
-374.250000
 20
-130.500000
 40
2.500000
  0
CIRCLE
  8
0
  6
CONTINUOUS
 62
7
 10
-374.250000
 20
-113.000000
 40
6.500000
  0
CIRCLE
  8
0
  6
CONTINUOUS
 62
7
 10
59.750099
 20
-113.000000
 40
11.000000
  0
ARC
  8
0
  6
CONTINUOUS
 62
2
 10
70.450104
 20
-99.650002
 40
1.500000
 50
180.000000
 51
270.000000
  0
CIRCLE
  8
0
  6
CONTINUOUS
 62
2
 10
-264.750000
 20
-191.500000
 40
2.500000
  0
CIRCLE
  8
0
  6
CONTINUOUS
 62
7
 10
-264.750000
 20
-191.500000
 40
2.100000
  0
CIRCLE
  8
0
  6
CONTINUOUS
 62
2
 10
-264.750000
 20
-170.500000
 40
2.500000
  0
CIRCLE
  8
0
  6
CONTINUOUS
 62
7
 10
-264.750000
 20
-170.500000
 40
2.100000
  0
CIRCLE
  8
0
  6
CONTINUOUS
 62
7
 10
-272.750000
 20
-130.500000
 40
4.500000
  0
CIRCLE
  8
0
  6
CONTINUOUS
 62
2
 10
-272.750000
 20
-130.500000
 40
3.000000
  0
CIRCLE
  8
0
  6
CONTINUOUS
 62
7
 10
-272.750000
 20
-95.500000
 40
4.500000
  0
CIRCLE
  8
0
  6
CONTINUOUS
 62
2
 10
-272.750000
 20
-95.500000
 40
3.000000
  0
CIRCLE
  8
0
  6
CONTINUOUS
 62
7
 10
-263.750000
 20
168.000000
 40
2.100000
  0
CIRCLE
  8
0
  6
CONTINUOUS
 62
7
 10
-194.750000
 20
162.000000
 40
2.100000
  0
CIRCLE
  8
0
  6
CONTINUOUS
 62
7
 10
-299.750000
 20
114.500000
 40
4.500000
  0
CIRCLE
  8
0
  6
CONTINUOUS
 62
7
 10
-299.750000
 20
114.500000
 40
2.700000
  0
CIRCLE
  8
0
  6
CONTINUOUS
 62
7
 10
-299.750000
 20
79.500000
 40
2.700000
  0
CIRCLE
  8
0
  6
CONTINUOUS
 62
7
 10
-299.750000
 20
79.500000
 40
4.500000
  0
CIRCLE
  8
0
  6
CONTINUOUS
 62
7
 10
-272.750000
 20
114.500000
 40
2.700000
  0
CIRCLE
  8
0
  6
CONTINUOUS
 62
7
 10
-272.750000
 20
79.500000
 40
2.700000
  0
CIRCLE
  8
0
  6
CONTINUOUS
 62
7
 10
-272.750000
 20
114.500000
 40
4.500000
  0
CIRCLE
  8
0
  6
CONTINUOUS
 62
7
 10
-272.750000
 20
79.500000
 40
4.500000
  0
CIRCLE
  8
0
  6
CONTINUOUS
 62
2
 10
-263.750000
 20
168.000000
 40
2.500000
  0
CIRCLE
  8
0
  6
CONTINUOUS
 62
2
 10
-194.750000
 20
162.000000
 40
2.500000
  0
CIRCLE
  8
0
  6
CONTINUOUS
 62
2
 10
-299.750000
 20
79.500000
 40
3.000000
  0
CIRCLE
  8
0
  6
CONTINUOUS
 62
2
 10
-299.750000
 20
114.500000
 40
3.000000
  0
CIRCLE
  8
0
  6
CONTINUOUS
 62
2
 10
-272.750000
 20
79.500000
 40
3.000000
  0
CIRCLE
  8
0
  6
CONTINUOUS
 62
2
 10
-272.750000
 20
114.500000
 40
3.000000
  0
ARC
  8
0
  6
CONTINUOUS
 62
2
 10
-79.549896
 20
111.650002
 40
1.500000
 50
90.000000
 51
180.000000
  0
CIRCLE
  8
0
  6
CONTINUOUS
 62
2
 10
-291.750000
 20
18.500000
 40
2.500000
  0
CIRCLE
  8
0
  6
CONTINUOUS
 62
2
 10
-291.750000
 20
39.500000
 40
2.500000
  0
CIRCLE
  8
0
  6
CONTINUOUS
 62
2
 10
-264.750000
 20
39.500000
 40
2.500000
  0
CIRCLE
  8
0
  6
CONTINUOUS
 62
2
 10
-264.750000
 20
18.500000
 40
2.500000
  0
CIRCLE
  8
0
  6
CONTINUOUS
 62
2
 10
-213.750000
 20
165.000000
 40
1.250000
  0
CIRCLE
  8
0
  6
CONTINUOUS
 62
7
 10
-213.750000
 20
165.000000
 40
1.000000
  0
CIRCLE
  8
0
  6
CONTINUOUS
 62
7
 10
-264.750000
 20
18.500000
 40
2.100000
  0
CIRCLE
  8
0
  6
CONTINUOUS
 62
7
 10
-291.750000
 20
18.500000
 40
2.100000
  0
CIRCLE
  8
0
  6
CONTINUOUS
 62
7
 10
-291.750000
 20
39.500000
 40
2.100000
  0
CIRCLE
  8
0
  6
CONTINUOUS
 62
7
 10
-264.750000
 20
39.500000
 40
2.100000
  0
ARC
  8
0
  6
CONTINUOUS
 62
2
 10
-363.549988
 20
111.650002
 40
1.500000
 50
90.000000
 51
180.000000
  0
CIRCLE
  8
0
  6
CONTINUOUS
 62
7
 10
-374.250000
 20
114.500000
 40
2.100000
  0
CIRCLE
  8
0
  6
CONTINUOUS
 62
7
 10
-374.250000
 20
79.500000
 40
2.100000
  0
ARC
  8
0
  6
CONTINUOUS
 62
2
 10
-363.549988
 20
110.349998
 40
1.500000
 50
180.000000
 51
270.000000
  0
CIRCLE
  8
0
  6
CONTINUOUS
 62
2
 10
-374.250000
 20
114.500000
 40
2.500000
  0
CIRCLE
  8
0
  6
CONTINUOUS
 62
2
 10
-374.250000
 20
79.500000
 40
2.500000
  0
CIRCLE
  8
0
  6
CONTINUOUS
 62
7
 10
-374.250000
 20
97.000000
 40
6.500000
  0
CIRCLE
  8
0
  6
CONTINUOUS
 62
7
 10
-90.249901
 20
97.000000
 40
11.000000
  0
ARC
  8
0
  6
CONTINUOUS
 62
2
 10
-79.549896
 20
110.349998
 40
1.500000
 50
180.000000
 51
270.000000
  0
CIRCLE
  8
0
  6
CONTINUOUS
 62
7
 10
-184.750000
 20
-95.500000
 40
2.700000
  0
CIRCLE
  8
0
  6
CONTINUOUS
 62
7
 10
-184.750000
 20
-130.500000
 40
2.700000
  0
CIRCLE
  8
0
  6
CONTINUOUS
 62
7
 10
59.750099
 20
-113.000000
 40
5.000000
  0
CIRCLE
  8
0
  6
CONTINUOUS
 62
2
 10
59.750099
 20
-113.000000
 40
4.299990
  0
CIRCLE
  8
0
  6
CONTINUOUS
 62
7
 10
-90.249901
 20
97.000000
 40
4.999980
  0
CIRCLE
  8
0
  6
CONTINUOUS
 62
2
 10
-90.249901
 20
97.000000
 40
4.299990
  0
CIRCLE
  8
0
  6
CONTINUOUS
 62
4
 10
299.000000
 20
152.350006
 40
2.750000
  0
CIRCLE
  8
0
  6
CONTINUOUS
 62
4
 10
299.000000
 20
166.350006
 40
2.750000
  0
CIRCLE
  8
0
  6
CONTINUOUS
 62
4
 10
261.000000
 20
166.350006
 40
2.750000
  0
CIRCLE
  8
0
  6
CONTINUOUS
 62
4
 10
261.000000
 20
152.350006
 40
2.750000
  0
CIRCLE
  8
0
  6
CONTINUOUS
 62
4
 10
280.000000
 20
159.350006
 40
6.500000
  0
CIRCLE
  8
0
  6
CONTINUOUS
 62
4
 10
261.431000
 20
84.599998
 40
6.500000
  0
CIRCLE
  8
0
  6
CONTINUOUS
 62
4
 10
276.431000
 20
-15.400000
 40
6.500000
  0
ARC
  8
0
  6
CONTINUOUS
 62
4
 10
330.681000
 20
-133.899994
 40
1.500000
 50
270.000000
 51
90.000000
  0
ARC
  8
0
  6
CONTINUOUS
 62
4
 10
318.681000
 20
-133.899994
 40
1.500000
 50
90.000000
 51
270.000000
  0
CIRCLE
  8
0
  6
CONTINUOUS
 62
1
 10
251.681000
 20
-161.899994
 40
3.000000
  0
CIRCLE
  8
0
  6
CONTINUOUS
 62
4
 10
251.681000
 20
-161.899994
 40
6.500000
  0
CIRCLE
  8
0
  6
CONTINUOUS
 62
4
 10
251.681000
 20
-161.899994
 40
13.000000
  0
CIRCLE
  8
0
  6
CONTINUOUS
 62
4
 10
251.681000
 20
-161.899994
 40
2.458500
  0
ARC
  8
0
  6
CONTINUOUS
 62
4
 10
390.807007
 20
-104.418999
 40
1.500000
 50
270.000000
 51
90.000000
  0
ARC
  8
0
  6
CONTINUOUS
 62
4
 10
378.807007
 20
-104.418999
 40
1.500000
 50
90.000000
 51
270.000000
  0
TEXT
  8
0
 62
7
 10
249.264832
 20
-267.375000
 40
12.500000
  1
KOGANEI CORP.
 50
0.000000
 41
0.771525
 51
0.000000
  7
STANDARD
  0
TEXT
  8
0
 62
7
 10
292.414673
 20
261.500000
 40
9.000000
  1
Ver.1.0
 50
0.000000
 41
1.010331
 51
0.000000
  7
STANDARD
  0
TEXT
  8
0
 62
7
 10
-383.750580
 20
229.000000
 40
9.000000
  1
MODEL:AXAHS-SD25-25-ZE-R***
 50
0.000000
 41
0.750094
 51
0.000000
  7
STANDARD
  0
TEXT
  8
0
 62
7
 10
-364.635315
 20
261.500000
 40
9.000000
  1
AX CYLINDER
 50
0.000000
 41
0.783349
 51
0.000000
  7
STANDARD
  0
TEXT
  8
0
 62
7
 10
-103.150002
 20
-29.500000
 40
3.200000
  1
100st
 50
90.000000
 41
0.985838
 51
0.000000
  7
STANDARD
  0
TEXT
  8
0
 62
7
 10
35.849998
 20
-40.000000
 40
3.200000
  1
100st
 50
90.000000
 41
0.985838
 51
0.000000
  7
STANDARD
  0
TEXT
  8
0
 62
7
 10
135.850006
 20
-40.000000
 40
3.200000
  1
150st
 50
90.000000
 41
0.938893
 51
0.000000
  7
STANDARD
  0
TEXT
  8
0
 62
7
 10
85.849998
 20
-40.000000
 40
3.200000
  1
125st
 50
90.000000
 41
0.896216
 51
0.000000
  7
STANDARD
  0
TEXT
  8
0
 62
7
 10
-53.150002
 20
-29.500000
 40
3.200000
  1
150st
 50
90.000000
 41
0.938893
 51
0.000000
  7
STANDARD
  0
TEXT
  8
0
 62
7
 10
-78.150002
 20
-29.500000
 40
3.200000
  1
125st
 50
90.000000
 41
0.896216
 51
0.000000
  7
STANDARD
  0
TEXT
  8
0
 62
7
 10
-28.150000
 20
-29.500000
 40
3.200000
  1
175st
 50
90.000000
 41
0.896216
 51
0.000000
  7
STANDARD
  0
TEXT
  8
0
 62
7
 10
-3.150000
 20
-29.500000
 40
3.200000
  1
200st
 50
90.000000
 41
0.896216
 51
0.000000
  7
STANDARD
  0
TEXT
  8
0
 62
7
 10
185.850006
 20
-40.000000
 40
3.200000
  1
175st
 50
90.000000
 41
0.896216
 51
0.000000
  7
STANDARD
  0
TEXT
  8
0
 62
7
 10
235.850006
 20
-40.000000
 40
3.200000
  1
200st
 50
90.000000
 41
0.896216
 51
0.000000
  7
STANDARD
  0
TEXT
  8
0
 62
7
 10
-178.149994
 20
180.500000
 40
3.200000
  1
25st
 50
90.000000
 41
0.857250
 51
0.000000
  7
STANDARD
  0
TEXT
  8
0
 62
7
 10
-153.149994
 20
180.500000
 40
3.200000
  1
50st
 50
90.000000
 41
0.907676
 51
0.000000
  7
STANDARD
  0
TEXT
  8
0
 62
7
 10
-128.149994
 20
180.500000
 40
3.200000
  1
75st
 50
90.000000
 41
0.857250
 51
0.000000
  7
STANDARD
  0
TEXT
  8
0
 62
7
 10
-114.150002
 20
170.000000
 40
3.200000
  1
25st
 50
90.000000
 41
0.857250
 51
0.000000
  7
STANDARD
  0
TEXT
  8
0
 62
7
 10
-14.150000
 20
170.000000
 40
3.200000
  1
75st
 50
90.000000
 41
0.857250
 51
0.000000
  7
STANDARD
  0
TEXT
  8
0
 62
7
 10
-64.150002
 20
170.000000
 40
3.200000
  1
50st
 50
90.000000
 41
0.907676
 51
0.000000
  7
STANDARD
  0
TEXT
  8
0
 62
7
 10
260.307343
 20
129.600006
 40
4.500000
  1
ZT(FLANGE ROD END)
 50
0.000000
 41
0.754381
 51
0.000000
  7
STANDARD
  0
TEXT
  8
0
 62
7
 10
258.057343
 20
30.349998
 40
4.500000
  1
WS(INTERNAL THREAD)
 50
0.000000
 41
0.752116
 51
0.000000
  7
STANDARD
  0
TEXT
  8
0
 62
7
 10
258.057343
 20
-69.650002
 40
4.500000
  1
WT(EXTERNAL THREAD)
 50
0.000000
 41
0.738188
 51
0.000000
  7
STANDARD
  0
TEXT
  8
0
 62
7
 10
233.799576
 20
215.849991
 40
6.700000
  1
OPTION
 50
0.000000
 41
0.857250
 51
0.000000
  7
STANDARD
  0
TEXT
  8
0
 62
7
 10
348.780701
 20
-106.800003
 40
4.800000
  1
KEY
 50
0.000000
 41
0.928687
 51
0.000000
  7
STANDARD
  0
TEXT
  8
0
 62
7
 10
248.057144
 20
-195.649994
 40
4.500000
  1
FN(WITH BEARING NUT
 50
0.000000
 41
0.766484
 51
0.000000
  7
STANDARD
  0
TEXT
  8
0
 62
7
 10
246.807144
 20
-203.649994
 40
4.500000
  1
      FOR FLOATING UNIT)
 50
0.000000
 41
0.754798
 51
0.000000
  7
STANDARD
  0
TEXT
  8
0
 62
7
 10
235.080994
 20
-122.300003
 40
3.200000
  1
(KEYWAY
 50
0.000000
 41
0.766485
 51
0.000000
  7
STANDARD
  0
TEXT
  8
0
 62
7
 10
235.080994
 20
-125.500000
 40
3.200000
  1
  POSITION)
 50
0.000000
 41
0.766485
 51
0.000000
  7
STANDARD
  0
DIMENSION
  8
0
  2
*DIM0
 62
0
 10
250.397995
 20
-137.434006
 30
0.0
 11
243.681000
 21
-137.699997
 31
0.0
 13
252.962997
 23
-137.434006
 33
0.0
 14
252.466003
 24
-146.921005
 34
0.0
  15
250.895996
 25
-146.921005
 35
0.0
 16
252.884720
 26
-138.931519
 36
0.0
 70
2
  0
DIMENSION
  8
0
  2
*DIM1
 62
2
  10
278.681000
 20
-148.899994
 30
0.0
 11
278.681000
 21
-161.899994
 31
0.0
  13
306.681000
 23
-148.899994
 33
0.0
14
306.681000
 24
-174.899994
 34
0.0
 70
1
 50
90
  0
DIMENSION
  8
0
  2
*DIM2
 62
2
  10
340.181000
 20
-126.399994
 30
0.0
 11
340.181000
 21
-122.500000
 31
0.0
  13
330.681000
 23
-132.399994
 33
0.0
14
330.681000
 24
-135.399994
 34
0.0
 70
1
 50
90
  0
DIMENSION
  8
0
  2
*DIM3
 62
2
  10
362.807007
 20
-123.918999
 30
0.0
 11
353.092010
 21
-123.918999
 31
0.0
  13
362.807007
 23
-123.918999
 33
0.0
14
362.807007
 24
-115.918999
 34
0.0
 70
1
 50
0
  0
ENDSEC
  0
EOF
