  0
SECTION
  2
HEADER
  0
ENDSEC
  0
SECTION
  2
TABLES
  0
TABLE
  2
LTYPE
 70
     4
  0
LTYPE
  2
CONTINUOUS
 70
    64
  3
Solid line
 72
    65
 73
     0
 40
0.000000
  0
LTYPE
  2
DASHED
 70
    64
  3
__ __ __ __ __ __ __ __ __ __ __ __ __ __ __
 72
    65
 73
     2
 40
3.500000
 49
2.000000
 49
-1.500000
  0
LTYPE
  2
CENTER
 70
    64
  3
____ _ ____ _ ____ _ ____ _ ____ _ ____ _ ____
 72
    65
 73
     4
 40
17.500000
 49
13.000000
 49
-1.500000
 49
1.500000
 49
-1.500000
  0
LTYPE
  2
PHANTOM
 70
    64
  3
_____ _ _ _____ _ _ _____ _ _ _____ _ _ ____  
 72
    65
 73
     6
 40
15.500000
 49
8.000000
 49
-1.500000
 49
1.500000
 49
-1.500000
 49
1.500000
 49
-1.500000
  0
ENDTAB
  0
TABLE
  2
LAYER
 70
     1
  0
LAYER
  2
0
 70
     0
 62
     7
  6
CONTINUOUS
  0
ENDTAB
  0
TABLE
  2
STYLE
 70
     1
  0
STYLE
  2
STANDARD
 70
     0
 40
0.000000
 41
1.000000
 50
0.000000
 71
     0
 42
0.200000
  3
txt
  4
BIGFONT
  0
ENDTAB
  0
TABLE
  2
VIEW
 70
     0
  0
ENDTAB
  0
ENDSEC
  0
SECTION
  2
BLOCKS
  0
BLOCK
  8
0
 70
65
  2
*DIM0
 10
0.0
 20
0.0
 30
0.0
  0
LINE
  8
0
  6
BYBLOCK
 62
2
 10
234.431000
 20
-152.500000
 11
200.931000
 21
-152.500000
  0
LINE
  8
0
  6
BYBLOCK
 62
2
 10
234.431000
 20
-183.500000
 11
200.931000
 21
-183.500000
  0
LINE
  8
0
  6
BYBLOCK
 62
2
 10
202.431000
 20
-152.500000
 11
202.431000
 21
-183.500000
  0
LINE
  8
0
  6
BYBLOCK
 62
2
 10
202.431000
 20
-152.500000
 11
201.654541
 21
-155.397781
  0
LINE
  8
0
  6
BYBLOCK
 62
2
 10
202.431000
 20
-152.500000
 11
203.207458
 21
-155.397781
  0
LINE
  8
0
  6
BYBLOCK
 62
2
 10
202.431000
 20
-183.500000
 11
203.207458
 21
-180.602219
  0
LINE
  8
0
  6
BYBLOCK
 62
2
 10
202.431000
 20
-183.500000
 11
201.654541
 21
-180.602219
  0
TEXT
  8
0
 62
2
 10
201.231003
 20
-179.199997
 40
3.200000
  1
âË31
 50
90.000000
 41
0.937977
 51
0.000000
  7
STANDARD
  0
TEXT
  8
0
 62
2
 10
199.631424
 20
-170.195343
 40
1.600000
  1
 0
 50
90.000000
 41
0.937977
 51
0.000000
  7
STANDARD
  0
TEXT
  8
0
 62
2
 10
201.231415
 20
-170.195419
 40
1.600000
  1
-0.013
 50
90.000000
 41
0.937977
 51
0.000000
  7
STANDARD
  0
ENDBLK
  8
0
  0
BLOCK
  8
0
 70
65
  2
*DIM1
 10
0.0
 20
0.0
 30
0.0
  0
ARC
  8
0
  6
BYBLOCK
 62
2
 10
170.431000
 20
-168.000000
 40
25.500000
 50
78.012428
 51
101.987572
  0
LINE
  8
0
  6
BYBLOCK
 62
2
 10
171.375000
 20
-149.985001
 11
171.843994
 21
-141.037003
  0
LINE
  8
0
  6
BYBLOCK
 62
2
 10
169.487000
 20
-149.985001
 11
169.018005
 21
-141.037003
  0
LINE
  8
0
  6
BYBLOCK
 62
2
 10
171.765564
 20
-142.534943
 11
174.438889
 21
-143.896332
  0
LINE
  8
0
  6
BYBLOCK
 62
2
 10
171.765564
 20
-142.534943
 11
174.761414
 21
-142.377274
  0
LINE
  8
0
  6
BYBLOCK
 62
2
 10
169.096436
 20
-142.534943
 11
166.100586
 21
-142.377274
  0
LINE
  8
0
  6
BYBLOCK
 62
2
 10
169.096436
 20
-142.534943
 11
166.423111
 21
-143.896332
  0
TEXT
  8
0
 62
2
 10
162.431000
 20
-141.300003
 40
3.200000
  1
ü}3üï
 50
0.000000
 41
1.500330
 51
0.000000
  7
STANDARD
  0
ENDBLK
  8
3
  0
BLOCK
  8
0
 70
65
  2
*DIM2
 10
0.0
 20
0.0
 30
0.0
  0
LINE
  8
0
  6
BYBLOCK
 62
2
 10
266.431000
 20
-130.750000
 11
279.681000
 21
-130.750000
  0
LINE
  8
0
  6
BYBLOCK
 62
2
 10
266.431000
 20
-134.250000
 11
279.681000
 21
-134.250000
  0
LINE
  8
0
  6
BYBLOCK
 62
2
 10
278.181000
 20
-124.750000
 11
278.181000
 21
-140.250000
  0
LINE
  8
0
  6
BYBLOCK
 62
2
 10
278.181000
 20
-130.750000
 11
278.181000
 21
-110.651001
  0
LINE
  8
0
  6
BYBLOCK
 62
2
 10
278.181000
 20
-130.750000
 11
278.957458
 21
-127.852226
  0
LINE
  8
0
  6
BYBLOCK
 62
2
 10
278.181000
 20
-130.750000
 11
277.404541
 21
-127.852226
  0
LINE
  8
0
  6
BYBLOCK
 62
2
 10
278.181000
 20
-134.250000
 11
277.404541
 21
-137.147781
  0
LINE
  8
0
  6
BYBLOCK
 62
2
 10
278.181000
 20
-134.250000
 11
278.957458
 21
-137.147781
  0
TEXT
  8
0
 62
2
 10
276.980988
 20
-128.194000
 40
3.200000
  1
3.5
 50
90.000000
 41
0.900002
 51
0.000000
  7
STANDARD
  0
TEXT
  8
0
 62
2
 10
275.381378
 20
-119.553902
 40
1.600000
  1
+0.018
 50
90.000000
 41
0.900002
 51
0.000000
  7
STANDARD
  0
TEXT
  8
0
 62
2
 10
276.981384
 20
-119.553978
 40
1.600000
  1
 0
 50
90.000000
 41
0.900002
 51
0.000000
  7
STANDARD
  0
ENDBLK
  8
0
  0
BLOCK
  8
0
 70
65
  2
*DIM3
 10
0.0
 20
0.0
 30
0.0
  0
LINE
  8
0
  6
BYBLOCK
 62
2
 10
306.307007
 20
-125.768997
 11
309.807007
 21
-125.768997
  0
LINE
  8
0
  6
BYBLOCK
 62
2
 10
306.307007
 20
-117.768997
 11
306.307007
 21
-127.268997
  0
LINE
  8
0
  6
BYBLOCK
 62
2
 10
306.307007
 20
-125.768997
 11
309.807007
 21
-125.768997
  0
LINE
  8
0
  6
BYBLOCK
 62
2
 10
306.307007
 20
-125.768997
 11
285.750000
 21
-125.768997
  0
TEXT
  8
0
 62
2
 10
284.092987
 20
-124.569000
 40
3.200000
  1
3.5
 50
0.000000
 41
0.912090
 51
0.000000
  7
STANDARD
  0
TEXT
  8
0
 62
2
 10
292.849060
 20
-122.969002
 40
1.600000
  1
+0.024
 50
0.000000
 41
0.912090
 51
0.000000
  7
STANDARD
  0
TEXT
  8
0
 62
2
 10
292.849060
 20
-124.569000
 40
1.600000
  1
+0.012
 50
0.000000
 41
0.912090
 51
0.000000
  7
STANDARD
  0
ENDBLK
  8
0
  0
ENDSEC
  0
SECTION
  2
ENTITIES
  0
POINT
  8
0
  62
7
  10
-47.500099
  20
195.500000
  30
0.0
  0
POINT
  8
0
  62
7
  10
-22.500099
  20
195.500000
  30
0.0
  0
POINT
  8
0
  62
7
  10
2.499940
  20
-29.500000
  30
0.0
  0
POINT
  8
0
  62
7
  10
27.499901
  20
-29.500000
  30
0.0
  0
POINT
  8
0
  62
7
  10
52.499901
  20
-29.500000
  30
0.0
  0
POINT
  8
0
  62
7
  10
77.499901
  20
-29.500000
  30
0.0
  0
POINT
  8
0
  62
7
  10
102.500000
  20
-29.500000
  30
0.0
  0
POINT
  8
0
  62
7
  10
-72.500099
  20
195.500000
  30
0.0
  0
LINE
  8
0
  6
CONTINUOUS
 62
7
 10
399.799988
 20
276.250000
 11
399.799988
 21
-276.750000
  0
LINE
  8
0
  6
CONTINUOUS
 62
7
 10
-399.250000
 20
276.250000
 11
-399.250000
 21
-276.750000
  0
LINE
  8
0
  6
CONTINUOUS
 62
7
 10
-399.250000
 20
276.250000
 11
399.799988
 21
276.250000
  0
LINE
  8
0
  6
CONTINUOUS
 62
7
 10
-399.250000
 20
-276.750000
 11
399.799988
 21
-276.750000
  0
LINE
  8
0
  6
CONTINUOUS
 62
7
 10
239.800003
 20
-251.750000
 11
399.799988
 21
-251.750000
  0
LINE
  8
0
  6
CONTINUOUS
 62
7
 10
239.800003
 20
251.250000
 11
399.799988
 21
251.250000
  0
LINE
  8
0
  6
CONTINUOUS
 62
7
 10
-399.250000
 20
251.250000
 11
-239.250000
 21
251.250000
  0
LINE
  8
0
  6
CONTINUOUS
 62
7
 10
239.800003
 20
-251.750000
 11
239.800003
 21
-276.750000
  0
LINE
  8
0
  6
CONTINUOUS
 62
7
 10
239.800003
 20
251.250000
 11
239.800003
 21
276.250000
  0
LINE
  8
0
  6
CONTINUOUS
 62
7
 10
-239.250000
 20
276.250000
 11
-239.250000
 21
251.250000
  0
LINE
  8
0
  6
CONTINUOUS
 62
7
 10
-222.500000
 20
55.500000
 11
-72.500099
 21
55.500000
  0
LINE
  8
0
  6
CONTINUOUS
 62
7
 10
-222.500000
 20
19.500000
 11
-72.500099
 21
19.500000
  0
LINE
  8
0
  6
CONTINUOUS
 62
7
 10
-222.500000
 20
55.500000
 11
-222.500000
 21
19.500000
  0
LINE
  8
0
  6
CENTER
 62
2
 10
-269.500000
 20
37.500000
 11
-70.500099
 21
37.500000
  0
LINE
  8
0
  6
CONTINUOUS
 62
7
 10
-267.500000
 20
29.500000
 11
-222.500000
 21
29.500000
  0
LINE
  8
0
  6
CONTINUOUS
 62
7
 10
-267.500000
 20
45.500000
 11
-222.500000
 21
45.500000
  0
LINE
  8
0
  6
CONTINUOUS
 62
7
 10
-267.500000
 20
45.500000
 11
-267.500000
 21
29.500000
  0
LINE
  8
0
  6
CONTINUOUS
 62
7
 10
-222.500000
 20
195.500000
 11
-72.500099
 21
195.500000
  0
LINE
  8
0
  6
CONTINUOUS
 62
7
 10
-222.500000
 20
159.500000
 11
-72.500099
 21
159.500000
  0
LINE
  8
0
  6
CONTINUOUS
 62
7
 10
-222.500000
 20
195.500000
 11
-222.500000
 21
159.500000
  0
LINE
  8
0
  6
CENTER
 62
2
 10
-269.500000
 20
177.500000
 11
-70.500099
 21
177.500000
  0
LINE
  8
0
  6
CONTINUOUS
 62
7
 10
-267.500000
 20
169.500000
 11
-222.500000
 21
169.500000
  0
LINE
  8
0
  6
CONTINUOUS
 62
7
 10
-267.500000
 20
185.500000
 11
-222.500000
 21
185.500000
  0
LINE
  8
0
  6
CONTINUOUS
 62
7
 10
-267.500000
 20
185.500000
 11
-267.500000
 21
169.500000
  0
LINE
  8
0
  6
CONTINUOUS
 62
7
 10
-287.500000
 20
80.500000
 11
-323.500000
 21
80.500000
  0
LINE
  8
0
  6
CONTINUOUS
 62
7
 10
-287.500000
 20
134.500000
 11
-323.500000
 21
134.500000
  0
LINE
  8
0
  6
CENTER
 62
2
 10
-285.500000
 20
107.500000
 11
-325.500000
 21
107.500000
  0
LINE
  8
0
  6
CENTER
 62
2
 10
-305.500000
 20
78.500000
 11
-305.500000
 21
142.500000
  0
LINE
  8
0
  6
CONTINUOUS
 62
2
 10
-287.500000
 20
124.800003
 11
-288.500000
 21
124.800003
  0
LINE
  8
0
  6
CONTINUOUS
 62
2
 10
-287.500000
 20
122.199997
 11
-288.500000
 21
122.199997
  0
LINE
  8
0
  6
CONTINUOUS
 62
2
 10
-288.500000
 20
125.650002
 11
-292.299988
 21
125.650002
  0
LINE
  8
0
  6
CONTINUOUS
 62
2
 10
-288.500000
 20
121.349998
 11
-292.299988
 21
121.349998
  0
LINE
  8
0
  6
CONTINUOUS
 62
2
 10
-293.799988
 20
122.849998
 11
-293.799988
 21
124.150002
  0
LINE
  8
0
  6
CONTINUOUS
 62
2
 10
-288.500000
 20
124.800003
 11
-288.500000
 21
125.650002
  0
LINE
  8
0
  6
CONTINUOUS
 62
2
 10
-288.500000
 20
122.199997
 11
-288.500000
 21
121.349998
  0
LINE
  8
0
  6
CONTINUOUS
 62
7
 10
-287.500000
 20
134.500000
 11
-287.500000
 21
80.500000
  0
LINE
  8
0
  6
CONTINUOUS
 62
7
 10
-323.500000
 20
134.500000
 11
-323.500000
 21
80.500000
  0
LINE
  8
0
  6
CENTER
 62
2
 10
-269.500000
 20
107.500000
 11
-70.500099
 21
107.500000
  0
LINE
  8
0
  6
CONTINUOUS
 62
7
 10
-222.500000
 20
80.500000
 11
-222.500000
 21
134.500000
  0
LINE
  8
0
  6
CONTINUOUS
 62
7
 10
-222.500000
 20
80.500000
 11
-72.500099
 21
80.500000
  0
LINE
  8
0
  6
CONTINUOUS
 62
7
 10
-222.500000
 20
134.500000
 11
-72.500099
 21
134.500000
  0
LINE
  8
0
  6
CONTINUOUS
 62
2
 10
-222.500000
 20
124.800003
 11
-214.225006
 21
124.800003
  0
LINE
  8
0
  6
CONTINUOUS
 62
2
 10
-222.500000
 20
122.199997
 11
-72.500099
 21
122.199997
  0
LINE
  8
0
  6
CONTINUOUS
 62
2
 10
-206.774994
 20
124.800003
 11
-177.225006
 21
124.800003
  0
LINE
  8
0
  6
CONTINUOUS
 62
2
 10
-169.776001
 20
124.800003
 11
-72.500099
 21
124.800003
  0
LINE
  8
0
  6
CONTINUOUS
 62
2
 10
-222.500000
 20
92.800003
 11
-72.500099
 21
92.800003
  0
LINE
  8
0
  6
CONTINUOUS
 62
2
 10
-222.500000
 20
90.199997
 11
-214.225006
 21
90.199997
  0
LINE
  8
0
  6
CONTINUOUS
 62
2
 10
-206.774994
 20
90.199997
 11
-177.225006
 21
90.199997
  0
LINE
  8
0
  6
CONTINUOUS
 62
2
 10
-169.776001
 20
90.199997
 11
-72.500099
 21
90.199997
  0
LINE
  8
0
  6
CONTINUOUS
 62
7
 10
-267.500000
 20
99.500000
 11
-222.500000
 21
99.500000
  0
LINE
  8
0
  6
CONTINUOUS
 62
7
 10
-267.500000
 20
115.500000
 11
-222.500000
 21
115.500000
  0
LINE
  8
0
  6
CONTINUOUS
 62
7
 10
-267.500000
 20
115.500000
 11
-267.500000
 21
99.500000
  0
LINE
  8
0
  6
CENTER
 62
2
 10
-210.500000
 20
93.750000
 11
-210.500000
 21
79.250000
  0
LINE
  8
0
  6
CENTER
 62
2
 10
-217.750000
 20
86.500000
 11
-203.250000
 21
86.500000
  0
LINE
  8
0
  6
CENTER
 62
2
 10
-173.500000
 20
93.750000
 11
-173.500000
 21
79.250000
  0
LINE
  8
0
  6
CENTER
 62
2
 10
-180.750000
 20
86.500000
 11
-166.250000
 21
86.500000
  0
LINE
  8
0
  6
CENTER
 62
2
 10
-173.500000
 20
135.750000
 11
-173.500000
 21
121.250000
  0
LINE
  8
0
  6
CENTER
 62
2
 10
-180.750000
 20
128.500000
 11
-166.250000
 21
128.500000
  0
LINE
  8
0
  6
CENTER
 62
2
 10
-210.500000
 20
135.750000
 11
-210.500000
 21
121.250000
  0
LINE
  8
0
  6
CENTER
 62
2
 10
-217.750000
 20
128.500000
 11
-203.250000
 21
128.500000
  0
LINE
  8
0
  6
CENTER
 62
2
 10
-325.500000
 20
123.500000
 11
-313.500000
 21
123.500000
  0
LINE
  8
0
  6
CENTER
 62
2
 10
-297.500000
 20
123.500000
 11
-285.500000
 21
123.500000
  0
LINE
  8
0
  6
CENTER
 62
2
 10
-325.500000
 20
91.500000
 11
-313.500000
 21
91.500000
  0
LINE
  8
0
  6
CENTER
 62
2
 10
-297.500000
 20
91.500000
 11
-285.500000
 21
91.500000
  0
LINE
  8
0
  6
CONTINUOUS
 62
7
 10
-72.500099
 20
80.500000
 11
-72.500099
 21
134.500000
  0
LINE
  8
0
  6
CONTINUOUS
 62
7
 10
-72.500099
 20
55.500000
 11
-72.500099
 21
19.500000
  0
LINE
  8
0
  6
CONTINUOUS
 62
7
 10
-72.500099
 20
195.500000
 11
-72.500099
 21
159.500000
  0
LINE
  8
0
  6
CONTINUOUS
 62
7
 10
58.499901
 20
-144.500000
 11
22.499901
 21
-144.500000
  0
LINE
  8
0
  6
CONTINUOUS
 62
7
 10
58.499901
 20
-90.500000
 11
22.499901
 21
-90.500000
  0
LINE
  8
0
  6
CENTER
 62
2
 10
60.499901
 20
-117.500000
 11
20.499901
 21
-117.500000
  0
LINE
  8
0
  6
CENTER
 62
2
 10
40.499901
 20
-146.500000
 11
40.499901
 21
-82.500000
  0
LINE
  8
0
  6
CONTINUOUS
 62
2
 10
58.499901
 20
-100.199997
 11
57.499901
 21
-100.199997
  0
LINE
  8
0
  6
CONTINUOUS
 62
2
 10
58.499901
 20
-102.800003
 11
57.499901
 21
-102.800003
  0
LINE
  8
0
  6
CONTINUOUS
 62
2
 10
57.499901
 20
-99.349998
 11
53.699902
 21
-99.349998
  0
LINE
  8
0
  6
CONTINUOUS
 62
2
 10
57.499901
 20
-103.650002
 11
53.699902
 21
-103.650002
  0
LINE
  8
0
  6
CONTINUOUS
 62
2
 10
52.199902
 20
-102.150002
 11
52.199902
 21
-100.849998
  0
LINE
  8
0
  6
CONTINUOUS
 62
7
 10
58.499901
 20
-90.500000
 11
58.499901
 21
-144.500000
  0
LINE
  8
0
  6
CONTINUOUS
 62
7
 10
22.499901
 20
-90.500000
 11
22.499901
 21
-144.500000
  0
LINE
  8
0
  6
CONTINUOUS
 62
2
 10
57.499901
 20
-99.349998
 11
57.499901
 21
-100.199997
  0
LINE
  8
0
  6
CONTINUOUS
 62
2
 10
57.499901
 20
-102.800003
 11
57.499901
 21
-103.650002
  0
LINE
  8
0
  6
CENTER
 62
2
 10
20.499901
 20
-101.500000
 11
32.499901
 21
-101.500000
  0
LINE
  8
0
  6
CENTER
 62
2
 10
48.499901
 20
-101.500000
 11
60.499901
 21
-101.500000
  0
LINE
  8
0
  6
CENTER
 62
2
 10
20.499901
 20
-133.500000
 11
32.499901
 21
-133.500000
  0
LINE
  8
0
  6
CENTER
 62
2
 10
48.499901
 20
-133.500000
 11
60.499901
 21
-133.500000
  0
LINE
  8
0
  6
DASHED
 62
2
 10
-168.250000
 20
55.500000
 11
-168.250000
 21
49.000000
  0
LINE
  8
0
  6
DASHED
 62
2
 10
-205.250000
 20
55.500000
 11
-205.250000
 21
49.000000
  0
LINE
  8
0
  6
DASHED
 62
2
 10
-215.750000
 20
55.500000
 11
-215.750000
 21
49.000000
  0
LINE
  8
0
  6
DASHED
 62
2
 10
-178.750000
 20
55.500000
 11
-178.750000
 21
49.000000
  0
LINE
  8
0
  6
DASHED
 62
2
 10
-214.500000
 20
49.000000
 11
-214.500000
 21
26.000000
  0
LINE
  8
0
  6
DASHED
 62
2
 10
-206.500000
 20
49.000000
 11
-206.500000
 21
26.000000
  0
LINE
  8
0
  6
DASHED
 62
2
 10
-177.500000
 20
49.000000
 11
-177.500000
 21
26.000000
  0
LINE
  8
0
  6
DASHED
 62
2
 10
-169.500000
 20
49.000000
 11
-169.500000
 21
26.000000
  0
LINE
  8
0
  6
DASHED
 62
2
 10
-215.750000
 20
26.000000
 11
-205.250000
 21
26.000000
  0
LINE
  8
0
  6
DASHED
 62
2
 10
-215.750000
 20
49.000000
 11
-205.250000
 21
49.000000
  0
LINE
  8
0
  6
DASHED
 62
2
 10
-215.750000
 20
26.000000
 11
-215.750000
 21
19.500000
  0
LINE
  8
0
  6
DASHED
 62
2
 10
-205.250000
 20
26.000000
 11
-205.250000
 21
19.500000
  0
LINE
  8
0
  6
DASHED
 62
2
 10
-178.750000
 20
49.000000
 11
-168.250000
 21
49.000000
  0
LINE
  8
0
  6
DASHED
 62
2
 10
-178.750000
 20
26.000000
 11
-168.250000
 21
26.000000
  0
LINE
  8
0
  6
DASHED
 62
2
 10
-178.750000
 20
26.000000
 11
-178.750000
 21
19.500000
  0
LINE
  8
0
  6
DASHED
 62
2
 10
-168.250000
 20
26.000000
 11
-168.250000
 21
19.500000
  0
LINE
  8
0
  6
CENTER
 62
2
 10
-210.500000
 20
57.500000
 11
-210.500000
 21
17.500000
  0
LINE
  8
0
  6
CENTER
 62
2
 10
-173.500000
 20
57.500000
 11
-173.500000
 21
17.500000
  0
LINE
  8
0
  6
CONTINUOUS
 62
7
 10
-222.500000
 20
-169.500000
 11
2.499940
 21
-169.500000
  0
LINE
  8
0
  6
CONTINUOUS
 62
7
 10
-222.500000
 20
-205.500000
 11
2.499940
 21
-205.500000
  0
LINE
  8
0
  6
CONTINUOUS
 62
7
 10
-222.500000
 20
-169.500000
 11
-222.500000
 21
-205.500000
  0
LINE
  8
0
  6
CONTINUOUS
 62
7
 10
2.499940
 20
-169.500000
 11
2.499940
 21
-205.500000
  0
LINE
  8
0
  6
CENTER
 62
2
 10
-269.500000
 20
-187.500000
 11
4.499940
 21
-187.500000
  0
LINE
  8
0
  6
CONTINUOUS
 62
7
 10
-267.500000
 20
-195.500000
 11
-222.500000
 21
-195.500000
  0
LINE
  8
0
  6
CONTINUOUS
 62
7
 10
-267.500000
 20
-179.500000
 11
-222.500000
 21
-179.500000
  0
LINE
  8
0
  6
CONTINUOUS
 62
7
 10
-267.500000
 20
-179.500000
 11
-267.500000
 21
-195.500000
  0
LINE
  8
0
  6
CONTINUOUS
 62
7
 10
-287.500000
 20
-144.500000
 11
-323.500000
 21
-144.500000
  0
LINE
  8
0
  6
CONTINUOUS
 62
7
 10
-287.500000
 20
-90.500000
 11
-323.500000
 21
-90.500000
  0
LINE
  8
0
  6
CENTER
 62
2
 10
-285.500000
 20
-117.500000
 11
-325.500000
 21
-117.500000
  0
LINE
  8
0
  6
CENTER
 62
2
 10
-305.500000
 20
-146.500000
 11
-305.500000
 21
-82.500000
  0
LINE
  8
0
  6
CONTINUOUS
 62
2
 10
-287.500000
 20
-100.199997
 11
-288.500000
 21
-100.199997
  0
LINE
  8
0
  6
CONTINUOUS
 62
2
 10
-287.500000
 20
-102.800003
 11
-288.500000
 21
-102.800003
  0
LINE
  8
0
  6
CONTINUOUS
 62
2
 10
-288.500000
 20
-99.349998
 11
-292.299988
 21
-99.349998
  0
LINE
  8
0
  6
CONTINUOUS
 62
2
 10
-288.500000
 20
-103.650002
 11
-292.299988
 21
-103.650002
  0
LINE
  8
0
  6
CONTINUOUS
 62
2
 10
-293.799988
 20
-102.150002
 11
-293.799988
 21
-100.849998
  0
LINE
  8
0
  6
CONTINUOUS
 62
2
 10
-288.500000
 20
-100.199997
 11
-288.500000
 21
-99.349998
  0
LINE
  8
0
  6
CONTINUOUS
 62
2
 10
-288.500000
 20
-102.800003
 11
-288.500000
 21
-103.650002
  0
LINE
  8
0
  6
CONTINUOUS
 62
7
 10
-323.500000
 20
-144.500000
 11
-323.500000
 21
-90.500000
  0
LINE
  8
0
  6
CONTINUOUS
 62
7
 10
-287.500000
 20
-90.500000
 11
-287.500000
 21
-144.500000
  0
LINE
  8
0
  6
CENTER
 62
2
 10
-269.500000
 20
-117.500000
 11
4.499940
 21
-117.500000
  0
LINE
  8
0
  6
CONTINUOUS
 62
7
 10
-222.500000
 20
-144.500000
 11
-222.500000
 21
-90.500000
  0
LINE
  8
0
  6
CONTINUOUS
 62
7
 10
2.499940
 20
-144.500000
 11
2.499940
 21
-90.500000
  0
LINE
  8
0
  6
CONTINUOUS
 62
7
 10
-222.500000
 20
-144.500000
 11
2.499940
 21
-144.500000
  0
LINE
  8
0
  6
CONTINUOUS
 62
7
 10
-222.500000
 20
-90.500000
 11
2.499940
 21
-90.500000
  0
LINE
  8
0
  6
CONTINUOUS
 62
2
 10
-222.500000
 20
-100.199997
 11
-214.225006
 21
-100.199997
  0
LINE
  8
0
  6
CONTINUOUS
 62
2
 10
-222.500000
 20
-102.800003
 11
2.499940
 21
-102.800003
  0
LINE
  8
0
  6
CONTINUOUS
 62
2
 10
-206.774994
 20
-100.199997
 11
-177.225006
 21
-100.199997
  0
LINE
  8
0
  6
CONTINUOUS
 62
2
 10
-169.774994
 20
-100.199997
 11
-91.224602
 21
-100.199997
  0
LINE
  8
0
  6
CONTINUOUS
 62
2
 10
-222.500000
 20
-132.199997
 11
2.499940
 21
-132.199997
  0
LINE
  8
0
  6
CONTINUOUS
 62
2
 10
-222.500000
 20
-134.800003
 11
-214.225006
 21
-134.800003
  0
LINE
  8
0
  6
CONTINUOUS
 62
2
 10
-206.774994
 20
-134.800003
 11
-177.225006
 21
-134.800003
  0
LINE
  8
0
  6
CONTINUOUS
 62
2
 10
-169.774994
 20
-134.800003
 11
-91.224602
 21
-134.800003
  0
LINE
  8
0
  6
CONTINUOUS
 62
7
 10
-267.500000
 20
-125.500000
 11
-222.500000
 21
-125.500000
  0
LINE
  8
0
  6
CONTINUOUS
 62
7
 10
-267.500000
 20
-109.500000
 11
-222.500000
 21
-109.500000
  0
LINE
  8
0
  6
CONTINUOUS
 62
7
 10
-267.500000
 20
-109.500000
 11
-267.500000
 21
-125.500000
  0
LINE
  8
0
  6
CENTER
 62
2
 10
-210.500000
 20
-131.250000
 11
-210.500000
 21
-145.750000
  0
LINE
  8
0
  6
CENTER
 62
2
 10
-217.750000
 20
-138.500000
 11
-203.250000
 21
-138.500000
  0
LINE
  8
0
  6
CENTER
 62
2
 10
-87.500099
 20
-131.250000
 11
-87.500099
 21
-145.750000
  0
LINE
  8
0
  6
CENTER
 62
2
 10
-94.750099
 20
-138.500000
 11
-80.250000
 21
-138.500000
  0
LINE
  8
0
  6
CENTER
 62
2
 10
-87.500099
 20
-89.250000
 11
-87.500099
 21
-103.750000
  0
LINE
  8
0
  6
CENTER
 62
2
 10
-94.750099
 20
-96.500000
 11
-80.250000
 21
-96.500000
  0
LINE
  8
0
  6
CENTER
 62
2
 10
-210.500000
 20
-89.250000
 11
-210.500000
 21
-103.750000
  0
LINE
  8
0
  6
CENTER
 62
2
 10
-217.750000
 20
-96.500000
 11
-203.250000
 21
-96.500000
  0
LINE
  8
0
  6
CENTER
 62
2
 10
-173.500000
 20
-131.250000
 11
-173.500000
 21
-145.750000
  0
LINE
  8
0
  6
CENTER
 62
2
 10
-180.750000
 20
-138.500000
 11
-166.250000
 21
-138.500000
  0
LINE
  8
0
  6
CENTER
 62
2
 10
-173.500000
 20
-89.250000
 11
-173.500000
 21
-103.750000
  0
LINE
  8
0
  6
CENTER
 62
2
 10
-180.750000
 20
-96.500000
 11
-166.250000
 21
-96.500000
  0
LINE
  8
0
  6
CONTINUOUS
 62
2
 10
-83.775497
 20
-134.800003
 11
2.499940
 21
-134.800003
  0
LINE
  8
0
  6
CONTINUOUS
 62
2
 10
-83.775497
 20
-100.199997
 11
2.499940
 21
-100.199997
  0
LINE
  8
0
  6
CONTINUOUS
 62
7
 10
2.499940
 20
-29.500000
 11
2.499940
 21
-65.500000
  0
LINE
  8
0
  6
CENTER
 62
2
 10
-153.600006
 20
-41.500000
 11
-167.399994
 21
-41.500000
  0
LINE
  8
0
  6
CENTER
 62
2
 10
-160.500000
 20
-34.599899
 11
-160.500000
 21
-48.400002
  0
LINE
  8
0
  6
CENTER
 62
2
 10
-17.500099
 20
-46.599998
 11
-17.500099
 21
-60.400002
  0
LINE
  8
0
  6
CENTER
 62
2
 10
-24.400101
 20
-53.500000
 11
-10.600100
 21
-53.500000
  0
LINE
  8
0
  6
CENTER
 62
2
 10
-325.500000
 20
-101.500000
 11
-316.500000
 21
-101.500000
  0
LINE
  8
0
  6
CENTER
 62
2
 10
-325.500000
 20
-133.500000
 11
-316.500000
 21
-133.500000
  0
LINE
  8
0
  6
CENTER
 62
2
 10
-285.500000
 20
-133.500000
 11
-297.500000
 21
-133.500000
  0
LINE
  8
0
  6
CENTER
 62
2
 10
-285.500000
 20
-101.500000
 11
-297.500000
 21
-101.500000
  0
LINE
  8
0
  6
DASHED
 62
2
 10
-215.750000
 20
-169.500000
 11
-215.750000
 21
-176.000000
  0
LINE
  8
0
  6
DASHED
 62
2
 10
-205.250000
 20
-169.500000
 11
-205.250000
 21
-176.000000
  0
LINE
  8
0
  6
DASHED
 62
2
 10
-178.750000
 20
-169.500000
 11
-178.750000
 21
-176.000000
  0
LINE
  8
0
  6
DASHED
 62
2
 10
-168.250000
 20
-169.500000
 11
-168.250000
 21
-176.000000
  0
LINE
  8
0
  6
DASHED
 62
2
 10
-92.750099
 20
-169.500000
 11
-92.750099
 21
-176.000000
  0
LINE
  8
0
  6
DASHED
 62
2
 10
-82.250099
 20
-169.500000
 11
-82.250099
 21
-176.000000
  0
LINE
  8
0
  6
DASHED
 62
2
 10
-214.500000
 20
-176.000000
 11
-214.500000
 21
-199.000000
  0
LINE
  8
0
  6
DASHED
 62
2
 10
-206.500000
 20
-176.000000
 11
-206.500000
 21
-199.000000
  0
LINE
  8
0
  6
DASHED
 62
2
 10
-177.500000
 20
-176.000000
 11
-177.500000
 21
-199.000000
  0
LINE
  8
0
  6
DASHED
 62
2
 10
-169.500000
 20
-176.000000
 11
-169.500000
 21
-199.000000
  0
LINE
  8
0
  6
DASHED
 62
2
 10
-91.500099
 20
-176.000000
 11
-91.500099
 21
-199.000000
  0
LINE
  8
0
  6
DASHED
 62
2
 10
-83.500099
 20
-176.000000
 11
-83.500099
 21
-199.000000
  0
LINE
  8
0
  6
DASHED
 62
2
 10
-215.750000
 20
-176.000000
 11
-205.250000
 21
-176.000000
  0
LINE
  8
0
  6
DASHED
 62
2
 10
-215.750000
 20
-199.000000
 11
-205.250000
 21
-199.000000
  0
LINE
  8
0
  6
DASHED
 62
2
 10
-215.750000
 20
-199.000000
 11
-215.750000
 21
-205.500000
  0
LINE
  8
0
  6
DASHED
 62
2
 10
-205.250000
 20
-199.000000
 11
-205.250000
 21
-205.500000
  0
LINE
  8
0
  6
DASHED
 62
2
 10
-178.750000
 20
-176.000000
 11
-168.250000
 21
-176.000000
  0
LINE
  8
0
  6
DASHED
 62
2
 10
-178.750000
 20
-199.000000
 11
-168.250000
 21
-199.000000
  0
LINE
  8
0
  6
DASHED
 62
2
 10
-178.750000
 20
-199.000000
 11
-178.750000
 21
-205.500000
  0
LINE
  8
0
  6
DASHED
 62
2
 10
-168.250000
 20
-199.000000
 11
-168.250000
 21
-205.500000
  0
LINE
  8
0
  6
DASHED
 62
2
 10
-92.750099
 20
-199.000000
 11
-92.750099
 21
-205.500000
  0
LINE
  8
0
  6
DASHED
 62
2
 10
-82.250099
 20
-199.000000
 11
-82.250099
 21
-205.500000
  0
LINE
  8
0
  6
DASHED
 62
2
 10
-92.750099
 20
-176.000000
 11
-82.250099
 21
-176.000000
  0
LINE
  8
0
  6
DASHED
 62
2
 10
-92.750099
 20
-199.000000
 11
-82.250099
 21
-199.000000
  0
LINE
  8
0
  6
CENTER
 62
2
 10
-210.500000
 20
-167.500000
 11
-210.500000
 21
-207.500000
  0
LINE
  8
0
  6
CENTER
 62
2
 10
-173.500000
 20
-167.500000
 11
-173.500000
 21
-207.500000
  0
LINE
  8
0
  6
CENTER
 62
2
 10
-87.500099
 20
-167.500000
 11
-87.500099
 21
-207.500000
  0
LINE
  8
0
  6
CONTINUOUS
 62
7
 10
-222.500000
 20
-29.500000
 11
2.499940
 21
-29.500000
  0
LINE
  8
0
  6
CONTINUOUS
 62
7
 10
-222.500000
 20
-65.500000
 11
2.499940
 21
-65.500000
  0
LINE
  8
0
  6
CONTINUOUS
 62
7
 10
-222.500000
 20
-29.500000
 11
-222.500000
 21
-65.500000
  0
LINE
  8
0
  6
CENTER
 62
2
 10
-269.500000
 20
-47.500000
 11
4.499940
 21
-47.500000
  0
LINE
  8
0
  6
CONTINUOUS
 62
7
 10
-267.500000
 20
-55.500000
 11
-222.500000
 21
-55.500000
  0
LINE
  8
0
  6
CONTINUOUS
 62
7
 10
-267.500000
 20
-39.500000
 11
-222.500000
 21
-39.500000
  0
LINE
  8
0
  6
CONTINUOUS
 62
7
 10
-267.500000
 20
-39.500000
 11
-267.500000
 21
-55.500000
  0
LINE
  8
0
  6
CONTINUOUS
 62
7
 10
-106.000000
 20
188.000000
 11
-106.000000
 21
167.000000
  0
LINE
  8
0
  6
CONTINUOUS
 62
7
 10
-119.000000
 20
188.000000
 11
-119.000000
 21
167.000000
  0
LINE
  8
0
  6
CONTINUOUS
 62
7
 10
-119.000000
 20
188.000000
 11
-106.000000
 21
188.000000
  0
LINE
  8
0
  6
CONTINUOUS
 62
7
 10
-119.000000
 20
167.000000
 11
-106.000000
 21
167.000000
  0
LINE
  8
0
  6
CONTINUOUS
 62
7
 10
-119.000000
 20
140.500000
 11
-106.000000
 21
140.500000
  0
LINE
  8
0
  6
CONTINUOUS
 62
7
 10
-106.000000
 20
134.500000
 11
-106.000000
 21
140.500000
  0
LINE
  8
0
  6
CONTINUOUS
 62
7
 10
-119.000000
 20
134.500000
 11
-119.000000
 21
140.500000
  0
LINE
  8
0
  6
CONTINUOUS
 62
7
 10
29.999800
 20
-84.500000
 11
50.999802
 21
-84.500000
  0
LINE
  8
0
  6
CONTINUOUS
 62
7
 10
29.999800
 20
-90.500000
 11
29.999800
 21
-84.500000
  0
LINE
  8
0
  6
CONTINUOUS
 62
7
 10
50.999802
 20
-90.500000
 11
50.999802
 21
-84.500000
  0
LINE
  8
0
  6
CENTER
 62
2
 10
-37.500099
 20
-44.000000
 11
-37.500099
 21
-51.000000
  0
LINE
  8
0
  6
CONTINUOUS
 62
7
 10
-31.000099
 20
-37.000000
 11
-31.000099
 21
-58.000000
  0
LINE
  8
0
  6
CONTINUOUS
 62
7
 10
-44.000099
 20
-37.000000
 11
-44.000099
 21
-58.000000
  0
LINE
  8
0
  6
CONTINUOUS
 62
7
 10
-44.000000
 20
-37.000000
 11
-31.000000
 21
-37.000000
  0
LINE
  8
0
  6
CONTINUOUS
 62
7
 10
-44.000000
 20
-58.000000
 11
-31.000000
 21
-58.000000
  0
LINE
  8
0
  6
CONTINUOUS
 62
7
 10
-44.000000
 20
-84.500000
 11
-31.000000
 21
-84.500000
  0
LINE
  8
0
  6
CONTINUOUS
 62
7
 10
-31.000099
 20
-90.500000
 11
-31.000099
 21
-84.500000
  0
LINE
  8
0
  6
CONTINUOUS
 62
7
 10
-44.000099
 20
-90.500000
 11
-44.000099
 21
-84.500000
  0
LINE
  8
0
  6
CONTINUOUS
 62
7
 10
-295.000000
 20
-84.500000
 11
-316.000000
 21
-84.500000
  0
LINE
  8
0
  6
CONTINUOUS
 62
7
 10
-295.000000
 20
-90.500000
 11
-295.000000
 21
-84.500000
  0
LINE
  8
0
  6
CONTINUOUS
 62
7
 10
-316.000000
 20
-90.500000
 11
-316.000000
 21
-84.500000
  0
LINE
  8
0
  6
CONTINUOUS
 62
7
 10
-316.000000
 20
134.500000
 11
-316.000000
 21
140.500000
  0
LINE
  8
0
  6
CONTINUOUS
 62
7
 10
-295.000000
 20
140.500000
 11
-316.000000
 21
140.500000
  0
LINE
  8
0
  6
CONTINUOUS
 62
7
 10
-295.000000
 20
134.500000
 11
-295.000000
 21
140.500000
  0
LINE
  8
0
  6
CONTINUOUS
 62
7
 10
-16.500200
 20
80.500000
 11
-52.500198
 21
80.500000
  0
LINE
  8
0
  6
CONTINUOUS
 62
7
 10
-16.500200
 20
134.500000
 11
-52.500198
 21
134.500000
  0
LINE
  8
0
  6
CENTER
 62
2
 10
-14.500200
 20
107.500000
 11
-54.500198
 21
107.500000
  0
LINE
  8
0
  6
CENTER
 62
2
 10
-34.500198
 20
78.500000
 11
-34.500198
 21
142.500000
  0
LINE
  8
0
  6
CONTINUOUS
 62
2
 10
-16.500200
 20
124.800003
 11
-17.500200
 21
124.800003
  0
LINE
  8
0
  6
CONTINUOUS
 62
2
 10
-16.500200
 20
122.199997
 11
-17.500200
 21
122.199997
  0
LINE
  8
0
  6
CONTINUOUS
 62
2
 10
-17.500200
 20
125.650002
 11
-21.300200
 21
125.650002
  0
LINE
  8
0
  6
CONTINUOUS
 62
2
 10
-17.500200
 20
121.349998
 11
-21.300200
 21
121.349998
  0
LINE
  8
0
  6
CONTINUOUS
 62
2
 10
-22.800200
 20
122.849998
 11
-22.800200
 21
124.150002
  0
LINE
  8
0
  6
CONTINUOUS
 62
7
 10
-16.500200
 20
134.500000
 11
-16.500200
 21
80.500000
  0
LINE
  8
0
  6
CONTINUOUS
 62
7
 10
-52.500198
 20
134.500000
 11
-52.500198
 21
80.500000
  0
LINE
  8
0
  6
CONTINUOUS
 62
2
 10
-17.500200
 20
125.650002
 11
-17.500200
 21
124.800003
  0
LINE
  8
0
  6
CONTINUOUS
 62
2
 10
-17.500200
 20
122.199997
 11
-17.500200
 21
121.349998
  0
LINE
  8
0
  6
CENTER
 62
2
 10
-54.500198
 20
123.500000
 11
-42.500198
 21
123.500000
  0
LINE
  8
0
  6
CENTER
 62
2
 10
-26.500200
 20
123.500000
 11
-14.500200
 21
123.500000
  0
LINE
  8
0
  6
CENTER
 62
2
 10
-54.500198
 20
91.500000
 11
-42.500198
 21
91.500000
  0
LINE
  8
0
  6
CENTER
 62
2
 10
-26.500200
 20
91.500000
 11
-14.500200
 21
91.500000
  0
LINE
  8
0
  6
CONTINUOUS
 62
7
 10
-45.000198
 20
140.500000
 11
-24.000200
 21
140.500000
  0
LINE
  8
0
  6
CONTINUOUS
 62
7
 10
-45.000198
 20
134.500000
 11
-45.000198
 21
140.500000
  0
LINE
  8
0
  6
CONTINUOUS
 62
7
 10
-24.000200
 20
134.500000
 11
-24.000200
 21
140.500000
  0
LINE
  8
0
  6
CENTER
 62
2
 10
-310.500000
 20
129.500000
 11
-300.500000
 21
129.500000
  0
LINE
  8
0
  6
CENTER
 62
2
 10
-310.500000
 20
85.500000
 11
-300.500000
 21
85.500000
  0
LINE
  8
0
  6
CENTER
 62
2
 10
-160.500000
 20
190.399994
 11
-160.500000
 21
176.600006
  0
LINE
  8
0
  6
CENTER
 62
2
 10
-167.399994
 20
183.500000
 11
-153.600006
 21
183.500000
  0
LINE
  8
0
  6
CENTER
 62
2
 10
-112.500000
 20
181.000000
 11
-112.500000
 21
174.000000
  0
LINE
  8
0
  6
CENTER
 62
2
 10
-92.500099
 20
178.399994
 11
-92.500099
 21
164.600006
  0
LINE
  8
0
  6
CENTER
 62
2
 10
-99.400101
 20
171.500000
 11
-85.600098
 21
171.500000
  0
LINE
  8
0
  6
CENTER
 62
2
 10
-112.500000
 20
142.500000
 11
-112.500000
 21
132.500000
  0
LINE
  8
0
  6
DASHED
 62
2
 10
-176.899994
 20
49.000000
 11
-176.899994
 21
26.000000
  0
LINE
  8
0
  6
DASHED
 62
2
 10
-170.100006
 20
49.000000
 11
-170.100006
 21
26.000000
  0
LINE
  8
0
  6
DASHED
 62
2
 10
-213.899994
 20
49.000000
 11
-213.899994
 21
26.000000
  0
LINE
  8
0
  6
DASHED
 62
2
 10
-207.100006
 20
49.000000
 11
-207.100006
 21
26.000000
  0
LINE
  8
0
  6
CENTER
 62
2
 10
-200.500000
 20
29.500000
 11
-200.500000
 21
19.500000
  0
LINE
  8
0
  6
CENTER
 62
2
 10
-205.500000
 20
24.500000
 11
-195.500000
 21
24.500000
  0
LINE
  8
0
  6
CENTER
 62
2
 10
-163.500000
 20
29.500000
 11
-163.500000
 21
19.500000
  0
LINE
  8
0
  6
CENTER
 62
2
 10
-168.500000
 20
24.500000
 11
-158.500000
 21
24.500000
  0
LINE
  8
0
  6
CENTER
 62
2
 10
-163.500000
 20
55.500000
 11
-163.500000
 21
45.500000
  0
LINE
  8
0
  6
CENTER
 62
2
 10
-168.500000
 20
50.500000
 11
-158.500000
 21
50.500000
  0
LINE
  8
0
  6
CENTER
 62
2
 10
-200.500000
 20
55.500000
 11
-200.500000
 21
45.500000
  0
LINE
  8
0
  6
CENTER
 62
2
 10
-205.500000
 20
50.500000
 11
-195.500000
 21
50.500000
  0
LINE
  8
0
  6
CENTER
 62
2
 10
-310.500000
 20
-139.500000
 11
-300.500000
 21
-139.500000
  0
LINE
  8
0
  6
CENTER
 62
2
 10
-310.500000
 20
-95.500000
 11
-300.500000
 21
-95.500000
  0
LINE
  8
0
  6
CENTER
 62
2
 10
-37.500099
 20
-82.500000
 11
-37.500099
 21
-92.500000
  0
LINE
  8
0
  6
DASHED
 62
2
 10
-90.900101
 20
-176.000000
 11
-90.900101
 21
-199.000000
  0
LINE
  8
0
  6
DASHED
 62
2
 10
-84.100098
 20
-176.000000
 11
-84.100098
 21
-199.000000
  0
LINE
  8
0
  6
DASHED
 62
2
 10
-213.899994
 20
-176.000000
 11
-213.899994
 21
-199.000000
  0
LINE
  8
0
  6
DASHED
 62
2
 10
-207.100006
 20
-176.000000
 11
-207.100006
 21
-199.000000
  0
LINE
  8
0
  6
DASHED
 62
2
 10
-176.899994
 20
-176.000000
 11
-176.899994
 21
-199.000000
  0
LINE
  8
0
  6
DASHED
 62
2
 10
-170.100006
 20
-176.000000
 11
-170.100006
 21
-199.000000
  0
LINE
  8
0
  6
CENTER
 62
2
 10
-77.500099
 20
-195.500000
 11
-77.500099
 21
-205.500000
  0
LINE
  8
0
  6
CENTER
 62
2
 10
-82.500099
 20
-200.500000
 11
-72.500099
 21
-200.500000
  0
LINE
  8
0
  6
CENTER
 62
2
 10
-77.500099
 20
-169.500000
 11
-77.500099
 21
-179.500000
  0
LINE
  8
0
  6
CENTER
 62
2
 10
-82.500099
 20
-174.500000
 11
-72.500099
 21
-174.500000
  0
LINE
  8
0
  6
CENTER
 62
2
 10
-163.500000
 20
-169.500000
 11
-163.500000
 21
-179.500000
  0
LINE
  8
0
  6
CENTER
 62
2
 10
-168.500000
 20
-174.500000
 11
-158.500000
 21
-174.500000
  0
LINE
  8
0
  6
CENTER
 62
2
 10
-163.500000
 20
-195.500000
 11
-163.500000
 21
-205.500000
  0
LINE
  8
0
  6
CENTER
 62
2
 10
-168.500000
 20
-200.500000
 11
-158.500000
 21
-200.500000
  0
LINE
  8
0
  6
CENTER
 62
2
 10
-200.500000
 20
-195.500000
 11
-200.500000
 21
-205.500000
  0
LINE
  8
0
  6
CENTER
 62
2
 10
-205.500000
 20
-200.500000
 11
-195.500000
 21
-200.500000
  0
LINE
  8
0
  6
CENTER
 62
2
 10
-200.500000
 20
-169.500000
 11
-200.500000
 21
-179.500000
  0
LINE
  8
0
  6
CENTER
 62
2
 10
-205.500000
 20
-174.500000
 11
-195.500000
 21
-174.500000
  0
LINE
  8
0
  6
CONTINUOUS
 62
4
 10
170.000000
 20
172.500000
 11
230.000000
 21
172.500000
  0
LINE
  8
0
  6
CONTINUOUS
 62
4
 10
184.000000
 20
197.500000
 11
216.000000
 21
197.500000
  0
LINE
  8
0
  6
CONTINUOUS
 62
4
 10
170.000000
 20
190.000000
 11
184.000000
 21
190.000000
  0
LINE
  8
0
  6
CONTINUOUS
 62
4
 10
170.000000
 20
190.000000
 11
170.000000
 21
172.500000
  0
LINE
  8
0
  6
CONTINUOUS
 62
4
 10
230.000000
 20
190.000000
 11
230.000000
 21
172.500000
  0
LINE
  8
0
  6
CENTER
 62
1
 10
200.000000
 20
199.500000
 11
200.000000
 21
170.500000
  0
LINE
  8
0
  6
CONTINUOUS
 62
4
 10
184.000000
 20
197.500000
 11
184.000000
 21
190.000000
  0
LINE
  8
0
  6
CONTINUOUS
 62
4
 10
216.000000
 20
197.500000
 11
216.000000
 21
190.000000
  0
LINE
  8
0
  6
CONTINUOUS
 62
4
 10
216.000000
 20
190.000000
 11
230.000000
 21
190.000000
  0
LINE
  8
0
  6
CENTER
 62
1
 10
223.000000
 20
192.000000
 11
223.000000
 21
170.500000
  0
LINE
  8
0
  6
CENTER
 62
1
 10
177.000000
 20
192.000000
 11
177.000000
 21
170.500000
  0
LINE
  8
0
  6
DASHED
 62
1
 10
219.600006
 20
190.000000
 11
219.600006
 21
172.500000
  0
LINE
  8
0
  6
DASHED
 62
1
 10
226.399994
 20
190.000000
 11
226.399994
 21
172.500000
  0
LINE
  8
0
  6
CONTINUOUS
 62
4
 10
170.000000
 20
162.500000
 11
230.000000
 21
162.500000
  0
LINE
  8
0
  6
CONTINUOUS
 62
4
 10
170.000000
 20
132.500000
 11
230.000000
 21
132.500000
  0
LINE
  8
0
  6
CONTINUOUS
 62
4
 10
170.000000
 20
162.500000
 11
170.000000
 21
132.500000
  0
LINE
  8
0
  6
CONTINUOUS
 62
4
 10
230.000000
 20
132.500000
 11
230.000000
 21
162.500000
  0
LINE
  8
0
  6
CONTINUOUS
 62
4
 10
250.000000
 20
132.500000
 11
250.000000
 21
162.500000
  0
LINE
  8
0
  6
CONTINUOUS
 62
4
 10
275.000000
 20
132.500000
 11
275.000000
 21
162.500000
  0
LINE
  8
0
  6
CONTINUOUS
 62
4
 10
250.000000
 20
162.500000
 11
275.000000
 21
162.500000
  0
LINE
  8
0
  6
CONTINUOUS
 62
4
 10
250.000000
 20
132.500000
 11
275.000000
 21
132.500000
  0
LINE
  8
0
  6
CENTER
 62
1
 10
248.000000
 20
147.500000
 11
277.000000
 21
147.500000
  0
LINE
  8
0
  6
CONTINUOUS
 62
7
 10
230.000000
 20
-26.500000
 11
240.000000
 21
-26.500000
  0
LINE
  8
0
  6
CONTINUOUS
 62
7
 10
230.000000
 20
-62.500000
 11
240.000000
 21
-62.500000
  0
LINE
  8
0
  6
CONTINUOUS
 62
7
 10
230.000000
 20
-26.500000
 11
230.000000
 21
-62.500000
  0
LINE
  8
0
  6
CENTER
 62
1
 10
182.000000
 20
-44.500000
 11
240.000000
 21
-44.500000
  0
LINE
  8
0
  6
CONTINUOUS
 62
4
 10
210.731995
 20
-52.500000
 11
230.000000
 21
-52.500000
  0
LINE
  8
0
  6
CONTINUOUS
 62
4
 10
210.731995
 20
-36.500000
 11
230.000000
 21
-36.500000
  0
LINE
  8
0
  6
CONTINUOUS
 62
4
 10
185.000000
 20
-37.500000
 11
185.000000
 21
-51.500000
  0
LINE
  8
0
  6
CONTINUOUS
 62
7
 10
230.000000
 20
73.500000
 11
240.000000
 21
73.500000
  0
LINE
  8
0
  6
CONTINUOUS
 62
7
 10
230.000000
 20
37.500000
 11
240.000000
 21
37.500000
  0
LINE
  8
0
  6
CONTINUOUS
 62
7
 10
230.000000
 20
73.500000
 11
230.000000
 21
37.500000
  0
LINE
  8
0
  6
CENTER
 62
1
 10
183.000000
 20
55.500000
 11
240.000000
 21
55.500000
  0
LINE
  8
0
  6
CONTINUOUS
 62
4
 10
185.000000
 20
47.500000
 11
192.000000
 21
47.500000
  0
LINE
  8
0
  6
CONTINUOUS
 62
4
 10
185.000000
 20
63.500000
 11
192.000000
 21
63.500000
  0
LINE
  8
0
  6
CONTINUOUS
 62
4
 10
185.000000
 20
63.500000
 11
185.000000
 21
47.500000
  0
LINE
  8
0
  6
CONTINUOUS
 62
4
 10
192.000000
 20
63.500000
 11
192.000000
 21
62.500000
  0
LINE
  8
0
  6
CONTINUOUS
 62
4
 10
199.500000
 20
63.500000
 11
199.500000
 21
62.500000
  0
LINE
  8
0
  6
CONTINUOUS
 62
4
 10
192.000000
 20
48.500000
 11
199.500000
 21
48.500000
  0
LINE
  8
0
  6
CONTINUOUS
 62
4
 10
192.000000
 20
62.500000
 11
199.500000
 21
62.500000
  0
LINE
  8
0
  6
CONTINUOUS
 62
4
 10
199.500000
 20
48.500000
 11
199.500000
 21
47.500000
  0
LINE
  8
0
  6
CONTINUOUS
 62
4
 10
192.000000
 20
48.500000
 11
192.000000
 21
47.500000
  0
LINE
  8
0
  6
CONTINUOUS
 62
4
 10
199.500000
 20
47.500000
 11
230.000000
 21
47.500000
  0
LINE
  8
0
  6
CONTINUOUS
 62
4
 10
199.500000
 20
63.500000
 11
230.000000
 21
63.500000
  0
LINE
  8
0
  6
DASHED
 62
1
 10
203.000000
 20
61.500000
 11
203.000000
 21
49.500000
  0
LINE
  8
0
  6
DASHED
 62
1
 10
185.000000
 20
49.500000
 11
203.000000
 21
49.500000
  0
LINE
  8
0
  6
DASHED
 62
1
 10
185.000000
 20
61.500000
 11
203.000000
 21
61.500000
  0
LINE
  8
0
  6
DASHED
 62
1
 10
185.000000
 20
60.553001
 11
209.000000
 21
60.553001
  0
LINE
  8
0
  6
DASHED
 62
1
 10
185.000000
 20
50.446999
 11
209.000000
 21
50.446999
  0
LINE
  8
0
  6
CONTINUOUS
 62
4
 10
206.000000
 20
-37.500000
 11
206.000000
 21
-51.500000
  0
LINE
  8
0
  6
CONTINUOUS
 62
4
 10
209.000000
 20
-37.500000
 11
209.000000
 21
-51.500000
  0
LINE
  8
0
  6
CONTINUOUS
 62
4
 10
216.500000
 20
-40.626999
 11
216.500000
 21
-48.373001
  0
LINE
  8
0
  6
CONTINUOUS
 62
4
 10
185.000000
 20
-51.500000
 11
194.000000
 21
-51.500000
  0
LINE
  8
0
  6
CONTINUOUS
 62
4
 10
185.000000
 20
-37.500000
 11
194.000000
 21
-37.500000
  0
LINE
  8
0
  6
CONTINUOUS
 62
1
 10
185.000000
 20
-38.582500
 11
194.000000
 21
-38.582500
  0
LINE
  8
0
  6
CONTINUOUS
 62
1
 10
185.000000
 20
-50.417500
 11
194.000000
 21
-50.417500
  0
LINE
  8
0
  6
CONTINUOUS
 62
4
 10
209.000000
 20
-37.499802
 11
210.731995
 21
-36.499802
  0
LINE
  8
0
  6
CONTINUOUS
 62
4
 10
209.000000
 20
-51.499901
 11
210.731995
 21
-52.499802
  0
LINE
  8
0
  6
CONTINUOUS
 62
4
 10
210.733994
 20
-52.500000
 11
210.733994
 21
-48.373001
  0
LINE
  8
0
  6
CENTER
 62
1
 10
222.750000
 20
-16.500000
 11
202.750000
 21
-16.500000
  0
LINE
  8
0
  6
CENTER
 62
1
 10
212.750000
 20
-6.499970
 11
212.750000
 21
-26.500000
  0
LINE
  8
0
  6
CONTINUOUS
 62
4
 10
219.750000
 20
-12.627000
 11
219.750000
 21
-20.372999
  0
LINE
  8
0
  6
CONTINUOUS
 62
4
 10
205.750000
 20
-12.627000
 11
205.750000
 21
-20.372999
  0
LINE
  8
0
  6
CONTINUOUS
 62
4
 10
209.000000
 20
-40.626999
 11
216.500000
 21
-40.626999
  0
LINE
  8
0
  6
CONTINUOUS
 62
4
 10
209.000000
 20
-48.373001
 11
216.500000
 21
-48.373001
  0
LINE
  8
0
  6
CONTINUOUS
 62
4
 10
210.733994
 20
-40.626999
 11
210.733994
 21
-36.500000
  0
LINE
  8
0
  6
CONTINUOUS
 62
1
 10
209.001007
 20
-48.373402
 11
216.501007
 21
-40.627399
  0
LINE
  8
0
  6
CONTINUOUS
 62
1
 10
209.000000
 20
-40.627201
 11
216.500000
 21
-48.373199
  0
LINE
  8
0
  6
DASHED
 62
1
 10
209.000000
 20
60.553001
 11
209.000000
 21
50.446999
  0
LINE
  8
0
  6
CENTER
 62
1
 10
205.750000
 20
83.500000
 11
185.750000
 21
83.500000
  0
LINE
  8
0
  6
CENTER
 62
1
 10
195.750000
 20
93.500000
 11
195.750000
 21
73.500000
  0
LINE
  8
0
  6
CONTINUOUS
 62
4
 10
199.623001
 20
90.500000
 11
191.876999
 21
90.500000
  0
LINE
  8
0
  6
CONTINUOUS
 62
4
 10
199.623001
 20
76.500000
 11
191.876999
 21
76.500000
  0
LINE
  8
0
  6
CONTINUOUS
 62
4
 10
194.000000
 20
-57.201698
 11
202.000000
 21
-57.201698
  0
LINE
  8
0
  6
CONTINUOUS
 62
4
 10
202.000000
 20
-31.798300
 11
202.000000
 21
-57.201698
  0
LINE
  8
0
  6
CONTINUOUS
 62
4
 10
194.000000
 20
-31.798300
 11
194.000000
 21
-57.201698
  0
LINE
  8
0
  6
CONTINUOUS
 62
4
 10
194.000000
 20
-50.850899
 11
202.000000
 21
-50.850899
  0
LINE
  8
0
  6
CONTINUOUS
 62
4
 10
194.000000
 20
-31.798300
 11
202.000000
 21
-31.798300
  0
LINE
  8
0
  6
CONTINUOUS
 62
4
 10
194.000000
 20
-38.149101
 11
202.000000
 21
-38.149101
  0
LINE
  8
0
  6
CONTINUOUS
 62
1
 10
202.000000
 20
-50.417500
 11
206.000000
 21
-50.417500
  0
LINE
  8
0
  6
CONTINUOUS
 62
4
 10
202.000000
 20
-51.500000
 11
209.000000
 21
-51.500000
  0
LINE
  8
0
  6
CONTINUOUS
 62
1
 10
202.000000
 20
-38.582500
 11
206.000000
 21
-38.582500
  0
LINE
  8
0
  6
CONTINUOUS
 62
4
 10
202.000000
 20
-37.500000
 11
209.000000
 21
-37.500000
  0
LINE
  8
0
  6
CONTINUOUS
 62
4
 10
267.500000
 20
132.500000
 11
267.500000
 21
162.500000
  0
LINE
  8
0
  6
CENTER
 62
1
 10
177.000000
 20
161.399994
 11
177.000000
 21
150.600006
  0
LINE
  8
0
  6
CENTER
 62
1
 10
171.600006
 20
156.000000
 11
182.399994
 21
156.000000
  0
LINE
  8
0
  6
CENTER
 62
1
 10
200.000000
 20
157.500000
 11
200.000000
 21
137.500000
  0
LINE
  8
0
  6
CENTER
 62
1
 10
190.000000
 20
147.500000
 11
210.000000
 21
147.500000
  0
LINE
  8
0
  6
CENTER
 62
1
 10
223.000000
 20
161.399994
 11
223.000000
 21
150.600006
  0
LINE
  8
0
  6
CENTER
 62
1
 10
217.600006
 20
156.000000
 11
228.399994
 21
156.000000
  0
LINE
  8
0
  6
CENTER
 62
1
 10
223.000000
 20
144.399994
 11
223.000000
 21
133.600006
  0
LINE
  8
0
  6
CENTER
 62
1
 10
217.600006
 20
139.000000
 11
228.399994
 21
139.000000
  0
LINE
  8
0
  6
CENTER
 62
1
 10
177.000000
 20
144.399994
 11
177.000000
 21
133.600006
  0
LINE
  8
0
  6
CENTER
 62
1
 10
171.600006
 20
139.000000
 11
182.399994
 21
139.000000
  0
LINE
  8
0
  6
CENTER
 62
1
 10
208.431000
 20
-168.000000
 11
315.431000
 21
-168.000000
  0
LINE
  8
0
  6
CONTINUOUS
 62
7
 10
305.431000
 20
-195.000000
 11
305.431000
 21
-141.000000
  0
LINE
  8
0
  6
CONTINUOUS
 62
7
 10
305.431000
 20
-195.000000
 11
315.431000
 21
-195.000000
  0
LINE
  8
0
  6
CONTINUOUS
 62
7
 10
305.431000
 20
-141.000000
 11
315.431000
 21
-141.000000
  0
LINE
  8
0
  6
CONTINUOUS
 62
2
 10
305.431000
 20
-150.699997
 11
315.431000
 21
-150.699997
  0
LINE
  8
0
  6
CONTINUOUS
 62
2
 10
305.431000
 20
-153.300003
 11
315.431000
 21
-153.300003
  0
LINE
  8
0
  6
CONTINUOUS
 62
2
 10
305.431000
 20
-182.699997
 11
315.431000
 21
-182.699997
  0
LINE
  8
0
  6
CONTINUOUS
 62
2
 10
305.431000
 20
-185.300003
 11
315.431000
 21
-185.300003
  0
LINE
  8
0
  6
CONTINUOUS
 62
4
 10
210.431000
 20
-176.000000
 11
234.431000
 21
-176.000000
  0
LINE
  8
0
  6
CONTINUOUS
 62
4
 10
210.431000
 20
-160.000000
 11
234.431000
 21
-160.000000
  0
LINE
  8
0
  6
CONTINUOUS
 62
4
 10
210.431000
 20
-160.000000
 11
210.431000
 21
-176.000000
  0
LINE
  8
0
  6
CONTINUOUS
 62
4
 10
234.431000
 20
-152.500000
 11
234.431000
 21
-183.500000
  0
LINE
  8
0
  6
CONTINUOUS
 62
4
 10
234.431000
 20
-152.500000
 11
284.431000
 21
-152.500000
  0
LINE
  8
0
  6
CONTINUOUS
 62
4
 10
284.431000
 20
-183.500000
 11
234.431000
 21
-183.500000
  0
LINE
  8
0
  6
CONTINUOUS
 62
4
 10
284.431000
 20
-183.500000
 11
284.431000
 21
-152.500000
  0
LINE
  8
0
  6
CONTINUOUS
 62
4
 10
284.431000
 20
-160.000000
 11
305.431000
 21
-160.000000
  0
LINE
  8
0
  6
CONTINUOUS
 62
4
 10
284.431000
 20
-176.000000
 11
305.431000
 21
-176.000000
  0
LINE
  8
0
  6
DASHED
 62
1
 10
210.431000
 20
-172.000000
 11
223.431000
 21
-172.000000
  0
LINE
  8
0
  6
DASHED
 62
1
 10
210.431000
 20
-164.000000
 11
223.431000
 21
-164.000000
  0
LINE
  8
0
  6
DASHED
 62
1
 10
223.431000
 20
-164.000000
 11
223.431000
 21
-172.000000
  0
LINE
  8
0
  6
DASHED
 62
1
 10
226.431000
 20
-164.675995
 11
226.431000
 21
-171.322998
  0
LINE
  8
0
  6
DASHED
 62
1
 10
250.681000
 20
-154.500000
 11
268.181000
 21
-154.500000
  0
LINE
  8
0
  6
DASHED
 62
1
 10
250.681000
 20
-152.500000
 11
250.681000
 21
-154.500000
  0
LINE
  8
0
  6
DASHED
 62
1
 10
268.181000
 20
-154.500000
 11
268.181000
 21
-152.500000
  0
LINE
  8
0
  6
DASHED
 62
1
 10
168.681000
 20
-152.598999
 11
168.681000
 21
-154.500000
  0
LINE
  8
0
  6
DASHED
 62
1
 10
168.681000
 20
-154.500000
 11
172.181000
 21
-154.500000
  0
LINE
  8
0
  6
DASHED
 62
1
 10
172.181000
 20
-152.598999
 11
172.181000
 21
-154.500000
  0
LINE
  8
0
  6
CENTER
 62
1
 10
171.375000
 20
-149.985001
 11
170.431000
 21
-168.000000
  0
LINE
  8
0
  6
CENTER
 62
1
 10
152.391006
 20
-168.000000
 11
188.470993
 21
-168.000000
  0
LINE
  8
0
  6
DASHED
 62
1
 10
210.431000
 20
-164.675995
 11
226.431000
 21
-164.675995
  0
LINE
  8
0
  6
DASHED
 62
1
 10
210.431000
 20
-171.322998
 11
226.431000
 21
-171.322998
  0
LINE
  8
0
  6
CONTINUOUS
 62
4
 10
252.431000
 20
-130.750000
 11
266.431000
 21
-130.750000
  0
LINE
  8
0
  6
CONTINUOUS
 62
4
 10
252.431000
 20
-134.250000
 11
266.431000
 21
-134.250000
  0
LINE
  8
0
  6
CENTER
 62
1
 10
248.681000
 20
-132.500000
 11
270.181000
 21
-132.500000
  0
LINE
  8
0
  6
CENTER
 62
1
 10
170.431000
 20
-149.960007
 11
170.431000
 21
-186.039993
  0
LINE
  8
0
  6
CENTER
 62
1
 10
169.487000
 20
-149.985001
 11
170.431000
 21
-168.000000
  0
LINE
  8
0
  6
CENTER
 62
1
 10
343.553009
 20
-104.518997
 11
322.606995
 21
-104.518997
  0
LINE
  8
0
  6
CENTER
 62
1
 10
308.057007
 20
-112.268997
 11
308.057007
 21
-119.768997
  0
LINE
  8
0
  6
CONTINUOUS
 62
4
 10
309.807007
 20
-114.268997
 11
309.807007
 21
-117.768997
  0
LINE
  8
0
  6
CONTINUOUS
 62
4
 10
306.307007
 20
-114.268997
 11
306.307007
 21
-117.768997
  0
LINE
  8
0
  6
CONTINUOUS
 62
4
 10
306.307007
 20
-117.768997
 11
309.807007
 21
-117.768997
  0
LINE
  8
0
  6
CONTINUOUS
 62
4
 10
306.307007
 20
-114.268997
 11
309.807007
 21
-114.268997
  0
LINE
  8
0
  6
CONTINUOUS
 62
4
 10
342.307007
 20
-117.768997
 11
324.807007
 21
-117.768997
  0
LINE
  8
0
  6
CONTINUOUS
 62
4
 10
342.307007
 20
-114.268997
 11
324.807007
 21
-114.268997
  0
LINE
  8
0
  6
CONTINUOUS
 62
4
 10
340.557007
 20
-102.768997
 11
326.557007
 21
-102.768997
  0
LINE
  8
0
  6
CONTINUOUS
 62
4
 10
340.557007
 20
-106.268997
 11
326.557007
 21
-106.268997
  0
LINE
  8
0
  6
CONTINUOUS
 62
4
 10
324.807007
 20
-114.268997
 11
324.807007
 21
-117.768997
  0
LINE
  8
0
  6
CONTINUOUS
 62
4
 10
342.307007
 20
-114.268997
 11
342.307007
 21
-117.768997
  0
CIRCLE
  8
0
  6
CONTINUOUS
 62
7
 10
-163.500000
 20
24.500000
 40
2.500000
  0
CIRCLE
  8
0
  6
CONTINUOUS
 62
7
 10
-200.500000
 20
50.500000
 40
2.500000
  0
CIRCLE
  8
0
  6
CONTINUOUS
 62
7
 10
-200.500000
 20
24.500000
 40
2.500000
  0
CIRCLE
  8
0
  6
CONTINUOUS
 62
7
 10
-163.500000
 20
50.500000
 40
2.500000
  0
CIRCLE
  8
0
  6
CONTINUOUS
 62
2
 10
-200.500000
 20
50.500000
 40
3.000000
  0
CIRCLE
  8
0
  6
CONTINUOUS
 62
2
 10
-163.500000
 20
50.500000
 40
3.000000
  0
CIRCLE
  8
0
  6
CONTINUOUS
 62
2
 10
-163.500000
 20
24.500000
 40
3.000000
  0
CIRCLE
  8
0
  6
CONTINUOUS
 62
2
 10
-200.500000
 20
24.500000
 40
3.000000
  0
CIRCLE
  8
0
  6
CONTINUOUS
 62
7
 10
-92.500099
 20
171.500000
 40
4.300000
  0
CIRCLE
  8
0
  6
CONTINUOUS
 62
2
 10
-92.500099
 20
171.500000
 40
4.900000
  0
CIRCLE
  8
0
  6
CONTINUOUS
 62
7
 10
-160.500000
 20
183.500000
 40
4.300000
  0
CIRCLE
  8
0
  6
CONTINUOUS
 62
2
 10
-160.500000
 20
183.500000
 40
4.900000
  0
CIRCLE
  8
0
  6
CONTINUOUS
 62
7
 10
-305.500000
 20
129.500000
 40
2.500000
  0
CIRCLE
  8
0
  6
CONTINUOUS
 62
2
 10
-305.500000
 20
129.500000
 40
3.000000
  0
CIRCLE
  8
0
  6
CONTINUOUS
 62
7
 10
-305.500000
 20
85.500000
 40
2.500000
  0
CIRCLE
  8
0
  6
CONTINUOUS
 62
2
 10
-305.500000
 20
85.500000
 40
3.000000
  0
ARC
  8
0
  6
CONTINUOUS
 62
2
 10
-292.299988
 20
124.150002
 40
1.500000
 50
90.000000
 51
180.000000
  0
ARC
  8
0
  6
CONTINUOUS
 62
2
 10
-292.299988
 20
122.849998
 40
1.500000
 50
180.000000
 51
270.000000
  0
CIRCLE
  8
0
  6
CONTINUOUS
 62
7
 10
-305.500000
 20
107.500000
 40
8.000000
  0
CIRCLE
  8
0
  6
CONTINUOUS
 62
7
 10
-173.500000
 20
128.500000
 40
5.250000
  0
CIRCLE
  8
0
  6
CONTINUOUS
 62
7
 10
-210.500000
 20
128.500000
 40
5.250000
  0
CIRCLE
  8
0
  6
CONTINUOUS
 62
7
 10
-210.500000
 20
86.500000
 40
5.250000
  0
CIRCLE
  8
0
  6
CONTINUOUS
 62
7
 10
-173.500000
 20
86.500000
 40
5.250000
  0
CIRCLE
  8
0
  6
CONTINUOUS
 62
2
 10
-210.500000
 20
128.500000
 40
4.000000
  0
CIRCLE
  8
0
  6
CONTINUOUS
 62
2
 10
-173.500000
 20
128.500000
 40
4.000000
  0
CIRCLE
  8
0
  6
CONTINUOUS
 62
2
 10
-173.500000
 20
86.500000
 40
4.000000
  0
CIRCLE
  8
0
  6
CONTINUOUS
 62
2
 10
-210.500000
 20
86.500000
 40
4.000000
  0
ARC
  8
0
  6
CONTINUOUS
 62
2
 10
53.699902
 20
-100.849998
 40
1.500000
 50
90.000000
 51
180.000000
  0
ARC
  8
0
  6
CONTINUOUS
 62
2
 10
53.699902
 20
-102.150002
 40
1.500000
 50
180.000000
 51
270.000000
  0
CIRCLE
  8
0
  6
CONTINUOUS
 62
7
 10
-77.500099
 20
-200.500000
 40
2.500000
  0
CIRCLE
  8
0
  6
CONTINUOUS
 62
7
 10
-200.500000
 20
-174.500000
 40
2.500000
  0
CIRCLE
  8
0
  6
CONTINUOUS
 62
7
 10
-200.500000
 20
-200.500000
 40
2.500000
  0
CIRCLE
  8
0
  6
CONTINUOUS
 62
7
 10
-77.500099
 20
-174.500000
 40
2.500000
  0
CIRCLE
  8
0
  6
CONTINUOUS
 62
2
 10
-200.500000
 20
-174.500000
 40
3.000000
  0
CIRCLE
  8
0
  6
CONTINUOUS
 62
2
 10
-77.500099
 20
-174.500000
 40
3.000000
  0
CIRCLE
  8
0
  6
CONTINUOUS
 62
2
 10
-77.500099
 20
-200.500000
 40
3.000000
  0
CIRCLE
  8
0
  6
CONTINUOUS
 62
2
 10
-200.500000
 20
-200.500000
 40
3.000000
  0
CIRCLE
  8
0
  6
CONTINUOUS
 62
7
 10
-305.500000
 20
-95.500000
 40
2.500000
  0
CIRCLE
  8
0
  6
CONTINUOUS
 62
2
 10
-305.500000
 20
-95.500000
 40
3.000000
  0
CIRCLE
  8
0
  6
CONTINUOUS
 62
7
 10
-305.500000
 20
-139.500000
 40
2.500000
  0
CIRCLE
  8
0
  6
CONTINUOUS
 62
2
 10
-305.500000
 20
-139.500000
 40
3.000000
  0
ARC
  8
0
  6
CONTINUOUS
 62
2
 10
-292.299988
 20
-100.849998
 40
1.500000
 50
90.000000
 51
180.000000
  0
ARC
  8
0
  6
CONTINUOUS
 62
2
 10
-292.299988
 20
-102.150002
 40
1.500000
 50
180.000000
 51
270.000000
  0
CIRCLE
  8
0
  6
CONTINUOUS
 62
7
 10
-305.500000
 20
-117.500000
 40
8.000000
  0
CIRCLE
  8
0
  6
CONTINUOUS
 62
7
 10
-87.500099
 20
-96.500000
 40
5.250000
  0
CIRCLE
  8
0
  6
CONTINUOUS
 62
7
 10
-210.500000
 20
-96.500000
 40
5.250000
  0
CIRCLE
  8
0
  6
CONTINUOUS
 62
7
 10
-210.500000
 20
-138.500000
 40
5.250000
  0
CIRCLE
  8
0
  6
CONTINUOUS
 62
7
 10
-87.500099
 20
-138.500000
 40
5.250000
  0
CIRCLE
  8
0
  6
CONTINUOUS
 62
2
 10
-210.500000
 20
-96.500000
 40
4.000000
  0
CIRCLE
  8
0
  6
CONTINUOUS
 62
2
 10
-87.500099
 20
-96.500000
 40
4.000000
  0
CIRCLE
  8
0
  6
CONTINUOUS
 62
2
 10
-87.500099
 20
-138.500000
 40
4.000000
  0
CIRCLE
  8
0
  6
CONTINUOUS
 62
2
 10
-210.500000
 20
-138.500000
 40
4.000000
  0
CIRCLE
  8
0
  6
CONTINUOUS
 62
7
 10
-173.500000
 20
-138.500000
 40
5.250000
  0
CIRCLE
  8
0
  6
CONTINUOUS
 62
2
 10
-173.500000
 20
-138.500000
 40
4.000000
  0
CIRCLE
  8
0
  6
CONTINUOUS
 62
7
 10
-173.500000
 20
-96.500000
 40
5.250000
  0
CIRCLE
  8
0
  6
CONTINUOUS
 62
2
 10
-173.500000
 20
-96.500000
 40
4.000000
  0
CIRCLE
  8
0
  6
CONTINUOUS
 62
2
 10
-163.500000
 20
-200.500000
 40
3.000000
  0
CIRCLE
  8
0
  6
CONTINUOUS
 62
7
 10
-163.500000
 20
-200.500000
 40
2.500000
  0
CIRCLE
  8
0
  6
CONTINUOUS
 62
7
 10
-163.500000
 20
-174.500000
 40
2.500000
  0
CIRCLE
  8
0
  6
CONTINUOUS
 62
2
 10
-163.500000
 20
-174.500000
 40
3.000000
  0
CIRCLE
  8
0
  6
CONTINUOUS
 62
7
 10
-17.500099
 20
-53.500000
 40
4.300000
  0
CIRCLE
  8
0
  6
CONTINUOUS
 62
2
 10
-17.500099
 20
-53.500000
 40
4.900000
  0
CIRCLE
  8
0
  6
CONTINUOUS
 62
7
 10
-160.500000
 20
-41.500000
 40
4.300000
  0
CIRCLE
  8
0
  6
CONTINUOUS
 62
2
 10
-160.500000
 20
-41.500000
 40
4.900000
  0
CIRCLE
  8
0
  6
CONTINUOUS
 62
7
 10
-112.500000
 20
177.500000
 40
1.500000
  0
CIRCLE
  8
0
  6
CONTINUOUS
 62
7
 10
-37.500099
 20
-47.500000
 40
1.500000
  0
ARC
  8
0
  6
CONTINUOUS
 62
2
 10
-21.300200
 20
124.150002
 40
1.500000
 50
90.000099
 51
180.000000
  0
ARC
  8
0
  6
CONTINUOUS
 62
2
 10
-21.300200
 20
122.849998
 40
1.500000
 50
180.000000
 51
270.000000
  0
CIRCLE
  8
0
  6
CONTINUOUS
 62
7
 10
-210.500000
 20
128.500000
 40
3.400000
  0
CIRCLE
  8
0
  6
CONTINUOUS
 62
7
 10
-173.500000
 20
128.500000
 40
3.400000
  0
CIRCLE
  8
0
  6
CONTINUOUS
 62
7
 10
-173.500000
 20
86.500000
 40
3.400000
  0
CIRCLE
  8
0
  6
CONTINUOUS
 62
7
 10
-210.500000
 20
86.500000
 40
3.400000
  0
CIRCLE
  8
0
  6
CONTINUOUS
 62
7
 10
-210.500000
 20
-138.500000
 40
3.400000
  0
CIRCLE
  8
0
  6
CONTINUOUS
 62
7
 10
-173.500000
 20
-138.500000
 40
3.400000
  0
CIRCLE
  8
0
  6
CONTINUOUS
 62
7
 10
-173.500000
 20
-96.500000
 40
3.400000
  0
CIRCLE
  8
0
  6
CONTINUOUS
 62
7
 10
-210.500000
 20
-96.500000
 40
3.400000
  0
CIRCLE
  8
0
  6
CONTINUOUS
 62
7
 10
-87.500099
 20
-138.500000
 40
3.400000
  0
CIRCLE
  8
0
  6
CONTINUOUS
 62
7
 10
-87.500099
 20
-96.500000
 40
3.400000
  0
CIRCLE
  8
0
  6
CONTINUOUS
 62
4
 10
200.000000
 20
147.500000
 40
8.000000
  0
CIRCLE
  8
0
  6
CONTINUOUS
 62
4
 10
223.000000
 20
156.000000
 40
3.400000
  0
CIRCLE
  8
0
  6
CONTINUOUS
 62
4
 10
223.000000
 20
139.000000
 40
3.400000
  0
CIRCLE
  8
0
  6
CONTINUOUS
 62
4
 10
177.000000
 20
139.000000
 40
3.400000
  0
CIRCLE
  8
0
  6
CONTINUOUS
 62
4
 10
177.000000
 20
156.000000
 40
3.400000
  0
CIRCLE
  8
0
  6
CONTINUOUS
 62
4
 10
212.750000
 20
-16.500000
 40
8.000000
  0
CIRCLE
  8
0
  6
CONTINUOUS
 62
4
 10
195.750000
 20
83.500000
 40
8.000000
  0
CIRCLE
  8
0
  6
CONTINUOUS
 62
4
 10
170.431000
 20
-168.000000
 40
15.500000
  0
CIRCLE
  8
0
  6
CONTINUOUS
 62
4
 10
170.431000
 20
-168.000000
 40
8.000000
  0
CIRCLE
  8
0
  6
CONTINUOUS
 62
1
 10
170.431000
 20
-168.000000
 40
4.000000
  0
CIRCLE
  8
0
  6
CONTINUOUS
 62
4
 10
170.431000
 20
-168.000000
 40
3.323500
  0
ARC
  8
0
  6
CONTINUOUS
 62
4
 10
252.431000
 20
-132.500000
 40
1.750000
 50
90.000000
 51
270.000000
  0
ARC
  8
0
  6
CONTINUOUS
 62
4
 10
266.431000
 20
-132.500000
 40
1.750000
 50
270.000000
 51
90.000000
  0
ARC
  8
0
  6
CONTINUOUS
 62
4
 10
326.557007
 20
-104.518997
 40
1.750000
 50
90.000000
 51
270.000000
  0
ARC
  8
0
  6
CONTINUOUS
 62
4
 10
340.557007
 20
-104.518997
 40
1.750000
 50
270.000000
 51
90.000000
  0
TEXT
  8
0
 62
7
 10
249.264832
 20
-267.375000
 40
12.500000
  1
KOGANEI CORP.
 50
0.000000
 41
0.771525
 51
0.000000
  7
STANDARD
  0
TEXT
  8
0
 62
7
 10
292.414673
 20
261.500000
 40
9.000000
  1
Ver.1.0
 50
0.000000
 41
1.010331
 51
0.000000
  7
STANDARD
  0
TEXT
  8
0
 62
7
 10
-383.750580
 20
229.000000
 40
9.000000
  1
MODEL:AXAHS-SD30-25-R***
 50
0.000000
 41
0.760568
 51
0.000000
  7
STANDARD
  0
TEXT
  8
0
 62
7
 10
-364.635315
 20
261.500000
 40
9.000000
  1
AX CYLINDER
 50
0.000000
 41
0.783349
 51
0.000000
  7
STANDARD
  0
TEXT
  8
0
 62
7
 10
-71.700096
 20
195.500000
 40
3.200000
  1
25st
 50
90.000000
 41
0.857250
 51
0.000000
  7
STANDARD
  0
TEXT
  8
0
 62
7
 10
-46.700100
 20
195.500000
 40
3.200000
  1
50st
 50
90.000000
 41
0.907676
 51
0.000000
  7
STANDARD
  0
TEXT
  8
0
 62
7
 10
-21.700100
 20
195.500000
 40
3.200000
  1
75st
 50
90.000000
 41
0.857250
 51
0.000000
  7
STANDARD
  0
TEXT
  8
0
 62
7
 10
3.299940
 20
-29.500000
 40
3.200000
  1
100st
 50
90.000000
 41
0.985838
 51
0.000000
  7
STANDARD
  0
TEXT
  8
0
 62
7
 10
53.299900
 20
-29.500000
 40
3.200000
  1
150st
 50
90.000000
 41
0.938893
 51
0.000000
  7
STANDARD
  0
TEXT
  8
0
 62
7
 10
78.299904
 20
-29.500000
 40
3.200000
  1
175st
 50
90.000000
 41
0.896216
 51
0.000000
  7
STANDARD
  0
TEXT
  8
0
 62
7
 10
103.300003
 20
-29.500000
 40
3.200000
  1
200st
 50
90.000000
 41
0.896216
 51
0.000000
  7
STANDARD
  0
TEXT
  8
0
 62
7
 10
28.299900
 20
-29.500000
 40
3.200000
  1
125st
 50
90.000000
 41
0.896216
 51
0.000000
  7
STANDARD
  0
TEXT
  8
0
 62
7
 10
152.899551
 20
210.199997
 40
7.200000
  1
OPTION
 50
0.000000
 41
0.857250
 51
0.000000
  7
STANDARD
  0
TEXT
  8
0
 62
7
 10
178.203064
 20
116.349998
 40
4.600000
  1
ZT(FLANGE ROD END)
 50
0.000000
 41
0.754379
 51
0.000000
  7
STANDARD
  0
TEXT
  8
0
 62
7
 10
175.903061
 20
21.350000
 40
4.600000
  1
WS(INTERNAL THREAD)
 50
0.000000
 41
0.752114
 51
0.000000
  7
STANDARD
  0
TEXT
  8
0
 62
7
 10
175.903061
 20
-78.650002
 40
4.600000
  1
WT(EXTERNAL THREAD)
 50
0.000000
 41
0.738186
 51
0.000000
  7
STANDARD
  0
TEXT
  8
0
 62
7
 10
292.531006
 20
-108.400002
 40
4.800000
  1
KEY
 50
0.000000
 41
0.928571
 51
0.000000
  7
STANDARD
  0
TEXT
  8
0
 62
7
 10
169.402863
 20
-212.300003
 40
4.600000
  1
      FOR FLOATING UNIT)
 50
0.000000
 41
0.754799
 51
0.000000
  7
STANDARD
  0
TEXT
  8
0
 62
7
 10
170.902863
 20
-204.300003
 40
4.600000
  1
FN(WITH BEARING NUT
 50
0.000000
 41
0.766485
 51
0.000000
  7
STANDARD
  0
TEXT
  8
0
 62
7
 10
153.830994
 20
-125.900009
 40
3.200000
  1
(KEYWAY
 50
0.000000
 41
0.766485
 51
0.000000
  7
STANDARD
  0
TEXT
  8
0
 62
7
 10
153.830994
 20
-129.100006
 40
3.200000
  1
  POSITION)
 50
0.000000
 41
0.766485
 51
0.000000
  7
STANDARD
  0
DIMENSION
  8
0
  2
*DIM0
 62
2
  10
202.431000
 20
-152.500000
 30
0.0
 11
202.431000
 21
-168.000000
 31
0.0
  13
234.431000
 23
-152.500000
 33
0.0
14
234.431000
 24
-183.500000
 34
0.0
 70
1
 50
90
  0
DIMENSION
  8
0
  2
*DIM1
 62
2
 10
169.018005
 20
-141.037003
 30
0.0
 11
162.431000
 21
-141.300003
 31
0.0
 13
171.843994
 23
-141.037003
 33
0.0
 14
171.375000
 24
-149.985001
 34
0.0
  15
169.487000
 25
-149.985001
 35
0.0
 16
171.765564
 26
-142.534943
 36
0.0
 70
2
  0
DIMENSION
  8
0
  2
*DIM2
 62
2
  10
278.181000
 20
-124.750000
 30
0.0
 11
278.181000
 21
-118.594002
 31
0.0
  13
266.431000
 23
-130.750000
 33
0.0
14
266.431000
 24
-134.250000
 34
0.0
 70
1
 50
90
  0
DIMENSION
  8
0
  2
*DIM3
 62
2
  10
306.307007
 20
-125.768997
 30
0.0
 11
293.692993
 21
-125.768997
 31
0.0
  13
306.307007
 23
-125.768997
 33
0.0
14
306.307007
 24
-117.768997
 34
0.0
 70
1
 50
0
  0
ENDSEC
  0
EOF
