  0
SECTION
  2
HEADER
  0
ENDSEC
  0
SECTION
  2
TABLES
  0
TABLE
  2
LTYPE
 70
     4
  0
LTYPE
  2
CONTINUOUS
 70
    64
  3
Solid line
 72
    65
 73
     0
 40
0.000000
  0
LTYPE
  2
DASHED
 70
    64
  3
__ __ __ __ __ __ __ __ __ __ __ __ __ __ __
 72
    65
 73
     2
 40
3.500000
 49
2.000000
 49
-1.500000
  0
LTYPE
  2
CENTER
 70
    64
  3
____ _ ____ _ ____ _ ____ _ ____ _ ____ _ ____
 72
    65
 73
     4
 40
17.500000
 49
13.000000
 49
-1.500000
 49
1.500000
 49
-1.500000
  0
LTYPE
  2
PHANTOM
 70
    64
  3
_____ _ _ _____ _ _ _____ _ _ _____ _ _ ____  
 72
    65
 73
     6
 40
15.500000
 49
8.000000
 49
-1.500000
 49
1.500000
 49
-1.500000
 49
1.500000
 49
-1.500000
  0
ENDTAB
  0
TABLE
  2
LAYER
 70
     1
  0
LAYER
  2
0
 70
     0
 62
     7
  6
CONTINUOUS
  0
ENDTAB
  0
TABLE
  2
STYLE
 70
     1
  0
STYLE
  2
STANDARD
 70
     0
 40
0.000000
 41
1.000000
 50
0.000000
 71
     0
 42
0.200000
  3
txt
  4
BIGFONT
  0
ENDTAB
  0
TABLE
  2
VIEW
 70
     0
  0
ENDTAB
  0
ENDSEC
  0
SECTION
  2
BLOCKS
  0
BLOCK
  8
0
 70
65
  2
*DIM0
 10
0.0
 20
0.0
 30
0.0
  0
LINE
  8
0
  6
BYBLOCK
 62
2
 10
331.931000
 20
-132.000000
 11
298.431000
 21
-132.000000
  0
LINE
  8
0
  6
BYBLOCK
 62
2
 10
331.931000
 20
-163.000000
 11
298.431000
 21
-163.000000
  0
LINE
  8
0
  6
BYBLOCK
 62
2
 10
299.931000
 20
-132.000000
 11
299.931000
 21
-163.000000
  0
LINE
  8
0
  6
BYBLOCK
 62
2
 10
299.931000
 20
-132.000000
 11
299.154541
 21
-134.897781
  0
LINE
  8
0
  6
BYBLOCK
 62
2
 10
299.931000
 20
-132.000000
 11
300.707458
 21
-134.897781
  0
LINE
  8
0
  6
BYBLOCK
 62
2
 10
299.931000
 20
-163.000000
 11
300.707458
 21
-160.102219
  0
LINE
  8
0
  6
BYBLOCK
 62
2
 10
299.931000
 20
-163.000000
 11
299.154541
 21
-160.102219
  0
TEXT
  8
0
 62
2
 10
298.730988
 20
-158.699997
 40
3.200000
  1
âË31
 50
90.000000
 41
0.937977
 51
0.000000
  7
STANDARD
  0
TEXT
  8
0
 62
2
 10
297.131409
 20
-149.695343
 40
1.600000
  1
 0
 50
90.000000
 41
0.937977
 51
0.000000
  7
STANDARD
  0
TEXT
  8
0
 62
2
 10
298.731415
 20
-149.695419
 40
1.600000
  1
-0.013
 50
90.000000
 41
0.937977
 51
0.000000
  7
STANDARD
  0
ENDBLK
  8
0
  0
BLOCK
  8
0
 70
65
  2
*DIM1
 10
0.0
 20
0.0
 30
0.0
  0
ARC
  8
0
  6
BYBLOCK
 62
2
 10
267.931000
 20
-147.500000
 40
25.500000
 50
78.012428
 51
101.987572
  0
LINE
  8
0
  6
BYBLOCK
 62
2
 10
268.875000
 20
-129.485001
 11
269.343994
 21
-120.537003
  0
LINE
  8
0
  6
BYBLOCK
 62
2
 10
266.987000
 20
-129.485001
 11
266.518005
 21
-120.537003
  0
LINE
  8
0
  6
BYBLOCK
 62
2
 10
269.265564
 20
-122.034950
 11
271.938873
 21
-123.396347
  0
LINE
  8
0
  6
BYBLOCK
 62
2
 10
269.265564
 20
-122.034950
 11
272.261414
 21
-121.877296
  0
LINE
  8
0
  6
BYBLOCK
 62
2
 10
266.596436
 20
-122.034950
 11
263.600586
 21
-121.877296
  0
LINE
  8
0
  6
BYBLOCK
 62
2
 10
266.596436
 20
-122.034950
 11
263.923126
 21
-123.396347
  0
TEXT
  8
0
 62
2
 10
259.931000
 20
-120.800003
 40
3.200000
  1
ü}3üï
 50
0.000000
 41
1.500330
 51
0.000000
  7
STANDARD
  0
ENDBLK
  8
3
  0
BLOCK
  8
0
 70
65
  2
*DIM2
 10
0.0
 20
0.0
 30
0.0
  0
LINE
  8
0
  6
BYBLOCK
 62
2
 10
363.931000
 20
-110.250000
 11
377.181000
 21
-110.250000
  0
LINE
  8
0
  6
BYBLOCK
 62
2
 10
363.931000
 20
-113.750000
 11
377.181000
 21
-113.750000
  0
LINE
  8
0
  6
BYBLOCK
 62
2
 10
375.681000
 20
-104.250000
 11
375.681000
 21
-119.750000
  0
LINE
  8
0
  6
BYBLOCK
 62
2
 10
375.681000
 20
-110.250000
 11
375.681000
 21
-90.151398
  0
LINE
  8
0
  6
BYBLOCK
 62
2
 10
375.681000
 20
-110.250000
 11
376.457458
 21
-107.352226
  0
LINE
  8
0
  6
BYBLOCK
 62
2
 10
375.681000
 20
-110.250000
 11
374.904541
 21
-107.352226
  0
LINE
  8
0
  6
BYBLOCK
 62
2
 10
375.681000
 20
-113.750000
 11
374.904541
 21
-116.647774
  0
LINE
  8
0
  6
BYBLOCK
 62
2
 10
375.681000
 20
-113.750000
 11
376.457458
 21
-116.647774
  0
TEXT
  8
0
 62
2
 10
374.480988
 20
-107.694298
 40
3.200000
  1
3.5
 50
90.000000
 41
0.900002
 51
0.000000
  7
STANDARD
  0
TEXT
  8
0
 62
2
 10
372.881378
 20
-99.054199
 40
1.600000
  1
+0.018
 50
90.000000
 41
0.900002
 51
0.000000
  7
STANDARD
  0
TEXT
  8
0
 62
2
 10
374.481384
 20
-99.054276
 40
1.600000
  1
 0
 50
90.000000
 41
0.900002
 51
0.000000
  7
STANDARD
  0
ENDBLK
  8
0
  0
BLOCK
  8
0
 70
65
  2
*DIM3
 10
0.0
 20
0.0
 30
0.0
  0
LINE
  8
0
  6
BYBLOCK
 62
2
 10
403.807007
 20
-105.268997
 11
407.307007
 21
-105.268997
  0
LINE
  8
0
  6
BYBLOCK
 62
2
 10
403.807007
 20
-97.268600
 11
403.807007
 21
-106.768997
  0
LINE
  8
0
  6
BYBLOCK
 62
2
 10
403.807007
 20
-105.268997
 11
407.307007
 21
-105.268997
  0
LINE
  8
0
  6
BYBLOCK
 62
2
 10
403.807007
 20
-105.268997
 11
383.250000
 21
-105.268997
  0
TEXT
  8
0
 62
2
 10
381.592987
 20
-104.069000
 40
3.200000
  1
3.5
 50
0.000000
 41
0.912090
 51
0.000000
  7
STANDARD
  0
TEXT
  8
0
 62
2
 10
390.349060
 20
-102.469002
 40
1.600000
  1
+0.024
 50
0.000000
 41
0.912090
 51
0.000000
  7
STANDARD
  0
TEXT
  8
0
 62
2
 10
390.349060
 20
-104.069000
 40
1.600000
  1
+0.012
 50
0.000000
 41
0.912090
 51
0.000000
  7
STANDARD
  0
ENDBLK
  8
0
  0
ENDSEC
  0
SECTION
  2
ENTITIES
  0
POINT
  8
0
  62
7
  10
-213.000000
  20
181.000000
  30
0.0
  0
POINT
  8
0
  62
7
  10
-188.000000
  20
181.000000
  30
0.0
  0
POINT
  8
0
  62
7
  10
-163.000000
  20
181.000000
  30
0.0
  0
POINT
  8
0
  62
7
  10
-146.000000
  20
170.000000
  30
0.0
  0
POINT
  8
0
  62
7
  10
-96.000099
  20
170.000000
  30
0.0
  0
POINT
  8
0
  62
7
  10
-46.000099
  20
170.000000
  30
0.0
  0
POINT
  8
0
  62
7
  10
-138.000000
  20
-49.000000
  30
0.0
  0
POINT
  8
0
  62
7
  10
-113.000000
  20
-49.000000
  30
0.0
  0
POINT
  8
0
  62
7
  10
-88.000099
  20
-49.000000
  30
0.0
  0
POINT
  8
0
  62
7
  10
-63.000099
  20
-49.000000
  30
0.0
  0
POINT
  8
0
  62
7
  10
-38.000099
  20
-49.000000
  30
0.0
  0
POINT
  8
0
  62
7
  10
3.999940
  20
-60.000000
  30
0.0
  0
POINT
  8
0
  62
7
  10
53.999901
  20
-60.000000
  30
0.0
  0
POINT
  8
0
  62
7
  10
104.000000
  20
-60.000000
  30
0.0
  0
POINT
  8
0
  62
7
  10
154.000000
  20
-60.000000
  30
0.0
  0
POINT
  8
0
  62
7
  10
204.000000
  20
-60.000000
  30
0.0
  0
LINE
  8
0
  6
CONTINUOUS
 62
7
 10
574.500000
 20
400.500000
 11
574.500000
 21
-400.500000
  0
LINE
  8
0
  6
CONTINUOUS
 62
7
 10
-564.500000
 20
400.500000
 11
574.500000
 21
400.500000
  0
LINE
  8
0
  6
CONTINUOUS
 62
7
 10
-564.500000
 20
-400.500000
 11
574.500000
 21
-400.500000
  0
LINE
  8
0
  6
CONTINUOUS
 62
7
 10
-564.500000
 20
400.500000
 11
-564.500000
 21
-400.500000
  0
LINE
  8
0
  6
CONTINUOUS
 62
7
 10
-564.500000
 20
370.500000
 11
-334.500000
 21
370.500000
  0
LINE
  8
0
  6
CONTINUOUS
 62
7
 10
344.500000
 20
370.500000
 11
574.500000
 21
370.500000
  0
LINE
  8
0
  6
CONTINUOUS
 62
7
 10
344.500000
 20
-370.500000
 11
574.500000
 21
-370.500000
  0
LINE
  8
0
  6
CONTINUOUS
 62
7
 10
344.500000
 20
-370.500000
 11
344.500000
 21
-400.500000
  0
LINE
  8
0
  6
CONTINUOUS
 62
7
 10
344.500000
 20
400.500000
 11
344.500000
 21
370.500000
  0
LINE
  8
0
  6
CONTINUOUS
 62
7
 10
-334.500000
 20
400.500000
 11
-334.500000
 21
370.500000
  0
LINE
  8
0
  6
CONTINUOUS
 62
7
 10
-363.000000
 20
61.000000
 11
-213.000000
 21
61.000000
  0
LINE
  8
0
  6
CONTINUOUS
 62
7
 10
-363.000000
 20
25.000000
 11
-213.000000
 21
25.000000
  0
LINE
  8
0
  6
CONTINUOUS
 62
7
 10
-363.000000
 20
61.000000
 11
-363.000000
 21
25.000000
  0
LINE
  8
0
  6
CENTER
 62
2
 10
-410.000000
 20
43.000000
 11
-144.000000
 21
43.000000
  0
LINE
  8
0
  6
CONTINUOUS
 62
7
 10
-408.000000
 20
35.000000
 11
-363.000000
 21
35.000000
  0
LINE
  8
0
  6
CONTINUOUS
 62
7
 10
-408.000000
 20
51.000000
 11
-363.000000
 21
51.000000
  0
LINE
  8
0
  6
CONTINUOUS
 62
7
 10
-408.000000
 20
51.000000
 11
-408.000000
 21
35.000000
  0
LINE
  8
0
  6
CONTINUOUS
 62
7
 10
-363.000000
 20
181.000000
 11
-213.000000
 21
181.000000
  0
LINE
  8
0
  6
CONTINUOUS
 62
7
 10
-363.000000
 20
145.000000
 11
-213.000000
 21
145.000000
  0
LINE
  8
0
  6
CONTINUOUS
 62
7
 10
-363.000000
 20
181.000000
 11
-363.000000
 21
145.000000
  0
LINE
  8
0
  6
CENTER
 62
2
 10
-410.000000
 20
163.000000
 11
-144.000000
 21
163.000000
  0
LINE
  8
0
  6
CENTER
 62
2
 10
-294.100006
 20
169.000000
 11
-307.899994
 21
169.000000
  0
LINE
  8
0
  6
CENTER
 62
2
 10
-301.000000
 20
175.899994
 11
-301.000000
 21
162.100006
  0
LINE
  8
0
  6
CONTINUOUS
 62
7
 10
-408.000000
 20
155.000000
 11
-363.000000
 21
155.000000
  0
LINE
  8
0
  6
CONTINUOUS
 62
7
 10
-408.000000
 20
171.000000
 11
-363.000000
 21
171.000000
  0
LINE
  8
0
  6
CONTINUOUS
 62
7
 10
-408.000000
 20
171.000000
 11
-408.000000
 21
155.000000
  0
LINE
  8
0
  6
CONTINUOUS
 62
7
 10
-413.000000
 20
76.000000
 11
-449.000000
 21
76.000000
  0
LINE
  8
0
  6
CONTINUOUS
 62
7
 10
-413.000000
 20
130.000000
 11
-449.000000
 21
130.000000
  0
LINE
  8
0
  6
CENTER
 62
2
 10
-431.000000
 20
74.000000
 11
-431.000000
 21
138.000000
  0
LINE
  8
0
  6
CONTINUOUS
 62
2
 10
-413.000000
 20
120.300003
 11
-414.000000
 21
120.300003
  0
LINE
  8
0
  6
CONTINUOUS
 62
2
 10
-413.000000
 20
117.699997
 11
-414.000000
 21
117.699997
  0
LINE
  8
0
  6
CONTINUOUS
 62
2
 10
-414.000000
 20
121.150002
 11
-417.799988
 21
121.150002
  0
LINE
  8
0
  6
CONTINUOUS
 62
2
 10
-414.000000
 20
116.849998
 11
-417.799988
 21
116.849998
  0
LINE
  8
0
  6
CONTINUOUS
 62
2
 10
-419.299988
 20
118.349998
 11
-419.299988
 21
119.650002
  0
LINE
  8
0
  6
CONTINUOUS
 62
2
 10
-414.000000
 20
120.300003
 11
-414.000000
 21
121.150002
  0
LINE
  8
0
  6
CONTINUOUS
 62
2
 10
-414.000000
 20
117.699997
 11
-414.000000
 21
116.849998
  0
LINE
  8
0
  6
CONTINUOUS
 62
7
 10
-413.000000
 20
130.000000
 11
-413.000000
 21
76.000000
  0
LINE
  8
0
  6
CONTINUOUS
 62
7
 10
-449.000000
 20
130.000000
 11
-449.000000
 21
76.000000
  0
LINE
  8
0
  6
CENTER
 62
2
 10
-451.000000
 20
103.000000
 11
-411.000000
 21
103.000000
  0
LINE
  8
0
  6
CONTINUOUS
 62
7
 10
-363.000000
 20
76.000000
 11
-363.000000
 21
130.000000
  0
LINE
  8
0
  6
CONTINUOUS
 62
7
 10
-363.000000
 20
76.000000
 11
-213.000000
 21
76.000000
  0
LINE
  8
0
  6
CONTINUOUS
 62
7
 10
-363.000000
 20
130.000000
 11
-213.000000
 21
130.000000
  0
LINE
  8
0
  6
CONTINUOUS
 62
2
 10
-363.000000
 20
120.300003
 11
-354.725006
 21
120.300003
  0
LINE
  8
0
  6
CONTINUOUS
 62
2
 10
-363.000000
 20
117.699997
 11
-213.000000
 21
117.699997
  0
LINE
  8
0
  6
CONTINUOUS
 62
2
 10
-347.274994
 20
120.300003
 11
-317.725006
 21
120.300003
  0
LINE
  8
0
  6
CONTINUOUS
 62
2
 10
-310.276001
 20
120.300003
 11
-213.000000
 21
120.300003
  0
LINE
  8
0
  6
CONTINUOUS
 62
2
 10
-363.000000
 20
88.300003
 11
-213.000000
 21
88.300003
  0
LINE
  8
0
  6
CONTINUOUS
 62
2
 10
-363.000000
 20
85.699997
 11
-354.725006
 21
85.699997
  0
LINE
  8
0
  6
CONTINUOUS
 62
2
 10
-347.274994
 20
85.699997
 11
-317.725006
 21
85.699997
  0
LINE
  8
0
  6
CONTINUOUS
 62
2
 10
-310.276001
 20
85.699997
 11
-213.000000
 21
85.699997
  0
LINE
  8
0
  6
CONTINUOUS
 62
7
 10
-408.000000
 20
95.000000
 11
-363.000000
 21
95.000000
  0
LINE
  8
0
  6
CONTINUOUS
 62
7
 10
-408.000000
 20
111.000000
 11
-363.000000
 21
111.000000
  0
LINE
  8
0
  6
CONTINUOUS
 62
7
 10
-408.000000
 20
111.000000
 11
-408.000000
 21
95.000000
  0
LINE
  8
0
  6
CENTER
 62
2
 10
-233.000000
 20
163.899994
 11
-233.000000
 21
150.100006
  0
LINE
  8
0
  6
CENTER
 62
2
 10
-239.899994
 20
157.000000
 11
-226.100006
 21
157.000000
  0
LINE
  8
0
  6
CENTER
 62
2
 10
-351.000000
 20
89.250000
 11
-351.000000
 21
74.750000
  0
LINE
  8
0
  6
CENTER
 62
2
 10
-358.250000
 20
82.000000
 11
-343.750000
 21
82.000000
  0
LINE
  8
0
  6
CENTER
 62
2
 10
-314.000000
 20
89.250000
 11
-314.000000
 21
74.750000
  0
LINE
  8
0
  6
CENTER
 62
2
 10
-321.250000
 20
82.000000
 11
-306.750000
 21
82.000000
  0
LINE
  8
0
  6
CENTER
 62
2
 10
-314.000000
 20
131.250000
 11
-314.000000
 21
116.750000
  0
LINE
  8
0
  6
CENTER
 62
2
 10
-321.250000
 20
124.000000
 11
-306.750000
 21
124.000000
  0
LINE
  8
0
  6
CENTER
 62
2
 10
-351.000000
 20
131.250000
 11
-351.000000
 21
116.750000
  0
LINE
  8
0
  6
CENTER
 62
2
 10
-358.250000
 20
124.000000
 11
-343.750000
 21
124.000000
  0
LINE
  8
0
  6
CENTER
 62
2
 10
-451.000000
 20
119.000000
 11
-439.000000
 21
119.000000
  0
LINE
  8
0
  6
CENTER
 62
2
 10
-423.000000
 20
119.000000
 11
-411.000000
 21
119.000000
  0
LINE
  8
0
  6
CENTER
 62
2
 10
-451.000000
 20
87.000000
 11
-439.000000
 21
87.000000
  0
LINE
  8
0
  6
CENTER
 62
2
 10
-423.000000
 20
87.000000
 11
-411.000000
 21
87.000000
  0
LINE
  8
0
  6
CONTINUOUS
 62
7
 10
-213.000000
 20
76.000000
 11
-213.000000
 21
130.000000
  0
LINE
  8
0
  6
CONTINUOUS
 62
7
 10
-213.000000
 20
61.000000
 11
-213.000000
 21
25.000000
  0
LINE
  8
0
  6
CONTINUOUS
 62
7
 10
-213.000000
 20
181.000000
 11
-213.000000
 21
145.000000
  0
LINE
  8
0
  6
CONTINUOUS
 62
7
 10
49.999901
 20
-154.000000
 11
13.999900
 21
-154.000000
  0
LINE
  8
0
  6
CONTINUOUS
 62
7
 10
49.999901
 20
-100.000000
 11
13.999900
 21
-100.000000
  0
LINE
  8
0
  6
CENTER
 62
2
 10
52.999901
 20
-127.000000
 11
10.999900
 21
-127.000000
  0
LINE
  8
0
  6
CENTER
 62
2
 10
31.999901
 20
-157.000000
 11
31.999901
 21
-91.000000
  0
LINE
  8
0
  6
CONTINUOUS
 62
2
 10
49.999901
 20
-109.699997
 11
48.999901
 21
-109.699997
  0
LINE
  8
0
  6
CONTINUOUS
 62
2
 10
49.999901
 20
-112.300003
 11
48.999901
 21
-112.300003
  0
LINE
  8
0
  6
CONTINUOUS
 62
2
 10
48.999901
 20
-108.849998
 11
45.199902
 21
-108.849998
  0
LINE
  8
0
  6
CONTINUOUS
 62
2
 10
48.999901
 20
-113.150002
 11
45.199902
 21
-113.150002
  0
LINE
  8
0
  6
CONTINUOUS
 62
2
 10
43.699902
 20
-111.650002
 11
43.699902
 21
-110.349998
  0
LINE
  8
0
  6
CONTINUOUS
 62
7
 10
49.999901
 20
-100.000000
 11
49.999901
 21
-154.000000
  0
LINE
  8
0
  6
CONTINUOUS
 62
7
 10
13.999900
 20
-100.000000
 11
13.999900
 21
-154.000000
  0
LINE
  8
0
  6
CONTINUOUS
 62
2
 10
48.999901
 20
-108.849998
 11
48.999901
 21
-109.699997
  0
LINE
  8
0
  6
CONTINUOUS
 62
2
 10
48.999901
 20
-112.300003
 11
48.999901
 21
-113.150002
  0
LINE
  8
0
  6
CENTER
 62
2
 10
10.999900
 20
-111.000000
 11
23.999901
 21
-111.000000
  0
LINE
  8
0
  6
CENTER
 62
2
 10
39.999901
 20
-111.000000
 11
52.999901
 21
-111.000000
  0
LINE
  8
0
  6
CENTER
 62
2
 10
10.999900
 20
-143.000000
 11
23.999901
 21
-143.000000
  0
LINE
  8
0
  6
CENTER
 62
2
 10
39.999901
 20
-143.000000
 11
52.999901
 21
-143.000000
  0
LINE
  8
0
  6
DASHED
 62
2
 10
-308.750000
 20
61.000000
 11
-308.750000
 21
54.500000
  0
LINE
  8
0
  6
DASHED
 62
2
 10
-345.750000
 20
61.000000
 11
-345.750000
 21
54.500000
  0
LINE
  8
0
  6
DASHED
 62
2
 10
-356.250000
 20
61.000000
 11
-356.250000
 21
54.500000
  0
LINE
  8
0
  6
DASHED
 62
2
 10
-319.250000
 20
61.000000
 11
-319.250000
 21
54.500000
  0
LINE
  8
0
  6
DASHED
 62
2
 10
-354.399994
 20
54.500000
 11
-354.399994
 21
31.500000
  0
LINE
  8
0
  6
DASHED
 62
2
 10
-355.000000
 20
54.500000
 11
-355.000000
 21
31.500000
  0
LINE
  8
0
  6
DASHED
 62
2
 10
-347.600006
 20
54.500000
 11
-347.600006
 21
31.500000
  0
LINE
  8
0
  6
DASHED
 62
2
 10
-347.000000
 20
54.500000
 11
-347.000000
 21
31.500000
  0
LINE
  8
0
  6
DASHED
 62
2
 10
-318.000000
 20
54.500000
 11
-318.000000
 21
31.500000
  0
LINE
  8
0
  6
DASHED
 62
2
 10
-317.399994
 20
54.500000
 11
-317.399994
 21
31.500000
  0
LINE
  8
0
  6
DASHED
 62
2
 10
-310.600006
 20
54.500000
 11
-310.600006
 21
31.500000
  0
LINE
  8
0
  6
DASHED
 62
2
 10
-310.000000
 20
54.500000
 11
-310.000000
 21
31.500000
  0
LINE
  8
0
  6
DASHED
 62
2
 10
-356.250000
 20
31.500000
 11
-345.750000
 21
31.500000
  0
LINE
  8
0
  6
DASHED
 62
2
 10
-356.250000
 20
54.500000
 11
-345.750000
 21
54.500000
  0
LINE
  8
0
  6
DASHED
 62
2
 10
-356.250000
 20
31.500000
 11
-356.250000
 21
25.000000
  0
LINE
  8
0
  6
DASHED
 62
2
 10
-345.750000
 20
31.500000
 11
-345.750000
 21
25.000000
  0
LINE
  8
0
  6
DASHED
 62
2
 10
-319.250000
 20
54.500000
 11
-308.750000
 21
54.500000
  0
LINE
  8
0
  6
DASHED
 62
2
 10
-319.250000
 20
31.500000
 11
-308.750000
 21
31.500000
  0
LINE
  8
0
  6
DASHED
 62
2
 10
-319.250000
 20
31.500000
 11
-319.250000
 21
25.000000
  0
LINE
  8
0
  6
DASHED
 62
2
 10
-308.750000
 20
31.500000
 11
-308.750000
 21
25.000000
  0
LINE
  8
0
  6
CENTER
 62
2
 10
-351.000000
 20
63.000000
 11
-351.000000
 21
23.000000
  0
LINE
  8
0
  6
CENTER
 62
2
 10
-314.000000
 20
63.000000
 11
-314.000000
 21
23.000000
  0
LINE
  8
0
  6
CONTINUOUS
 62
7
 10
-363.000000
 20
-169.000000
 11
-138.000000
 21
-169.000000
  0
LINE
  8
0
  6
CONTINUOUS
 62
7
 10
-363.000000
 20
-205.000000
 11
-138.000000
 21
-205.000000
  0
LINE
  8
0
  6
CONTINUOUS
 62
7
 10
-363.000000
 20
-169.000000
 11
-363.000000
 21
-205.000000
  0
LINE
  8
0
  6
CONTINUOUS
 62
7
 10
-138.000000
 20
-169.000000
 11
-138.000000
 21
-205.000000
  0
LINE
  8
0
  6
CENTER
 62
2
 10
-411.000000
 20
-187.000000
 11
6.999940
 21
-187.000000
  0
LINE
  8
0
  6
CONTINUOUS
 62
7
 10
-408.000000
 20
-195.000000
 11
-363.000000
 21
-195.000000
  0
LINE
  8
0
  6
CONTINUOUS
 62
7
 10
-408.000000
 20
-179.000000
 11
-363.000000
 21
-179.000000
  0
LINE
  8
0
  6
CONTINUOUS
 62
7
 10
-408.000000
 20
-179.000000
 11
-408.000000
 21
-195.000000
  0
LINE
  8
0
  6
CONTINUOUS
 62
7
 10
-413.000000
 20
-154.000000
 11
-449.000000
 21
-154.000000
  0
LINE
  8
0
  6
CONTINUOUS
 62
7
 10
-413.000000
 20
-100.000000
 11
-449.000000
 21
-100.000000
  0
LINE
  8
0
  6
CENTER
 62
2
 10
-431.000000
 20
-157.000000
 11
-431.000000
 21
-91.000000
  0
LINE
  8
0
  6
CONTINUOUS
 62
2
 10
-413.000000
 20
-109.699997
 11
-414.000000
 21
-109.699997
  0
LINE
  8
0
  6
CONTINUOUS
 62
2
 10
-413.000000
 20
-112.300003
 11
-414.000000
 21
-112.300003
  0
LINE
  8
0
  6
CONTINUOUS
 62
2
 10
-414.000000
 20
-108.849998
 11
-417.799988
 21
-108.849998
  0
LINE
  8
0
  6
CONTINUOUS
 62
2
 10
-414.000000
 20
-113.150002
 11
-417.799988
 21
-113.150002
  0
LINE
  8
0
  6
CONTINUOUS
 62
2
 10
-419.299988
 20
-111.650002
 11
-419.299988
 21
-110.349998
  0
LINE
  8
0
  6
CONTINUOUS
 62
2
 10
-414.000000
 20
-109.699997
 11
-414.000000
 21
-108.849998
  0
LINE
  8
0
  6
CONTINUOUS
 62
2
 10
-414.000000
 20
-112.300003
 11
-414.000000
 21
-113.150002
  0
LINE
  8
0
  6
CONTINUOUS
 62
7
 10
-449.000000
 20
-154.000000
 11
-449.000000
 21
-100.000000
  0
LINE
  8
0
  6
CONTINUOUS
 62
7
 10
-413.000000
 20
-100.000000
 11
-413.000000
 21
-154.000000
  0
LINE
  8
0
  6
CENTER
 62
2
 10
-425.050995
 20
-105.000000
 11
-436.770996
 21
-105.000000
  0
LINE
  8
0
  6
CENTER
 62
2
 10
-425.050995
 20
-149.000000
 11
-436.770996
 21
-149.000000
  0
LINE
  8
0
  6
CENTER
 62
2
 10
-452.000000
 20
-127.000000
 11
-411.101990
 21
-127.000000
  0
LINE
  8
0
  6
CONTINUOUS
 62
7
 10
-363.000000
 20
-154.000000
 11
-363.000000
 21
-100.000000
  0
LINE
  8
0
  6
CONTINUOUS
 62
7
 10
-138.000000
 20
-154.000000
 11
-138.000000
 21
-100.000000
  0
LINE
  8
0
  6
CONTINUOUS
 62
7
 10
-363.000000
 20
-154.000000
 11
-138.000000
 21
-154.000000
  0
LINE
  8
0
  6
CONTINUOUS
 62
7
 10
-363.000000
 20
-100.000000
 11
-138.000000
 21
-100.000000
  0
LINE
  8
0
  6
CONTINUOUS
 62
2
 10
-363.000000
 20
-109.699997
 11
-354.725006
 21
-109.699997
  0
LINE
  8
0
  6
CONTINUOUS
 62
2
 10
-363.000000
 20
-112.300003
 11
-138.000000
 21
-112.300003
  0
LINE
  8
0
  6
CONTINUOUS
 62
2
 10
-347.274994
 20
-109.699997
 11
-317.725006
 21
-109.699997
  0
LINE
  8
0
  6
CONTINUOUS
 62
2
 10
-310.274994
 20
-109.699997
 11
-231.725006
 21
-109.699997
  0
LINE
  8
0
  6
CONTINUOUS
 62
2
 10
-363.000000
 20
-141.699997
 11
-138.000000
 21
-141.699997
  0
LINE
  8
0
  6
CONTINUOUS
 62
2
 10
-363.000000
 20
-144.300003
 11
-354.725006
 21
-144.300003
  0
LINE
  8
0
  6
CONTINUOUS
 62
2
 10
-347.274994
 20
-144.300003
 11
-317.725006
 21
-144.300003
  0
LINE
  8
0
  6
CONTINUOUS
 62
2
 10
-310.274994
 20
-144.300003
 11
-231.725006
 21
-144.300003
  0
LINE
  8
0
  6
CONTINUOUS
 62
7
 10
-408.000000
 20
-135.000000
 11
-363.000000
 21
-135.000000
  0
LINE
  8
0
  6
CONTINUOUS
 62
7
 10
-408.000000
 20
-119.000000
 11
-363.000000
 21
-119.000000
  0
LINE
  8
0
  6
CONTINUOUS
 62
7
 10
-408.000000
 20
-119.000000
 11
-408.000000
 21
-135.000000
  0
LINE
  8
0
  6
CENTER
 62
2
 10
-351.000000
 20
-140.750000
 11
-351.000000
 21
-155.250000
  0
LINE
  8
0
  6
CENTER
 62
2
 10
-358.250000
 20
-148.000000
 11
-343.750000
 21
-148.000000
  0
LINE
  8
0
  6
CENTER
 62
2
 10
-228.000000
 20
-140.750000
 11
-228.000000
 21
-155.250000
  0
LINE
  8
0
  6
CENTER
 62
2
 10
-235.250000
 20
-148.000000
 11
-220.750000
 21
-148.000000
  0
LINE
  8
0
  6
CENTER
 62
2
 10
-228.000000
 20
-98.750000
 11
-228.000000
 21
-113.250000
  0
LINE
  8
0
  6
CENTER
 62
2
 10
-235.250000
 20
-106.000000
 11
-220.750000
 21
-106.000000
  0
LINE
  8
0
  6
CENTER
 62
2
 10
-351.000000
 20
-98.750000
 11
-351.000000
 21
-113.250000
  0
LINE
  8
0
  6
CENTER
 62
2
 10
-358.250000
 20
-106.000000
 11
-343.750000
 21
-106.000000
  0
LINE
  8
0
  6
CENTER
 62
2
 10
-314.000000
 20
-140.750000
 11
-314.000000
 21
-155.250000
  0
LINE
  8
0
  6
CENTER
 62
2
 10
-321.250000
 20
-148.000000
 11
-306.750000
 21
-148.000000
  0
LINE
  8
0
  6
CENTER
 62
2
 10
-314.000000
 20
-98.750000
 11
-314.000000
 21
-113.250000
  0
LINE
  8
0
  6
CENTER
 62
2
 10
-321.250000
 20
-106.000000
 11
-306.750000
 21
-106.000000
  0
LINE
  8
0
  6
CONTINUOUS
 62
2
 10
-224.274994
 20
-144.300003
 11
-138.000000
 21
-144.300003
  0
LINE
  8
0
  6
CONTINUOUS
 62
2
 10
-224.274994
 20
-109.699997
 11
-138.000000
 21
-109.699997
  0
LINE
  8
0
  6
CONTINUOUS
 62
7
 10
-138.000000
 20
-49.000000
 11
-138.000000
 21
-85.000000
  0
LINE
  8
0
  6
CENTER
 62
2
 10
-294.100006
 20
-61.000000
 11
-307.899994
 21
-61.000000
  0
LINE
  8
0
  6
CENTER
 62
2
 10
-301.000000
 20
-54.099899
 11
-301.000000
 21
-67.900002
  0
LINE
  8
0
  6
CENTER
 62
2
 10
-158.000000
 20
-66.099998
 11
-158.000000
 21
-79.900002
  0
LINE
  8
0
  6
CENTER
 62
2
 10
-164.899994
 20
-73.000000
 11
-151.100006
 21
-73.000000
  0
LINE
  8
0
  6
CENTER
 62
2
 10
-452.000000
 20
-111.000000
 11
-442.000000
 21
-111.000000
  0
LINE
  8
0
  6
CENTER
 62
2
 10
-452.000000
 20
-143.000000
 11
-442.000000
 21
-143.000000
  0
LINE
  8
0
  6
CENTER
 62
2
 10
-410.000000
 20
-143.000000
 11
-423.000000
 21
-143.000000
  0
LINE
  8
0
  6
CENTER
 62
2
 10
-410.000000
 20
-111.000000
 11
-423.000000
 21
-111.000000
  0
LINE
  8
0
  6
DASHED
 62
2
 10
-356.250000
 20
-169.000000
 11
-356.250000
 21
-175.500000
  0
LINE
  8
0
  6
DASHED
 62
2
 10
-345.750000
 20
-169.000000
 11
-345.750000
 21
-175.500000
  0
LINE
  8
0
  6
DASHED
 62
2
 10
-319.250000
 20
-169.000000
 11
-319.250000
 21
-175.500000
  0
LINE
  8
0
  6
DASHED
 62
2
 10
-308.750000
 20
-169.000000
 11
-308.750000
 21
-175.500000
  0
LINE
  8
0
  6
DASHED
 62
2
 10
-233.250000
 20
-169.000000
 11
-233.250000
 21
-175.500000
  0
LINE
  8
0
  6
DASHED
 62
2
 10
-222.750000
 20
-169.000000
 11
-222.750000
 21
-175.500000
  0
LINE
  8
0
  6
DASHED
 62
2
 10
-355.000000
 20
-175.500000
 11
-355.000000
 21
-198.500000
  0
LINE
  8
0
  6
DASHED
 62
2
 10
-354.399994
 20
-175.500000
 11
-354.399994
 21
-198.500000
  0
LINE
  8
0
  6
DASHED
 62
2
 10
-347.600006
 20
-175.500000
 11
-347.600006
 21
-198.500000
  0
LINE
  8
0
  6
DASHED
 62
2
 10
-347.000000
 20
-175.500000
 11
-347.000000
 21
-198.500000
  0
LINE
  8
0
  6
DASHED
 62
2
 10
-318.000000
 20
-175.500000
 11
-318.000000
 21
-198.500000
  0
LINE
  8
0
  6
DASHED
 62
2
 10
-317.399994
 20
-175.500000
 11
-317.399994
 21
-198.500000
  0
LINE
  8
0
  6
DASHED
 62
2
 10
-310.600006
 20
-175.500000
 11
-310.600006
 21
-198.500000
  0
LINE
  8
0
  6
DASHED
 62
2
 10
-310.000000
 20
-175.500000
 11
-310.000000
 21
-198.500000
  0
LINE
  8
0
  6
DASHED
 62
2
 10
-232.000000
 20
-175.500000
 11
-232.000000
 21
-198.500000
  0
LINE
  8
0
  6
DASHED
 62
2
 10
-231.399994
 20
-175.500000
 11
-231.399994
 21
-198.500000
  0
LINE
  8
0
  6
DASHED
 62
2
 10
-224.600006
 20
-175.500000
 11
-224.600006
 21
-198.500000
  0
LINE
  8
0
  6
DASHED
 62
2
 10
-224.000000
 20
-175.500000
 11
-224.000000
 21
-198.500000
  0
LINE
  8
0
  6
DASHED
 62
2
 10
-356.250000
 20
-175.500000
 11
-345.750000
 21
-175.500000
  0
LINE
  8
0
  6
DASHED
 62
2
 10
-356.250000
 20
-198.500000
 11
-345.750000
 21
-198.500000
  0
LINE
  8
0
  6
DASHED
 62
2
 10
-356.250000
 20
-198.500000
 11
-356.250000
 21
-205.000000
  0
LINE
  8
0
  6
DASHED
 62
2
 10
-345.750000
 20
-198.500000
 11
-345.750000
 21
-205.000000
  0
LINE
  8
0
  6
DASHED
 62
2
 10
-319.250000
 20
-175.500000
 11
-308.750000
 21
-175.500000
  0
LINE
  8
0
  6
DASHED
 62
2
 10
-319.250000
 20
-198.500000
 11
-308.750000
 21
-198.500000
  0
LINE
  8
0
  6
DASHED
 62
2
 10
-319.250000
 20
-198.500000
 11
-319.250000
 21
-205.000000
  0
LINE
  8
0
  6
DASHED
 62
2
 10
-308.750000
 20
-198.500000
 11
-308.750000
 21
-205.000000
  0
LINE
  8
0
  6
DASHED
 62
2
 10
-233.250000
 20
-198.500000
 11
-233.250000
 21
-205.000000
  0
LINE
  8
0
  6
DASHED
 62
2
 10
-222.750000
 20
-198.500000
 11
-222.750000
 21
-205.000000
  0
LINE
  8
0
  6
DASHED
 62
2
 10
-233.250000
 20
-175.500000
 11
-222.750000
 21
-175.500000
  0
LINE
  8
0
  6
DASHED
 62
2
 10
-233.250000
 20
-198.500000
 11
-222.750000
 21
-198.500000
  0
LINE
  8
0
  6
CENTER
 62
2
 10
-351.000000
 20
-167.000000
 11
-351.000000
 21
-207.000000
  0
LINE
  8
0
  6
CENTER
 62
2
 10
-314.000000
 20
-167.000000
 11
-314.000000
 21
-207.000000
  0
LINE
  8
0
  6
CENTER
 62
2
 10
-228.000000
 20
-167.000000
 11
-228.000000
 21
-207.000000
  0
LINE
  8
0
  6
CONTINUOUS
 62
7
 10
-363.000000
 20
-49.000000
 11
-138.000000
 21
-49.000000
  0
LINE
  8
0
  6
CONTINUOUS
 62
7
 10
-363.000000
 20
-85.000000
 11
-138.000000
 21
-85.000000
  0
LINE
  8
0
  6
CONTINUOUS
 62
7
 10
-363.000000
 20
-49.000000
 11
-363.000000
 21
-85.000000
  0
LINE
  8
0
  6
CENTER
 62
2
 10
-411.000000
 20
-67.000000
 11
6.999940
 21
-67.000000
  0
LINE
  8
0
  6
CONTINUOUS
 62
7
 10
-408.000000
 20
-75.000000
 11
-363.000000
 21
-75.000000
  0
LINE
  8
0
  6
CONTINUOUS
 62
7
 10
-408.000000
 20
-59.000000
 11
-363.000000
 21
-59.000000
  0
LINE
  8
0
  6
CONTINUOUS
 62
7
 10
-408.000000
 20
-59.000000
 11
-408.000000
 21
-75.000000
  0
LINE
  8
0
  6
CONTINUOUS
 62
7
 10
-246.500000
 20
173.500000
 11
-246.500000
 21
152.500000
  0
LINE
  8
0
  6
CONTINUOUS
 62
7
 10
-259.500000
 20
173.500000
 11
-259.500000
 21
152.500000
  0
LINE
  8
0
  6
CONTINUOUS
 62
7
 10
-259.500000
 20
173.500000
 11
-246.500000
 21
173.500000
  0
LINE
  8
0
  6
CONTINUOUS
 62
7
 10
-259.500000
 20
152.500000
 11
-246.500000
 21
152.500000
  0
LINE
  8
0
  6
CONTINUOUS
 62
7
 10
-259.500000
 20
136.000000
 11
-246.500000
 21
136.000000
  0
LINE
  8
0
  6
CONTINUOUS
 62
7
 10
-246.500000
 20
130.000000
 11
-246.500000
 21
136.000000
  0
LINE
  8
0
  6
CONTINUOUS
 62
7
 10
-259.500000
 20
130.000000
 11
-259.500000
 21
136.000000
  0
LINE
  8
0
  6
CONTINUOUS
 62
7
 10
21.499800
 20
-94.000000
 11
42.499802
 21
-94.000000
  0
LINE
  8
0
  6
CONTINUOUS
 62
7
 10
21.499800
 20
-100.000000
 11
21.499800
 21
-94.000000
  0
LINE
  8
0
  6
CONTINUOUS
 62
7
 10
42.499802
 20
-100.000000
 11
42.499802
 21
-94.000000
  0
LINE
  8
0
  6
CONTINUOUS
 62
7
 10
3.999940
 20
-60.000000
 11
3.999940
 21
-74.000000
  0
LINE
  8
0
  6
CONTINUOUS
 62
7
 10
-186.000000
 20
171.000000
 11
-211.000000
 21
171.000000
  0
LINE
  8
0
  6
CONTINUOUS
 62
7
 10
-186.000000
 20
150.500000
 11
-186.000000
 21
175.500000
  0
LINE
  8
0
  6
CONTINUOUS
 62
7
 10
-6.000060
 20
-79.701698
 11
-6.000060
 21
-54.298302
  0
LINE
  8
0
  6
CONTINUOUS
 62
7
 10
-36.000099
 20
-79.500000
 11
-16.000099
 21
-79.500000
  0
LINE
  8
0
  6
CONTINUOUS
 62
7
 10
-36.000099
 20
-54.500000
 11
-16.000099
 21
-54.500000
  0
LINE
  8
0
  6
CONTINUOUS
 62
7
 10
-16.000099
 20
-79.500000
 11
-16.000099
 21
-78.000000
  0
LINE
  8
0
  6
CONTINUOUS
 62
7
 10
1.999940
 20
-74.000000
 11
3.999940
 21
-74.000000
  0
LINE
  8
0
  6
CONTINUOUS
 62
7
 10
1.999940
 20
-60.000000
 11
3.999940
 21
-60.000000
  0
LINE
  8
0
  6
CONTINUOUS
 62
2
 10
1.999940
 20
-61.000000
 11
3.999940
 21
-61.000000
  0
LINE
  8
0
  6
CONTINUOUS
 62
7
 10
-16.000099
 20
-56.000000
 11
-6.000060
 21
-56.000000
  0
LINE
  8
0
  6
CONTINUOUS
 62
7
 10
-16.000099
 20
-78.000000
 11
-6.000060
 21
-78.000000
  0
LINE
  8
0
  6
CONTINUOUS
 62
7
 10
-16.000099
 20
-56.000000
 11
-16.000099
 21
-54.500000
  0
LINE
  8
0
  6
CONTINUOUS
 62
7
 10
1.999940
 20
-79.701698
 11
1.999940
 21
-54.298302
  0
LINE
  8
0
  6
CONTINUOUS
 62
7
 10
-6.000060
 20
-79.701698
 11
1.999940
 21
-79.701698
  0
LINE
  8
0
  6
CONTINUOUS
 62
7
 10
-6.000060
 20
-54.298302
 11
1.999940
 21
-54.298302
  0
LINE
  8
0
  6
CONTINUOUS
 62
7
 10
-211.500000
 20
180.500000
 11
-211.500000
 21
145.500000
  0
LINE
  8
0
  6
CONTINUOUS
 62
7
 10
-211.000000
 20
173.750000
 11
-211.000000
 21
152.250000
  0
LINE
  8
0
  6
CONTINUOUS
 62
7
 10
-213.000000
 20
145.500000
 11
-211.500000
 21
145.500000
  0
LINE
  8
0
  6
CONTINUOUS
 62
7
 10
-213.000000
 20
180.500000
 11
-211.500000
 21
180.500000
  0
LINE
  8
0
  6
CONTINUOUS
 62
7
 10
-211.500000
 20
173.750000
 11
-211.000000
 21
173.750000
  0
LINE
  8
0
  6
CONTINUOUS
 62
7
 10
-211.500000
 20
152.250000
 11
-211.000000
 21
152.250000
  0
LINE
  8
0
  6
CONTINUOUS
 62
7
 10
-186.000000
 20
155.000000
 11
-211.000000
 21
155.000000
  0
LINE
  8
0
  6
CONTINUOUS
 62
7
 10
-211.500000
 20
82.792702
 11
-211.500000
 21
123.207001
  0
LINE
  8
0
  6
CONTINUOUS
 62
7
 10
3.999940
 20
-134.000000
 11
3.999940
 21
-120.000000
  0
LINE
  8
0
  6
CONTINUOUS
 62
7
 10
-186.000000
 20
111.000000
 11
-211.000000
 21
111.000000
  0
LINE
  8
0
  6
CONTINUOUS
 62
7
 10
-186.000000
 20
95.000000
 11
-211.000000
 21
95.000000
  0
LINE
  8
0
  6
CONTINUOUS
 62
7
 10
-186.000000
 20
115.500000
 11
-186.000000
 21
90.500000
  0
LINE
  8
0
  6
CONTINUOUS
 62
7
 10
-6.000060
 20
-114.500000
 11
-6.000060
 21
-139.500000
  0
LINE
  8
0
  6
CONTINUOUS
 62
7
 10
-36.000099
 20
-114.500000
 11
-6.000060
 21
-114.500000
  0
LINE
  8
0
  6
CONTINUOUS
 62
7
 10
-36.000099
 20
-139.500000
 11
-6.000060
 21
-139.500000
  0
LINE
  8
0
  6
CONTINUOUS
 62
7
 10
-16.000099
 20
-121.063004
 11
-16.000099
 21
-132.936996
  0
LINE
  8
0
  6
CONTINUOUS
 62
7
 10
-16.000099
 20
-121.063004
 11
-6.000060
 21
-121.063004
  0
LINE
  8
0
  6
CONTINUOUS
 62
7
 10
-16.000099
 20
-132.936996
 11
-6.000060
 21
-132.936996
  0
LINE
  8
0
  6
CONTINUOUS
 62
2
 10
-16.000099
 20
-132.936996
 11
-6.000100
 21
-121.063004
  0
LINE
  8
0
  6
CONTINUOUS
 62
2
 10
-16.000000
 20
-121.063004
 11
-6.000020
 21
-132.936996
  0
LINE
  8
0
  6
CONTINUOUS
 62
7
 10
1.999940
 20
-116.500000
 11
1.999940
 21
-137.500000
  0
LINE
  8
0
  6
CONTINUOUS
 62
7
 10
-5.711400
 20
-116.000000
 11
1.711240
 21
-116.000000
  0
LINE
  8
0
  6
CONTINUOUS
 62
7
 10
-6.000060
 20
-127.000000
 11
1.999940
 21
-127.000000
  0
LINE
  8
0
  6
CONTINUOUS
 62
7
 10
-5.711380
 20
-138.000000
 11
1.711240
 21
-138.000000
  0
LINE
  8
0
  6
CONTINUOUS
 62
7
 10
1.999950
 20
-116.500000
 11
1.711280
 21
-116.000000
  0
LINE
  8
0
  6
CONTINUOUS
 62
7
 10
1.999880
 20
-137.500000
 11
1.711200
 21
-138.000000
  0
LINE
  8
0
  6
CONTINUOUS
 62
7
 10
-6.000020
 20
-137.500000
 11
-5.711340
 21
-138.000000
  0
LINE
  8
0
  6
CONTINUOUS
 62
7
 10
-6.000010
 20
-116.500000
 11
-5.711330
 21
-116.000000
  0
LINE
  8
0
  6
CONTINUOUS
 62
7
 10
1.999940
 20
-120.000000
 11
3.999940
 21
-120.000000
  0
LINE
  8
0
  6
CONTINUOUS
 62
7
 10
1.999940
 20
-134.000000
 11
3.999940
 21
-134.000000
  0
LINE
  8
0
  6
CONTINUOUS
 62
2
 10
1.999940
 20
-133.000000
 11
3.999940
 21
-133.000000
  0
LINE
  8
0
  6
CONTINUOUS
 62
2
 10
1.999940
 20
-121.000000
 11
3.999940
 21
-121.000000
  0
LINE
  8
0
  6
CONTINUOUS
 62
7
 10
-211.500000
 20
92.250000
 11
-211.000000
 21
92.250000
  0
LINE
  8
0
  6
CONTINUOUS
 62
7
 10
-213.000000
 20
82.792702
 11
-211.500000
 21
82.792702
  0
LINE
  8
0
  6
CONTINUOUS
 62
7
 10
-213.000000
 20
92.896400
 11
-211.500000
 21
92.896400
  0
LINE
  8
0
  6
CONTINUOUS
 62
7
 10
-213.000000
 20
113.103996
 11
-211.500000
 21
113.103996
  0
LINE
  8
0
  6
CONTINUOUS
 62
7
 10
-213.000000
 20
123.207001
 11
-211.500000
 21
123.207001
  0
LINE
  8
0
  6
CONTINUOUS
 62
7
 10
-211.000000
 20
92.250000
 11
-211.000000
 21
113.750000
  0
LINE
  8
0
  6
CONTINUOUS
 62
7
 10
-211.500000
 20
113.750000
 11
-211.000000
 21
113.750000
  0
LINE
  8
0
  6
CONTINUOUS
 62
7
 10
3.999940
 20
-194.000000
 11
3.999940
 21
-180.000000
  0
LINE
  8
0
  6
CONTINUOUS
 62
7
 10
-186.000000
 20
51.000000
 11
-211.000000
 21
51.000000
  0
LINE
  8
0
  6
CONTINUOUS
 62
7
 10
-186.000000
 20
35.000000
 11
-211.000000
 21
35.000000
  0
LINE
  8
0
  6
CONTINUOUS
 62
7
 10
-186.000000
 20
55.500000
 11
-186.000000
 21
30.500000
  0
LINE
  8
0
  6
CONTINUOUS
 62
7
 10
-6.000060
 20
-174.298004
 11
-6.000060
 21
-199.701996
  0
LINE
  8
0
  6
CONTINUOUS
 62
7
 10
-36.000099
 20
-174.500000
 11
-16.000099
 21
-174.500000
  0
LINE
  8
0
  6
CONTINUOUS
 62
7
 10
-36.000099
 20
-199.500000
 11
-16.000099
 21
-199.500000
  0
LINE
  8
0
  6
CONTINUOUS
 62
7
 10
-16.000099
 20
-174.500000
 11
-16.000099
 21
-176.000000
  0
LINE
  8
0
  6
CONTINUOUS
 62
7
 10
1.999940
 20
-180.000000
 11
3.999940
 21
-180.000000
  0
LINE
  8
0
  6
CONTINUOUS
 62
7
 10
1.999940
 20
-194.000000
 11
3.999940
 21
-194.000000
  0
LINE
  8
0
  6
CONTINUOUS
 62
2
 10
1.999940
 20
-193.000000
 11
3.999940
 21
-193.000000
  0
LINE
  8
0
  6
CONTINUOUS
 62
2
 10
1.999940
 20
-181.000000
 11
3.999940
 21
-181.000000
  0
LINE
  8
0
  6
CONTINUOUS
 62
7
 10
-211.000000
 20
53.750000
 11
-211.000000
 21
32.250000
  0
LINE
  8
0
  6
CONTINUOUS
 62
7
 10
-213.000000
 20
60.500000
 11
-211.500000
 21
60.500000
  0
LINE
  8
0
  6
CONTINUOUS
 62
7
 10
-213.000000
 20
25.500000
 11
-211.500000
 21
25.500000
  0
LINE
  8
0
  6
CONTINUOUS
 62
7
 10
-213.000000
 20
43.000000
 11
-211.500000
 21
43.000000
  0
LINE
  8
0
  6
CONTINUOUS
 62
7
 10
-211.500000
 20
60.500000
 11
-211.500000
 21
25.500000
  0
LINE
  8
0
  6
CONTINUOUS
 62
7
 10
-16.000099
 20
-198.000000
 11
-6.000060
 21
-198.000000
  0
LINE
  8
0
  6
CONTINUOUS
 62
7
 10
-16.000099
 20
-176.000000
 11
-6.000060
 21
-176.000000
  0
LINE
  8
0
  6
CONTINUOUS
 62
7
 10
-16.000099
 20
-198.000000
 11
-16.000099
 21
-199.500000
  0
LINE
  8
0
  6
CONTINUOUS
 62
7
 10
1.999940
 20
-174.298004
 11
1.999940
 21
-199.701996
  0
LINE
  8
0
  6
CONTINUOUS
 62
7
 10
-6.000060
 20
-180.649002
 11
1.999940
 21
-180.649002
  0
LINE
  8
0
  6
CONTINUOUS
 62
7
 10
-6.000060
 20
-193.350998
 11
1.999940
 21
-193.350998
  0
LINE
  8
0
  6
CONTINUOUS
 62
7
 10
-6.000060
 20
-174.298004
 11
1.999940
 21
-174.298004
  0
LINE
  8
0
  6
CONTINUOUS
 62
7
 10
-6.000060
 20
-199.701996
 11
1.999940
 21
-199.701996
  0
LINE
  8
0
  6
CONTINUOUS
 62
7
 10
-211.500000
 20
53.750000
 11
-211.000000
 21
53.750000
  0
LINE
  8
0
  6
CONTINUOUS
 62
7
 10
-211.500000
 20
32.250000
 11
-211.000000
 21
32.250000
  0
LINE
  8
0
  6
CONTINUOUS
 62
7
 10
-171.500000
 20
-56.500000
 11
-171.500000
 21
-77.500000
  0
LINE
  8
0
  6
CONTINUOUS
 62
7
 10
-184.500000
 20
-56.500000
 11
-184.500000
 21
-77.500000
  0
LINE
  8
0
  6
CONTINUOUS
 62
7
 10
-184.500000
 20
-56.500000
 11
-171.500000
 21
-56.500000
  0
LINE
  8
0
  6
CONTINUOUS
 62
7
 10
-184.500000
 20
-77.500000
 11
-171.500000
 21
-77.500000
  0
LINE
  8
0
  6
CONTINUOUS
 62
7
 10
-184.500000
 20
-94.000000
 11
-171.500000
 21
-94.000000
  0
LINE
  8
0
  6
CONTINUOUS
 62
7
 10
-171.500000
 20
-100.000000
 11
-171.500000
 21
-94.000000
  0
LINE
  8
0
  6
CONTINUOUS
 62
7
 10
-184.500000
 20
-100.000000
 11
-184.500000
 21
-94.000000
  0
LINE
  8
0
  6
CONTINUOUS
 62
7
 10
-420.500000
 20
-94.000000
 11
-441.500000
 21
-94.000000
  0
LINE
  8
0
  6
CONTINUOUS
 62
7
 10
-420.500000
 20
-100.000000
 11
-420.500000
 21
-94.000000
  0
LINE
  8
0
  6
CONTINUOUS
 62
7
 10
-441.500000
 20
-100.000000
 11
-441.500000
 21
-94.000000
  0
LINE
  8
0
  6
CONTINUOUS
 62
7
 10
-36.000099
 20
-59.000000
 11
-136.000000
 21
-59.000000
  0
LINE
  8
0
  6
CONTINUOUS
 62
7
 10
-36.000099
 20
-79.500000
 11
-36.000099
 21
-54.500000
  0
LINE
  8
0
  6
CONTINUOUS
 62
7
 10
-136.500000
 20
-49.500000
 11
-136.500000
 21
-84.500000
  0
LINE
  8
0
  6
CONTINUOUS
 62
7
 10
-136.000000
 20
-56.250000
 11
-136.000000
 21
-77.750000
  0
LINE
  8
0
  6
CONTINUOUS
 62
7
 10
-138.000000
 20
-84.500000
 11
-136.500000
 21
-84.500000
  0
LINE
  8
0
  6
CONTINUOUS
 62
7
 10
-138.000000
 20
-49.500000
 11
-136.500000
 21
-49.500000
  0
LINE
  8
0
  6
CONTINUOUS
 62
7
 10
-136.500000
 20
-56.250000
 11
-136.000000
 21
-56.250000
  0
LINE
  8
0
  6
CONTINUOUS
 62
7
 10
-136.500000
 20
-77.750000
 11
-136.000000
 21
-77.750000
  0
LINE
  8
0
  6
CONTINUOUS
 62
7
 10
-36.000099
 20
-75.000000
 11
-136.000000
 21
-75.000000
  0
LINE
  8
0
  6
CONTINUOUS
 62
7
 10
-136.500000
 20
-147.207001
 11
-136.500000
 21
-106.792999
  0
LINE
  8
0
  6
CONTINUOUS
 62
7
 10
-36.000099
 20
-119.000000
 11
-136.000000
 21
-119.000000
  0
LINE
  8
0
  6
CONTINUOUS
 62
7
 10
-36.000099
 20
-135.000000
 11
-136.000000
 21
-135.000000
  0
LINE
  8
0
  6
CONTINUOUS
 62
7
 10
-36.000099
 20
-114.500000
 11
-36.000099
 21
-139.500000
  0
LINE
  8
0
  6
CONTINUOUS
 62
7
 10
-136.500000
 20
-137.750000
 11
-136.000000
 21
-137.750000
  0
LINE
  8
0
  6
CONTINUOUS
 62
7
 10
-138.000000
 20
-147.207001
 11
-136.500000
 21
-147.207001
  0
LINE
  8
0
  6
CONTINUOUS
 62
7
 10
-138.000000
 20
-137.104004
 11
-136.500000
 21
-137.104004
  0
LINE
  8
0
  6
CONTINUOUS
 62
7
 10
-138.000000
 20
-116.896004
 11
-136.500000
 21
-116.896004
  0
LINE
  8
0
  6
CONTINUOUS
 62
7
 10
-138.000000
 20
-106.792999
 11
-136.500000
 21
-106.792999
  0
LINE
  8
0
  6
CONTINUOUS
 62
7
 10
-136.000000
 20
-137.750000
 11
-136.000000
 21
-116.250000
  0
LINE
  8
0
  6
CONTINUOUS
 62
7
 10
-136.500000
 20
-116.250000
 11
-136.000000
 21
-116.250000
  0
LINE
  8
0
  6
CONTINUOUS
 62
7
 10
-36.000099
 20
-179.000000
 11
-136.000000
 21
-179.000000
  0
LINE
  8
0
  6
CONTINUOUS
 62
7
 10
-36.000099
 20
-195.000000
 11
-136.000000
 21
-195.000000
  0
LINE
  8
0
  6
CONTINUOUS
 62
7
 10
-36.000099
 20
-174.500000
 11
-36.000099
 21
-199.500000
  0
LINE
  8
0
  6
CONTINUOUS
 62
7
 10
-136.000000
 20
-176.250000
 11
-136.000000
 21
-197.750000
  0
LINE
  8
0
  6
CONTINUOUS
 62
7
 10
-138.000000
 20
-169.500000
 11
-136.500000
 21
-169.500000
  0
LINE
  8
0
  6
CONTINUOUS
 62
7
 10
-138.000000
 20
-204.500000
 11
-136.500000
 21
-204.500000
  0
LINE
  8
0
  6
CONTINUOUS
 62
7
 10
-138.000000
 20
-187.000000
 11
-136.500000
 21
-187.000000
  0
LINE
  8
0
  6
CONTINUOUS
 62
7
 10
-136.500000
 20
-169.500000
 11
-136.500000
 21
-204.500000
  0
LINE
  8
0
  6
CONTINUOUS
 62
7
 10
-136.500000
 20
-176.250000
 11
-136.000000
 21
-176.250000
  0
LINE
  8
0
  6
CONTINUOUS
 62
7
 10
-136.500000
 20
-197.750000
 11
-136.000000
 21
-197.750000
  0
LINE
  8
0
  6
CONTINUOUS
 62
7
 10
-213.000000
 20
163.000000
 11
-211.500000
 21
163.000000
  0
LINE
  8
0
  6
CONTINUOUS
 62
7
 10
-6.000060
 20
-60.649200
 11
1.999940
 21
-60.649200
  0
LINE
  8
0
  6
CONTINUOUS
 62
7
 10
-6.000060
 20
-73.350899
 11
1.999940
 21
-73.350899
  0
LINE
  8
0
  6
CONTINUOUS
 62
2
 10
1.999940
 20
-73.000000
 11
3.999940
 21
-73.000000
  0
LINE
  8
0
  6
CONTINUOUS
 62
7
 10
25.649000
 20
-116.000000
 11
19.298100
 21
-127.000000
  0
LINE
  8
0
  6
CONTINUOUS
 62
7
 10
38.350800
 20
-116.000000
 11
25.649099
 21
-116.000000
  0
LINE
  8
0
  6
CONTINUOUS
 62
7
 10
44.701500
 20
-127.000000
 11
38.350700
 21
-116.000000
  0
LINE
  8
0
  6
CONTINUOUS
 62
7
 10
38.350800
 20
-138.000000
 11
44.701599
 21
-127.000000
  0
LINE
  8
0
  6
CONTINUOUS
 62
7
 10
25.649000
 20
-138.000000
 11
38.350800
 21
-138.000000
  0
LINE
  8
0
  6
CONTINUOUS
 62
7
 10
19.298201
 20
-127.000000
 11
25.649000
 21
-138.000000
  0
LINE
  8
0
  6
CONTINUOUS
 62
7
 10
42.999901
 20
-132.936996
 11
42.999901
 21
-129.947006
  0
LINE
  8
0
  6
CONTINUOUS
 62
7
 10
20.999901
 20
-132.936996
 11
20.999901
 21
-129.947006
  0
LINE
  8
0
  6
CONTINUOUS
 62
7
 10
42.999901
 20
-124.053001
 11
42.999901
 21
-121.063004
  0
LINE
  8
0
  6
CONTINUOUS
 62
7
 10
20.999901
 20
-124.053001
 11
20.999901
 21
-121.063004
  0
LINE
  8
0
  6
CONTINUOUS
 62
7
 10
-441.500000
 20
130.000000
 11
-441.500000
 21
136.000000
  0
LINE
  8
0
  6
CONTINUOUS
 62
7
 10
-420.500000
 20
136.000000
 11
-441.500000
 21
136.000000
  0
LINE
  8
0
  6
CONTINUOUS
 62
7
 10
-420.500000
 20
130.000000
 11
-420.500000
 21
136.000000
  0
LINE
  8
0
  6
CONTINUOUS
 62
7
 10
-100.000000
 20
76.000000
 11
-136.000000
 21
76.000000
  0
LINE
  8
0
  6
CONTINUOUS
 62
7
 10
-100.000000
 20
130.000000
 11
-136.000000
 21
130.000000
  0
LINE
  8
0
  6
CENTER
 62
2
 10
-98.000198
 20
103.000000
 11
-138.000000
 21
103.000000
  0
LINE
  8
0
  6
CENTER
 62
2
 10
-118.000000
 20
74.000000
 11
-118.000000
 21
138.000000
  0
LINE
  8
0
  6
CONTINUOUS
 62
2
 10
-100.000000
 20
120.300003
 11
-101.000000
 21
120.300003
  0
LINE
  8
0
  6
CONTINUOUS
 62
2
 10
-100.000000
 20
117.699997
 11
-101.000000
 21
117.699997
  0
LINE
  8
0
  6
CONTINUOUS
 62
2
 10
-101.000000
 20
121.150002
 11
-104.800003
 21
121.150002
  0
LINE
  8
0
  6
CONTINUOUS
 62
2
 10
-101.000000
 20
116.849998
 11
-104.800003
 21
116.849998
  0
LINE
  8
0
  6
CONTINUOUS
 62
2
 10
-106.300003
 20
118.349998
 11
-106.300003
 21
119.650002
  0
LINE
  8
0
  6
CONTINUOUS
 62
7
 10
-100.000000
 20
130.000000
 11
-100.000000
 21
76.000000
  0
LINE
  8
0
  6
CONTINUOUS
 62
7
 10
-136.000000
 20
130.000000
 11
-136.000000
 21
76.000000
  0
LINE
  8
0
  6
CONTINUOUS
 62
2
 10
-101.000000
 20
121.150002
 11
-101.000000
 21
120.300003
  0
LINE
  8
0
  6
CONTINUOUS
 62
2
 10
-101.000000
 20
117.699997
 11
-101.000000
 21
116.849998
  0
LINE
  8
0
  6
CENTER
 62
2
 10
-138.000000
 20
119.000000
 11
-126.000000
 21
119.000000
  0
LINE
  8
0
  6
CENTER
 62
2
 10
-110.000000
 20
119.000000
 11
-98.000198
 21
119.000000
  0
LINE
  8
0
  6
CENTER
 62
2
 10
-138.000000
 20
87.000000
 11
-126.000000
 21
87.000000
  0
LINE
  8
0
  6
CENTER
 62
2
 10
-110.000000
 20
87.000000
 11
-98.000198
 21
87.000000
  0
LINE
  8
0
  6
CONTINUOUS
 62
7
 10
-128.500000
 20
136.000000
 11
-107.500000
 21
136.000000
  0
LINE
  8
0
  6
CONTINUOUS
 62
7
 10
-128.500000
 20
130.000000
 11
-128.500000
 21
136.000000
  0
LINE
  8
0
  6
CONTINUOUS
 62
7
 10
-107.500000
 20
130.000000
 11
-107.500000
 21
136.000000
  0
LINE
  8
0
  6
CONTINUOUS
 62
7
 10
-124.350998
 20
114.000000
 11
-130.701996
 21
103.000000
  0
LINE
  8
0
  6
CONTINUOUS
 62
7
 10
-111.649002
 20
114.000000
 11
-124.350998
 21
114.000000
  0
LINE
  8
0
  6
CONTINUOUS
 62
7
 10
-105.297997
 20
103.000000
 11
-111.649002
 21
114.000000
  0
LINE
  8
0
  6
CONTINUOUS
 62
7
 10
-111.649002
 20
92.000099
 11
-105.299004
 21
103.000000
  0
LINE
  8
0
  6
CONTINUOUS
 62
7
 10
-124.350998
 20
92.000000
 11
-111.649002
 21
92.000000
  0
LINE
  8
0
  6
CONTINUOUS
 62
7
 10
-130.701996
 20
103.000000
 11
-124.350998
 21
92.000000
  0
LINE
  8
0
  6
CONTINUOUS
 62
7
 10
-107.000000
 20
97.062798
 11
-107.000000
 21
100.053001
  0
LINE
  8
0
  6
CONTINUOUS
 62
7
 10
-129.000000
 20
97.062798
 11
-129.000000
 21
100.053001
  0
LINE
  8
0
  6
CONTINUOUS
 62
7
 10
-107.000000
 20
105.946999
 11
-107.000000
 21
108.936996
  0
LINE
  8
0
  6
CONTINUOUS
 62
7
 10
-129.000000
 20
105.946999
 11
-129.000000
 21
108.936996
  0
LINE
  8
0
  6
CONTINUOUS
 62
2
 10
-148.000000
 20
157.000000
 11
-146.000000
 21
157.000000
  0
LINE
  8
0
  6
CONTINUOUS
 62
7
 10
-156.000000
 20
30.298300
 11
-148.000000
 21
30.298300
  0
LINE
  8
0
  6
CONTINUOUS
 62
7
 10
-156.000000
 20
156.649002
 11
-148.000000
 21
156.649002
  0
LINE
  8
0
  6
CONTINUOUS
 62
7
 10
-156.000000
 20
169.350998
 11
-148.000000
 21
169.350998
  0
LINE
  8
0
  6
CONTINUOUS
 62
7
 10
-146.000000
 20
170.000000
 11
-146.000000
 21
156.000000
  0
LINE
  8
0
  6
CONTINUOUS
 62
7
 10
-156.000000
 20
150.298004
 11
-156.000000
 21
175.701996
  0
LINE
  8
0
  6
CONTINUOUS
 62
7
 10
-186.000000
 20
150.500000
 11
-166.000000
 21
150.500000
  0
LINE
  8
0
  6
CONTINUOUS
 62
7
 10
-186.000000
 20
175.500000
 11
-166.000000
 21
175.500000
  0
LINE
  8
0
  6
CONTINUOUS
 62
7
 10
-166.000000
 20
150.500000
 11
-166.000000
 21
152.000000
  0
LINE
  8
0
  6
CONTINUOUS
 62
7
 10
-148.000000
 20
156.000000
 11
-146.000000
 21
156.000000
  0
LINE
  8
0
  6
CONTINUOUS
 62
7
 10
-148.000000
 20
170.000000
 11
-146.000000
 21
170.000000
  0
LINE
  8
0
  6
CONTINUOUS
 62
2
 10
-148.000000
 20
169.000000
 11
-146.000000
 21
169.000000
  0
LINE
  8
0
  6
CONTINUOUS
 62
7
 10
-166.000000
 20
174.000000
 11
-156.000000
 21
174.000000
  0
LINE
  8
0
  6
CONTINUOUS
 62
7
 10
-166.000000
 20
152.000000
 11
-156.000000
 21
152.000000
  0
LINE
  8
0
  6
CONTINUOUS
 62
7
 10
-166.000000
 20
174.000000
 11
-166.000000
 21
175.500000
  0
LINE
  8
0
  6
CONTINUOUS
 62
7
 10
-148.000000
 20
150.298004
 11
-148.000000
 21
175.701996
  0
LINE
  8
0
  6
CONTINUOUS
 62
7
 10
-156.000000
 20
150.298004
 11
-148.000000
 21
150.298004
  0
LINE
  8
0
  6
CONTINUOUS
 62
7
 10
-156.000000
 20
175.701996
 11
-148.000000
 21
175.701996
  0
LINE
  8
0
  6
CONTINUOUS
 62
7
 10
-146.000000
 20
96.000000
 11
-146.000000
 21
110.000000
  0
LINE
  8
0
  6
CONTINUOUS
 62
7
 10
-156.000000
 20
115.500000
 11
-156.000000
 21
90.500000
  0
LINE
  8
0
  6
CONTINUOUS
 62
7
 10
-186.000000
 20
115.500000
 11
-156.000000
 21
115.500000
  0
LINE
  8
0
  6
CONTINUOUS
 62
7
 10
-186.000000
 20
90.500000
 11
-156.000000
 21
90.500000
  0
LINE
  8
0
  6
CONTINUOUS
 62
7
 10
-166.000000
 20
108.936996
 11
-166.000000
 21
97.062798
  0
LINE
  8
0
  6
CONTINUOUS
 62
7
 10
-166.000000
 20
108.936996
 11
-156.000000
 21
108.936996
  0
LINE
  8
0
  6
CONTINUOUS
 62
7
 10
-166.000000
 20
97.062897
 11
-156.000000
 21
97.062897
  0
LINE
  8
0
  6
CONTINUOUS
 62
2
 10
-166.000000
 20
97.062798
 11
-156.000000
 21
108.936996
  0
LINE
  8
0
  6
CONTINUOUS
 62
2
 10
-166.000000
 20
108.936996
 11
-156.000000
 21
97.062798
  0
LINE
  8
0
  6
CONTINUOUS
 62
7
 10
-148.000000
 20
113.500000
 11
-148.000000
 21
92.500000
  0
LINE
  8
0
  6
CONTINUOUS
 62
7
 10
-155.710999
 20
114.000000
 11
-148.289001
 21
114.000000
  0
LINE
  8
0
  6
CONTINUOUS
 62
7
 10
-156.000000
 20
103.000000
 11
-148.000000
 21
103.000000
  0
LINE
  8
0
  6
CONTINUOUS
 62
7
 10
-155.710999
 20
92.000000
 11
-148.289001
 21
92.000000
  0
LINE
  8
0
  6
CONTINUOUS
 62
7
 10
-148.000000
 20
113.500000
 11
-148.289001
 21
114.000000
  0
LINE
  8
0
  6
CONTINUOUS
 62
7
 10
-148.000000
 20
92.500000
 11
-148.289001
 21
92.000000
  0
LINE
  8
0
  6
CONTINUOUS
 62
7
 10
-156.000000
 20
92.499901
 11
-155.710999
 21
91.999901
  0
LINE
  8
0
  6
CONTINUOUS
 62
7
 10
-156.000000
 20
113.500000
 11
-155.710999
 21
114.000000
  0
LINE
  8
0
  6
CONTINUOUS
 62
7
 10
-148.000000
 20
110.000000
 11
-146.000000
 21
110.000000
  0
LINE
  8
0
  6
CONTINUOUS
 62
7
 10
-148.000000
 20
96.000000
 11
-146.000000
 21
96.000000
  0
LINE
  8
0
  6
CONTINUOUS
 62
2
 10
-148.000000
 20
97.000000
 11
-146.000000
 21
97.000000
  0
LINE
  8
0
  6
CONTINUOUS
 62
2
 10
-148.000000
 20
109.000000
 11
-146.000000
 21
109.000000
  0
LINE
  8
0
  6
CONTINUOUS
 62
7
 10
-146.000000
 20
36.000000
 11
-146.000000
 21
50.000000
  0
LINE
  8
0
  6
CONTINUOUS
 62
7
 10
-156.000000
 20
55.701698
 11
-156.000000
 21
30.298300
  0
LINE
  8
0
  6
CONTINUOUS
 62
7
 10
-186.000000
 20
55.500000
 11
-166.000000
 21
55.500000
  0
LINE
  8
0
  6
CONTINUOUS
 62
7
 10
-186.000000
 20
30.500000
 11
-166.000000
 21
30.500000
  0
LINE
  8
0
  6
CONTINUOUS
 62
7
 10
-166.000000
 20
55.500000
 11
-166.000000
 21
54.000000
  0
LINE
  8
0
  6
CONTINUOUS
 62
7
 10
-148.000000
 20
50.000000
 11
-146.000000
 21
50.000000
  0
LINE
  8
0
  6
CONTINUOUS
 62
7
 10
-148.000000
 20
36.000000
 11
-146.000000
 21
36.000000
  0
LINE
  8
0
  6
CONTINUOUS
 62
2
 10
-148.000000
 20
37.000000
 11
-146.000000
 21
37.000000
  0
LINE
  8
0
  6
CONTINUOUS
 62
2
 10
-148.000000
 20
49.000000
 11
-146.000000
 21
49.000000
  0
LINE
  8
0
  6
CONTINUOUS
 62
7
 10
-166.000000
 20
32.000000
 11
-156.000000
 21
32.000000
  0
LINE
  8
0
  6
CONTINUOUS
 62
7
 10
-166.000000
 20
54.000000
 11
-156.000000
 21
54.000000
  0
LINE
  8
0
  6
CONTINUOUS
 62
7
 10
-166.000000
 20
32.000000
 11
-166.000000
 21
30.500000
  0
LINE
  8
0
  6
CONTINUOUS
 62
7
 10
-148.000000
 20
55.701698
 11
-148.000000
 21
30.298300
  0
LINE
  8
0
  6
CONTINUOUS
 62
7
 10
-156.000000
 20
49.350800
 11
-148.000000
 21
49.350800
  0
LINE
  8
0
  6
CONTINUOUS
 62
7
 10
-156.000000
 20
36.649200
 11
-148.000000
 21
36.649200
  0
LINE
  8
0
  6
CONTINUOUS
 62
7
 10
-156.000000
 20
55.701698
 11
-148.000000
 21
55.701698
  0
LINE
  8
0
  6
CENTER
 62
2
 10
-410.000000
 20
103.000000
 11
-144.000000
 21
103.000000
  0
LINE
  8
0
  6
CENTER
 62
2
 10
-436.000000
 20
125.000000
 11
-426.000000
 21
125.000000
  0
LINE
  8
0
  6
CENTER
 62
2
 10
-436.000000
 20
81.000000
 11
-426.000000
 21
81.000000
  0
LINE
  8
0
  6
CENTER
 62
2
 10
-253.000000
 20
166.500000
 11
-253.000000
 21
159.500000
  0
LINE
  8
0
  6
CENTER
 62
2
 10
-253.000000
 20
138.000000
 11
-253.000000
 21
128.000000
  0
LINE
  8
0
  6
CENTER
 62
2
 10
-304.000000
 20
61.000000
 11
-304.000000
 21
51.000000
  0
LINE
  8
0
  6
CENTER
 62
2
 10
-309.000000
 20
56.000000
 11
-299.000000
 21
56.000000
  0
LINE
  8
0
  6
CENTER
 62
2
 10
-304.000000
 20
35.000000
 11
-304.000000
 21
25.000000
  0
LINE
  8
0
  6
CENTER
 62
2
 10
-309.000000
 20
30.000000
 11
-299.000000
 21
30.000000
  0
LINE
  8
0
  6
CENTER
 62
2
 10
-341.000000
 20
35.000000
 11
-341.000000
 21
25.000000
  0
LINE
  8
0
  6
CENTER
 62
2
 10
-346.000000
 20
30.000000
 11
-336.000000
 21
30.000000
  0
LINE
  8
0
  6
CENTER
 62
2
 10
-341.000000
 20
61.000000
 11
-341.000000
 21
51.000000
  0
LINE
  8
0
  6
CENTER
 62
2
 10
-346.000000
 20
56.000000
 11
-336.000000
 21
56.000000
  0
LINE
  8
0
  6
CENTER
 62
2
 10
-178.000000
 20
-63.500000
 11
-178.000000
 21
-70.500000
  0
LINE
  8
0
  6
CENTER
 62
2
 10
-178.000000
 20
-92.000000
 11
-178.000000
 21
-102.000000
  0
LINE
  8
0
  6
CENTER
 62
2
 10
-218.000000
 20
-169.000000
 11
-218.000000
 21
-179.000000
  0
LINE
  8
0
  6
CENTER
 62
2
 10
-223.000000
 20
-174.000000
 11
-213.000000
 21
-174.000000
  0
LINE
  8
0
  6
CENTER
 62
2
 10
-218.000000
 20
-195.000000
 11
-218.000000
 21
-205.000000
  0
LINE
  8
0
  6
CENTER
 62
2
 10
-223.000000
 20
-200.000000
 11
-213.000000
 21
-200.000000
  0
LINE
  8
0
  6
CENTER
 62
2
 10
-304.000000
 20
-195.000000
 11
-304.000000
 21
-205.000000
  0
LINE
  8
0
  6
CENTER
 62
2
 10
-309.000000
 20
-200.000000
 11
-299.000000
 21
-200.000000
  0
LINE
  8
0
  6
CENTER
 62
2
 10
-304.000000
 20
-169.000000
 11
-304.000000
 21
-179.000000
  0
LINE
  8
0
  6
CENTER
 62
2
 10
-309.000000
 20
-174.000000
 11
-299.000000
 21
-174.000000
  0
LINE
  8
0
  6
CENTER
 62
2
 10
-341.000000
 20
-169.000000
 11
-341.000000
 21
-179.000000
  0
LINE
  8
0
  6
CENTER
 62
2
 10
-346.000000
 20
-174.000000
 11
-336.000000
 21
-174.000000
  0
LINE
  8
0
  6
CENTER
 62
2
 10
-341.000000
 20
-195.000000
 11
-341.000000
 21
-205.000000
  0
LINE
  8
0
  6
CENTER
 62
2
 10
-346.000000
 20
-200.000000
 11
-336.000000
 21
-200.000000
  0
LINE
  8
0
  6
CENTER
 62
2
 10
-409.895996
 20
-127.000000
 11
6.999940
 21
-127.000000
  0
LINE
  8
0
  6
CONTINUOUS
 62
4
 10
267.500000
 20
164.500000
 11
327.500000
 21
164.500000
  0
LINE
  8
0
  6
CONTINUOUS
 62
4
 10
281.500000
 20
189.500000
 11
313.500000
 21
189.500000
  0
LINE
  8
0
  6
CONTINUOUS
 62
4
 10
267.500000
 20
182.000000
 11
281.500000
 21
182.000000
  0
LINE
  8
0
  6
CONTINUOUS
 62
4
 10
267.500000
 20
182.000000
 11
267.500000
 21
164.500000
  0
LINE
  8
0
  6
CONTINUOUS
 62
4
 10
327.500000
 20
182.000000
 11
327.500000
 21
164.500000
  0
LINE
  8
0
  6
CENTER
 62
1
 10
297.500000
 20
191.500000
 11
297.500000
 21
162.500000
  0
LINE
  8
0
  6
CONTINUOUS
 62
4
 10
281.500000
 20
189.500000
 11
281.500000
 21
182.000000
  0
LINE
  8
0
  6
CONTINUOUS
 62
4
 10
313.500000
 20
189.500000
 11
313.500000
 21
182.000000
  0
LINE
  8
0
  6
CONTINUOUS
 62
4
 10
313.500000
 20
182.000000
 11
327.500000
 21
182.000000
  0
LINE
  8
0
  6
CENTER
 62
1
 10
320.500000
 20
184.000000
 11
320.500000
 21
162.500000
  0
LINE
  8
0
  6
CENTER
 62
1
 10
274.500000
 20
184.000000
 11
274.500000
 21
162.500000
  0
LINE
  8
0
  6
DASHED
 62
1
 10
317.100006
 20
182.000000
 11
317.100006
 21
164.500000
  0
LINE
  8
0
  6
DASHED
 62
1
 10
323.899994
 20
182.000000
 11
323.899994
 21
164.500000
  0
LINE
  8
0
  6
CONTINUOUS
 62
4
 10
267.500000
 20
149.500000
 11
327.500000
 21
149.500000
  0
LINE
  8
0
  6
CONTINUOUS
 62
4
 10
267.500000
 20
119.500000
 11
327.500000
 21
119.500000
  0
LINE
  8
0
  6
CONTINUOUS
 62
4
 10
267.500000
 20
149.500000
 11
267.500000
 21
119.500000
  0
LINE
  8
0
  6
CONTINUOUS
 62
4
 10
327.500000
 20
119.500000
 11
327.500000
 21
149.500000
  0
LINE
  8
0
  6
CONTINUOUS
 62
4
 10
347.500000
 20
119.500000
 11
347.500000
 21
149.500000
  0
LINE
  8
0
  6
CONTINUOUS
 62
4
 10
372.500000
 20
119.500000
 11
372.500000
 21
149.500000
  0
LINE
  8
0
  6
CONTINUOUS
 62
4
 10
347.500000
 20
149.500000
 11
372.500000
 21
149.500000
  0
LINE
  8
0
  6
CONTINUOUS
 62
4
 10
347.500000
 20
119.500000
 11
372.500000
 21
119.500000
  0
LINE
  8
0
  6
CENTER
 62
1
 10
345.500000
 20
134.500000
 11
374.500000
 21
134.500000
  0
LINE
  8
0
  6
CONTINUOUS
 62
7
 10
327.500000
 20
-19.500000
 11
337.500000
 21
-19.500000
  0
LINE
  8
0
  6
CONTINUOUS
 62
7
 10
327.500000
 20
-55.500000
 11
337.500000
 21
-55.500000
  0
LINE
  8
0
  6
CONTINUOUS
 62
7
 10
327.500000
 20
-19.500000
 11
327.500000
 21
-55.500000
  0
LINE
  8
0
  6
CENTER
 62
1
 10
279.500000
 20
-37.500000
 11
337.500000
 21
-37.500000
  0
LINE
  8
0
  6
CONTINUOUS
 62
4
 10
308.231995
 20
-45.500000
 11
327.500000
 21
-45.500000
  0
LINE
  8
0
  6
CONTINUOUS
 62
4
 10
308.231995
 20
-29.500000
 11
327.500000
 21
-29.500000
  0
LINE
  8
0
  6
CONTINUOUS
 62
4
 10
282.500000
 20
-30.500000
 11
282.500000
 21
-44.500000
  0
LINE
  8
0
  6
CONTINUOUS
 62
7
 10
327.500000
 20
70.500000
 11
337.500000
 21
70.500000
  0
LINE
  8
0
  6
CONTINUOUS
 62
7
 10
327.500000
 20
34.500000
 11
337.500000
 21
34.500000
  0
LINE
  8
0
  6
CONTINUOUS
 62
7
 10
327.500000
 20
70.500000
 11
327.500000
 21
34.500000
  0
LINE
  8
0
  6
CENTER
 62
1
 10
280.500000
 20
52.500000
 11
337.500000
 21
52.500000
  0
LINE
  8
0
  6
CONTINUOUS
 62
4
 10
282.500000
 20
44.500000
 11
289.500000
 21
44.500000
  0
LINE
  8
0
  6
CONTINUOUS
 62
4
 10
282.500000
 20
60.500000
 11
289.500000
 21
60.500000
  0
LINE
  8
0
  6
CONTINUOUS
 62
4
 10
282.500000
 20
60.500000
 11
282.500000
 21
44.500000
  0
LINE
  8
0
  6
CONTINUOUS
 62
4
 10
289.500000
 20
60.500000
 11
289.500000
 21
59.500000
  0
LINE
  8
0
  6
CONTINUOUS
 62
4
 10
297.000000
 20
60.500000
 11
297.000000
 21
59.500000
  0
LINE
  8
0
  6
CONTINUOUS
 62
4
 10
289.500000
 20
45.500000
 11
297.000000
 21
45.500000
  0
LINE
  8
0
  6
CONTINUOUS
 62
4
 10
289.500000
 20
59.500000
 11
297.000000
 21
59.500000
  0
LINE
  8
0
  6
CONTINUOUS
 62
4
 10
297.000000
 20
45.500000
 11
297.000000
 21
44.500000
  0
LINE
  8
0
  6
CONTINUOUS
 62
4
 10
289.500000
 20
45.500000
 11
289.500000
 21
44.500000
  0
LINE
  8
0
  6
CONTINUOUS
 62
4
 10
297.000000
 20
44.500000
 11
327.500000
 21
44.500000
  0
LINE
  8
0
  6
CONTINUOUS
 62
4
 10
297.000000
 20
60.500000
 11
327.500000
 21
60.500000
  0
LINE
  8
0
  6
DASHED
 62
1
 10
300.500000
 20
58.500000
 11
300.500000
 21
46.500000
  0
LINE
  8
0
  6
DASHED
 62
1
 10
282.500000
 20
46.500000
 11
300.500000
 21
46.500000
  0
LINE
  8
0
  6
DASHED
 62
1
 10
282.500000
 20
58.500000
 11
300.500000
 21
58.500000
  0
LINE
  8
0
  6
DASHED
 62
1
 10
282.500000
 20
57.553001
 11
306.500000
 21
57.553001
  0
LINE
  8
0
  6
DASHED
 62
1
 10
282.500000
 20
47.446999
 11
306.500000
 21
47.446999
  0
LINE
  8
0
  6
CONTINUOUS
 62
4
 10
303.500000
 20
-30.500000
 11
303.500000
 21
-44.500000
  0
LINE
  8
0
  6
CONTINUOUS
 62
4
 10
306.500000
 20
-30.500000
 11
306.500000
 21
-44.500000
  0
LINE
  8
0
  6
CONTINUOUS
 62
4
 10
314.000000
 20
-33.626999
 11
314.000000
 21
-41.373001
  0
LINE
  8
0
  6
CONTINUOUS
 62
4
 10
282.500000
 20
-44.500000
 11
291.500000
 21
-44.500000
  0
LINE
  8
0
  6
CONTINUOUS
 62
4
 10
282.500000
 20
-30.500000
 11
291.500000
 21
-30.500000
  0
LINE
  8
0
  6
CONTINUOUS
 62
1
 10
282.500000
 20
-31.582500
 11
291.500000
 21
-31.582500
  0
LINE
  8
0
  6
CONTINUOUS
 62
1
 10
282.500000
 20
-43.417500
 11
291.500000
 21
-43.417500
  0
LINE
  8
0
  6
CONTINUOUS
 62
4
 10
306.500000
 20
-30.499800
 11
308.231995
 21
-29.499701
  0
LINE
  8
0
  6
CONTINUOUS
 62
4
 10
306.500000
 20
-44.499802
 11
308.231995
 21
-45.499802
  0
LINE
  8
0
  6
CONTINUOUS
 62
4
 10
308.234009
 20
-45.500000
 11
308.234009
 21
-41.373001
  0
LINE
  8
0
  6
CENTER
 62
1
 10
320.250000
 20
-9.499950
 11
300.250000
 21
-9.499950
  0
LINE
  8
0
  6
CENTER
 62
1
 10
310.250000
 20
0.500046
 11
310.250000
 21
-19.500000
  0
LINE
  8
0
  6
CONTINUOUS
 62
4
 10
317.250000
 20
-5.626970
 11
317.250000
 21
-13.372900
  0
LINE
  8
0
  6
CONTINUOUS
 62
4
 10
303.250000
 20
-5.626970
 11
303.250000
 21
-13.372900
  0
LINE
  8
0
  6
CONTINUOUS
 62
4
 10
306.500000
 20
-33.626999
 11
314.000000
 21
-33.626999
  0
LINE
  8
0
  6
CONTINUOUS
 62
4
 10
306.500000
 20
-41.373001
 11
314.000000
 21
-41.373001
  0
LINE
  8
0
  6
CONTINUOUS
 62
4
 10
308.234009
 20
-33.626999
 11
308.234009
 21
-29.500000
  0
LINE
  8
0
  6
CONTINUOUS
 62
1
 10
306.501007
 20
-41.373402
 11
314.000000
 21
-33.627399
  0
LINE
  8
0
  6
CONTINUOUS
 62
1
 10
306.500000
 20
-33.627201
 11
314.000000
 21
-41.373199
  0
LINE
  8
0
  6
DASHED
 62
1
 10
306.500000
 20
57.553001
 11
306.500000
 21
47.446999
  0
LINE
  8
0
  6
CENTER
 62
1
 10
303.250000
 20
80.500000
 11
283.250000
 21
80.500000
  0
LINE
  8
0
  6
CENTER
 62
1
 10
293.250000
 20
90.500000
 11
293.250000
 21
70.500000
  0
LINE
  8
0
  6
CONTINUOUS
 62
4
 10
297.122986
 20
87.500000
 11
289.377014
 21
87.500000
  0
LINE
  8
0
  6
CONTINUOUS
 62
4
 10
297.122986
 20
73.500000
 11
289.377014
 21
73.500000
  0
LINE
  8
0
  6
CONTINUOUS
 62
4
 10
291.500000
 20
-50.201599
 11
299.500000
 21
-50.201599
  0
LINE
  8
0
  6
CONTINUOUS
 62
4
 10
299.500000
 20
-24.798300
 11
299.500000
 21
-50.201599
  0
LINE
  8
0
  6
CONTINUOUS
 62
4
 10
291.500000
 20
-24.798300
 11
291.500000
 21
-50.201599
  0
LINE
  8
0
  6
CONTINUOUS
 62
4
 10
291.500000
 20
-43.850800
 11
299.500000
 21
-43.850800
  0
LINE
  8
0
  6
CONTINUOUS
 62
4
 10
291.500000
 20
-24.798300
 11
299.500000
 21
-24.798300
  0
LINE
  8
0
  6
CONTINUOUS
 62
4
 10
291.500000
 20
-31.149099
 11
299.500000
 21
-31.149099
  0
LINE
  8
0
  6
CONTINUOUS
 62
1
 10
299.500000
 20
-43.417500
 11
303.500000
 21
-43.417500
  0
LINE
  8
0
  6
CONTINUOUS
 62
4
 10
299.500000
 20
-44.500000
 11
306.500000
 21
-44.500000
  0
LINE
  8
0
  6
CONTINUOUS
 62
1
 10
299.500000
 20
-31.582500
 11
303.500000
 21
-31.582500
  0
LINE
  8
0
  6
CONTINUOUS
 62
4
 10
299.500000
 20
-30.500000
 11
306.500000
 21
-30.500000
  0
LINE
  8
0
  6
CONTINUOUS
 62
4
 10
365.000000
 20
119.500000
 11
365.000000
 21
149.500000
  0
LINE
  8
0
  6
CENTER
 62
1
 10
274.500000
 20
148.399994
 11
274.500000
 21
137.600006
  0
LINE
  8
0
  6
CENTER
 62
1
 10
269.100006
 20
143.000000
 11
279.899994
 21
143.000000
  0
LINE
  8
0
  6
CENTER
 62
1
 10
297.500000
 20
144.500000
 11
297.500000
 21
124.500000
  0
LINE
  8
0
  6
CENTER
 62
1
 10
287.500000
 20
134.500000
 11
307.500000
 21
134.500000
  0
LINE
  8
0
  6
CENTER
 62
1
 10
320.500000
 20
148.399994
 11
320.500000
 21
137.600006
  0
LINE
  8
0
  6
CENTER
 62
1
 10
315.100006
 20
143.000000
 11
325.899994
 21
143.000000
  0
LINE
  8
0
  6
CENTER
 62
1
 10
320.500000
 20
131.399994
 11
320.500000
 21
120.599998
  0
LINE
  8
0
  6
CENTER
 62
1
 10
315.100006
 20
126.000000
 11
325.899994
 21
126.000000
  0
LINE
  8
0
  6
CENTER
 62
1
 10
274.500000
 20
131.399994
 11
274.500000
 21
120.599998
  0
LINE
  8
0
  6
CENTER
 62
1
 10
269.100006
 20
126.000000
 11
279.899994
 21
126.000000
  0
LINE
  8
0
  6
CENTER
 62
1
 10
305.931000
 20
-147.500000
 11
412.931000
 21
-147.500000
  0
LINE
  8
0
  6
CONTINUOUS
 62
7
 10
402.931000
 20
-174.500000
 11
402.931000
 21
-120.500000
  0
LINE
  8
0
  6
CONTINUOUS
 62
7
 10
402.931000
 20
-174.500000
 11
412.931000
 21
-174.500000
  0
LINE
  8
0
  6
CONTINUOUS
 62
7
 10
402.931000
 20
-120.500000
 11
412.931000
 21
-120.500000
  0
LINE
  8
0
  6
CONTINUOUS
 62
2
 10
402.931000
 20
-130.199997
 11
412.931000
 21
-130.199997
  0
LINE
  8
0
  6
CONTINUOUS
 62
2
 10
402.931000
 20
-132.800003
 11
412.931000
 21
-132.800003
  0
LINE
  8
0
  6
CONTINUOUS
 62
2
 10
402.931000
 20
-162.199997
 11
412.931000
 21
-162.199997
  0
LINE
  8
0
  6
CONTINUOUS
 62
2
 10
402.931000
 20
-164.800003
 11
412.931000
 21
-164.800003
  0
LINE
  8
0
  6
CONTINUOUS
 62
4
 10
307.931000
 20
-155.500000
 11
331.931000
 21
-155.500000
  0
LINE
  8
0
  6
CONTINUOUS
 62
4
 10
307.931000
 20
-139.500000
 11
331.931000
 21
-139.500000
  0
LINE
  8
0
  6
CONTINUOUS
 62
4
 10
307.931000
 20
-139.500000
 11
307.931000
 21
-155.500000
  0
LINE
  8
0
  6
CONTINUOUS
 62
4
 10
331.931000
 20
-132.000000
 11
331.931000
 21
-163.000000
  0
LINE
  8
0
  6
CONTINUOUS
 62
4
 10
331.931000
 20
-132.000000
 11
381.931000
 21
-132.000000
  0
LINE
  8
0
  6
CONTINUOUS
 62
4
 10
381.931000
 20
-163.000000
 11
331.931000
 21
-163.000000
  0
LINE
  8
0
  6
CONTINUOUS
 62
4
 10
381.931000
 20
-163.000000
 11
381.931000
 21
-132.000000
  0
LINE
  8
0
  6
CONTINUOUS
 62
4
 10
381.931000
 20
-139.500000
 11
402.931000
 21
-139.500000
  0
LINE
  8
0
  6
CONTINUOUS
 62
4
 10
381.931000
 20
-155.500000
 11
402.931000
 21
-155.500000
  0
LINE
  8
0
  6
DASHED
 62
1
 10
307.931000
 20
-151.500000
 11
320.931000
 21
-151.500000
  0
LINE
  8
0
  6
DASHED
 62
1
 10
307.931000
 20
-143.500000
 11
320.931000
 21
-143.500000
  0
LINE
  8
0
  6
DASHED
 62
1
 10
320.931000
 20
-143.500000
 11
320.931000
 21
-151.500000
  0
LINE
  8
0
  6
DASHED
 62
1
 10
323.931000
 20
-144.175995
 11
323.931000
 21
-150.822998
  0
LINE
  8
0
  6
DASHED
 62
1
 10
348.181000
 20
-134.000000
 11
365.681000
 21
-134.000000
  0
LINE
  8
0
  6
DASHED
 62
1
 10
348.181000
 20
-132.000000
 11
348.181000
 21
-134.000000
  0
LINE
  8
0
  6
DASHED
 62
1
 10
365.681000
 20
-134.000000
 11
365.681000
 21
-132.000000
  0
LINE
  8
0
  6
DASHED
 62
1
 10
266.181000
 20
-132.098999
 11
266.181000
 21
-134.000000
  0
LINE
  8
0
  6
DASHED
 62
1
 10
266.181000
 20
-134.000000
 11
269.681000
 21
-134.000000
  0
LINE
  8
0
  6
DASHED
 62
1
 10
269.681000
 20
-132.098999
 11
269.681000
 21
-134.000000
  0
LINE
  8
0
  6
CENTER
 62
1
 10
268.875000
 20
-129.485001
 11
267.931000
 21
-147.500000
  0
LINE
  8
0
  6
CENTER
 62
1
 10
249.891006
 20
-147.500000
 11
285.971008
 21
-147.500000
  0
LINE
  8
0
  6
DASHED
 62
1
 10
307.931000
 20
-144.175995
 11
323.931000
 21
-144.175995
  0
LINE
  8
0
  6
DASHED
 62
1
 10
307.931000
 20
-150.822998
 11
323.931000
 21
-150.822998
  0
LINE
  8
0
  6
CONTINUOUS
 62
4
 10
349.931000
 20
-110.250000
 11
363.931000
 21
-110.250000
  0
LINE
  8
0
  6
CONTINUOUS
 62
4
 10
349.931000
 20
-113.750000
 11
363.931000
 21
-113.750000
  0
LINE
  8
0
  6
CENTER
 62
1
 10
346.181000
 20
-112.000000
 11
367.681000
 21
-112.000000
  0
LINE
  8
0
  6
CENTER
 62
1
 10
267.931000
 20
-129.460007
 11
267.931000
 21
-165.539993
  0
LINE
  8
0
  6
CENTER
 62
1
 10
266.987000
 20
-129.485001
 11
267.931000
 21
-147.500000
  0
LINE
  8
0
  6
CENTER
 62
1
 10
441.053009
 20
-84.018600
 11
420.106995
 21
-84.018600
  0
LINE
  8
0
  6
CENTER
 62
1
 10
405.557007
 20
-91.768600
 11
405.557007
 21
-99.268600
  0
LINE
  8
0
  6
CONTINUOUS
 62
4
 10
407.307007
 20
-93.768600
 11
407.307007
 21
-97.268600
  0
LINE
  8
0
  6
CONTINUOUS
 62
4
 10
403.807007
 20
-93.768600
 11
403.807007
 21
-97.268600
  0
LINE
  8
0
  6
CONTINUOUS
 62
4
 10
403.807007
 20
-97.268600
 11
407.307007
 21
-97.268600
  0
LINE
  8
0
  6
CONTINUOUS
 62
4
 10
403.807007
 20
-93.768600
 11
407.307007
 21
-93.768600
  0
LINE
  8
0
  6
CONTINUOUS
 62
4
 10
439.807007
 20
-97.268600
 11
422.307007
 21
-97.268600
  0
LINE
  8
0
  6
CONTINUOUS
 62
4
 10
439.807007
 20
-93.768600
 11
422.307007
 21
-93.768600
  0
LINE
  8
0
  6
CONTINUOUS
 62
4
 10
438.057007
 20
-82.268600
 11
424.057007
 21
-82.268600
  0
LINE
  8
0
  6
CONTINUOUS
 62
4
 10
438.057007
 20
-85.768600
 11
424.057007
 21
-85.768600
  0
LINE
  8
0
  6
CONTINUOUS
 62
4
 10
422.307007
 20
-93.768600
 11
422.307007
 21
-97.268600
  0
LINE
  8
0
  6
CONTINUOUS
 62
4
 10
439.807007
 20
-93.768600
 11
439.807007
 21
-97.268600
  0
CIRCLE
  8
0
  6
CONTINUOUS
 62
7
 10
-304.000000
 20
30.000000
 40
2.500000
  0
CIRCLE
  8
0
  6
CONTINUOUS
 62
7
 10
-341.000000
 20
56.000000
 40
2.500000
  0
CIRCLE
  8
0
  6
CONTINUOUS
 62
7
 10
-341.000000
 20
30.000000
 40
2.500000
  0
CIRCLE
  8
0
  6
CONTINUOUS
 62
7
 10
-304.000000
 20
56.000000
 40
2.500000
  0
CIRCLE
  8
0
  6
CONTINUOUS
 62
2
 10
-341.000000
 20
56.000000
 40
3.000000
  0
CIRCLE
  8
0
  6
CONTINUOUS
 62
2
 10
-304.000000
 20
56.000000
 40
3.000000
  0
CIRCLE
  8
0
  6
CONTINUOUS
 62
2
 10
-304.000000
 20
30.000000
 40
3.000000
  0
CIRCLE
  8
0
  6
CONTINUOUS
 62
2
 10
-341.000000
 20
30.000000
 40
3.000000
  0
CIRCLE
  8
0
  6
CONTINUOUS
 62
7
 10
-233.000000
 20
157.000000
 40
4.300000
  0
CIRCLE
  8
0
  6
CONTINUOUS
 62
2
 10
-233.000000
 20
157.000000
 40
4.900000
  0
CIRCLE
  8
0
  6
CONTINUOUS
 62
7
 10
-301.000000
 20
169.000000
 40
4.300000
  0
CIRCLE
  8
0
  6
CONTINUOUS
 62
2
 10
-301.000000
 20
169.000000
 40
4.900000
  0
CIRCLE
  8
0
  6
CONTINUOUS
 62
7
 10
-431.000000
 20
125.000000
 40
2.500000
  0
CIRCLE
  8
0
  6
CONTINUOUS
 62
2
 10
-431.000000
 20
125.000000
 40
3.000000
  0
CIRCLE
  8
0
  6
CONTINUOUS
 62
7
 10
-431.000000
 20
81.000000
 40
2.500000
  0
CIRCLE
  8
0
  6
CONTINUOUS
 62
2
 10
-431.000000
 20
81.000000
 40
3.000000
  0
ARC
  8
0
  6
CONTINUOUS
 62
2
 10
-417.799988
 20
119.650002
 40
1.500000
 50
90.000000
 51
180.000000
  0
ARC
  8
0
  6
CONTINUOUS
 62
2
 10
-417.799988
 20
118.349998
 40
1.500000
 50
180.000000
 51
270.000000
  0
CIRCLE
  8
0
  6
CONTINUOUS
 62
7
 10
-431.000000
 20
103.000000
 40
8.000000
  0
CIRCLE
  8
0
  6
CONTINUOUS
 62
7
 10
-314.000000
 20
124.000000
 40
5.250000
  0
CIRCLE
  8
0
  6
CONTINUOUS
 62
7
 10
-351.000000
 20
124.000000
 40
5.250000
  0
CIRCLE
  8
0
  6
CONTINUOUS
 62
7
 10
-351.000000
 20
82.000000
 40
5.250000
  0
CIRCLE
  8
0
  6
CONTINUOUS
 62
7
 10
-314.000000
 20
82.000000
 40
5.250000
  0
CIRCLE
  8
0
  6
CONTINUOUS
 62
2
 10
-351.000000
 20
124.000000
 40
4.000000
  0
CIRCLE
  8
0
  6
CONTINUOUS
 62
2
 10
-314.000000
 20
124.000000
 40
4.000000
  0
CIRCLE
  8
0
  6
CONTINUOUS
 62
2
 10
-314.000000
 20
82.000000
 40
4.000000
  0
CIRCLE
  8
0
  6
CONTINUOUS
 62
2
 10
-351.000000
 20
82.000000
 40
4.000000
  0
ARC
  8
0
  6
CONTINUOUS
 62
2
 10
45.199902
 20
-110.349998
 40
1.500000
 50
90.000000
 51
180.000000
  0
ARC
  8
0
  6
CONTINUOUS
 62
2
 10
45.199902
 20
-111.650002
 40
1.500000
 50
180.000000
 51
270.000000
  0
CIRCLE
  8
0
  6
CONTINUOUS
 62
7
 10
-218.000000
 20
-200.000000
 40
2.500000
  0
CIRCLE
  8
0
  6
CONTINUOUS
 62
7
 10
-341.000000
 20
-174.000000
 40
2.500000
  0
CIRCLE
  8
0
  6
CONTINUOUS
 62
7
 10
-341.000000
 20
-200.000000
 40
2.500000
  0
CIRCLE
  8
0
  6
CONTINUOUS
 62
7
 10
-218.000000
 20
-174.000000
 40
2.500000
  0
CIRCLE
  8
0
  6
CONTINUOUS
 62
2
 10
-341.000000
 20
-174.000000
 40
3.000000
  0
CIRCLE
  8
0
  6
CONTINUOUS
 62
2
 10
-218.000000
 20
-174.000000
 40
3.000000
  0
CIRCLE
  8
0
  6
CONTINUOUS
 62
2
 10
-218.000000
 20
-200.000000
 40
3.000000
  0
CIRCLE
  8
0
  6
CONTINUOUS
 62
2
 10
-341.000000
 20
-200.000000
 40
3.000000
  0
CIRCLE
  8
0
  6
CONTINUOUS
 62
7
 10
-431.000000
 20
-105.000000
 40
2.500000
  0
CIRCLE
  8
0
  6
CONTINUOUS
 62
2
 10
-431.000000
 20
-105.000000
 40
3.000000
  0
CIRCLE
  8
0
  6
CONTINUOUS
 62
7
 10
-431.000000
 20
-149.000000
 40
2.500000
  0
CIRCLE
  8
0
  6
CONTINUOUS
 62
2
 10
-431.000000
 20
-149.000000
 40
3.000000
  0
ARC
  8
0
  6
CONTINUOUS
 62
2
 10
-417.799988
 20
-110.349998
 40
1.500000
 50
90.000000
 51
180.000000
  0
ARC
  8
0
  6
CONTINUOUS
 62
2
 10
-417.799988
 20
-111.650002
 40
1.500000
 50
180.000000
 51
270.000000
  0
CIRCLE
  8
0
  6
CONTINUOUS
 62
7
 10
-431.000000
 20
-127.000000
 40
8.000000
  0
CIRCLE
  8
0
  6
CONTINUOUS
 62
7
 10
-228.000000
 20
-106.000000
 40
5.250000
  0
CIRCLE
  8
0
  6
CONTINUOUS
 62
7
 10
-351.000000
 20
-106.000000
 40
5.250000
  0
CIRCLE
  8
0
  6
CONTINUOUS
 62
7
 10
-351.000000
 20
-148.000000
 40
5.250000
  0
CIRCLE
  8
0
  6
CONTINUOUS
 62
7
 10
-228.000000
 20
-148.000000
 40
5.250000
  0
CIRCLE
  8
0
  6
CONTINUOUS
 62
2
 10
-351.000000
 20
-106.000000
 40
4.000000
  0
CIRCLE
  8
0
  6
CONTINUOUS
 62
2
 10
-228.000000
 20
-106.000000
 40
4.000000
  0
CIRCLE
  8
0
  6
CONTINUOUS
 62
2
 10
-228.000000
 20
-148.000000
 40
4.000000
  0
CIRCLE
  8
0
  6
CONTINUOUS
 62
2
 10
-351.000000
 20
-148.000000
 40
4.000000
  0
CIRCLE
  8
0
  6
CONTINUOUS
 62
7
 10
-314.000000
 20
-148.000000
 40
5.250000
  0
CIRCLE
  8
0
  6
CONTINUOUS
 62
2
 10
-314.000000
 20
-148.000000
 40
4.000000
  0
CIRCLE
  8
0
  6
CONTINUOUS
 62
7
 10
-314.000000
 20
-106.000000
 40
5.250000
  0
CIRCLE
  8
0
  6
CONTINUOUS
 62
2
 10
-314.000000
 20
-106.000000
 40
4.000000
  0
CIRCLE
  8
0
  6
CONTINUOUS
 62
2
 10
-304.000000
 20
-200.000000
 40
3.000000
  0
CIRCLE
  8
0
  6
CONTINUOUS
 62
7
 10
-304.000000
 20
-200.000000
 40
2.500000
  0
CIRCLE
  8
0
  6
CONTINUOUS
 62
2
 10
-304.000000
 20
-174.000000
 40
3.000000
  0
CIRCLE
  8
0
  6
CONTINUOUS
 62
7
 10
-158.000000
 20
-73.000000
 40
4.300000
  0
CIRCLE
  8
0
  6
CONTINUOUS
 62
2
 10
-158.000000
 20
-73.000000
 40
4.900000
  0
CIRCLE
  8
0
  6
CONTINUOUS
 62
7
 10
-301.000000
 20
-61.000000
 40
4.300000
  0
CIRCLE
  8
0
  6
CONTINUOUS
 62
2
 10
-301.000000
 20
-61.000000
 40
4.900000
  0
CIRCLE
  8
0
  6
CONTINUOUS
 62
7
 10
-253.000000
 20
163.000000
 40
1.500000
  0
CIRCLE
  8
0
  6
CONTINUOUS
 62
7
 10
-178.000000
 20
-67.000000
 40
1.500000
  0
ARC
  8
0
  6
CONTINUOUS
 62
7
 10
31.999901
 20
-127.000000
 40
12.500000
 50
121.641998
 51
178.358002
  0
ARC
  8
0
  6
CONTINUOUS
 62
7
 10
31.999901
 20
-127.000000
 40
12.500000
 50
301.643005
 51
358.356995
  0
ARC
  8
0
  6
CONTINUOUS
 62
7
 10
31.999901
 20
-127.000000
 40
12.500000
 50
1.642370
 51
58.357601
  0
ARC
  8
0
  6
CONTINUOUS
 62
7
 10
31.999901
 20
-127.000000
 40
12.500000
 50
61.642300
 51
118.358002
  0
ARC
  8
0
  6
CONTINUOUS
 62
7
 10
31.999901
 20
-127.000000
 40
12.500000
 50
181.641998
 51
238.358002
  0
ARC
  8
0
  6
CONTINUOUS
 62
7
 10
31.999901
 20
-127.000000
 40
12.500000
 50
241.641998
 51
298.358002
  0
ARC
  8
0
  6
CONTINUOUS
 62
2
 10
-104.800003
 20
119.650002
 40
1.500000
 50
90.000000
 51
180.000000
  0
ARC
  8
0
  6
CONTINUOUS
 62
2
 10
-104.800003
 20
118.349998
 40
1.500000
 50
180.000000
 51
270.000000
  0
ARC
  8
0
  6
CONTINUOUS
 62
7
 10
-118.000000
 20
103.000000
 40
12.500000
 50
121.641998
 51
178.358002
  0
ARC
  8
0
  6
CONTINUOUS
 62
7
 10
-118.000000
 20
103.000000
 40
12.500000
 50
301.643005
 51
358.356995
  0
ARC
  8
0
  6
CONTINUOUS
 62
7
 10
-118.000000
 20
103.000000
 40
12.500000
 50
1.642370
 51
58.357601
  0
ARC
  8
0
  6
CONTINUOUS
 62
7
 10
-118.000000
 20
103.000000
 40
12.500000
 50
61.642399
 51
118.358002
  0
ARC
  8
0
  6
CONTINUOUS
 62
7
 10
-118.000000
 20
103.000000
 40
12.500000
 50
181.641998
 51
238.358002
  0
ARC
  8
0
  6
CONTINUOUS
 62
7
 10
-118.000000
 20
103.000000
 40
12.500000
 50
241.641998
 51
298.358002
  0
CIRCLE
  8
0
  6
CONTINUOUS
 62
7
 10
-118.000000
 20
103.000000
 40
7.000000
  0
CIRCLE
  8
0
  6
CONTINUOUS
 62
2
 10
-118.000000
 20
103.000000
 40
6.000000
  0
CIRCLE
  8
0
  6
CONTINUOUS
 62
2
 10
31.999901
 20
-127.000000
 40
6.000000
  0
CIRCLE
  8
0
  6
CONTINUOUS
 62
7
 10
31.999901
 20
-127.000000
 40
7.000000
  0
CIRCLE
  8
0
  6
CONTINUOUS
 62
7
 10
-351.000000
 20
124.000000
 40
3.400000
  0
CIRCLE
  8
0
  6
CONTINUOUS
 62
7
 10
-314.000000
 20
124.000000
 40
3.400000
  0
CIRCLE
  8
0
  6
CONTINUOUS
 62
7
 10
-314.000000
 20
82.000000
 40
3.400000
  0
CIRCLE
  8
0
  6
CONTINUOUS
 62
7
 10
-351.000000
 20
82.000000
 40
3.400000
  0
CIRCLE
  8
0
  6
CONTINUOUS
 62
7
 10
-304.000000
 20
-174.000000
 40
2.500000
  0
CIRCLE
  8
0
  6
CONTINUOUS
 62
7
 10
-228.000000
 20
-106.000000
 40
3.400000
  0
CIRCLE
  8
0
  6
CONTINUOUS
 62
7
 10
-228.000000
 20
-148.000000
 40
3.400000
  0
CIRCLE
  8
0
  6
CONTINUOUS
 62
7
 10
-314.000000
 20
-148.000000
 40
3.400000
  0
CIRCLE
  8
0
  6
CONTINUOUS
 62
7
 10
-314.000000
 20
-106.000000
 40
3.400000
  0
CIRCLE
  8
0
  6
CONTINUOUS
 62
7
 10
-351.000000
 20
-106.000000
 40
3.400000
  0
CIRCLE
  8
0
  6
CONTINUOUS
 62
7
 10
-351.000000
 20
-148.000000
 40
3.400000
  0
CIRCLE
  8
0
  6
CONTINUOUS
 62
4
 10
297.500000
 20
134.500000
 40
8.000000
  0
CIRCLE
  8
0
  6
CONTINUOUS
 62
4
 10
320.500000
 20
143.000000
 40
3.400000
  0
CIRCLE
  8
0
  6
CONTINUOUS
 62
4
 10
320.500000
 20
126.000000
 40
3.400000
  0
CIRCLE
  8
0
  6
CONTINUOUS
 62
4
 10
274.500000
 20
126.000000
 40
3.400000
  0
CIRCLE
  8
0
  6
CONTINUOUS
 62
4
 10
274.500000
 20
143.000000
 40
3.400000
  0
CIRCLE
  8
0
  6
CONTINUOUS
 62
4
 10
310.250000
 20
-9.499950
 40
8.000000
  0
CIRCLE
  8
0
  6
CONTINUOUS
 62
4
 10
293.250000
 20
80.500000
 40
8.000000
  0
CIRCLE
  8
0
  6
CONTINUOUS
 62
4
 10
267.931000
 20
-147.500000
 40
15.500000
  0
CIRCLE
  8
0
  6
CONTINUOUS
 62
4
 10
267.931000
 20
-147.500000
 40
8.000000
  0
CIRCLE
  8
0
  6
CONTINUOUS
 62
1
 10
267.931000
 20
-147.500000
 40
4.000000
  0
CIRCLE
  8
0
  6
CONTINUOUS
 62
4
 10
267.931000
 20
-147.500000
 40
3.323500
  0
ARC
  8
0
  6
CONTINUOUS
 62
4
 10
349.931000
 20
-112.000000
 40
1.750000
 50
90.000000
 51
270.000000
  0
ARC
  8
0
  6
CONTINUOUS
 62
4
 10
363.931000
 20
-112.000000
 40
1.750000
 50
270.000000
 51
90.000000
  0
ARC
  8
0
  6
CONTINUOUS
 62
4
 10
424.057007
 20
-84.018600
 40
1.750000
 50
90.000000
 51
270.000000
  0
ARC
  8
0
  6
CONTINUOUS
 62
4
 10
438.057007
 20
-84.018600
 40
1.750000
 50
270.000000
 51
90.000000
  0
TEXT
  8
0
 62
7
 10
-540.750793
 20
337.375000
 40
12.500000
  1
MODEL:AXAHS-SD30-25-ZE-R***
 50
0.000000
 41
0.755062
 51
0.000000
  7
STANDARD
  0
TEXT
  8
0
 62
7
 10
421.464844
 20
382.375000
 40
12.500000
  1
Ver.1.0
 50
0.000000
 41
1.010331
 51
0.000000
  7
STANDARD
  0
TEXT
  8
0
 62
7
 10
355.729370
 20
-390.000000
 40
18.000000
  1
KOGANEI CORP.
 50
0.000000
 41
0.771525
 51
0.000000
  7
STANDARD
  0
TEXT
  8
0
 62
7
 10
-512.535156
 20
382.375000
 40
12.500000
  1
AX CYLINDER
 50
0.000000
 41
0.783349
 51
0.000000
  7
STANDARD
  0
TEXT
  8
0
 62
7
 10
-212.199997
 20
181.000000
 40
3.200000
  1
25st
 50
90.000000
 41
0.857250
 51
0.000000
  7
STANDARD
  0
TEXT
  8
0
 62
7
 10
-187.199997
 20
181.000000
 40
3.200000
  1
50st
 50
90.000000
 41
0.907676
 51
0.000000
  7
STANDARD
  0
TEXT
  8
0
 62
7
 10
-162.199997
 20
181.000000
 40
3.200000
  1
75st
 50
90.000000
 41
0.857250
 51
0.000000
  7
STANDARD
  0
TEXT
  8
0
 62
7
 10
-137.199997
 20
-49.000000
 40
3.200000
  1
100st
 50
90.000000
 41
0.985838
 51
0.000000
  7
STANDARD
  0
TEXT
  8
0
 62
7
 10
-87.200096
 20
-49.000000
 40
3.200000
  1
150st
 50
90.000000
 41
0.938893
 51
0.000000
  7
STANDARD
  0
TEXT
  8
0
 62
7
 10
-62.200100
 20
-49.000000
 40
3.200000
  1
175st
 50
90.000000
 41
0.896216
 51
0.000000
  7
STANDARD
  0
TEXT
  8
0
 62
7
 10
-37.200100
 20
-49.000000
 40
3.200000
  1
200st
 50
90.000000
 41
0.896216
 51
0.000000
  7
STANDARD
  0
TEXT
  8
0
 62
7
 10
4.799940
 20
-60.000000
 40
3.200000
  1
100st
 50
90.000000
 41
0.985838
 51
0.000000
  7
STANDARD
  0
TEXT
  8
0
 62
7
 10
104.800003
 20
-60.000000
 40
3.200000
  1
150st
 50
90.000000
 41
0.938893
 51
0.000000
  7
STANDARD
  0
TEXT
  8
0
 62
7
 10
154.800003
 20
-60.000000
 40
3.200000
  1
175st
 50
90.000000
 41
0.896216
 51
0.000000
  7
STANDARD
  0
TEXT
  8
0
 62
7
 10
204.800003
 20
-60.000000
 40
3.200000
  1
200st
 50
90.000000
 41
0.896216
 51
0.000000
  7
STANDARD
  0
TEXT
  8
0
 62
7
 10
-145.199997
 20
170.000000
 40
3.200000
  1
25st
 50
90.000000
 41
0.857250
 51
0.000000
  7
STANDARD
  0
TEXT
  8
0
 62
7
 10
-95.200096
 20
170.000000
 40
3.200000
  1
50st
 50
90.000000
 41
0.907676
 51
0.000000
  7
STANDARD
  0
TEXT
  8
0
 62
7
 10
-45.200100
 20
170.000000
 40
3.200000
  1
75st
 50
90.000000
 41
0.857250
 51
0.000000
  7
STANDARD
  0
TEXT
  8
0
 62
7
 10
54.799900
 20
-60.000000
 40
3.200000
  1
125st
 50
90.000000
 41
0.896216
 51
0.000000
  7
STANDARD
  0
TEXT
  8
0
 62
7
 10
-112.199997
 20
-49.000000
 40
3.200000
  1
125st
 50
90.000000
 41
0.896216
 51
0.000000
  7
STANDARD
  0
TEXT
  8
0
 62
7
 10
250.399551
 20
210.699997
 40
7.200000
  1
OPTION
 50
0.000000
 41
0.857250
 51
0.000000
  7
STANDARD
  0
TEXT
  8
0
 62
7
 10
275.703064
 20
103.349998
 40
4.600000
  1
ZT(FLANGE ROD END)
 50
0.000000
 41
0.754379
 51
0.000000
  7
STANDARD
  0
TEXT
  8
0
 62
7
 10
273.403076
 20
18.350000
 40
4.600000
  1
WS(INTERNAL THREAD)
 50
0.000000
 41
0.752114
 51
0.000000
  7
STANDARD
  0
TEXT
  8
0
 62
7
 10
273.403076
 20
-71.650002
 40
4.600000
  1
WT(EXTERNAL THREAD)
 50
0.000000
 41
0.738186
 51
0.000000
  7
STANDARD
  0
TEXT
  8
0
 62
7
 10
390.031006
 20
-87.900002
 40
4.800000
  1
KEY
 50
0.000000
 41
0.928571
 51
0.000000
  7
STANDARD
  0
TEXT
  8
0
 62
7
 10
266.902863
 20
-191.800003
 40
4.600000
  1
      FOR FLOATING UNIT)
 50
0.000000
 41
0.754799
 51
0.000000
  7
STANDARD
  0
TEXT
  8
0
 62
7
 10
268.402863
 20
-183.800003
 40
4.600000
  1
FN(WITH BEARING NUT
 50
0.000000
 41
0.766485
 51
0.000000
  7
STANDARD
  0
TEXT
  8
0
 62
7
 10
251.330994
 20
-105.400002
 40
3.200000
  1
(KEYWAY
 50
0.000000
 41
0.766485
 51
0.000000
  7
STANDARD
  0
TEXT
  8
0
 62
7
 10
251.330994
 20
-108.599998
 40
3.200000
  1
  POSITION)
 50
0.000000
 41
0.766485
 51
0.000000
  7
STANDARD
  0
DIMENSION
  8
0
  2
*DIM0
 62
2
  10
299.931000
 20
-132.000000
 30
0.0
 11
299.931000
 21
-147.500000
 31
0.0
  13
331.931000
 23
-132.000000
 33
0.0
14
331.931000
 24
-163.000000
 34
0.0
 70
1
 50
90
  0
DIMENSION
  8
0
  2
*DIM1
 62
2
 10
266.518005
 20
-120.537003
 30
0.0
 11
259.931000
 21
-120.800003
 31
0.0
 13
269.343994
 23
-120.537003
 33
0.0
 14
268.875000
 24
-129.485001
 34
0.0
  15
266.987000
 25
-129.485001
 35
0.0
 16
269.265564
 26
-122.034950
 36
0.0
 70
2
  0
DIMENSION
  8
0
  2
*DIM2
 62
2
  10
375.681000
 20
-104.250000
 30
0.0
 11
375.681000
 21
-98.094299
 31
0.0
  13
363.931000
 23
-110.250000
 33
0.0
14
363.931000
 24
-113.750000
 34
0.0
 70
1
 50
90
  0
DIMENSION
  8
0
  2
*DIM3
 62
2
  10
403.807007
 20
-105.268997
 30
0.0
 11
391.192993
 21
-105.268997
 31
0.0
  13
403.807007
 23
-105.268997
 33
0.0
14
403.807007
 24
-97.268600
 34
0.0
 70
1
 50
0
  0
ENDSEC
  0
EOF
