  0
SECTION
  2
HEADER
  9
$ACADVER
  1
AC1012
  9
$DWGCODEPAGE
  3
dos932
  9
$INSBASE
 10
0.0
 20
0.0
 30
0.0
  9
$EXTMIN
 10
-281.25
 20
-195.0
 30
0.0
  9
$EXTMAX
 10
285.59998798370361
 20
195.5
 30
0.0
  9
$LIMMIN
 10
-281.25
 20
-195.0
  9
$LIMMAX
 10
285.59998798370361
 20
195.5
  9
$ORTHOMODE
 70
               0
  9
$REGENMODE
 70
               1
  9
$FILLMODE
 70
               1
  9
$QTEXTMODE
 70
               0
  9
$MIRRTEXT
 70
               1
  9
$DRAGMODE
 70
               2
  9
$LTSCALE
 40
1.0
  9
$OSMODE
 70
               0
  9
$ATTMODE
 70
               1
  9
$TEXTSIZE
 40
3.2000000476837158
  9
$TRACEWID
 40
0.05
  9
$TEXTSTYLE
  7
MX_NOTE_STANDARD
  9
$CLAYER
  8
0
  9
$CELTYPE
  6
CONTINUOUS
  9
$CECOLOR
 62
             256
  9
$CELTSCALE
 40
1.0
  9
$DELOBJ
 70
               1
  9
$DISPSILH
 70
               0
  9
$DIMSCALE
 40
1.0
  9
$DIMASZ
 40
2.5
  9
$DIMEXO
 40
1.5
  9
$DIMDLI
 40
3.75
  9
$DIMRND
 40
0.0
  9
$DIMDLE
 40
0.0
  9
$DIMEXE
 40
1.5
  9
$DIMTP
 40
0.0
  9
$DIMTM
 40
0.0
  9
$DIMTXT
 40
3.2000000476837158
  9
$DIMCEN
 40
2.5
  9
$DIMTSZ
 40
0.0
  9
$DIMTOL
 70
               0
  9
$DIMLIM
 70
               0
  9
$DIMTIH
 70
               0
  9
$DIMTOH
 70
               0
  9
$DIMSE1
 70
               0
  9
$DIMSE2
 70
               0
  9
$DIMTAD
 70
               1
  9
$DIMZIN
 70
               8
  9
$DIMBLK
  1

  9
$DIMASO
 70
               1
  9
$DIMSHO
 70
               1
  9
$DIMPOST
  1

  9
$DIMAPOST
  1

  9
$DIMALT
 70
               0
  9
$DIMALTD
 70
               4
  9
$DIMALTF
 40
0.0394
  9
$DIMLFAC
 40
1.0
  9
$DIMTOFL
 70
               1
  9
$DIMTVP
 40
0.0
  9
$DIMTIX
 70
               0
  9
$DIMSOXD
 70
               0
  9
$DIMSAH
 70
               0
  9
$DIMBLK1
  1

  9
$DIMBLK2
  1

  9
$DIMSTYLE
  2
MXDIMSTYLE
  9
$DIMCLRD
 70
               0
  9
$DIMCLRE
 70
               0
  9
$DIMCLRT
 70
               0
  9
$DIMTFAC
 40
1.0
  9
$DIMGAP
 40
1.0
  9
$DIMJUST
 70
               0
  9
$DIMSD1
 70
               0
  9
$DIMSD2
 70
               0
  9
$DIMTOLJ
 70
               1
  9
$DIMTZIN
 70
               0
  9
$DIMALTZ
 70
               0
  9
$DIMALTTZ
 70
               0
  9
$DIMFIT
 70
               3
  9
$DIMUPT
 70
               1
  9
$DIMUNIT
 70
               2
  9
$DIMDEC
 70
               4
  9
$DIMTDEC
 70
               4
  9
$DIMALTU
 70
               8
  9
$DIMALTTD
 70
               4
  9
$DIMTXSTY
  7
MX_NOTE_STANDARD
  9
$DIMAUNIT
 70
               0
  9
$LUNITS
 70
               2
  9
$LUPREC
 70
               4
  9
$SKETCHINC
 40
0.1
  9
$FILLETRAD
 40
0.0
  9
$AUNITS
 70
               0
  9
$AUPREC
 70
               0
  9
$MENU
  1
acad
  9
$ELEVATION
 40
0.0
  9
$PELEVATION
 40
0.0
  9
$THICKNESS
 40
0.0
  9
$LIMCHECK
 70
               0
  9
$BLIPMODE
 70
               1
  9
$CHAMFERA
 40
0.0
  9
$CHAMFERB
 40
0.0
  9
$CHAMFERC
 40
0.0
  9
$CHAMFERD
 40
0.0
  9
$SKPOLY
 70
               0
  9
$TDCREATE
 40
2452220.696342593
  9
$TDUPDATE
 40
2452220.696342593
  9
$TDINDWG
 40
0.0000000000
  9
$TDUSRTIMER
 40
0.0000000000
  9
$USRTIMER
 70
               1
  9
$ANGBASE
 50
0.0
  9
$ANGDIR
 70
               0
  9
$PDMODE
 70
               0
  9
$PDSIZE
 40
0.0
  9
$PLINEWID
 40
0.0
  9
$COORDS
 70
               1
  9
$SPLFRAME
 70
               0
  9
$SPLINETYPE
 70
               6
  9
$SPLINESEGS
 70
               8
  9
$ATTDIA
 70
               0
  9
$ATTREQ
 70
               1
  9
$HANDLING
 70
               1
  9
$HANDSEED
  5
345
  9
$SURFTAB1
 70
               6
  9
$SURFTAB2
 70
               6
  9
$SURFTYPE
 70
               6
  9
$SURFU
 70
               6
  9
$SURFV
 70
               6
  9
$UCSNAME
  2

  9
$UCSORG
 10
0.0
 20
0.0
 30
0.0
  9
$UCSXDIR
 10
1.0
 20
0.0
 30
0.0
  9
$UCSYDIR
 10
0.0
 20
1.0
 30
0.0
  9
$PUCSNAME
  2

  9
$PUCSORG
 10
0.0
 20
0.0
 30
0.0
  9
$PUCSXDIR
 10
1.0
 20
0.0
 30
0.0
  9
$PUCSYDIR
 10
0.0
 20
1.0
 30
0.0
  9
$USERI1
 70
               0
  9
$USERI2
 70
               0
  9
$USERI3
 70
               0
  9
$USERI4
 70
               0
  9
$USERI5
 70
               0
  9
$USERR1
 40
0.0
  9
$USERR2
 40
0.0
  9
$USERR3
 40
0.0
  9
$USERR4
 40
0.0
  9
$USERR5
 40
0.0
  9
$WORLDVIEW
 70
               1
  9
$SHADEDGE
 70
               3
  9
$SHADEDIF
 70
              70
  9
$TILEMODE
 70
               1
  9
$MAXACTVP
 70
              16
  9
$PINSBASE
 10
0.0
 20
0.0
 30
0.0
  9
$PLIMCHECK
 70
               0
  9
$PEXTMIN
 10
1.0000000000000000E+20
 20
1.0000000000000000E+20
 30
1.0000000000000000E+20
  9
$PEXTMAX
 10
-1.0000000000000000E+20
 20
-1.0000000000000000E+20
 30
-1.0000000000000000E+20
  9
$PLIMMIN
 10
0.0
 20
0.0
  9
$PLIMMAX
 10
12.0
 20
9.0
  9
$UNITMODE
 70
               0
  9
$VISRETAIN
 70
               0
  9
$PLINEGEN
 70
               1
  9
$PSLTSCALE
 70
               0
  9
$TREEDEPTH
 70
            3020
  9
$PICKSTYLE
 70
               1
  9
$CMLSTYLE
  2
Standard
  9
$CMLJUST
 70
               0
  9
$CMLSCALE
 40
1.0
  9
$SAVEIMAGES
 70
               0
  0
ENDSEC
  0
SECTION
  2
CLASSES
  0
CLASS
  1
LWPOLYLINE
  2
AcDbPolyline
  3
"AutoCAD"
 90
        0
280
               0
281
               1
  0
CLASS
  1
IMAGE
  2
AcDbRasterImage
  3
ISM
 90
      127
280
               0
281
               1
  0
CLASS
  1
OLE2FRAME
  2
AcDbOle2Frame
  3
""
 90
        0
280
               0
281
               1
  0
CLASS
  1
HATCH
  2
AcDbHatch
  3
"ACAD_SEDONA"
 90
        0
280
               0
281
               1
  0
CLASS
  1
DICTIONARYVAR
  2
AcDbDictionaryVar
  3
"AutoCAD"
 90
        0
280
               0
281
               0
  0
CLASS
  1
RASTERVARIABLES
  2
AcDbRasterVariables
  3
ISM
 90
        0
280
               0
281
               0
  0
CLASS
  1
IMAGEDEF
  2
AcDbRasterImageDef
  3
ISM
 90
        0
280
               0
281
               0
  0
CLASS
  1
IMAGEDEF_REACTOR
  2
AcDbRasterImageDefReactor
  3
ISM
 90
        1
280
               0
281
               0
  0
CLASS
  1
IDBUFFER
  2
AcDbIdBuffer
  3
"Acad"
 90
        0
280
               0
281
               0
  0
CLASS
  1
SPATIAL_FILTER
  2
AcDbSpatialFilter
  3
"Acad"
 90
        0
280
               0
281
               0
  0
CLASS
  1
XRECORD
  2
AcDbXrecord
  3
"<Built In>"
 90
        0
280
               0
281
               0
  0
CLASS
  1
SORTENTSTABLE
  2
AcDbSortentsTable
  3
"AutoCAD"
 90
        0
280
               0
281
               0
  0
CLASS
  1
LAYER_INDEX
  2
AcDbLayerIndex
  3
"Acad"
 90
        0
280
               0
281
               0
  0
CLASS
  1
SPATIAL_INDEX
  2
AcDbSpatialIndex
  3
"Acad"
 90
        0
280
               0
281
               0
  0
CLASS
  1
OBJECT_PTR
  2
CAseDLPNTableRecord
  3
"ASE-LPNTableRecord"
 90
        1
280
               0
281
               0
  0
CLASS
  1
LAYOUT
  2
AcDbLayout
  3
"AutoCAD 2000"
 90
        1
280
               0
281
               0
  0
CLASS
  1
PLOTSETTINGS
  2
AcDbPlotSettings
  3
"AutoCAD 2000"
 90
        1
280
               0
281
               0
  0
CLASS
  1
ACDBDICTIONARYWDFLT
  2
AcDbDictionaryWithDefault
  3
"AutoCAD 2000"
 90
        1
280
               0
281
               0
  0
CLASS
  1
ACDBPLACEHOLDER
  2
AcDbPlaceHolder
  3
"AutoCAD 2000"
 90
        1
280
               0
281
               0
  0
CLASS
  1
VBA_PROJECT
  2
AcDbVbaProject
  3
"acadvba"
 90
        1
280
               0
281
               0
  0
CLASS
  1
WIPEOUT
  2
AcDbWipeout
  3
WipeOut|AutoCAD Express Tool|expresstools@autodesk.com
 90
      127
280
               0
281
               1
  0
CLASS
  1
WIPEOUTVARIABLES
  2
AcDbWipeoutVariables
  3
WipeOut|AutoCAD Express Tool|expresstools@autodesk.com
 90
        0
280
               0
281
               0
  0
CLASS
  1
RTEXT
  2
RText
  3
RText|AutoCAD Express Tool|expresstools@autodesk.com
 90
        0
280
               0
281
               1
  0
CLASS
  1
ARCALIGNEDTEXT
  2
AcDbArcAlignedText
  3
ATEXT|AutoCAD Express Tool|expresstools@autodesk.com
 90
        0
280
               0
281
               1
  0
ENDSEC
  0
SECTION
  2
TABLES
  0
TABLE
  2
VPORT
  5
7
100
AcDbSymbolTable
 70
               1
  0
VPORT
  5
15
100
AcDbSymbolTableRecord
100
AcDbViewportTableRecord
  2
*ACTIVE
 70
               0
 10
0.0
 20
0.0
 11
1.0
 21
1.0
 12
2.1749939918518066
 22
0.25
 13
0.0
 23
0.0
 14
1.0
 24
1.0
 15
0.0
 25
0.0
 16
0.0
 26
0.0
 36
1.0
 17
0.0
 27
0.0
 37
0.0
 40
394.40500000000003
 41
1.7320508075688772
 42
50.0
 43
0.0
 44
0.0
 50
0.0
 51
0.0
 71
               0
 72
             100
 73
               1
 74
               1
 75
               0
 76
               0
 77
               0
 78
               0
  0
ENDTAB
  0
TABLE
  2
LTYPE
  5
4
100
AcDbSymbolTable
 70
               4
  0
LTYPE
  5
11
100
AcDbSymbolTableRecord
100
AcDbLinetypeTableRecord
  2
BYBLOCK
 70
              64
  3

 72
              65
 73
               0
 40
0.0
  0
LTYPE
  5
12
100
AcDbSymbolTableRecord
100
AcDbLinetypeTableRecord
  2
BYLAYER
 70
              64
  3

 72
              65
 73
               0
 40
0.0
  0
LTYPE
  5
13
100
AcDbSymbolTableRecord
100
AcDbLinetypeTableRecord
  2
CONTINUOUS
 70
              64
  3
Solid line
 72
              65
 73
               0
 40
0.0
  0
LTYPE
  5
24
100
AcDbSymbolTableRecord
100
AcDbLinetypeTableRecord
  2
CENTER
 70
              64
  3
Center ____ _ ____ _ ____ _ ____ _ ____ _ ____
 72
              65
 73
               4
 40
50.800000000000004
 49
31.75
 74
               0
 49
-6.3499999999999996
 74
               0
 49
6.3499999999999996
 74
               0
 49
-6.3499999999999996
 74
               0
  0
ENDTAB
  0
TABLE
  2
LAYER
  5
2
100
AcDbSymbolTable
 70
               2
  0
LAYER
  5
14
100
AcDbSymbolTableRecord
100
AcDbLayerTableRecord
  2
0
 70
               0
 62
               7
  6
CONTINUOUS
  0
LAYER
  5
1D
100
AcDbSymbolTableRecord
100
AcDbLayerTableRecord
  2
DEFPOINTS
 70
               0
 62
               7
  6
CONTINUOUS
  0
ENDTAB
  0
TABLE
  2
STYLE
  5
3
100
AcDbSymbolTable
 70
               1
  0
STYLE
  5
17
100
AcDbSymbolTableRecord
100
AcDbTextStyleTableRecord
  2
MX_NOTE_STANDARD
 70
               0
 40
3.2000000476837158
 41
1.0
 50
0.0
 71
               0
 42
3.2000000476837158
  3
txt.shx
  4
extfont.shx
  0
ENDTAB
  0
TABLE
  2
VIEW
  5
5
100
AcDbSymbolTable
 70
               0
  0
ENDTAB
  0
TABLE
  2
UCS
  5
6
100
AcDbSymbolTable
 70
               0
  0
ENDTAB
  0
TABLE
  2
APPID
  5
8
100
AcDbSymbolTable
 70
               1
  0
APPID
  5
16
100
AcDbSymbolTableRecord
100
AcDbRegAppTableRecord
  2
ACAD
 70
               0
  0
ENDTAB
  0
TABLE
  2
DIMSTYLE
  5
9
100
AcDbSymbolTable
 70
               1
  0
DIMSTYLE
105
18
100
AcDbSymbolTableRecord
100
AcDbDimStyleTableRecord
  2
MXDIMSTYLE
 70
               0
  3

  4

  5

  6

  7

 40
1.0
 41
2.5
 42
1.5
 43
3.75
 44
1.5
 45
0.0
 46
0.0
 47
0.0
 48
0.0
 71
               0
 72
               0
 73
               0
 74
               0
 75
               0
 76
               0
 77
               1
 78
               8
140
3.2000000476837158
141
2.5
142
0.0
143
0.0394
144
1.0
145
0.0
146
1.0
147
1.0
170
               0
171
               4
172
               1
173
               0
174
               0
175
               0
176
               0
177
               0
178
               0
270
               2
271
               4
272
               4
273
               8
274
               4
275
               0
280
               0
281
               0
282
               0
283
               1
284
               0
285
               0
286
               0
287
               3
288
               1
340
17
  0
ENDTAB
  0
TABLE
  2
BLOCK_RECORD
  5
1
100
AcDbSymbolTable
 70
              13
  0
BLOCK_RECORD
  5
A
100
AcDbSymbolTableRecord
100
AcDbBlockTableRecord
  2
*MODEL_SPACE
  0
BLOCK_RECORD
  5
B
100
AcDbSymbolTableRecord
100
AcDbBlockTableRecord
  2
*PAPER_SPACE
  0
BLOCK_RECORD
  5
1E
100
AcDbSymbolTableRecord
100
AcDbBlockTableRecord
  2
MS_1
  0
BLOCK_RECORD
  5
1F
100
AcDbSymbolTableRecord
100
AcDbBlockTableRecord
  2
MS_2
  0
BLOCK_RECORD
  5
20
100
AcDbSymbolTableRecord
100
AcDbBlockTableRecord
  2
MS_3
  0
BLOCK_RECORD
  5
21
100
AcDbSymbolTableRecord
100
AcDbBlockTableRecord
  2
MS_4
  0
BLOCK_RECORD
  5
25D
100
AcDbSymbolTableRecord
100
AcDbBlockTableRecord
  2
_OPEN30
  0
BLOCK_RECORD
  5
2E9
100
AcDbSymbolTableRecord
100
AcDbBlockTableRecord
  2
*D5
  0
BLOCK_RECORD
  5
2F5
100
AcDbSymbolTableRecord
100
AcDbBlockTableRecord
  2
*D6
  0
BLOCK_RECORD
  5
301
100
AcDbSymbolTableRecord
100
AcDbBlockTableRecord
  2
*D7
  0
BLOCK_RECORD
  5
30C
100
AcDbSymbolTableRecord
100
AcDbBlockTableRecord
  2
*D8
  0
BLOCK_RECORD
  5
319
100
AcDbSymbolTableRecord
100
AcDbBlockTableRecord
  2
*D9
  0
BLOCK_RECORD
  5
320
100
AcDbSymbolTableRecord
100
AcDbBlockTableRecord
  2
_NONE
  0
BLOCK_RECORD
  5
32A
100
AcDbSymbolTableRecord
100
AcDbBlockTableRecord
  2
*D11
  0
BLOCK_RECORD
  5
335
100
AcDbSymbolTableRecord
100
AcDbBlockTableRecord
  2
*D12
  0
ENDTAB
  0
ENDSEC
  0
SECTION
  2
BLOCKS
  0
BLOCK
  5
D
100
AcDbEntity
  8
0
100
AcDbBlockBegin
  2
*MODEL_SPACE
 70
               0
 10
0.0
 20
0.0
 30
0.0
  3
*MODEL_SPACE
  1

  0
ENDBLK
  5
E
100
AcDbEntity
  8
0
100
AcDbBlockEnd
  0
BLOCK
  5
F
100
AcDbEntity
 67
               1
  8
0
100
AcDbBlockBegin
  2
*PAPER_SPACE
 70
               0
 10
0.0
 20
0.0
 30
0.0
  3
*PAPER_SPACE
  1

  0
ENDBLK
  5
10
100
AcDbEntity
 67
               1
  8
0
100
AcDbBlockEnd
  0
BLOCK
  5
22
100
AcDbEntity
  8
0
100
AcDbBlockBegin
  2
MS_1
 70
               0
 10
0.0
 20
0.0
 30
0.0
  3
MS_1
  1

  0
LINE
  5
23
100
AcDbEntity
  8
0
  6
CONTINUOUS
 62
               7
100
AcDbLine
 10
-18.0
 20
2.0
 30
0.0
 11
82.0
 21
2.0
 31
0.0
  0
LINE
  5
25
100
AcDbEntity
  8
0
  6
CENTER
 62
               4
100
AcDbLine
 10
64.0
 20
35.479999999999997
 30
0.0
 11
64.0
 21
16.41
 31
0.0
  0
LINE
  5
26
100
AcDbEntity
  8
0
  6
CONTINUOUS
 62
               4
100
AcDbLine
 10
71.5
 20
31.5
 30
0.0
 11
71.5
 21
26.530000000000001
 31
0.0
  0
LINE
  5
27
100
AcDbEntity
  8
0
  6
CONTINUOUS
 62
               4
100
AcDbLine
 10
56.5
 20
31.5
 30
0.0
 11
56.5
 21
26.530000000000001
 31
0.0
  0
LINE
  5
28
100
AcDbEntity
  8
0
  6
CONTINUOUS
 62
               4
100
AcDbLine
 10
58.5
 20
33.5
 30
0.0
 11
69.5
 21
33.5
 31
0.0
  0
LINE
  5
29
100
AcDbEntity
  8
0
  6
CONTINUOUS
 62
               4
100
AcDbLine
 10
58.5
 20
18.5
 30
0.0
 11
69.5
 21
18.5
 31
0.0
  0
LINE
  5
2A
100
AcDbEntity
  8
0
  6
CONTINUOUS
 62
               7
100
AcDbLine
 10
71.900000000000006
 20
2.0
 30
0.0
 11
71.900000000000006
 21
0.0
 31
0.0
  0
LINE
  5
2B
100
AcDbEntity
  8
0
  6
CONTINUOUS
 62
               7
100
AcDbLine
 10
56.100000000000001
 20
2.0
 30
0.0
 11
56.100000000000001
 21
0.0
 31
0.0
  0
LINE
  5
2C
100
AcDbEntity
  8
0
  6
CONTINUOUS
 62
               7
100
AcDbLine
 10
-7.9000000000000004
 20
0.0
 30
0.0
 11
7.9000000000000004
 21
0.0
 31
0.0
  0
LINE
  5
2D
100
AcDbEntity
  8
0
  6
CONTINUOUS
 62
               7
100
AcDbLine
 10
7.9000000000000004
 20
2.0
 30
0.0
 11
7.9000000000000004
 21
0.0
 31
0.0
  0
LINE
  5
2E
100
AcDbEntity
  8
0
  6
CONTINUOUS
 62
               7
100
AcDbLine
 10
-7.9000000000000004
 20
2.0
 30
0.0
 11
-7.9000000000000004
 21
0.0
 31
0.0
  0
LINE
  5
2F
100
AcDbEntity
  8
0
  6
CONTINUOUS
 62
               7
100
AcDbLine
 10
56.100000000000001
 20
0.0
 30
0.0
 11
71.900000000000006
 21
0.0
 31
0.0
  0
LINE
  5
30
100
AcDbEntity
  8
0
  6
CONTINUOUS
 62
               7
100
AcDbLine
 10
-18.0
 20
42.0
 30
0.0
 11
-7.5
 21
42.0
 31
0.0
  0
LINE
  5
31
100
AcDbEntity
  8
0
  6
CONTINUOUS
 62
               7
100
AcDbLine
 10
82.0
 20
42.0
 30
0.0
 11
82.0
 21
2.0
 31
0.0
  0
LINE
  5
32
100
AcDbEntity
  8
0
  6
CONTINUOUS
 62
               7
100
AcDbLine
 10
-18.0
 20
42.0
 30
0.0
 11
-18.0
 21
2.0
 31
0.0
  0
LINE
  5
33
100
AcDbEntity
  8
0
  6
CONTINUOUS
 62
               7
100
AcDbLine
 10
39.5
 20
42.0
 30
0.0
 11
40.5
 21
42.0
 31
0.0
  0
LINE
  5
34
100
AcDbEntity
  8
0
  6
CONTINUOUS
 62
               7
100
AcDbLine
 10
23.5
 20
42.0
 30
0.0
 11
24.5
 21
42.0
 31
0.0
  0
LINE
  5
35
100
AcDbEntity
  8
0
  6
CONTINUOUS
 62
               7
100
AcDbLine
 10
7.5
 20
42.0
 30
0.0
 11
8.5
 21
42.0
 31
0.0
  0
LINE
  5
36
100
AcDbEntity
  8
0
  6
CONTINUOUS
 62
               7
100
AcDbLine
 10
55.5
 20
42.0
 30
0.0
 11
82.0
 21
42.0
 31
0.0
  0
LINE
  5
37
100
AcDbEntity
  8
0
  6
CONTINUOUS
 62
               4
100
AcDbLine
 10
56.5
 20
24.460000000000001
 30
0.0
 11
56.5
 21
20.5
 31
0.0
  0
LINE
  5
38
100
AcDbEntity
  8
0
  6
CONTINUOUS
 62
               4
100
AcDbLine
 10
71.5
 20
24.460000000000001
 30
0.0
 11
71.5
 21
20.5
 31
0.0
  0
LINE
  5
39
100
AcDbEntity
  8
0
  6
CENTER
 62
               2
100
AcDbLine
 10
64.0
 20
3.23
 30
0.0
 11
64.0
 21
-1.6599999999999999
 31
0.0
  0
LINE
  5
3A
100
AcDbEntity
  8
0
  6
CONTINUOUS
 62
               4
100
AcDbLine
 10
68.579999999999998
 20
26.41
 30
0.0
 11
70.409999999999997
 21
24.579999999999998
 31
0.0
  0
LINE
  5
3B
100
AcDbEntity
  8
0
  6
CONTINUOUS
 62
               4
100
AcDbLine
 10
57.579999999999998
 20
26.41
 30
0.0
 11
59.409999999999997
 21
24.579999999999998
 31
0.0
  0
LINE
  5
3C
100
AcDbEntity
  8
0
  6
CONTINUOUS
 62
               4
100
AcDbLine
 10
68.579999999999998
 20
24.579999999999998
 30
0.0
 11
70.409999999999997
 21
26.41
 31
0.0
  0
LINE
  5
3D
100
AcDbEntity
  8
0
  6
CONTINUOUS
 62
               4
100
AcDbLine
 10
57.579999999999998
 20
24.579999999999998
 30
0.0
 11
59.409999999999997
 21
26.41
 31
0.0
  0
LINE
  5
3E
100
AcDbEntity
  8
0
  6
CONTINUOUS
 62
               7
100
AcDbLine
 10
40.5
 20
17.0
 30
0.0
 11
55.5
 21
17.0
 31
0.0
  0
LINE
  5
3F
100
AcDbEntity
  8
0
  6
CONTINUOUS
 62
               7
100
AcDbLine
 10
55.5
 20
34.5
 30
0.0
 11
55.5
 21
26.530000000000001
 31
0.0
  0
LINE
  5
40
100
AcDbEntity
  8
0
  6
CONTINUOUS
 62
               7
100
AcDbLine
 10
40.5
 20
34.5
 30
0.0
 11
40.5
 21
26.530000000000001
 31
0.0
  0
LINE
  5
41
100
AcDbEntity
  8
0
  6
CONTINUOUS
 62
               7
100
AcDbLine
 10
40.5
 20
14.5
 30
0.0
 11
55.5
 21
14.5
 31
0.0
  0
LINE
  5
42
100
AcDbEntity
  8
0
  6
CENTER
 62
               2
100
AcDbLine
 10
45.5
 20
31.0
 30
0.0
 11
50.5
 21
31.0
 31
0.0
  0
LINE
  5
43
100
AcDbEntity
  8
0
  6
CENTER
 62
               2
100
AcDbLine
 10
44.5
 20
22.5
 30
0.0
 11
51.5
 21
22.5
 31
0.0
  0
LINE
  5
44
100
AcDbEntity
  8
0
  6
CENTER
 62
               2
100
AcDbLine
 10
48.0
 20
65.129999999999995
 30
0.0
 11
48.0
 21
10.5
 31
0.0
  0
LINE
  5
45
100
AcDbEntity
  8
0
  6
CONTINUOUS
 62
               7
100
AcDbLine
 10
40.5
 20
34.5
 30
0.0
 11
55.5
 21
34.5
 31
0.0
  0
LINE
  5
46
100
AcDbEntity
  8
0
  6
CONTINUOUS
 62
               7
100
AcDbLine
 10
41.579999999999998
 20
26.41
 30
0.0
 11
43.409999999999997
 21
24.579999999999998
 31
0.0
  0
LINE
  5
47
100
AcDbEntity
  8
0
  6
CONTINUOUS
 62
               7
100
AcDbLine
 10
41.579999999999998
 20
24.579999999999998
 30
0.0
 11
43.409999999999997
 21
26.41
 31
0.0
  0
LINE
  5
48
100
AcDbEntity
  8
0
  6
CONTINUOUS
 62
               7
100
AcDbLine
 10
52.579999999999998
 20
26.41
 30
0.0
 11
54.409999999999997
 21
24.579999999999998
 31
0.0
  0
LINE
  5
49
100
AcDbEntity
  8
0
  6
CONTINUOUS
 62
               7
100
AcDbLine
 10
52.579999999999998
 20
24.579999999999998
 30
0.0
 11
54.409999999999997
 21
26.41
 31
0.0
  0
LINE
  5
4A
100
AcDbEntity
  8
0
  6
CONTINUOUS
 62
               7
100
AcDbLine
 10
40.5
 20
24.460000000000001
 30
0.0
 11
40.5
 21
14.5
 31
0.0
  0
LINE
  5
4B
100
AcDbEntity
  8
0
  6
CONTINUOUS
 62
               7
100
AcDbLine
 10
55.5
 20
24.460000000000001
 30
0.0
 11
55.5
 21
14.5
 31
0.0
  0
LINE
  5
4C
100
AcDbEntity
  8
0
  6
CONTINUOUS
 62
               7
100
AcDbLine
 10
24.5
 20
17.0
 30
0.0
 11
39.5
 21
17.0
 31
0.0
  0
LINE
  5
4D
100
AcDbEntity
  8
0
  6
CONTINUOUS
 62
               7
100
AcDbLine
 10
39.5
 20
34.5
 30
0.0
 11
39.5
 21
26.530000000000001
 31
0.0
  0
LINE
  5
4E
100
AcDbEntity
  8
0
  6
CONTINUOUS
 62
               7
100
AcDbLine
 10
24.5
 20
34.5
 30
0.0
 11
24.5
 21
26.530000000000001
 31
0.0
  0
LINE
  5
4F
100
AcDbEntity
  8
0
  6
CONTINUOUS
 62
               7
100
AcDbLine
 10
24.5
 20
14.5
 30
0.0
 11
39.5
 21
14.5
 31
0.0
  0
LINE
  5
50
100
AcDbEntity
  8
0
  6
CENTER
 62
               2
100
AcDbLine
 10
29.5
 20
31.0
 30
0.0
 11
34.5
 21
31.0
 31
0.0
  0
LINE
  5
51
100
AcDbEntity
  8
0
  6
CENTER
 62
               2
100
AcDbLine
 10
28.5
 20
22.5
 30
0.0
 11
35.5
 21
22.5
 31
0.0
  0
LINE
  5
52
100
AcDbEntity
  8
0
  6
CENTER
 62
               2
100
AcDbLine
 10
32.0
 20
65.129999999999995
 30
0.0
 11
32.0
 21
10.5
 31
0.0
  0
LINE
  5
53
100
AcDbEntity
  8
0
  6
CONTINUOUS
 62
               7
100
AcDbLine
 10
24.5
 20
34.5
 30
0.0
 11
39.5
 21
34.5
 31
0.0
  0
LINE
  5
54
100
AcDbEntity
  8
0
  6
CONTINUOUS
 62
               7
100
AcDbLine
 10
25.579999999999998
 20
26.41
 30
0.0
 11
27.41
 21
24.579999999999998
 31
0.0
  0
LINE
  5
55
100
AcDbEntity
  8
0
  6
CONTINUOUS
 62
               7
100
AcDbLine
 10
25.579999999999998
 20
24.579999999999998
 30
0.0
 11
27.41
 21
26.41
 31
0.0
  0
LINE
  5
56
100
AcDbEntity
  8
0
  6
CONTINUOUS
 62
               7
100
AcDbLine
 10
36.579999999999998
 20
26.41
 30
0.0
 11
38.409999999999997
 21
24.579999999999998
 31
0.0
  0
LINE
  5
57
100
AcDbEntity
  8
0
  6
CONTINUOUS
 62
               7
100
AcDbLine
 10
36.579999999999998
 20
24.579999999999998
 30
0.0
 11
38.409999999999997
 21
26.41
 31
0.0
  0
LINE
  5
58
100
AcDbEntity
  8
0
  6
CONTINUOUS
 62
               7
100
AcDbLine
 10
24.5
 20
24.460000000000001
 30
0.0
 11
24.5
 21
14.5
 31
0.0
  0
LINE
  5
59
100
AcDbEntity
  8
0
  6
CONTINUOUS
 62
               7
100
AcDbLine
 10
39.5
 20
24.460000000000001
 30
0.0
 11
39.5
 21
14.5
 31
0.0
  0
LINE
  5
5A
100
AcDbEntity
  8
0
  6
CONTINUOUS
 62
               7
100
AcDbLine
 10
8.5
 20
34.5
 30
0.0
 11
8.5
 21
26.530000000000001
 31
0.0
  0
LINE
  5
5B
100
AcDbEntity
  8
0
  6
CONTINUOUS
 62
               7
100
AcDbLine
 10
23.5
 20
34.5
 30
0.0
 11
23.5
 21
26.530000000000001
 31
0.0
  0
LINE
  5
5C
100
AcDbEntity
  8
0
  6
CENTER
 62
               2
100
AcDbLine
 10
16.0
 20
65.200000000000003
 30
0.0
 11
16.0
 21
0.51
 31
0.0
  0
LINE
  5
5D
100
AcDbEntity
  8
0
  6
CONTINUOUS
 62
               7
100
AcDbLine
 10
8.5
 20
4.5
 30
0.0
 11
23.5
 21
4.5
 31
0.0
  0
LINE
  5
5E
100
AcDbEntity
  8
0
  6
CONTINUOUS
 62
               7
100
AcDbLine
 10
8.5
 20
2.0
 30
0.0
 11
23.5
 21
2.0
 31
0.0
  0
LINE
  5
5F
100
AcDbEntity
  8
0
  6
CENTER
 62
               2
100
AcDbLine
 10
13.5
 20
31.0
 30
0.0
 11
18.5
 21
31.0
 31
0.0
  0
LINE
  5
60
100
AcDbEntity
  8
0
  6
CENTER
 62
               2
100
AcDbLine
 10
12.5
 20
22.5
 30
0.0
 11
19.5
 21
22.5
 31
0.0
  0
LINE
  5
61
100
AcDbEntity
  8
0
  6
CENTER
 62
               2
100
AcDbLine
 10
12.5
 20
10.5
 30
0.0
 11
19.5
 21
10.5
 31
0.0
  0
LINE
  5
62
100
AcDbEntity
  8
0
  6
CONTINUOUS
 62
               7
100
AcDbLine
 10
8.5
 20
34.5
 30
0.0
 11
23.5
 21
34.5
 31
0.0
  0
LINE
  5
63
100
AcDbEntity
  8
0
  6
CONTINUOUS
 62
               7
100
AcDbLine
 10
9.5800000000000001
 20
26.41
 30
0.0
 11
11.41
 21
24.579999999999998
 31
0.0
  0
LINE
  5
64
100
AcDbEntity
  8
0
  6
CONTINUOUS
 62
               7
100
AcDbLine
 10
9.5800000000000001
 20
24.579999999999998
 30
0.0
 11
11.41
 21
26.41
 31
0.0
  0
LINE
  5
65
100
AcDbEntity
  8
0
  6
CONTINUOUS
 62
               7
100
AcDbLine
 10
20.579999999999998
 20
26.41
 30
0.0
 11
22.41
 21
24.579999999999998
 31
0.0
  0
LINE
  5
66
100
AcDbEntity
  8
0
  6
CONTINUOUS
 62
               7
100
AcDbLine
 10
20.579999999999998
 20
24.579999999999998
 30
0.0
 11
22.41
 21
26.41
 31
0.0
  0
LINE
  5
67
100
AcDbEntity
  8
0
  6
CONTINUOUS
 62
               7
100
AcDbLine
 10
8.5
 20
24.460000000000001
 30
0.0
 11
8.5
 21
2.0
 31
0.0
  0
LINE
  5
68
100
AcDbEntity
  8
0
  6
CONTINUOUS
 62
               7
100
AcDbLine
 10
23.5
 20
24.460000000000001
 30
0.0
 11
23.5
 21
2.0
 31
0.0
  0
LINE
  5
69
100
AcDbEntity
  8
0
  6
CONTINUOUS
 62
               7
100
AcDbLine
 10
-7.5
 20
34.5
 30
0.0
 11
-7.5
 21
26.530000000000001
 31
0.0
  0
LINE
  5
6A
100
AcDbEntity
  8
0
  6
CONTINUOUS
 62
               7
100
AcDbLine
 10
7.5
 20
34.5
 30
0.0
 11
7.5
 21
26.530000000000001
 31
0.0
  0
LINE
  5
6B
100
AcDbEntity
  8
0
  6
CENTER
 62
               2
100
AcDbLine
 10
0.0
 20
65.200000000000003
 30
0.0
 11
0.0
 21
-1.6599999999999999
 31
0.0
  0
LINE
  5
6C
100
AcDbEntity
  8
0
  6
CONTINUOUS
 62
               7
100
AcDbLine
 10
-7.5
 20
4.5
 30
0.0
 11
7.5
 21
4.5
 31
0.0
  0
LINE
  5
6D
100
AcDbEntity
  8
0
  6
CONTINUOUS
 62
               7
100
AcDbLine
 10
-7.5
 20
2.0
 30
0.0
 11
7.5
 21
2.0
 31
0.0
  0
LINE
  5
6E
100
AcDbEntity
  8
0
  6
CENTER
 62
               2
100
AcDbLine
 10
-2.5
 20
31.0
 30
0.0
 11
2.5
 21
31.0
 31
0.0
  0
LINE
  5
6F
100
AcDbEntity
  8
0
  6
CENTER
 62
               2
100
AcDbLine
 10
-3.5
 20
22.5
 30
0.0
 11
3.5
 21
22.5
 31
0.0
  0
LINE
  5
70
100
AcDbEntity
  8
0
  6
CENTER
 62
               2
100
AcDbLine
 10
-3.5
 20
10.5
 30
0.0
 11
3.5
 21
10.5
 31
0.0
  0
LINE
  5
71
100
AcDbEntity
  8
0
  6
CONTINUOUS
 62
               7
100
AcDbLine
 10
-7.5
 20
34.5
 30
0.0
 11
7.5
 21
34.5
 31
0.0
  0
LINE
  5
72
100
AcDbEntity
  8
0
  6
CONTINUOUS
 62
               7
100
AcDbLine
 10
-6.4100000000000001
 20
26.41
 30
0.0
 11
-4.5800000000000001
 21
24.579999999999998
 31
0.0
  0
LINE
  5
73
100
AcDbEntity
  8
0
  6
CONTINUOUS
 62
               7
100
AcDbLine
 10
-6.4100000000000001
 20
24.579999999999998
 30
0.0
 11
-4.5800000000000001
 21
26.41
 31
0.0
  0
LINE
  5
74
100
AcDbEntity
  8
0
  6
CONTINUOUS
 62
               7
100
AcDbLine
 10
4.5800000000000001
 20
26.41
 30
0.0
 11
6.4100000000000001
 21
24.579999999999998
 31
0.0
  0
LINE
  5
75
100
AcDbEntity
  8
0
  6
CONTINUOUS
 62
               7
100
AcDbLine
 10
4.5800000000000001
 20
24.579999999999998
 30
0.0
 11
6.4100000000000001
 21
26.41
 31
0.0
  0
LINE
  5
76
100
AcDbEntity
  8
0
  6
CONTINUOUS
 62
               7
100
AcDbLine
 10
-7.5
 20
24.460000000000001
 30
0.0
 11
-7.5
 21
2.0
 31
0.0
  0
LINE
  5
77
100
AcDbEntity
  8
0
  6
CONTINUOUS
 62
               7
100
AcDbLine
 10
7.5
 20
24.460000000000001
 30
0.0
 11
7.5
 21
2.0
 31
0.0
  0
LINE
  5
78
100
AcDbEntity
  8
0
  6
CENTER
 62
               2
100
AcDbLine
 10
-12.0
 20
28.5
 30
0.0
 11
-12.0
 21
20.5
 31
0.0
  0
LINE
  5
79
100
AcDbEntity
  8
0
  6
CENTER
 62
               2
100
AcDbLine
 10
76.0
 20
28.5
 30
0.0
 11
76.0
 21
20.5
 31
0.0
  0
LINE
  5
7A
100
AcDbEntity
  8
0
  6
CENTER
 62
               2
100
AcDbLine
 10
-16.0
 20
24.5
 30
0.0
 11
-8.0
 21
24.5
 31
0.0
  0
LINE
  5
7B
100
AcDbEntity
  8
0
  6
CENTER
 62
               2
100
AcDbLine
 10
72.0
 20
24.5
 30
0.0
 11
80.0
 21
24.5
 31
0.0
  0
LINE
  5
7C
100
AcDbEntity
  8
0
  6
CONTINUOUS
 62
               4
100
AcDbLine
 10
40.5
 20
60.700000000000003
 30
0.0
 11
40.5
 21
34.5
 31
0.0
  0
LINE
  5
7D
100
AcDbEntity
  8
0
  6
CONTINUOUS
 62
               4
100
AcDbLine
 10
55.5
 20
60.700000000000003
 30
0.0
 11
55.5
 21
34.5
 31
0.0
  0
LINE
  5
7E
100
AcDbEntity
  8
0
  6
CONTINUOUS
 62
               4
100
AcDbLine
 10
46.5
 20
62.700000000000003
 30
0.0
 11
46.5
 21
60.700000000000003
 31
0.0
  0
LINE
  5
7F
100
AcDbEntity
  8
0
  6
CONTINUOUS
 62
               4
100
AcDbLine
 10
40.5
 20
60.700000000000003
 30
0.0
 11
41.25
 21
62.200000000000003
 31
0.0
  0
LINE
  5
80
100
AcDbEntity
  8
0
  6
CONTINUOUS
 62
               4
100
AcDbLine
 10
41.25
 20
62.560000000000002
 30
0.0
 11
41.25
 21
61.299999999999997
 31
0.0
  0
LINE
  5
81
100
AcDbEntity
  8
0
  6
CONTINUOUS
 62
               4
100
AcDbLine
 10
41.5
 20
62.700000000000003
 30
0.0
 11
41.619999999999997
 21
62.700000000000003
 31
0.0
  0
LINE
  5
82
100
AcDbEntity
  8
0
  6
CONTINUOUS
 62
               4
100
AcDbLine
 10
45.75
 20
62.560000000000002
 30
0.0
 11
45.75
 21
61.299999999999997
 31
0.0
  0
LINE
  5
83
100
AcDbEntity
  8
0
  6
CONTINUOUS
 62
               4
100
AcDbLine
 10
45.32
 20
62.700000000000003
 30
0.0
 11
54.5
 21
62.700000000000003
 31
0.0
  0
LINE
  5
84
100
AcDbEntity
  8
0
  6
CONTINUOUS
 62
               4
100
AcDbLine
 10
55.5
 20
60.700000000000003
 30
0.0
 11
54.5
 21
62.700000000000003
 31
0.0
  0
LINE
  5
85
100
AcDbEntity
  8
0
  6
CONTINUOUS
 62
               4
100
AcDbLine
 10
40.5
 20
60.700000000000003
 30
0.0
 11
55.5
 21
60.700000000000003
 31
0.0
  0
LINE
  5
86
100
AcDbEntity
  8
0
  6
CONTINUOUS
 62
               4
100
AcDbLine
 10
40.5
 20
59.700000000000003
 30
0.0
 11
55.5
 21
59.700000000000003
 31
0.0
  0
LINE
  5
87
100
AcDbEntity
  8
0
  6
CONTINUOUS
 62
               4
100
AcDbLine
 10
46.049999999999997
 20
61.299999999999997
 30
0.0
 11
40.950000000000003
 21
61.299999999999997
 31
0.0
  0
LINE
  5
88
100
AcDbEntity
  8
0
  6
CONTINUOUS
 62
               4
100
AcDbLine
 10
46.049999999999997
 20
61.299999999999997
 30
0.0
 11
46.049999999999997
 21
60.700000000000003
 31
0.0
  0
LINE
  5
89
100
AcDbEntity
  8
0
  6
CONTINUOUS
 62
               4
100
AcDbLine
 10
40.950000000000003
 20
61.299999999999997
 30
0.0
 11
40.950000000000003
 21
60.700000000000003
 31
0.0
  0
LINE
  5
8A
100
AcDbEntity
  8
0
  6
CONTINUOUS
 62
               4
100
AcDbLine
 10
41.469999999999999
 20
62.640000000000001
 30
0.0
 11
41.5
 21
62.700000000000003
 31
0.0
  0
LINE
  5
8B
100
AcDbEntity
  8
0
  6
CONTINUOUS
 62
               4
100
AcDbLine
 10
-7.5
 20
60.700000000000003
 30
0.0
 11
-7.5
 21
34.5
 31
0.0
  0
LINE
  5
8C
100
AcDbEntity
  8
0
  6
CONTINUOUS
 62
               4
100
AcDbLine
 10
7.5
 20
60.700000000000003
 30
0.0
 11
7.5
 21
34.5
 31
0.0
  0
LINE
  5
8D
100
AcDbEntity
  8
0
  6
CONTINUOUS
 62
               4
100
AcDbLine
 10
-1.5
 20
62.700000000000003
 30
0.0
 11
-1.5
 21
60.700000000000003
 31
0.0
  0
LINE
  5
8E
100
AcDbEntity
  8
0
  6
CONTINUOUS
 62
               4
100
AcDbLine
 10
-7.5
 20
60.700000000000003
 30
0.0
 11
-6.75
 21
62.200000000000003
 31
0.0
  0
LINE
  5
8F
100
AcDbEntity
  8
0
  6
CONTINUOUS
 62
               4
100
AcDbLine
 10
-6.75
 20
62.560000000000002
 30
0.0
 11
-6.75
 21
61.299999999999997
 31
0.0
  0
LINE
  5
90
100
AcDbEntity
  8
0
  6
CONTINUOUS
 62
               4
100
AcDbLine
 10
-6.5
 20
62.700000000000003
 30
0.0
 11
-6.3700000000000001
 21
62.700000000000003
 31
0.0
  0
LINE
  5
91
100
AcDbEntity
  8
0
  6
CONTINUOUS
 62
               4
100
AcDbLine
 10
-2.25
 20
62.560000000000002
 30
0.0
 11
-2.25
 21
61.299999999999997
 31
0.0
  0
LINE
  5
92
100
AcDbEntity
  8
0
  6
CONTINUOUS
 62
               4
100
AcDbLine
 10
-2.6699999999999999
 20
62.700000000000003
 30
0.0
 11
6.5
 21
62.700000000000003
 31
0.0
  0
LINE
  5
93
100
AcDbEntity
  8
0
  6
CONTINUOUS
 62
               4
100
AcDbLine
 10
7.5
 20
60.700000000000003
 30
0.0
 11
6.5
 21
62.700000000000003
 31
0.0
  0
LINE
  5
94
100
AcDbEntity
  8
0
  6
CONTINUOUS
 62
               4
100
AcDbLine
 10
-7.5
 20
60.700000000000003
 30
0.0
 11
7.5
 21
60.700000000000003
 31
0.0
  0
LINE
  5
95
100
AcDbEntity
  8
0
  6
CONTINUOUS
 62
               4
100
AcDbLine
 10
-7.5
 20
59.700000000000003
 30
0.0
 11
7.5
 21
59.700000000000003
 31
0.0
  0
LINE
  5
96
100
AcDbEntity
  8
0
  6
CONTINUOUS
 62
               4
100
AcDbLine
 10
-1.95
 20
61.299999999999997
 30
0.0
 11
-7.0499999999999998
 21
61.299999999999997
 31
0.0
  0
LINE
  5
97
100
AcDbEntity
  8
0
  6
CONTINUOUS
 62
               4
100
AcDbLine
 10
-1.95
 20
61.299999999999997
 30
0.0
 11
-1.95
 21
60.700000000000003
 31
0.0
  0
LINE
  5
98
100
AcDbEntity
  8
0
  6
CONTINUOUS
 62
               4
100
AcDbLine
 10
-7.0499999999999998
 20
61.299999999999997
 30
0.0
 11
-7.0499999999999998
 21
60.700000000000003
 31
0.0
  0
LINE
  5
99
100
AcDbEntity
  8
0
  6
CONTINUOUS
 62
               4
100
AcDbLine
 10
-6.5199999999999996
 20
62.640000000000001
 30
0.0
 11
-6.5
 21
62.700000000000003
 31
0.0
  0
LINE
  5
9A
100
AcDbEntity
  8
0
  6
CONTINUOUS
 62
               4
100
AcDbLine
 10
8.5
 20
60.700000000000003
 30
0.0
 11
8.5
 21
34.5
 31
0.0
  0
LINE
  5
9B
100
AcDbEntity
  8
0
  6
CONTINUOUS
 62
               4
100
AcDbLine
 10
23.5
 20
60.700000000000003
 30
0.0
 11
23.5
 21
34.5
 31
0.0
  0
LINE
  5
9C
100
AcDbEntity
  8
0
  6
CONTINUOUS
 62
               4
100
AcDbLine
 10
14.5
 20
62.700000000000003
 30
0.0
 11
14.5
 21
60.700000000000003
 31
0.0
  0
LINE
  5
9D
100
AcDbEntity
  8
0
  6
CONTINUOUS
 62
               4
100
AcDbLine
 10
8.5
 20
60.700000000000003
 30
0.0
 11
9.25
 21
62.200000000000003
 31
0.0
  0
LINE
  5
9E
100
AcDbEntity
  8
0
  6
CONTINUOUS
 62
               4
100
AcDbLine
 10
9.25
 20
62.560000000000002
 30
0.0
 11
9.25
 21
61.299999999999997
 31
0.0
  0
LINE
  5
9F
100
AcDbEntity
  8
0
  6
CONTINUOUS
 62
               4
100
AcDbLine
 10
9.5
 20
62.700000000000003
 30
0.0
 11
9.6199999999999992
 21
62.700000000000003
 31
0.0
  0
LINE
  5
A0
100
AcDbEntity
  8
0
  6
CONTINUOUS
 62
               4
100
AcDbLine
 10
13.75
 20
62.560000000000002
 30
0.0
 11
13.75
 21
61.299999999999997
 31
0.0
  0
LINE
  5
A1
100
AcDbEntity
  8
0
  6
CONTINUOUS
 62
               4
100
AcDbLine
 10
13.32
 20
62.700000000000003
 30
0.0
 11
22.5
 21
62.700000000000003
 31
0.0
  0
LINE
  5
A2
100
AcDbEntity
  8
0
  6
CONTINUOUS
 62
               4
100
AcDbLine
 10
23.5
 20
60.700000000000003
 30
0.0
 11
22.5
 21
62.700000000000003
 31
0.0
  0
LINE
  5
A3
100
AcDbEntity
  8
0
  6
CONTINUOUS
 62
               4
100
AcDbLine
 10
8.5
 20
60.700000000000003
 30
0.0
 11
23.5
 21
60.700000000000003
 31
0.0
  0
LINE
  5
A4
100
AcDbEntity
  8
0
  6
CONTINUOUS
 62
               4
100
AcDbLine
 10
8.5
 20
59.700000000000003
 30
0.0
 11
23.5
 21
59.700000000000003
 31
0.0
  0
LINE
  5
A5
100
AcDbEntity
  8
0
  6
CONTINUOUS
 62
               4
100
AcDbLine
 10
14.050000000000001
 20
61.299999999999997
 30
0.0
 11
8.9499999999999993
 21
61.299999999999997
 31
0.0
  0
LINE
  5
A6
100
AcDbEntity
  8
0
  6
CONTINUOUS
 62
               4
100
AcDbLine
 10
14.050000000000001
 20
61.299999999999997
 30
0.0
 11
14.050000000000001
 21
60.700000000000003
 31
0.0
  0
LINE
  5
A7
100
AcDbEntity
  8
0
  6
CONTINUOUS
 62
               4
100
AcDbLine
 10
8.9499999999999993
 20
61.299999999999997
 30
0.0
 11
8.9499999999999993
 21
60.700000000000003
 31
0.0
  0
LINE
  5
A8
100
AcDbEntity
  8
0
  6
CONTINUOUS
 62
               4
100
AcDbLine
 10
9.4700000000000006
 20
62.640000000000001
 30
0.0
 11
9.5
 21
62.700000000000003
 31
0.0
  0
LINE
  5
A9
100
AcDbEntity
  8
0
  6
CONTINUOUS
 62
               4
100
AcDbLine
 10
24.5
 20
60.700000000000003
 30
0.0
 11
24.5
 21
34.5
 31
0.0
  0
LINE
  5
AA
100
AcDbEntity
  8
0
  6
CONTINUOUS
 62
               4
100
AcDbLine
 10
39.5
 20
60.700000000000003
 30
0.0
 11
39.5
 21
34.5
 31
0.0
  0
LINE
  5
AB
100
AcDbEntity
  8
0
  6
CONTINUOUS
 62
               4
100
AcDbLine
 10
30.5
 20
62.700000000000003
 30
0.0
 11
30.5
 21
60.700000000000003
 31
0.0
  0
LINE
  5
AC
100
AcDbEntity
  8
0
  6
CONTINUOUS
 62
               4
100
AcDbLine
 10
24.5
 20
60.700000000000003
 30
0.0
 11
25.25
 21
62.200000000000003
 31
0.0
  0
LINE
  5
AD
100
AcDbEntity
  8
0
  6
CONTINUOUS
 62
               4
100
AcDbLine
 10
25.25
 20
62.560000000000002
 30
0.0
 11
25.25
 21
61.299999999999997
 31
0.0
  0
LINE
  5
AE
100
AcDbEntity
  8
0
  6
CONTINUOUS
 62
               4
100
AcDbLine
 10
25.5
 20
62.700000000000003
 30
0.0
 11
25.620000000000001
 21
62.700000000000003
 31
0.0
  0
LINE
  5
AF
100
AcDbEntity
  8
0
  6
CONTINUOUS
 62
               4
100
AcDbLine
 10
29.75
 20
62.560000000000002
 30
0.0
 11
29.75
 21
61.299999999999997
 31
0.0
  0
LINE
  5
B0
100
AcDbEntity
  8
0
  6
CONTINUOUS
 62
               4
100
AcDbLine
 10
29.32
 20
62.700000000000003
 30
0.0
 11
38.5
 21
62.700000000000003
 31
0.0
  0
LINE
  5
B1
100
AcDbEntity
  8
0
  6
CONTINUOUS
 62
               4
100
AcDbLine
 10
39.5
 20
60.700000000000003
 30
0.0
 11
38.5
 21
62.700000000000003
 31
0.0
  0
LINE
  5
B2
100
AcDbEntity
  8
0
  6
CONTINUOUS
 62
               4
100
AcDbLine
 10
24.5
 20
60.700000000000003
 30
0.0
 11
39.5
 21
60.700000000000003
 31
0.0
  0
LINE
  5
B3
100
AcDbEntity
  8
0
  6
CONTINUOUS
 62
               4
100
AcDbLine
 10
24.5
 20
59.700000000000003
 30
0.0
 11
39.5
 21
59.700000000000003
 31
0.0
  0
LINE
  5
B4
100
AcDbEntity
  8
0
  6
CONTINUOUS
 62
               4
100
AcDbLine
 10
30.050000000000001
 20
61.299999999999997
 30
0.0
 11
24.949999999999999
 21
61.299999999999997
 31
0.0
  0
LINE
  5
B5
100
AcDbEntity
  8
0
  6
CONTINUOUS
 62
               4
100
AcDbLine
 10
30.050000000000001
 20
61.299999999999997
 30
0.0
 11
30.050000000000001
 21
60.700000000000003
 31
0.0
  0
LINE
  5
B6
100
AcDbEntity
  8
0
  6
CONTINUOUS
 62
               4
100
AcDbLine
 10
24.949999999999999
 20
61.299999999999997
 30
0.0
 11
24.949999999999999
 21
60.700000000000003
 31
0.0
  0
LINE
  5
B7
100
AcDbEntity
  8
0
  6
CONTINUOUS
 62
               4
100
AcDbLine
 10
25.469999999999999
 20
62.640000000000001
 30
0.0
 11
25.5
 21
62.700000000000003
 31
0.0
  0
ARC
  5
B8
100
AcDbEntity
  8
0
  6
CONTINUOUS
 62
               4
100
AcDbCircle
 10
69.5
 20
31.5
 30
0.0
 40
2.0
100
AcDbArc
 50
0.0
 51
89.999999999999801
  0
ARC
  5
B9
100
AcDbEntity
  8
0
  6
CONTINUOUS
 62
               4
100
AcDbCircle
 10
58.500007629409083
 20
31.499992370590917
 30
0.0
 40
2.0000076294236351
100
AcDbArc
 50
90.000218565636374
 51
179.99978143436303
  0
ARC
  5
BA
100
AcDbEntity
  8
0
  6
CONTINUOUS
 62
               4
100
AcDbCircle
 10
58.5
 20
20.5
 30
0.0
 40
2.0
100
AcDbArc
 50
179.9999999999996
 51
269.99999999999937
  0
ARC
  5
BB
100
AcDbEntity
  8
0
  6
CONTINUOUS
 62
               4
100
AcDbCircle
 10
69.500007629379979
 20
20.499992370620021
 30
0.0
 40
1.9999923706345726
100
AcDbArc
 50
269.99978143352905
 51
0.0002185664703221
  0
CIRCLE
  5
BC
100
AcDbEntity
  8
0
  6
CONTINUOUS
 62
               4
100
AcDbCircle
 10
58.500015258789062
 20
25.5
 30
0.0
 40
2.25
  0
CIRCLE
  5
BD
100
AcDbEntity
  8
0
  6
CONTINUOUS
 62
               4
100
AcDbCircle
 10
69.500015258789063
 20
25.5
 30
0.0
 40
2.25
  0
CIRCLE
  5
BE
100
AcDbEntity
  8
0
  6
CONTINUOUS
 62
               7
100
AcDbCircle
 10
-12.0
 20
24.5
 30
0.0
 40
2.25
  0
CIRCLE
  5
BF
100
AcDbEntity
  8
0
  6
CONTINUOUS
 62
               7
100
AcDbCircle
 10
76.0
 20
24.5
 30
0.0
 40
2.25
  0
CIRCLE
  5
C0
100
AcDbEntity
  8
0
  6
CONTINUOUS
 62
               7
100
AcDbCircle
 10
48.000015258789063
 20
31.0
 30
0.0
 40
1.5
  0
ARC
  5
C1
100
AcDbEntity
  8
0
  6
CONTINUOUS
 62
               7
100
AcDbCircle
 10
53.499999999996732
 20
25.494999999999997
 30
0.0
 40
2.700782294079453
100
AcDbArc
 50
42.223742511028576
 51
317.77625748897066
  0
ARC
  5
C2
100
AcDbEntity
  8
0
  6
CONTINUOUS
 62
               7
100
AcDbCircle
 10
42.500015258792331
 20
25.494999999999997
 30
0.0
 40
2.7007935936317224
100
AcDbArc
 50
222.22352497141159
 51
137.77647502858756
  0
CIRCLE
  5
C3
100
AcDbEntity
  8
0
  6
CONTINUOUS
 62
               7
100
AcDbCircle
 10
48.000015258789063
 20
22.5
 30
0.0
 40
1.75
  0
CIRCLE
  5
C4
100
AcDbEntity
  8
0
  6
CONTINUOUS
 62
               2
100
AcDbCircle
 10
48.000015258789063
 20
22.5
 30
0.0
 40
2.5
  0
CIRCLE
  5
C5
100
AcDbEntity
  8
0
  6
CONTINUOUS
 62
               7
100
AcDbCircle
 10
42.500015258789063
 20
25.5
 30
0.0
 40
2.25
  0
CIRCLE
  5
C6
100
AcDbEntity
  8
0
  6
CONTINUOUS
 62
               7
100
AcDbCircle
 10
53.500015258789063
 20
25.5
 30
0.0
 40
2.25
  0
CIRCLE
  5
C7
100
AcDbEntity
  8
0
  6
CONTINUOUS
 62
               7
100
AcDbCircle
 10
32.0
 20
31.0
 30
0.0
 40
1.5
  0
ARC
  5
C8
100
AcDbEntity
  8
0
  6
CONTINUOUS
 62
               7
100
AcDbCircle
 10
37.499984741207669
 20
25.494999999999997
 30
0.0
 40
2.7007935936317224
100
AcDbArc
 50
42.223524971412068
 51
317.77647502858719
  0
ARC
  5
C9
100
AcDbEntity
  8
0
  6
CONTINUOUS
 62
               7
100
AcDbCircle
 10
26.500000000003268
 20
25.494999999999997
 30
0.0
 40
2.700782294079453
100
AcDbArc
 50
222.22374251102812
 51
137.77625748897105
  0
CIRCLE
  5
CA
100
AcDbEntity
  8
0
  6
CONTINUOUS
 62
               7
100
AcDbCircle
 10
32.0
 20
22.5
 30
0.0
 40
1.75
  0
CIRCLE
  5
CB
100
AcDbEntity
  8
0
  6
CONTINUOUS
 62
               2
100
AcDbCircle
 10
32.0
 20
22.5
 30
0.0
 40
2.5
  0
CIRCLE
  5
CC
100
AcDbEntity
  8
0
  6
CONTINUOUS
 62
               7
100
AcDbCircle
 10
26.5
 20
25.5
 30
0.0
 40
2.25
  0
CIRCLE
  5
CD
100
AcDbEntity
  8
0
  6
CONTINUOUS
 62
               7
100
AcDbCircle
 10
37.5
 20
25.5
 30
0.0
 40
2.25
  0
CIRCLE
  5
CE
100
AcDbEntity
  8
0
  6
CONTINUOUS
 62
               2
100
AcDbCircle
 10
16.0
 20
10.5
 30
0.0
 40
2.5
  0
CIRCLE
  5
CF
100
AcDbEntity
  8
0
  6
CONTINUOUS
 62
               2
100
AcDbCircle
 10
16.0
 20
22.5
 30
0.0
 40
2.5
  0
ARC
  5
D0
100
AcDbEntity
  8
0
  6
CONTINUOUS
 62
               7
100
AcDbCircle
 10
21.499984741207669
 20
25.494999999999997
 30
0.0
 40
2.7007935936317224
100
AcDbArc
 50
42.223524971412068
 51
317.77647502858719
  0
ARC
  5
D1
100
AcDbEntity
  8
0
  6
CONTINUOUS
 62
               7
100
AcDbCircle
 10
10.500002861026218
 20
25.494999999999997
 30
0.0
 40
2.700784412742538
100
AcDbArc
 50
222.22370172221136
 51
137.77629827778776
  0
CIRCLE
  5
D2
100
AcDbEntity
  8
0
  6
CONTINUOUS
 62
               7
100
AcDbCircle
 10
16.0
 20
10.5
 30
0.0
 40
1.75
  0
CIRCLE
  5
D3
100
AcDbEntity
  8
0
  6
CONTINUOUS
 62
               7
100
AcDbCircle
 10
16.0
 20
22.5
 30
0.0
 40
1.75
  0
CIRCLE
  5
D4
100
AcDbEntity
  8
0
  6
CONTINUOUS
 62
               7
100
AcDbCircle
 10
16.0
 20
31.0
 30
0.0
 40
1.5
  0
CIRCLE
  5
D5
100
AcDbEntity
  8
0
  6
CONTINUOUS
 62
               7
100
AcDbCircle
 10
10.5
 20
25.5
 30
0.0
 40
2.25
  0
CIRCLE
  5
D6
100
AcDbEntity
  8
0
  6
CONTINUOUS
 62
               7
100
AcDbCircle
 10
21.5
 20
25.5
 30
0.0
 40
2.25
  0
CIRCLE
  5
D7
100
AcDbEntity
  8
0
  6
CONTINUOUS
 62
               2
100
AcDbCircle
 10
0.0
 20
10.5
 30
0.0
 40
2.5
  0
CIRCLE
  5
D8
100
AcDbEntity
  8
0
  6
CONTINUOUS
 62
               2
100
AcDbCircle
 10
0.0
 20
22.5
 30
0.0
 40
2.5
  0
ARC
  5
D9
100
AcDbEntity
  8
0
  6
CONTINUOUS
 62
               7
100
AcDbCircle
 10
5.4999961852994659
 20
25.494999999999997
 30
0.0
 40
2.7007851189638705
100
AcDbArc
 50
42.223688125953792
 51
317.77631187404546
  0
ARC
  5
DA
100
AcDbEntity
  8
0
  6
CONTINUOUS
 62
               7
100
AcDbCircle
 10
-5.4999961852994659
 20
25.494999999999997
 30
0.0
 40
2.7007851189638705
100
AcDbArc
 50
222.22368812595334
 51
137.7763118740458
  0
CIRCLE
  5
DB
100
AcDbEntity
  8
0
  6
CONTINUOUS
 62
               7
100
AcDbCircle
 10
0.0
 20
10.5
 30
0.0
 40
1.75
  0
CIRCLE
  5
DC
100
AcDbEntity
  8
0
  6
CONTINUOUS
 62
               7
100
AcDbCircle
 10
0.0
 20
22.5
 30
0.0
 40
1.75
  0
CIRCLE
  5
DD
100
AcDbEntity
  8
0
  6
CONTINUOUS
 62
               7
100
AcDbCircle
 10
0.0
 20
31.0
 30
0.0
 40
1.5
  0
CIRCLE
  5
DE
100
AcDbEntity
  8
0
  6
CONTINUOUS
 62
               7
100
AcDbCircle
 10
-5.5
 20
25.5
 30
0.0
 40
2.25
  0
CIRCLE
  5
DF
100
AcDbEntity
  8
0
  6
CONTINUOUS
 62
               7
100
AcDbCircle
 10
5.5
 20
25.5
 30
0.0
 40
2.25
  0
ARC
  5
E0
100
AcDbEntity
  8
0
  6
CONTINUOUS
 62
               4
100
AcDbCircle
 10
27.5
 20
56.999984741210937
 30
0.0
 40
5.9980221471721187
100
AcDbArc
 50
67.968044227910056
 51
112.03195577208955
  0
ARC
  5
E1
100
AcDbEntity
  8
0
  6
CONTINUOUS
 62
               4
100
AcDbCircle
 10
36.494999999999997
 20
56.999969482419985
 30
0.0
 40
6.0004977211347637
100
AcDbArc
 50
71.791606583946361
 51
108.20839341605326
  0
ARC
  5
E2
100
AcDbEntity
  8
0
  6
CONTINUOUS
 62
               4
100
AcDbCircle
 10
11.5
 20
56.999984741210937
 30
0.0
 40
5.9980221471721187
100
AcDbArc
 50
67.968044227910056
 51
112.03195577208955
  0
ARC
  5
E3
100
AcDbEntity
  8
0
  6
CONTINUOUS
 62
               4
100
AcDbCircle
 10
20.495000000000001
 20
56.999969482419985
 30
0.0
 40
6.0004977211347637
100
AcDbArc
 50
71.791606583946361
 51
108.20839341605326
  0
ARC
  5
E4
100
AcDbEntity
  8
0
  6
CONTINUOUS
 62
               4
100
AcDbCircle
 10
52.494999999999997
 20
56.999969482419985
 30
0.0
 40
6.0004977211347637
100
AcDbArc
 50
71.791606583946361
 51
108.20839341605326
  0
ARC
  5
E5
100
AcDbEntity
  8
0
  6
CONTINUOUS
 62
               4
100
AcDbCircle
 10
43.5
 20
56.999984741210937
 30
0.0
 40
5.9980221471721187
100
AcDbArc
 50
67.968044227910056
 51
112.03195577208955
  0
ARC
  5
E6
100
AcDbEntity
  8
0
  6
CONTINUOUS
 62
               4
100
AcDbCircle
 10
4.4950000000000001
 20
56.999969482421875
 30
0.0
 40
6.0004977211329722
100
AcDbArc
 50
71.79160658394072
 51
108.20839341605888
  0
ARC
  5
E7
100
AcDbEntity
  8
0
  6
CONTINUOUS
 62
               4
100
AcDbCircle
 10
-4.5
 20
56.999984741210937
 30
0.0
 40
5.9980221471721187
100
AcDbArc
 50
67.968044227910056
 51
112.03195577208955
  0
ENDBLK
  5
E8
100
AcDbEntity
  8
0
100
AcDbBlockEnd
  0
BLOCK
  5
E9
100
AcDbEntity
  8
0
100
AcDbBlockBegin
  2
MS_2
 70
               0
 10
0.0
 20
0.0
 30
0.0
  3
MS_2
  1

  0
LINE
  5
EA
100
AcDbEntity
  8
0
  6
CONTINUOUS
 62
               7
100
AcDbLine
 10
-5.0
 20
2.0
 30
0.0
 11
20.0
 21
2.0
 31
0.0
  0
LINE
  5
EB
100
AcDbEntity
  8
0
  6
CONTINUOUS
 62
               7
100
AcDbLine
 10
-5.0
 20
0.0
 30
0.0
 11
20.0
 21
0.0
 31
0.0
  0
LINE
  5
EC
100
AcDbEntity
  8
0
  6
CONTINUOUS
 62
               7
100
AcDbLine
 10
5.0
 20
42.0
 30
0.0
 11
5.0
 21
32.0
 31
0.0
  0
LINE
  5
ED
100
AcDbEntity
  8
0
  6
CONTINUOUS
 62
               7
100
AcDbLine
 10
-5.0
 20
2.0
 30
0.0
 11
-5.0
 21
0.0
 31
0.0
  0
LINE
  5
EE
100
AcDbEntity
  8
0
  6
CENTER
 62
               2
100
AcDbLine
 10
0.0
 20
3.9500000000000002
 30
0.0
 11
0.0
 21
-2.1499999999999999
 31
0.0
  0
LINE
  5
EF
100
AcDbEntity
  8
0
  6
CONTINUOUS
 62
               7
100
AcDbLine
 10
45.0
 20
34.5
 30
0.0
 11
45.0
 21
2.0
 31
0.0
  0
LINE
  5
F0
100
AcDbEntity
  8
0
  6
CONTINUOUS
 62
               7
100
AcDbLine
 10
21.0
 20
34.5
 30
0.0
 11
21.0
 21
2.0
 31
0.0
  0
LINE
  5
F1
100
AcDbEntity
  8
0
  6
CONTINUOUS
 62
               7
100
AcDbLine
 10
21.0
 20
4.5
 30
0.0
 11
45.0
 21
4.5
 31
0.0
  0
LINE
  5
F2
100
AcDbEntity
  8
0
  6
CONTINUOUS
 62
               7
100
AcDbLine
 10
21.0
 20
2.0
 30
0.0
 11
45.0
 21
2.0
 31
0.0
  0
LINE
  5
F3
100
AcDbEntity
  8
0
  6
CONTINUOUS
 62
               7
100
AcDbLine
 10
42.0
 20
27.309999999999999
 30
0.0
 11
45.0
 21
27.309999999999999
 31
0.0
  0
LINE
  5
F4
100
AcDbEntity
  8
0
  6
CONTINUOUS
 62
               7
100
AcDbLine
 10
42.0
 20
23.68
 30
0.0
 11
45.0
 21
23.68
 31
0.0
  0
LINE
  5
F5
100
AcDbEntity
  8
0
  6
CONTINUOUS
 62
               7
100
AcDbLine
 10
42.0
 20
27.309999999999999
 30
0.0
 11
42.0
 21
23.68
 31
0.0
  0
LINE
  5
F6
100
AcDbEntity
  8
0
  6
CONTINUOUS
 62
               7
100
AcDbLine
 10
42.600000000000001
 20
27.309999999999999
 30
0.0
 11
42.600000000000001
 21
23.68
 31
0.0
  0
LINE
  5
F7
100
AcDbEntity
  8
0
  6
CONTINUOUS
 62
               7
100
AcDbLine
 10
5.0
 20
42.0
 30
0.0
 11
20.0
 21
42.0
 31
0.0
  0
LINE
  5
F8
100
AcDbEntity
  8
0
  6
CONTINUOUS
 62
               7
100
AcDbLine
 10
20.0
 20
42.0
 30
0.0
 11
20.0
 21
0.0
 31
0.0
  0
LINE
  5
F9
100
AcDbEntity
  8
0
  6
CENTER
 62
               2
100
AcDbLine
 10
13.0
 20
41.0
 30
0.0
 11
13.0
 21
26.050000000000001
 31
0.0
  0
LINE
  5
FA
100
AcDbEntity
  8
0
  6
CENTER
 62
               2
100
AcDbLine
 10
6.6299999999999999
 20
16.0
 30
0.0
 11
20.0
 21
16.0
 31
0.0
  0
LINE
  5
FB
100
AcDbEntity
  8
0
  6
CENTER
 62
               2
100
AcDbLine
 10
6.2800000000000002
 20
33.0
 30
0.0
 11
20.0
 21
33.0
 31
0.0
  0
LINE
  5
FC
100
AcDbEntity
  8
0
  6
CENTER
 62
               2
100
AcDbLine
 10
13.0
 20
23.620000000000001
 30
0.0
 11
13.0
 21
8.5500000000000007
 31
0.0
  0
LINE
  5
FD
100
AcDbEntity
  8
0
  6
CONTINUOUS
 62
               7
100
AcDbLine
 10
5.0
 20
17.0
 30
0.0
 11
5.0
 21
2.0
 31
0.0
  0
LINE
  5
FE
100
AcDbEntity
  8
0
  6
CONTINUOUS
 62
               7
100
AcDbLine
 10
6.5
 20
27.870000000000001
 30
0.0
 11
6.5
 21
21.120000000000001
 31
0.0
  0
LINE
  5
FF
100
AcDbEntity
  8
0
  6
CONTINUOUS
 62
               7
100
AcDbLine
 10
6.5
 20
27.870000000000001
 30
0.0
 11
5.0
 21
32.0
 31
0.0
  0
LINE
  5
100
100
AcDbEntity
  8
0
  6
CONTINUOUS
 62
               7
100
AcDbLine
 10
6.5
 20
21.120000000000001
 30
0.0
 11
5.0
 21
17.0
 31
0.0
  0
LINE
  5
101
100
AcDbEntity
  8
0
  6
CONTINUOUS
 62
               7
100
AcDbLine
 10
20.0
 20
8.5
 30
0.0
 11
21.0
 21
8.5
 31
0.0
  0
LINE
  5
102
100
AcDbEntity
  8
0
  6
CONTINUOUS
 62
               7
100
AcDbLine
 10
20.0
 20
32.5
 30
0.0
 11
21.0
 21
32.5
 31
0.0
  0
LINE
  5
103
100
AcDbEntity
  8
0
  6
CONTINUOUS
 62
               7
100
AcDbLine
 10
21.0
 20
34.5
 30
0.0
 11
45.0
 21
34.5
 31
0.0
  0
LINE
  5
104
100
AcDbEntity
  8
0
  6
CENTER
 62
               2
100
AcDbLine
 10
33.0
 20
67.700000000000003
 30
0.0
 11
33.0
 21
-3.0
 31
0.0
  0
LINE
  5
105
100
AcDbEntity
  8
0
  6
CONTINUOUS
 62
               4
100
AcDbLine
 10
45.0
 20
59.700000000000003
 30
0.0
 11
21.0
 21
59.700000000000003
 31
0.0
  0
LINE
  5
106
100
AcDbEntity
  8
0
  6
CONTINUOUS
 62
               4
100
AcDbLine
 10
45.0
 20
60.700000000000003
 30
0.0
 11
45.0
 21
34.5
 31
0.0
  0
LINE
  5
107
100
AcDbEntity
  8
0
  6
CONTINUOUS
 62
               4
100
AcDbLine
 10
21.0
 20
60.700000000000003
 30
0.0
 11
21.0
 21
34.5
 31
0.0
  0
LINE
  5
108
100
AcDbEntity
  8
0
  6
CONTINUOUS
 62
               4
100
AcDbLine
 10
22.0
 20
62.700000000000003
 30
0.0
 11
40.170000000000002
 21
62.700000000000003
 31
0.0
  0
LINE
  5
109
100
AcDbEntity
  8
0
  6
CONTINUOUS
 62
               4
100
AcDbLine
 10
45.0
 20
60.700000000000003
 30
0.0
 11
21.0
 21
60.700000000000003
 31
0.0
  0
LINE
  5
10A
100
AcDbEntity
  8
0
  6
CONTINUOUS
 62
               4
100
AcDbLine
 10
21.0
 20
60.700000000000003
 30
0.0
 11
22.0
 21
62.700000000000003
 31
0.0
  0
LINE
  5
10B
100
AcDbEntity
  8
0
  6
CONTINUOUS
 62
               4
100
AcDbLine
 10
45.0
 20
60.700000000000003
 30
0.0
 11
44.25
 21
62.200000000000003
 31
0.0
  0
LINE
  5
10C
100
AcDbEntity
  8
0
  6
CONTINUOUS
 62
               4
100
AcDbLine
 10
39.0
 20
62.700000000000003
 30
0.0
 11
39.0
 21
60.700000000000003
 31
0.0
  0
LINE
  5
10D
100
AcDbEntity
  8
0
  6
CONTINUOUS
 62
               4
100
AcDbLine
 10
44.549999999999997
 20
61.299999999999997
 30
0.0
 11
39.450000000000003
 21
61.299999999999997
 31
0.0
  0
LINE
  5
10E
100
AcDbEntity
  8
0
  6
CONTINUOUS
 62
               4
100
AcDbLine
 10
44.549999999999997
 20
61.299999999999997
 30
0.0
 11
44.549999999999997
 21
60.700000000000003
 31
0.0
  0
LINE
  5
10F
100
AcDbEntity
  8
0
  6
CONTINUOUS
 62
               4
100
AcDbLine
 10
39.450000000000003
 20
61.299999999999997
 30
0.0
 11
39.450000000000003
 21
60.700000000000003
 31
0.0
  0
LINE
  5
110
100
AcDbEntity
  8
0
  6
CONTINUOUS
 62
               4
100
AcDbLine
 10
44.25
 20
62.560000000000002
 30
0.0
 11
44.25
 21
61.299999999999997
 31
0.0
  0
LINE
  5
111
100
AcDbEntity
  8
0
  6
CONTINUOUS
 62
               4
100
AcDbLine
 10
39.75
 20
62.560000000000002
 30
0.0
 11
39.75
 21
61.299999999999997
 31
0.0
  0
LINE
  5
112
100
AcDbEntity
  8
0
  6
CONTINUOUS
 62
               4
100
AcDbLine
 10
43.869999999999997
 20
62.700000000000003
 30
0.0
 11
44.0
 21
62.700000000000003
 31
0.0
  0
LINE
  5
113
100
AcDbEntity
  8
0
  6
CONTINUOUS
 62
               4
100
AcDbLine
 10
9.0
 20
51.649999999999999
 30
0.0
 11
12.99
 21
51.649999999999999
 31
0.0
  0
LINE
  5
114
100
AcDbEntity
  8
0
  6
CONTINUOUS
 62
               4
100
AcDbLine
 10
9.0
 20
53.350000000000001
 30
0.0
 11
13.449999999999999
 21
53.350000000000001
 31
0.0
  0
LINE
  5
115
100
AcDbEntity
  8
0
  6
CONTINUOUS
 62
               4
100
AcDbLine
 10
-1.0
 20
52.18
 30
0.0
 11
9.0
 21
52.18
 31
0.0
  0
LINE
  5
116
100
AcDbEntity
  8
0
  6
CONTINUOUS
 62
               4
100
AcDbLine
 10
-1.0
 20
52.82
 30
0.0
 11
9.0
 21
52.82
 31
0.0
  0
LINE
  5
117
100
AcDbEntity
  8
0
  6
CONTINUOUS
 62
               4
100
AcDbLine
 10
9.0
 20
53.350000000000001
 30
0.0
 11
9.0
 21
51.649999999999999
 31
0.0
  0
LINE
  5
118
100
AcDbEntity
  8
0
  6
CONTINUOUS
 62
               4
100
AcDbLine
 10
-1.0
 20
52.82
 30
0.0
 11
-1.0
 21
52.18
 31
0.0
  0
LINE
  5
119
100
AcDbEntity
  8
0
  6
CONTINUOUS
 62
             200
100
AcDbLine
 10
12.460000000000001
 20
49.649999999999999
 30
0.0
 11
13.98
 21
55.350000000000001
 31
0.0
  0
LINE
  5
11A
100
AcDbEntity
  8
0
  6
CONTINUOUS
 62
             200
100
AcDbLine
 10
14.01
 20
49.649999999999999
 30
0.0
 11
15.539999999999999
 21
55.350000000000001
 31
0.0
  0
LINE
  5
11B
100
AcDbEntity
  8
0
  6
CONTINUOUS
 62
               4
100
AcDbLine
 10
15.0
 20
53.350000000000001
 30
0.0
 11
19.0
 21
53.350000000000001
 31
0.0
  0
LINE
  5
11C
100
AcDbEntity
  8
0
  6
CONTINUOUS
 62
               4
100
AcDbLine
 10
14.539999999999999
 20
51.649999999999999
 30
0.0
 11
19.0
 21
51.649999999999999
 31
0.0
  0
LINE
  5
11D
100
AcDbEntity
  8
0
  6
CONTINUOUS
 62
               4
100
AcDbLine
 10
44.020000000000003
 20
62.640000000000001
 30
0.0
 11
44.0
 21
62.700000000000003
 31
0.0
  0
LINE
  5
11E
100
AcDbEntity
  8
0
  6
CONTINUOUS
 62
               4
100
AcDbLine
 10
19.0
 20
50.799999999999997
 30
0.0
 11
21.0
 21
50.799999999999997
 31
0.0
  0
LINE
  5
11F
100
AcDbEntity
  8
0
  6
CONTINUOUS
 62
               4
100
AcDbLine
 10
19.0
 20
54.200000000000003
 30
0.0
 11
19.0
 21
50.799999999999997
 31
0.0
  0
LINE
  5
120
100
AcDbEntity
  8
0
  6
CONTINUOUS
 62
               4
100
AcDbLine
 10
19.0
 20
54.200000000000003
 30
0.0
 11
21.0
 21
54.200000000000003
 31
0.0
  0
ARC
  5
121
100
AcDbEntity
  8
0
  6
CONTINUOUS
 62
               7
100
AcDbCircle
 10
38.299987792966853
 20
25.494999999999997
 30
0.0
 40
5.9915327258112772
100
AcDbArc
 50
342.36647959382339
 51
17.633520406175876
  0
CIRCLE
  5
122
100
AcDbEntity
  8
0
  6
CONTINUOUS
 62
               2
100
AcDbCircle
 10
13.0
 20
33.0
 30
0.0
 40
4.8639993667602539
  0
CIRCLE
  5
123
100
AcDbEntity
  8
0
  6
CONTINUOUS
 62
               2
100
AcDbCircle
 10
13.0
 20
16.0
 30
0.0
 40
4.8639993667602539
  0
CIRCLE
  5
124
100
AcDbEntity
  8
0
  6
CONTINUOUS
 62
               7
100
AcDbCircle
 10
13.0
 20
33.0
 30
0.0
 40
4.2829999923706055
  0
CIRCLE
  5
125
100
AcDbEntity
  8
0
  6
CONTINUOUS
 62
               7
100
AcDbCircle
 10
13.0
 20
16.0
 30
0.0
 40
4.2829999923706055
  0
ARC
  5
126
100
AcDbEntity
  8
0
  6
CONTINUOUS
 62
               4
100
AcDbCircle
 10
42.0
 20
57.000015258789063
 30
0.0
 40
5.9979938581577832
100
AcDbArc
 50
67.967934872283365
 51
112.03206512771625
  0
ARC
  5
127
100
AcDbEntity
  8
0
  6
CONTINUOUS
 62
               4
100
AcDbCircle
 10
23.995000000000001
 20
56.999969482419985
 30
0.0
 40
6.0004977211347637
100
AcDbArc
 50
71.791606583946361
 51
108.20839341605326
  0
ENDBLK
  5
128
100
AcDbEntity
  8
0
100
AcDbBlockEnd
  0
BLOCK
  5
129
100
AcDbEntity
  8
0
100
AcDbBlockBegin
  2
MS_3
 70
               0
 10
0.0
 20
0.0
 30
0.0
  3
MS_3
  1

  0
LINE
  5
12A
100
AcDbEntity
  8
0
  6
CONTINUOUS
 62
               4
100
AcDbLine
 10
-23.0
 20
28.25
 30
0.0
 11
-23.600000000000001
 21
28.25
 31
0.0
  0
LINE
  5
12B
100
AcDbEntity
  8
0
  6
CONTINUOUS
 62
               4
100
AcDbLine
 10
-23.0
 20
23.75
 30
0.0
 11
-23.600000000000001
 21
23.75
 31
0.0
  0
LINE
  5
12C
100
AcDbEntity
  8
0
  6
CONTINUOUS
 62
               4
100
AcDbLine
 10
-23.600000000000001
 20
28.25
 30
0.0
 11
-23.600000000000001
 21
23.75
 31
0.0
  0
LINE
  5
12D
100
AcDbEntity
  8
0
  6
CONTINUOUS
 62
               7
100
AcDbLine
 10
5.0
 20
2.0
 30
0.0
 11
-20.0
 21
2.0
 31
0.0
  0
LINE
  5
12E
100
AcDbEntity
  8
0
  6
CONTINUOUS
 62
               7
100
AcDbLine
 10
5.0
 20
0.0
 30
0.0
 11
-20.0
 21
0.0
 31
0.0
  0
LINE
  5
12F
100
AcDbEntity
  8
0
  6
CONTINUOUS
 62
               7
100
AcDbLine
 10
-5.0
 20
42.0
 30
0.0
 11
-5.0
 21
32.0
 31
0.0
  0
LINE
  5
130
100
AcDbEntity
  8
0
  6
CONTINUOUS
 62
               7
100
AcDbLine
 10
5.0
 20
2.0
 30
0.0
 11
5.0
 21
0.0
 31
0.0
  0
LINE
  5
131
100
AcDbEntity
  8
0
  6
CENTER
 62
               2
100
AcDbLine
 10
0.0
 20
3.9500000000000002
 30
0.0
 11
0.0
 21
-2.1499999999999999
 31
0.0
  0
LINE
  5
132
100
AcDbEntity
  8
0
  6
CONTINUOUS
 62
               7
100
AcDbLine
 10
-45.0
 20
34.5
 30
0.0
 11
-45.0
 21
2.0
 31
0.0
  0
LINE
  5
133
100
AcDbEntity
  8
0
  6
CONTINUOUS
 62
               7
100
AcDbLine
 10
-21.0
 20
34.5
 30
0.0
 11
-21.0
 21
2.0
 31
0.0
  0
LINE
  5
134
100
AcDbEntity
  8
0
  6
CONTINUOUS
 62
               7
100
AcDbLine
 10
-21.0
 20
4.5
 30
0.0
 11
-45.0
 21
4.5
 31
0.0
  0
LINE
  5
135
100
AcDbEntity
  8
0
  6
CONTINUOUS
 62
               7
100
AcDbLine
 10
-21.0
 20
2.0
 30
0.0
 11
-45.0
 21
2.0
 31
0.0
  0
LINE
  5
136
100
AcDbEntity
  8
0
  6
CONTINUOUS
 62
               7
100
AcDbLine
 10
-42.0
 20
27.309999999999999
 30
0.0
 11
-45.0
 21
27.309999999999999
 31
0.0
  0
LINE
  5
137
100
AcDbEntity
  8
0
  6
CONTINUOUS
 62
               7
100
AcDbLine
 10
-42.0
 20
23.68
 30
0.0
 11
-45.0
 21
23.68
 31
0.0
  0
LINE
  5
138
100
AcDbEntity
  8
0
  6
CONTINUOUS
 62
               7
100
AcDbLine
 10
-42.0
 20
27.309999999999999
 30
0.0
 11
-42.0
 21
23.68
 31
0.0
  0
LINE
  5
139
100
AcDbEntity
  8
0
  6
CONTINUOUS
 62
               7
100
AcDbLine
 10
-42.600000000000001
 20
27.309999999999999
 30
0.0
 11
-42.600000000000001
 21
23.68
 31
0.0
  0
LINE
  5
13A
100
AcDbEntity
  8
0
  6
CONTINUOUS
 62
               7
100
AcDbLine
 10
-5.0
 20
42.0
 30
0.0
 11
-20.0
 21
42.0
 31
0.0
  0
LINE
  5
13B
100
AcDbEntity
  8
0
  6
CONTINUOUS
 62
               7
100
AcDbLine
 10
-20.0
 20
42.0
 30
0.0
 11
-20.0
 21
0.0
 31
0.0
  0
LINE
  5
13C
100
AcDbEntity
  8
0
  6
CENTER
 62
               2
100
AcDbLine
 10
-13.0
 20
41.0
 30
0.0
 11
-13.0
 21
26.050000000000001
 31
0.0
  0
LINE
  5
13D
100
AcDbEntity
  8
0
  6
CENTER
 62
               2
100
AcDbLine
 10
-6.6299999999999999
 20
16.0
 30
0.0
 11
-20.0
 21
16.0
 31
0.0
  0
LINE
  5
13E
100
AcDbEntity
  8
0
  6
CENTER
 62
               2
100
AcDbLine
 10
-6.2800000000000002
 20
33.0
 30
0.0
 11
-20.0
 21
33.0
 31
0.0
  0
LINE
  5
13F
100
AcDbEntity
  8
0
  6
CENTER
 62
               2
100
AcDbLine
 10
-13.0
 20
23.620000000000001
 30
0.0
 11
-13.0
 21
8.5500000000000007
 31
0.0
  0
LINE
  5
140
100
AcDbEntity
  8
0
  6
CONTINUOUS
 62
               7
100
AcDbLine
 10
-5.0
 20
17.0
 30
0.0
 11
-5.0
 21
2.0
 31
0.0
  0
LINE
  5
141
100
AcDbEntity
  8
0
  6
CONTINUOUS
 62
               7
100
AcDbLine
 10
-6.5
 20
27.870000000000001
 30
0.0
 11
-6.5
 21
21.120000000000001
 31
0.0
  0
LINE
  5
142
100
AcDbEntity
  8
0
  6
CONTINUOUS
 62
               7
100
AcDbLine
 10
-6.5
 20
27.870000000000001
 30
0.0
 11
-5.0
 21
32.0
 31
0.0
  0
LINE
  5
143
100
AcDbEntity
  8
0
  6
CONTINUOUS
 62
               7
100
AcDbLine
 10
-6.5
 20
21.120000000000001
 30
0.0
 11
-5.0
 21
17.0
 31
0.0
  0
LINE
  5
144
100
AcDbEntity
  8
0
  6
CONTINUOUS
 62
               7
100
AcDbLine
 10
-20.0
 20
8.5
 30
0.0
 11
-21.0
 21
8.5
 31
0.0
  0
LINE
  5
145
100
AcDbEntity
  8
0
  6
CONTINUOUS
 62
               7
100
AcDbLine
 10
-20.0
 20
32.5
 30
0.0
 11
-21.0
 21
32.5
 31
0.0
  0
LINE
  5
146
100
AcDbEntity
  8
0
  6
CONTINUOUS
 62
               7
100
AcDbLine
 10
-21.0
 20
34.5
 30
0.0
 11
-45.0
 21
34.5
 31
0.0
  0
LINE
  5
147
100
AcDbEntity
  8
0
  6
CONTINUOUS
 62
               7
100
AcDbLine
 10
-45.0
 20
17.0
 30
0.0
 11
-21.0
 21
17.0
 31
0.0
  0
LINE
  5
148
100
AcDbEntity
  8
0
  6
CONTINUOUS
 62
               7
100
AcDbLine
 10
-45.0
 20
14.5
 30
0.0
 11
-21.0
 21
14.5
 31
0.0
  0
LINE
  5
149
100
AcDbEntity
  8
0
  6
CONTINUOUS
 62
               4
100
AcDbLine
 10
-23.0
 20
18.5
 30
0.0
 11
-21.0
 21
18.5
 31
0.0
  0
LINE
  5
14A
100
AcDbEntity
  8
0
  6
CONTINUOUS
 62
               4
100
AcDbLine
 10
-23.0
 20
33.5
 30
0.0
 11
-21.0
 21
33.5
 31
0.0
  0
LINE
  5
14B
100
AcDbEntity
  8
0
  6
CONTINUOUS
 62
               4
100
AcDbLine
 10
-23.0
 20
33.5
 30
0.0
 11
-23.0
 21
18.5
 31
0.0
  0
LINE
  5
14C
100
AcDbEntity
  8
0
  6
CENTER
 62
               2
100
AcDbLine
 10
-33.0
 20
67.700000000000003
 30
0.0
 11
-33.0
 21
-3.0
 31
0.0
  0
LINE
  5
14D
100
AcDbEntity
  8
0
  6
CONTINUOUS
 62
               4
100
AcDbLine
 10
-45.0
 20
59.700000000000003
 30
0.0
 11
-21.0
 21
59.700000000000003
 31
0.0
  0
LINE
  5
14E
100
AcDbEntity
  8
0
  6
CONTINUOUS
 62
               4
100
AcDbLine
 10
-45.0
 20
60.700000000000003
 30
0.0
 11
-45.0
 21
34.5
 31
0.0
  0
LINE
  5
14F
100
AcDbEntity
  8
0
  6
CONTINUOUS
 62
               4
100
AcDbLine
 10
-21.0
 20
60.700000000000003
 30
0.0
 11
-21.0
 21
34.5
 31
0.0
  0
LINE
  5
150
100
AcDbEntity
  8
0
  6
CONTINUOUS
 62
               4
100
AcDbLine
 10
-44.0
 20
62.700000000000003
 30
0.0
 11
-25.82
 21
62.700000000000003
 31
0.0
  0
LINE
  5
151
100
AcDbEntity
  8
0
  6
CONTINUOUS
 62
               4
100
AcDbLine
 10
-45.0
 20
60.700000000000003
 30
0.0
 11
-21.0
 21
60.700000000000003
 31
0.0
  0
LINE
  5
152
100
AcDbEntity
  8
0
  6
CONTINUOUS
 62
               4
100
AcDbLine
 10
-45.0
 20
60.700000000000003
 30
0.0
 11
-44.0
 21
62.700000000000003
 31
0.0
  0
LINE
  5
153
100
AcDbEntity
  8
0
  6
CONTINUOUS
 62
               4
100
AcDbLine
 10
-21.0
 20
60.700000000000003
 30
0.0
 11
-21.75
 21
62.200000000000003
 31
0.0
  0
LINE
  5
154
100
AcDbEntity
  8
0
  6
CONTINUOUS
 62
               4
100
AcDbLine
 10
-27.0
 20
62.700000000000003
 30
0.0
 11
-27.0
 21
60.700000000000003
 31
0.0
  0
LINE
  5
155
100
AcDbEntity
  8
0
  6
CONTINUOUS
 62
               4
100
AcDbLine
 10
-21.449999999999999
 20
61.299999999999997
 30
0.0
 11
-26.550000000000001
 21
61.299999999999997
 31
0.0
  0
LINE
  5
156
100
AcDbEntity
  8
0
  6
CONTINUOUS
 62
               4
100
AcDbLine
 10
-21.449999999999999
 20
61.299999999999997
 30
0.0
 11
-21.449999999999999
 21
60.700000000000003
 31
0.0
  0
LINE
  5
157
100
AcDbEntity
  8
0
  6
CONTINUOUS
 62
               4
100
AcDbLine
 10
-26.550000000000001
 20
61.299999999999997
 30
0.0
 11
-26.550000000000001
 21
60.700000000000003
 31
0.0
  0
LINE
  5
158
100
AcDbEntity
  8
0
  6
CONTINUOUS
 62
               4
100
AcDbLine
 10
-21.75
 20
62.560000000000002
 30
0.0
 11
-21.75
 21
61.299999999999997
 31
0.0
  0
LINE
  5
159
100
AcDbEntity
  8
0
  6
CONTINUOUS
 62
               4
100
AcDbLine
 10
-26.25
 20
62.560000000000002
 30
0.0
 11
-26.25
 21
61.299999999999997
 31
0.0
  0
LINE
  5
15A
100
AcDbEntity
  8
0
  6
CONTINUOUS
 62
               4
100
AcDbLine
 10
-22.120000000000001
 20
62.700000000000003
 30
0.0
 11
-22.0
 21
62.700000000000003
 31
0.0
  0
LINE
  5
15B
100
AcDbEntity
  8
0
  6
CONTINUOUS
 62
               4
100
AcDbLine
 10
-9.0
 20
51.649999999999999
 30
0.0
 11
-12.99
 21
51.649999999999999
 31
0.0
  0
LINE
  5
15C
100
AcDbEntity
  8
0
  6
CONTINUOUS
 62
               4
100
AcDbLine
 10
-9.0
 20
53.350000000000001
 30
0.0
 11
-13.449999999999999
 21
53.350000000000001
 31
0.0
  0
LINE
  5
15D
100
AcDbEntity
  8
0
  6
CONTINUOUS
 62
               4
100
AcDbLine
 10
1.0
 20
52.18
 30
0.0
 11
-9.0
 21
52.18
 31
0.0
  0
LINE
  5
15E
100
AcDbEntity
  8
0
  6
CONTINUOUS
 62
               4
100
AcDbLine
 10
1.0
 20
52.82
 30
0.0
 11
-9.0
 21
52.82
 31
0.0
  0
LINE
  5
15F
100
AcDbEntity
  8
0
  6
CONTINUOUS
 62
               4
100
AcDbLine
 10
-9.0
 20
53.350000000000001
 30
0.0
 11
-9.0
 21
51.649999999999999
 31
0.0
  0
LINE
  5
160
100
AcDbEntity
  8
0
  6
CONTINUOUS
 62
               4
100
AcDbLine
 10
1.0
 20
52.82
 30
0.0
 11
1.0
 21
52.18
 31
0.0
  0
LINE
  5
161
100
AcDbEntity
  8
0
  6
CONTINUOUS
 62
             200
100
AcDbLine
 10
-12.460000000000001
 20
49.649999999999999
 30
0.0
 11
-13.98
 21
55.350000000000001
 31
0.0
  0
LINE
  5
162
100
AcDbEntity
  8
0
  6
CONTINUOUS
 62
             200
100
AcDbLine
 10
-14.01
 20
49.649999999999999
 30
0.0
 11
-15.539999999999999
 21
55.350000000000001
 31
0.0
  0
LINE
  5
163
100
AcDbEntity
  8
0
  6
CONTINUOUS
 62
               4
100
AcDbLine
 10
-15.0
 20
53.350000000000001
 30
0.0
 11
-19.0
 21
53.350000000000001
 31
0.0
  0
LINE
  5
164
100
AcDbEntity
  8
0
  6
CONTINUOUS
 62
               4
100
AcDbLine
 10
-14.539999999999999
 20
51.649999999999999
 30
0.0
 11
-19.0
 21
51.649999999999999
 31
0.0
  0
LINE
  5
165
100
AcDbEntity
  8
0
  6
CONTINUOUS
 62
               4
100
AcDbLine
 10
-21.969999999999999
 20
62.640000000000001
 30
0.0
 11
-22.0
 21
62.700000000000003
 31
0.0
  0
LINE
  5
166
100
AcDbEntity
  8
0
  6
CONTINUOUS
 62
               4
100
AcDbLine
 10
-19.0
 20
50.799999999999997
 30
0.0
 11
-21.0
 21
50.799999999999997
 31
0.0
  0
LINE
  5
167
100
AcDbEntity
  8
0
  6
CONTINUOUS
 62
               4
100
AcDbLine
 10
-19.0
 20
54.200000000000003
 30
0.0
 11
-19.0
 21
50.799999999999997
 31
0.0
  0
LINE
  5
168
100
AcDbEntity
  8
0
  6
CONTINUOUS
 62
               4
100
AcDbLine
 10
-19.0
 20
54.200000000000003
 30
0.0
 11
-21.0
 21
54.200000000000003
 31
0.0
  0
ARC
  5
169
100
AcDbEntity
  8
0
  6
CONTINUOUS
 62
               4
100
AcDbCircle
 10
-22.961013793945313
 20
26.0
 30
0.0
 40
2.3389748548302451
100
AcDbArc
 50
105.8542213886094
 51
254.1457786113898
  0
ARC
  5
16A
100
AcDbEntity
  8
0
  6
CONTINUOUS
 62
               7
100
AcDbCircle
 10
-38.299987792966853
 20
25.494999999999997
 30
0.0
 40
5.9915327258112772
100
AcDbArc
 50
162.36647959382375
 51
197.63352040617542
  0
CIRCLE
  5
16B
100
AcDbEntity
  8
0
  6
CONTINUOUS
 62
               2
100
AcDbCircle
 10
-13.0
 20
33.0
 30
0.0
 40
4.8639993667602539
  0
CIRCLE
  5
16C
100
AcDbEntity
  8
0
  6
CONTINUOUS
 62
               2
100
AcDbCircle
 10
-13.0
 20
16.0
 30
0.0
 40
4.8639993667602539
  0
CIRCLE
  5
16D
100
AcDbEntity
  8
0
  6
CONTINUOUS
 62
               7
100
AcDbCircle
 10
-13.0
 20
33.0
 30
0.0
 40
4.2829999923706055
  0
CIRCLE
  5
16E
100
AcDbEntity
  8
0
  6
CONTINUOUS
 62
               7
100
AcDbCircle
 10
-13.0
 20
16.0
 30
0.0
 40
4.2829999923706055
  0
ARC
  5
16F
100
AcDbEntity
  8
0
  6
CONTINUOUS
 62
               4
100
AcDbCircle
 10
-24.0
 20
57.000015258789063
 30
0.0
 40
5.9979938581577832
100
AcDbArc
 50
67.967934872283365
 51
112.03206512771625
  0
ARC
  5
170
100
AcDbEntity
  8
0
  6
CONTINUOUS
 62
               4
100
AcDbCircle
 10
-41.994999999999997
 20
56.999969482419985
 30
0.0
 40
6.0004977211347637
100
AcDbArc
 50
71.791606583946361
 51
108.20839341605326
  0
ENDBLK
  5
171
100
AcDbEntity
  8
0
100
AcDbBlockEnd
  0
BLOCK
  5
172
100
AcDbEntity
  8
0
100
AcDbBlockBegin
  2
MS_4
 70
               0
 10
0.0
 20
0.0
 30
0.0
  3
MS_4
  1

  0
LINE
  5
173
100
AcDbEntity
  8
0
  6
CONTINUOUS
 62
               7
100
AcDbLine
 10
-18.0
 20
-20.0
 30
0.0
 11
-18.0
 21
-5.0
 31
0.0
  0
LINE
  5
174
100
AcDbEntity
  8
0
  6
CONTINUOUS
 62
               7
100
AcDbLine
 10
-18.0
 20
-5.0
 30
0.0
 11
-1.6200000000000001
 21
-5.0
 31
0.0
  0
LINE
  5
175
100
AcDbEntity
  8
0
  6
CONTINUOUS
 62
               7
100
AcDbLine
 10
82.0
 20
-20.0
 30
0.0
 11
82.0
 21
-5.0
 31
0.0
  0
LINE
  5
176
100
AcDbEntity
  8
0
  6
CONTINUOUS
 62
               7
100
AcDbLine
 10
7.9000000000000004
 20
0.0
 30
0.0
 11
7.9000000000000004
 21
-5.0
 31
0.0
  0
LINE
  5
177
100
AcDbEntity
  8
0
  6
CONTINUOUS
 62
               7
100
AcDbLine
 10
-7.9000000000000004
 20
0.0
 30
0.0
 11
-7.9000000000000004
 21
-5.0
 31
0.0
  0
LINE
  5
178
100
AcDbEntity
  8
0
  6
CONTINUOUS
 62
               7
100
AcDbLine
 10
-7.9000000000000004
 20
0.0
 30
0.0
 11
-2.8999999999999999
 21
5.0
 31
0.0
  0
LINE
  5
179
100
AcDbEntity
  8
0
  6
CONTINUOUS
 62
               7
100
AcDbLine
 10
2.8999999999999999
 20
5.0
 30
0.0
 11
7.9000000000000004
 21
0.0
 31
0.0
  0
LINE
  5
17A
100
AcDbEntity
  8
0
  6
CONTINUOUS
 62
               7
100
AcDbLine
 10
-2.8999999999999999
 20
4.9900000000000002
 30
0.0
 11
2.8999999999999999
 21
4.9900000000000002
 31
0.0
  0
LINE
  5
17B
100
AcDbEntity
  8
0
  6
CONTINUOUS
 62
               7
100
AcDbLine
 10
71.900000000000006
 20
0.0
 30
0.0
 11
71.900000000000006
 21
-5.0
 31
0.0
  0
LINE
  5
17C
100
AcDbEntity
  8
0
  6
CONTINUOUS
 62
               7
100
AcDbLine
 10
56.100000000000001
 20
0.0
 30
0.0
 11
56.100000000000001
 21
-5.0
 31
0.0
  0
LINE
  5
17D
100
AcDbEntity
  8
0
  6
CONTINUOUS
 62
               7
100
AcDbLine
 10
56.100000000000001
 20
0.0
 30
0.0
 11
61.090000000000003
 21
4.9900000000000002
 31
0.0
  0
LINE
  5
17E
100
AcDbEntity
  8
0
  6
CONTINUOUS
 62
               7
100
AcDbLine
 10
66.900000000000006
 20
4.9900000000000002
 30
0.0
 11
71.900000000000006
 21
0.0
 31
0.0
  0
LINE
  5
17F
100
AcDbEntity
  8
0
  6
CONTINUOUS
 62
               7
100
AcDbLine
 10
61.090000000000003
 20
4.9900000000000002
 30
0.0
 11
66.900000000000006
 21
4.9900000000000002
 31
0.0
  0
LINE
  5
180
100
AcDbEntity
  8
0
  6
CONTINUOUS
 62
               7
100
AcDbLine
 10
-7.2999999999999998
 20
-20.0
 30
0.0
 11
-7.2999999999999998
 21
-21.0
 31
0.0
  0
LINE
  5
181
100
AcDbEntity
  8
0
  6
CONTINUOUS
 62
               7
100
AcDbLine
 10
7.2999999999999998
 20
-20.0
 30
0.0
 11
7.2999999999999998
 21
-21.0
 31
0.0
  0
LINE
  5
182
100
AcDbEntity
  8
0
  6
CONTINUOUS
 62
               7
100
AcDbLine
 10
8.6999999999999993
 20
-20.0
 30
0.0
 11
8.6999999999999993
 21
-21.0
 31
0.0
  0
LINE
  5
183
100
AcDbEntity
  8
0
  6
CONTINUOUS
 62
               7
100
AcDbLine
 10
23.300000000000001
 20
-20.0
 30
0.0
 11
23.300000000000001
 21
-21.0
 31
0.0
  0
LINE
  5
184
100
AcDbEntity
  8
0
  6
CONTINUOUS
 62
               7
100
AcDbLine
 10
24.699999999999999
 20
-20.0
 30
0.0
 11
24.699999999999999
 21
-21.0
 31
0.0
  0
LINE
  5
185
100
AcDbEntity
  8
0
  6
CONTINUOUS
 62
               7
100
AcDbLine
 10
39.299999999999997
 20
-20.0
 30
0.0
 11
39.299999999999997
 21
-21.0
 31
0.0
  0
LINE
  5
186
100
AcDbEntity
  8
0
  6
CONTINUOUS
 62
               7
100
AcDbLine
 10
40.700000000000003
 20
-20.0
 30
0.0
 11
40.700000000000003
 21
-21.0
 31
0.0
  0
LINE
  5
187
100
AcDbEntity
  8
0
  6
CONTINUOUS
 62
               7
100
AcDbLine
 10
55.299999999999997
 20
-20.0
 30
0.0
 11
55.299999999999997
 21
-21.0
 31
0.0
  0
LINE
  5
188
100
AcDbEntity
  8
0
  6
CONTINUOUS
 62
               7
100
AcDbLine
 10
56.700000000000003
 20
-20.0
 30
0.0
 11
56.700000000000003
 21
-21.0
 31
0.0
  0
LINE
  5
189
100
AcDbEntity
  8
0
  6
CONTINUOUS
 62
               7
100
AcDbLine
 10
71.299999999999997
 20
-20.0
 30
0.0
 11
71.299999999999997
 21
-21.0
 31
0.0
  0
LINE
  5
18A
100
AcDbEntity
  8
0
  6
CONTINUOUS
 62
               7
100
AcDbLine
 10
-18.0
 20
-20.0
 30
0.0
 11
-2.9700000000000002
 21
-20.0
 31
0.0
  0
LINE
  5
18B
100
AcDbEntity
  8
0
  6
CENTER
 62
               2
100
AcDbLine
 10
-3.5
 20
0.0
 30
0.0
 11
3.5
 21
0.0
 31
0.0
  0
LINE
  5
18C
100
AcDbEntity
  8
0
  6
CENTER
 62
               2
100
AcDbLine
 10
60.5
 20
0.0
 30
0.0
 11
67.5
 21
0.0
 31
0.0
  0
LINE
  5
18D
100
AcDbEntity
  8
0
  6
CENTER
 62
               2
100
AcDbLine
 10
0.0
 20
3.5
 30
0.0
 11
0.0
 21
-3.5
 31
0.0
  0
LINE
  5
18E
100
AcDbEntity
  8
0
  6
CENTER
 62
               2
100
AcDbLine
 10
64.0
 20
3.5
 30
0.0
 11
64.0
 21
-3.5
 31
0.0
  0
LINE
  5
18F
100
AcDbEntity
  8
0
  6
CONTINUOUS
 62
               4
100
AcDbLine
 10
67.25
 20
-23.0
 30
0.0
 11
67.25
 21
-23.600000000000001
 31
0.0
  0
LINE
  5
190
100
AcDbEntity
  8
0
  6
CONTINUOUS
 62
               4
100
AcDbLine
 10
48.450000000000003
 20
-9.0
 30
0.0
 11
48.450000000000003
 21
-13.34
 31
0.0
  0
LINE
  5
191
100
AcDbEntity
  8
0
  6
CONTINUOUS
 62
               4
100
AcDbLine
 10
50.149999999999999
 20
-9.0
 30
0.0
 11
50.149999999999999
 21
-13.800000000000001
 31
0.0
  0
LINE
  5
192
100
AcDbEntity
  8
0
  6
CONTINUOUS
 62
               4
100
AcDbLine
 10
48.979999999999997
 20
1.0
 30
0.0
 11
48.979999999999997
 21
-9.0
 31
0.0
  0
LINE
  5
193
100
AcDbEntity
  8
0
  6
CONTINUOUS
 62
               4
100
AcDbLine
 10
49.619999999999997
 20
1.0
 30
0.0
 11
49.619999999999997
 21
-9.0
 31
0.0
  0
LINE
  5
194
100
AcDbEntity
  8
0
  6
CONTINUOUS
 62
               4
100
AcDbLine
 10
50.149999999999999
 20
-9.0
 30
0.0
 11
48.450000000000003
 21
-9.0
 31
0.0
  0
LINE
  5
195
100
AcDbEntity
  8
0
  6
CONTINUOUS
 62
               4
100
AcDbLine
 10
49.619999999999997
 20
1.0
 30
0.0
 11
48.979999999999997
 21
1.0
 31
0.0
  0
LINE
  5
196
100
AcDbEntity
  8
0
  6
CONTINUOUS
 62
               4
100
AcDbLine
 10
45.850000000000001
 20
-9.0
 30
0.0
 11
45.850000000000001
 21
-12.640000000000001
 31
0.0
  0
LINE
  5
197
100
AcDbEntity
  8
0
  6
CONTINUOUS
 62
               4
100
AcDbLine
 10
47.549999999999997
 20
-9.0
 30
0.0
 11
47.549999999999997
 21
-13.1
 31
0.0
  0
LINE
  5
198
100
AcDbEntity
  8
0
  6
CONTINUOUS
 62
               4
100
AcDbLine
 10
46.380000000000003
 20
1.0
 30
0.0
 11
46.380000000000003
 21
-9.0
 31
0.0
  0
LINE
  5
199
100
AcDbEntity
  8
0
  6
CONTINUOUS
 62
               4
100
AcDbLine
 10
47.020000000000003
 20
1.0
 30
0.0
 11
47.020000000000003
 21
-9.0
 31
0.0
  0
LINE
  5
19A
100
AcDbEntity
  8
0
  6
CONTINUOUS
 62
               4
100
AcDbLine
 10
47.549999999999997
 20
-9.0
 30
0.0
 11
45.850000000000001
 21
-9.0
 31
0.0
  0
LINE
  5
19B
100
AcDbEntity
  8
0
  6
CONTINUOUS
 62
               4
100
AcDbLine
 10
47.020000000000003
 20
1.0
 30
0.0
 11
46.380000000000003
 21
1.0
 31
0.0
  0
LINE
  5
19C
100
AcDbEntity
  8
0
  6
CONTINUOUS
 62
             200
100
AcDbLine
 10
43.850000000000001
 20
-13.66
 30
0.0
 11
52.149999999999999
 21
-15.880000000000001
 31
0.0
  0
LINE
  5
19D
100
AcDbEntity
  8
0
  6
CONTINUOUS
 62
             200
100
AcDbLine
 10
43.850000000000001
 20
-12.109999999999999
 30
0.0
 11
52.149999999999999
 21
-14.33
 31
0.0
  0
LINE
  5
19E
100
AcDbEntity
  8
0
  6
CONTINUOUS
 62
               4
100
AcDbLine
 10
45.850000000000001
 20
-14.199999999999999
 30
0.0
 11
45.850000000000001
 21
-19.0
 31
0.0
  0
LINE
  5
19F
100
AcDbEntity
  8
0
  6
CONTINUOUS
 62
               4
100
AcDbLine
 10
47.549999999999997
 20
-14.65
 30
0.0
 11
47.549999999999997
 21
-19.0
 31
0.0
  0
LINE
  5
1A0
100
AcDbEntity
  8
0
  6
CONTINUOUS
 62
               4
100
AcDbLine
 10
48.450000000000003
 20
-14.890000000000001
 30
0.0
 11
48.450000000000003
 21
-19.0
 31
0.0
  0
LINE
  5
1A1
100
AcDbEntity
  8
0
  6
CONTINUOUS
 62
               4
100
AcDbLine
 10
50.149999999999999
 20
-15.35
 30
0.0
 11
50.149999999999999
 21
-19.0
 31
0.0
  0
LINE
  5
1A2
100
AcDbEntity
  8
0
  6
CONTINUOUS
 62
               4
100
AcDbLine
 10
45.020000000000003
 20
-21.0
 30
0.0
 11
45.020000000000003
 21
-19.0
 31
0.0
  0
LINE
  5
1A3
100
AcDbEntity
  8
0
  6
CONTINUOUS
 62
               4
100
AcDbLine
 10
45.020000000000003
 20
-19.0
 30
0.0
 11
51.020000000000003
 21
-19.0
 31
0.0
  0
LINE
  5
1A4
100
AcDbEntity
  8
0
  6
CONTINUOUS
 62
               4
100
AcDbLine
 10
51.020000000000003
 20
-21.0
 30
0.0
 11
51.020000000000003
 21
-19.0
 31
0.0
  0
LINE
  5
1A5
100
AcDbEntity
  8
0
  6
CONTINUOUS
 62
               4
100
AcDbLine
 10
49.5
 20
-24.0
 30
0.0
 11
49.5
 21
-21.0
 31
0.0
  0
LINE
  5
1A6
100
AcDbEntity
  8
0
  6
CONTINUOUS
 62
               4
100
AcDbLine
 10
46.5
 20
-42.0
 30
0.0
 11
46.5
 21
-45.0
 31
0.0
  0
LINE
  5
1A7
100
AcDbEntity
  8
0
  6
CONTINUOUS
 62
               4
100
AcDbLine
 10
43.5
 20
-39.0
 30
0.0
 11
40.5
 21
-39.0
 31
0.0
  0
LINE
  5
1A8
100
AcDbEntity
  8
0
  6
CONTINUOUS
 62
               4
100
AcDbLine
 10
52.5
 20
-27.0
 30
0.0
 11
55.5
 21
-27.0
 31
0.0
  0
LINE
  5
1A9
100
AcDbEntity
  8
0
  6
CONTINUOUS
 62
               4
100
AcDbLine
 10
46.5
 20
-44.0
 30
0.0
 11
54.5
 21
-44.0
 31
0.0
  0
LINE
  5
1AA
100
AcDbEntity
  8
0
  6
CONTINUOUS
 62
               4
100
AcDbLine
 10
41.5
 20
-22.0
 30
0.0
 11
49.5
 21
-22.0
 31
0.0
  0
LINE
  5
1AB
100
AcDbEntity
  8
0
  6
CONTINUOUS
 62
               4
100
AcDbLine
 10
41.5
 20
-39.0
 30
0.0
 11
41.5
 21
-22.0
 31
0.0
  0
LINE
  5
1AC
100
AcDbEntity
  8
0
  6
CONTINUOUS
 62
               4
100
AcDbLine
 10
54.5
 20
-44.0
 30
0.0
 11
54.5
 21
-27.0
 31
0.0
  0
LINE
  5
1AD
100
AcDbEntity
  8
0
  6
CONTINUOUS
 62
               4
100
AcDbLine
 10
40.5
 20
-45.0
 30
0.0
 11
55.5
 21
-45.0
 31
0.0
  0
LINE
  5
1AE
100
AcDbEntity
  8
0
  6
CONTINUOUS
 62
               4
100
AcDbLine
 10
40.5
 20
-45.0
 30
0.0
 11
40.5
 21
-21.0
 31
0.0
  0
LINE
  5
1AF
100
AcDbEntity
  8
0
  6
CONTINUOUS
 62
               4
100
AcDbLine
 10
55.5
 20
-45.0
 30
0.0
 11
55.5
 21
-21.0
 31
0.0
  0
LINE
  5
1B0
100
AcDbEntity
  8
0
  6
CONTINUOUS
 62
               4
100
AcDbLine
 10
40.5
 20
-21.0
 30
0.0
 11
55.5
 21
-21.0
 31
0.0
  0
LINE
  5
1B1
100
AcDbEntity
  8
0
  6
CONTINUOUS
 62
               4
100
AcDbLine
 10
44.409999999999997
 20
-41.079999999999998
 30
0.0
 11
42.579999999999998
 21
-42.909999999999997
 31
0.0
  0
LINE
  5
1B2
100
AcDbEntity
  8
0
  6
CONTINUOUS
 62
               4
100
AcDbLine
 10
44.409999999999997
 20
-42.909999999999997
 30
0.0
 11
42.579999999999998
 21
-41.079999999999998
 31
0.0
  0
LINE
  5
1B3
100
AcDbEntity
  8
0
  6
CONTINUOUS
 62
               4
100
AcDbLine
 10
53.409999999999997
 20
-24.91
 30
0.0
 11
51.579999999999998
 21
-23.079999999999998
 31
0.0
  0
LINE
  5
1B4
100
AcDbEntity
  8
0
  6
CONTINUOUS
 62
               4
100
AcDbLine
 10
51.579999999999998
 20
-24.91
 30
0.0
 11
53.409999999999997
 21
-23.079999999999998
 31
0.0
  0
LINE
  5
1B5
100
AcDbEntity
  8
0
  6
CONTINUOUS
 62
               4
100
AcDbLine
 10
0.45
 20
-9.0
 30
0.0
 11
0.45
 21
-13.34
 31
0.0
  0
LINE
  5
1B6
100
AcDbEntity
  8
0
  6
CONTINUOUS
 62
               4
100
AcDbLine
 10
2.1499999999999999
 20
-9.0
 30
0.0
 11
2.1499999999999999
 21
-13.800000000000001
 31
0.0
  0
LINE
  5
1B7
100
AcDbEntity
  8
0
  6
CONTINUOUS
 62
               4
100
AcDbLine
 10
0.98
 20
1.0
 30
0.0
 11
0.98
 21
-9.0
 31
0.0
  0
LINE
  5
1B8
100
AcDbEntity
  8
0
  6
CONTINUOUS
 62
               4
100
AcDbLine
 10
1.6200000000000001
 20
1.0
 30
0.0
 11
1.6200000000000001
 21
-9.0
 31
0.0
  0
LINE
  5
1B9
100
AcDbEntity
  8
0
  6
CONTINUOUS
 62
               4
100
AcDbLine
 10
2.1499999999999999
 20
-9.0
 30
0.0
 11
0.45
 21
-9.0
 31
0.0
  0
LINE
  5
1BA
100
AcDbEntity
  8
0
  6
CONTINUOUS
 62
               4
100
AcDbLine
 10
1.6200000000000001
 20
1.0
 30
0.0
 11
0.98
 21
1.0
 31
0.0
  0
LINE
  5
1BB
100
AcDbEntity
  8
0
  6
CONTINUOUS
 62
               4
100
AcDbLine
 10
-2.1499999999999999
 20
-9.0
 30
0.0
 11
-2.1499999999999999
 21
-12.640000000000001
 31
0.0
  0
LINE
  5
1BC
100
AcDbEntity
  8
0
  6
CONTINUOUS
 62
               4
100
AcDbLine
 10
-0.45
 20
-9.0
 30
0.0
 11
-0.45
 21
-13.1
 31
0.0
  0
LINE
  5
1BD
100
AcDbEntity
  8
0
  6
CONTINUOUS
 62
               4
100
AcDbLine
 10
-1.6200000000000001
 20
1.0
 30
0.0
 11
-1.6200000000000001
 21
-9.0
 31
0.0
  0
LINE
  5
1BE
100
AcDbEntity
  8
0
  6
CONTINUOUS
 62
               4
100
AcDbLine
 10
-0.98
 20
1.0
 30
0.0
 11
-0.98
 21
-9.0
 31
0.0
  0
LINE
  5
1BF
100
AcDbEntity
  8
0
  6
CONTINUOUS
 62
               4
100
AcDbLine
 10
-0.45
 20
-9.0
 30
0.0
 11
-2.1499999999999999
 21
-9.0
 31
0.0
  0
LINE
  5
1C0
100
AcDbEntity
  8
0
  6
CONTINUOUS
 62
               4
100
AcDbLine
 10
-0.98
 20
1.0
 30
0.0
 11
-1.6200000000000001
 21
1.0
 31
0.0
  0
LINE
  5
1C1
100
AcDbEntity
  8
0
  6
CONTINUOUS
 62
             200
100
AcDbLine
 10
-4.1500000000000004
 20
-13.66
 30
0.0
 11
4.1500000000000004
 21
-15.880000000000001
 31
0.0
  0
LINE
  5
1C2
100
AcDbEntity
  8
0
  6
CONTINUOUS
 62
             200
100
AcDbLine
 10
-4.1500000000000004
 20
-12.109999999999999
 30
0.0
 11
4.1500000000000004
 21
-14.33
 31
0.0
  0
LINE
  5
1C3
100
AcDbEntity
  8
0
  6
CONTINUOUS
 62
               4
100
AcDbLine
 10
-2.1499999999999999
 20
-14.199999999999999
 30
0.0
 11
-2.1499999999999999
 21
-19.0
 31
0.0
  0
LINE
  5
1C4
100
AcDbEntity
  8
0
  6
CONTINUOUS
 62
               4
100
AcDbLine
 10
-0.45
 20
-14.65
 30
0.0
 11
-0.45
 21
-19.0
 31
0.0
  0
LINE
  5
1C5
100
AcDbEntity
  8
0
  6
CONTINUOUS
 62
               4
100
AcDbLine
 10
0.45
 20
-14.890000000000001
 30
0.0
 11
0.45
 21
-19.0
 31
0.0
  0
LINE
  5
1C6
100
AcDbEntity
  8
0
  6
CONTINUOUS
 62
               4
100
AcDbLine
 10
2.1499999999999999
 20
-15.35
 30
0.0
 11
2.1499999999999999
 21
-19.0
 31
0.0
  0
LINE
  5
1C7
100
AcDbEntity
  8
0
  6
CONTINUOUS
 62
               4
100
AcDbLine
 10
-2.9700000000000002
 20
-21.0
 30
0.0
 11
-2.9700000000000002
 21
-19.0
 31
0.0
  0
LINE
  5
1C8
100
AcDbEntity
  8
0
  6
CONTINUOUS
 62
               4
100
AcDbLine
 10
-2.9700000000000002
 20
-19.0
 30
0.0
 11
3.02
 21
-19.0
 31
0.0
  0
LINE
  5
1C9
100
AcDbEntity
  8
0
  6
CONTINUOUS
 62
               4
100
AcDbLine
 10
3.02
 20
-21.0
 30
0.0
 11
3.02
 21
-19.0
 31
0.0
  0
LINE
  5
1CA
100
AcDbEntity
  8
0
  6
CONTINUOUS
 62
               4
100
AcDbLine
 10
1.5
 20
-24.0
 30
0.0
 11
1.5
 21
-21.0
 31
0.0
  0
LINE
  5
1CB
100
AcDbEntity
  8
0
  6
CONTINUOUS
 62
               4
100
AcDbLine
 10
-1.5
 20
-42.0
 30
0.0
 11
-1.5
 21
-45.0
 31
0.0
  0
LINE
  5
1CC
100
AcDbEntity
  8
0
  6
CONTINUOUS
 62
               4
100
AcDbLine
 10
-4.5
 20
-39.0
 30
0.0
 11
-7.5
 21
-39.0
 31
0.0
  0
LINE
  5
1CD
100
AcDbEntity
  8
0
  6
CONTINUOUS
 62
               4
100
AcDbLine
 10
4.5
 20
-27.0
 30
0.0
 11
7.5
 21
-27.0
 31
0.0
  0
LINE
  5
1CE
100
AcDbEntity
  8
0
  6
CONTINUOUS
 62
               4
100
AcDbLine
 10
-1.5
 20
-44.0
 30
0.0
 11
6.5
 21
-44.0
 31
0.0
  0
LINE
  5
1CF
100
AcDbEntity
  8
0
  6
CONTINUOUS
 62
               4
100
AcDbLine
 10
-6.5
 20
-22.0
 30
0.0
 11
1.5
 21
-22.0
 31
0.0
  0
LINE
  5
1D0
100
AcDbEntity
  8
0
  6
CONTINUOUS
 62
               4
100
AcDbLine
 10
-6.5
 20
-39.0
 30
0.0
 11
-6.5
 21
-22.0
 31
0.0
  0
LINE
  5
1D1
100
AcDbEntity
  8
0
  6
CONTINUOUS
 62
               4
100
AcDbLine
 10
6.5
 20
-44.0
 30
0.0
 11
6.5
 21
-27.0
 31
0.0
  0
LINE
  5
1D2
100
AcDbEntity
  8
0
  6
CONTINUOUS
 62
               4
100
AcDbLine
 10
-7.5
 20
-45.0
 30
0.0
 11
7.5
 21
-45.0
 31
0.0
  0
LINE
  5
1D3
100
AcDbEntity
  8
0
  6
CONTINUOUS
 62
               4
100
AcDbLine
 10
-7.5
 20
-45.0
 30
0.0
 11
-7.5
 21
-21.0
 31
0.0
  0
LINE
  5
1D4
100
AcDbEntity
  8
0
  6
CONTINUOUS
 62
               4
100
AcDbLine
 10
7.5
 20
-45.0
 30
0.0
 11
7.5
 21
-21.0
 31
0.0
  0
LINE
  5
1D5
100
AcDbEntity
  8
0
  6
CONTINUOUS
 62
               4
100
AcDbLine
 10
-7.5
 20
-21.0
 30
0.0
 11
7.5
 21
-21.0
 31
0.0
  0
LINE
  5
1D6
100
AcDbEntity
  8
0
  6
CONTINUOUS
 62
               4
100
AcDbLine
 10
-3.5800000000000001
 20
-41.079999999999998
 30
0.0
 11
-5.4100000000000001
 21
-42.909999999999997
 31
0.0
  0
LINE
  5
1D7
100
AcDbEntity
  8
0
  6
CONTINUOUS
 62
               4
100
AcDbLine
 10
-3.5800000000000001
 20
-42.909999999999997
 30
0.0
 11
-5.4100000000000001
 21
-41.079999999999998
 31
0.0
  0
LINE
  5
1D8
100
AcDbEntity
  8
0
  6
CONTINUOUS
 62
               4
100
AcDbLine
 10
5.4100000000000001
 20
-24.91
 30
0.0
 11
3.5800000000000001
 21
-23.079999999999998
 31
0.0
  0
LINE
  5
1D9
100
AcDbEntity
  8
0
  6
CONTINUOUS
 62
               4
100
AcDbLine
 10
3.5800000000000001
 20
-24.91
 30
0.0
 11
5.4100000000000001
 21
-23.079999999999998
 31
0.0
  0
LINE
  5
1DA
100
AcDbEntity
  8
0
  6
CONTINUOUS
 62
               4
100
AcDbLine
 10
16.449999999999999
 20
-9.0
 30
0.0
 11
16.449999999999999
 21
-13.34
 31
0.0
  0
LINE
  5
1DB
100
AcDbEntity
  8
0
  6
CONTINUOUS
 62
               4
100
AcDbLine
 10
18.149999999999999
 20
-9.0
 30
0.0
 11
18.149999999999999
 21
-13.800000000000001
 31
0.0
  0
LINE
  5
1DC
100
AcDbEntity
  8
0
  6
CONTINUOUS
 62
               4
100
AcDbLine
 10
16.98
 20
1.0
 30
0.0
 11
16.98
 21
-9.0
 31
0.0
  0
LINE
  5
1DD
100
AcDbEntity
  8
0
  6
CONTINUOUS
 62
               4
100
AcDbLine
 10
17.620000000000001
 20
1.0
 30
0.0
 11
17.620000000000001
 21
-9.0
 31
0.0
  0
LINE
  5
1DE
100
AcDbEntity
  8
0
  6
CONTINUOUS
 62
               4
100
AcDbLine
 10
18.149999999999999
 20
-9.0
 30
0.0
 11
16.449999999999999
 21
-9.0
 31
0.0
  0
LINE
  5
1DF
100
AcDbEntity
  8
0
  6
CONTINUOUS
 62
               4
100
AcDbLine
 10
17.620000000000001
 20
1.0
 30
0.0
 11
16.98
 21
1.0
 31
0.0
  0
LINE
  5
1E0
100
AcDbEntity
  8
0
  6
CONTINUOUS
 62
               4
100
AcDbLine
 10
13.85
 20
-9.0
 30
0.0
 11
13.85
 21
-12.640000000000001
 31
0.0
  0
LINE
  5
1E1
100
AcDbEntity
  8
0
  6
CONTINUOUS
 62
               4
100
AcDbLine
 10
15.550000000000001
 20
-9.0
 30
0.0
 11
15.550000000000001
 21
-13.1
 31
0.0
  0
LINE
  5
1E2
100
AcDbEntity
  8
0
  6
CONTINUOUS
 62
               4
100
AcDbLine
 10
14.380000000000001
 20
1.0
 30
0.0
 11
14.380000000000001
 21
-9.0
 31
0.0
  0
LINE
  5
1E3
100
AcDbEntity
  8
0
  6
CONTINUOUS
 62
               4
100
AcDbLine
 10
15.02
 20
1.0
 30
0.0
 11
15.02
 21
-9.0
 31
0.0
  0
LINE
  5
1E4
100
AcDbEntity
  8
0
  6
CONTINUOUS
 62
               4
100
AcDbLine
 10
15.550000000000001
 20
-9.0
 30
0.0
 11
13.85
 21
-9.0
 31
0.0
  0
LINE
  5
1E5
100
AcDbEntity
  8
0
  6
CONTINUOUS
 62
               4
100
AcDbLine
 10
15.02
 20
1.0
 30
0.0
 11
14.380000000000001
 21
1.0
 31
0.0
  0
LINE
  5
1E6
100
AcDbEntity
  8
0
  6
CONTINUOUS
 62
             200
100
AcDbLine
 10
11.85
 20
-13.66
 30
0.0
 11
20.149999999999999
 21
-15.880000000000001
 31
0.0
  0
LINE
  5
1E7
100
AcDbEntity
  8
0
  6
CONTINUOUS
 62
             200
100
AcDbLine
 10
11.85
 20
-12.109999999999999
 30
0.0
 11
20.149999999999999
 21
-14.33
 31
0.0
  0
LINE
  5
1E8
100
AcDbEntity
  8
0
  6
CONTINUOUS
 62
               4
100
AcDbLine
 10
13.85
 20
-14.199999999999999
 30
0.0
 11
13.85
 21
-19.0
 31
0.0
  0
LINE
  5
1E9
100
AcDbEntity
  8
0
  6
CONTINUOUS
 62
               4
100
AcDbLine
 10
15.550000000000001
 20
-14.65
 30
0.0
 11
15.550000000000001
 21
-19.0
 31
0.0
  0
LINE
  5
1EA
100
AcDbEntity
  8
0
  6
CONTINUOUS
 62
               4
100
AcDbLine
 10
16.449999999999999
 20
-14.890000000000001
 30
0.0
 11
16.449999999999999
 21
-19.0
 31
0.0
  0
LINE
  5
1EB
100
AcDbEntity
  8
0
  6
CONTINUOUS
 62
               4
100
AcDbLine
 10
18.149999999999999
 20
-15.35
 30
0.0
 11
18.149999999999999
 21
-19.0
 31
0.0
  0
LINE
  5
1EC
100
AcDbEntity
  8
0
  6
CONTINUOUS
 62
               4
100
AcDbLine
 10
13.02
 20
-21.0
 30
0.0
 11
13.02
 21
-19.0
 31
0.0
  0
LINE
  5
1ED
100
AcDbEntity
  8
0
  6
CONTINUOUS
 62
               4
100
AcDbLine
 10
13.02
 20
-19.0
 30
0.0
 11
19.02
 21
-19.0
 31
0.0
  0
LINE
  5
1EE
100
AcDbEntity
  8
0
  6
CONTINUOUS
 62
               4
100
AcDbLine
 10
19.02
 20
-21.0
 30
0.0
 11
19.02
 21
-19.0
 31
0.0
  0
LINE
  5
1EF
100
AcDbEntity
  8
0
  6
CONTINUOUS
 62
               4
100
AcDbLine
 10
17.5
 20
-24.0
 30
0.0
 11
17.5
 21
-21.0
 31
0.0
  0
LINE
  5
1F0
100
AcDbEntity
  8
0
  6
CONTINUOUS
 62
               4
100
AcDbLine
 10
14.5
 20
-42.0
 30
0.0
 11
14.5
 21
-45.0
 31
0.0
  0
LINE
  5
1F1
100
AcDbEntity
  8
0
  6
CONTINUOUS
 62
               4
100
AcDbLine
 10
11.5
 20
-39.0
 30
0.0
 11
8.5
 21
-39.0
 31
0.0
  0
LINE
  5
1F2
100
AcDbEntity
  8
0
  6
CONTINUOUS
 62
               4
100
AcDbLine
 10
20.5
 20
-27.0
 30
0.0
 11
23.5
 21
-27.0
 31
0.0
  0
LINE
  5
1F3
100
AcDbEntity
  8
0
  6
CONTINUOUS
 62
               4
100
AcDbLine
 10
14.5
 20
-44.0
 30
0.0
 11
22.5
 21
-44.0
 31
0.0
  0
LINE
  5
1F4
100
AcDbEntity
  8
0
  6
CONTINUOUS
 62
               4
100
AcDbLine
 10
9.5
 20
-22.0
 30
0.0
 11
17.5
 21
-22.0
 31
0.0
  0
LINE
  5
1F5
100
AcDbEntity
  8
0
  6
CONTINUOUS
 62
               4
100
AcDbLine
 10
9.5
 20
-39.0
 30
0.0
 11
9.5
 21
-22.0
 31
0.0
  0
LINE
  5
1F6
100
AcDbEntity
  8
0
  6
CONTINUOUS
 62
               4
100
AcDbLine
 10
22.5
 20
-44.0
 30
0.0
 11
22.5
 21
-27.0
 31
0.0
  0
LINE
  5
1F7
100
AcDbEntity
  8
0
  6
CONTINUOUS
 62
               4
100
AcDbLine
 10
8.5
 20
-45.0
 30
0.0
 11
23.5
 21
-45.0
 31
0.0
  0
LINE
  5
1F8
100
AcDbEntity
  8
0
  6
CONTINUOUS
 62
               4
100
AcDbLine
 10
8.5
 20
-45.0
 30
0.0
 11
8.5
 21
-21.0
 31
0.0
  0
LINE
  5
1F9
100
AcDbEntity
  8
0
  6
CONTINUOUS
 62
               4
100
AcDbLine
 10
23.5
 20
-45.0
 30
0.0
 11
23.5
 21
-21.0
 31
0.0
  0
LINE
  5
1FA
100
AcDbEntity
  8
0
  6
CONTINUOUS
 62
               4
100
AcDbLine
 10
8.5
 20
-21.0
 30
0.0
 11
23.5
 21
-21.0
 31
0.0
  0
LINE
  5
1FB
100
AcDbEntity
  8
0
  6
CONTINUOUS
 62
               4
100
AcDbLine
 10
12.41
 20
-41.079999999999998
 30
0.0
 11
10.58
 21
-42.909999999999997
 31
0.0
  0
LINE
  5
1FC
100
AcDbEntity
  8
0
  6
CONTINUOUS
 62
               4
100
AcDbLine
 10
12.41
 20
-42.909999999999997
 30
0.0
 11
10.58
 21
-41.079999999999998
 31
0.0
  0
LINE
  5
1FD
100
AcDbEntity
  8
0
  6
CONTINUOUS
 62
               4
100
AcDbLine
 10
21.41
 20
-24.91
 30
0.0
 11
19.579999999999998
 21
-23.079999999999998
 31
0.0
  0
LINE
  5
1FE
100
AcDbEntity
  8
0
  6
CONTINUOUS
 62
               4
100
AcDbLine
 10
19.579999999999998
 20
-24.91
 30
0.0
 11
21.41
 21
-23.079999999999998
 31
0.0
  0
LINE
  5
1FF
100
AcDbEntity
  8
0
  6
CONTINUOUS
 62
               4
100
AcDbLine
 10
71.75
 20
-23.0
 30
0.0
 11
71.75
 21
-23.600000000000001
 31
0.0
  0
LINE
  5
200
100
AcDbEntity
  8
0
  6
CONTINUOUS
 62
               4
100
AcDbLine
 10
56.240000000000002
 20
-23.600000000000001
 30
0.0
 11
60.75
 21
-23.600000000000001
 31
0.0
  0
LINE
  5
201
100
AcDbEntity
  8
0
  6
CENTER
 62
               2
100
AcDbLine
 10
48.0
 20
-17.5
 30
0.0
 11
48.0
 21
-48.880000000000003
 31
0.0
  0
LINE
  5
202
100
AcDbEntity
  8
0
  6
CENTER
 62
               2
100
AcDbLine
 10
32.0
 20
-17.5
 30
0.0
 11
32.0
 21
-48.880000000000003
 31
0.0
  0
LINE
  5
203
100
AcDbEntity
  8
0
  6
CENTER
 62
               2
100
AcDbLine
 10
16.0
 20
-17.5
 30
0.0
 11
16.0
 21
-48.880000000000003
 31
0.0
  0
LINE
  5
204
100
AcDbEntity
  8
0
  6
CENTER
 62
               2
100
AcDbLine
 10
0.0
 20
-17.5
 30
0.0
 11
0.0
 21
-48.880000000000003
 31
0.0
  0
LINE
  5
205
100
AcDbEntity
  8
0
  6
CENTER
 62
               2
100
AcDbLine
 10
64.0
 20
-17.5
 30
0.0
 11
64.0
 21
-27.780000000000001
 31
0.0
  0
LINE
  5
206
100
AcDbEntity
  8
0
  6
CONTINUOUS
 62
               4
100
AcDbLine
 10
32.450000000000003
 20
-9.0
 30
0.0
 11
32.450000000000003
 21
-13.34
 31
0.0
  0
LINE
  5
207
100
AcDbEntity
  8
0
  6
CONTINUOUS
 62
               4
100
AcDbLine
 10
34.149999999999999
 20
-9.0
 30
0.0
 11
34.149999999999999
 21
-13.800000000000001
 31
0.0
  0
LINE
  5
208
100
AcDbEntity
  8
0
  6
CONTINUOUS
 62
               4
100
AcDbLine
 10
32.979999999999997
 20
1.0
 30
0.0
 11
32.979999999999997
 21
-9.0
 31
0.0
  0
LINE
  5
209
100
AcDbEntity
  8
0
  6
CONTINUOUS
 62
               4
100
AcDbLine
 10
33.619999999999997
 20
1.0
 30
0.0
 11
33.619999999999997
 21
-9.0
 31
0.0
  0
LINE
  5
20A
100
AcDbEntity
  8
0
  6
CONTINUOUS
 62
               4
100
AcDbLine
 10
34.149999999999999
 20
-9.0
 30
0.0
 11
32.450000000000003
 21
-9.0
 31
0.0
  0
LINE
  5
20B
100
AcDbEntity
  8
0
  6
CONTINUOUS
 62
               4
100
AcDbLine
 10
33.619999999999997
 20
1.0
 30
0.0
 11
32.979999999999997
 21
1.0
 31
0.0
  0
LINE
  5
20C
100
AcDbEntity
  8
0
  6
CONTINUOUS
 62
               4
100
AcDbLine
 10
29.850000000000001
 20
-9.0
 30
0.0
 11
29.850000000000001
 21
-12.640000000000001
 31
0.0
  0
LINE
  5
20D
100
AcDbEntity
  8
0
  6
CONTINUOUS
 62
               4
100
AcDbLine
 10
31.550000000000001
 20
-9.0
 30
0.0
 11
31.550000000000001
 21
-13.1
 31
0.0
  0
LINE
  5
20E
100
AcDbEntity
  8
0
  6
CONTINUOUS
 62
               4
100
AcDbLine
 10
30.379999999999999
 20
1.0
 30
0.0
 11
30.379999999999999
 21
-9.0
 31
0.0
  0
LINE
  5
20F
100
AcDbEntity
  8
0
  6
CONTINUOUS
 62
               4
100
AcDbLine
 10
31.02
 20
1.0
 30
0.0
 11
31.02
 21
-9.0
 31
0.0
  0
LINE
  5
210
100
AcDbEntity
  8
0
  6
CONTINUOUS
 62
               4
100
AcDbLine
 10
31.550000000000001
 20
-9.0
 30
0.0
 11
29.850000000000001
 21
-9.0
 31
0.0
  0
LINE
  5
211
100
AcDbEntity
  8
0
  6
CONTINUOUS
 62
               4
100
AcDbLine
 10
31.02
 20
1.0
 30
0.0
 11
30.379999999999999
 21
1.0
 31
0.0
  0
LINE
  5
212
100
AcDbEntity
  8
0
  6
CONTINUOUS
 62
             200
100
AcDbLine
 10
27.850000000000001
 20
-13.66
 30
0.0
 11
36.149999999999999
 21
-15.880000000000001
 31
0.0
  0
LINE
  5
213
100
AcDbEntity
  8
0
  6
CONTINUOUS
 62
             200
100
AcDbLine
 10
27.850000000000001
 20
-12.109999999999999
 30
0.0
 11
36.149999999999999
 21
-14.33
 31
0.0
  0
LINE
  5
214
100
AcDbEntity
  8
0
  6
CONTINUOUS
 62
               4
100
AcDbLine
 10
29.850000000000001
 20
-14.199999999999999
 30
0.0
 11
29.850000000000001
 21
-19.0
 31
0.0
  0
LINE
  5
215
100
AcDbEntity
  8
0
  6
CONTINUOUS
 62
               4
100
AcDbLine
 10
31.550000000000001
 20
-14.65
 30
0.0
 11
31.550000000000001
 21
-19.0
 31
0.0
  0
LINE
  5
216
100
AcDbEntity
  8
0
  6
CONTINUOUS
 62
               4
100
AcDbLine
 10
32.450000000000003
 20
-14.890000000000001
 30
0.0
 11
32.450000000000003
 21
-19.0
 31
0.0
  0
LINE
  5
217
100
AcDbEntity
  8
0
  6
CONTINUOUS
 62
               4
100
AcDbLine
 10
34.149999999999999
 20
-15.35
 30
0.0
 11
34.149999999999999
 21
-19.0
 31
0.0
  0
LINE
  5
218
100
AcDbEntity
  8
0
  6
CONTINUOUS
 62
               4
100
AcDbLine
 10
29.02
 20
-21.0
 30
0.0
 11
29.02
 21
-19.0
 31
0.0
  0
LINE
  5
219
100
AcDbEntity
  8
0
  6
CONTINUOUS
 62
               4
100
AcDbLine
 10
29.02
 20
-19.0
 30
0.0
 11
35.020000000000003
 21
-19.0
 31
0.0
  0
LINE
  5
21A
100
AcDbEntity
  8
0
  6
CONTINUOUS
 62
               4
100
AcDbLine
 10
35.020000000000003
 20
-21.0
 30
0.0
 11
35.020000000000003
 21
-19.0
 31
0.0
  0
LINE
  5
21B
100
AcDbEntity
  8
0
  6
CONTINUOUS
 62
               4
100
AcDbLine
 10
33.5
 20
-24.0
 30
0.0
 11
33.5
 21
-21.0
 31
0.0
  0
LINE
  5
21C
100
AcDbEntity
  8
0
  6
CONTINUOUS
 62
               4
100
AcDbLine
 10
30.5
 20
-42.0
 30
0.0
 11
30.5
 21
-45.0
 31
0.0
  0
LINE
  5
21D
100
AcDbEntity
  8
0
  6
CONTINUOUS
 62
               4
100
AcDbLine
 10
27.5
 20
-39.0
 30
0.0
 11
24.5
 21
-39.0
 31
0.0
  0
LINE
  5
21E
100
AcDbEntity
  8
0
  6
CONTINUOUS
 62
               4
100
AcDbLine
 10
36.5
 20
-27.0
 30
0.0
 11
39.5
 21
-27.0
 31
0.0
  0
LINE
  5
21F
100
AcDbEntity
  8
0
  6
CONTINUOUS
 62
               4
100
AcDbLine
 10
30.5
 20
-44.0
 30
0.0
 11
38.5
 21
-44.0
 31
0.0
  0
LINE
  5
220
100
AcDbEntity
  8
0
  6
CONTINUOUS
 62
               4
100
AcDbLine
 10
25.5
 20
-22.0
 30
0.0
 11
33.5
 21
-22.0
 31
0.0
  0
LINE
  5
221
100
AcDbEntity
  8
0
  6
CONTINUOUS
 62
               4
100
AcDbLine
 10
25.5
 20
-39.0
 30
0.0
 11
25.5
 21
-22.0
 31
0.0
  0
LINE
  5
222
100
AcDbEntity
  8
0
  6
CONTINUOUS
 62
               4
100
AcDbLine
 10
38.5
 20
-44.0
 30
0.0
 11
38.5
 21
-27.0
 31
0.0
  0
LINE
  5
223
100
AcDbEntity
  8
0
  6
CONTINUOUS
 62
               4
100
AcDbLine
 10
24.5
 20
-45.0
 30
0.0
 11
39.5
 21
-45.0
 31
0.0
  0
LINE
  5
224
100
AcDbEntity
  8
0
  6
CONTINUOUS
 62
               4
100
AcDbLine
 10
24.5
 20
-45.0
 30
0.0
 11
24.5
 21
-21.0
 31
0.0
  0
LINE
  5
225
100
AcDbEntity
  8
0
  6
CONTINUOUS
 62
               4
100
AcDbLine
 10
39.5
 20
-45.0
 30
0.0
 11
39.5
 21
-21.0
 31
0.0
  0
LINE
  5
226
100
AcDbEntity
  8
0
  6
CONTINUOUS
 62
               4
100
AcDbLine
 10
24.5
 20
-21.0
 30
0.0
 11
39.5
 21
-21.0
 31
0.0
  0
LINE
  5
227
100
AcDbEntity
  8
0
  6
CONTINUOUS
 62
               4
100
AcDbLine
 10
28.41
 20
-41.079999999999998
 30
0.0
 11
26.579999999999998
 21
-42.909999999999997
 31
0.0
  0
LINE
  5
228
100
AcDbEntity
  8
0
  6
CONTINUOUS
 62
               4
100
AcDbLine
 10
28.41
 20
-42.909999999999997
 30
0.0
 11
26.579999999999998
 21
-41.079999999999998
 31
0.0
  0
LINE
  5
229
100
AcDbEntity
  8
0
  6
CONTINUOUS
 62
               4
100
AcDbLine
 10
37.409999999999997
 20
-24.91
 30
0.0
 11
35.579999999999998
 21
-23.079999999999998
 31
0.0
  0
LINE
  5
22A
100
AcDbEntity
  8
0
  6
CONTINUOUS
 62
               4
100
AcDbLine
 10
35.579999999999998
 20
-24.91
 30
0.0
 11
37.409999999999997
 21
-23.079999999999998
 31
0.0
  0
LINE
  5
22B
100
AcDbEntity
  8
0
  6
CONTINUOUS
 62
               4
100
AcDbLine
 10
67.25
 20
-23.600000000000001
 30
0.0
 11
71.75
 21
-23.600000000000001
 31
0.0
  0
LINE
  5
22C
100
AcDbEntity
  8
0
  6
CONTINUOUS
 62
               4
100
AcDbLine
 10
56.5
 20
-21.0
 30
0.0
 11
71.5
 21
-21.0
 31
0.0
  0
LINE
  5
22D
100
AcDbEntity
  8
0
  6
CONTINUOUS
 62
               4
100
AcDbLine
 10
56.25
 20
-23.0
 30
0.0
 11
71.75
 21
-23.0
 31
0.0
  0
LINE
  5
22E
100
AcDbEntity
  8
0
  6
CONTINUOUS
 62
               4
100
AcDbLine
 10
71.5
 20
-21.0
 30
0.0
 11
71.5
 21
-23.0
 31
0.0
  0
LINE
  5
22F
100
AcDbEntity
  8
0
  6
CONTINUOUS
 62
               4
100
AcDbLine
 10
56.5
 20
-21.0
 30
0.0
 11
56.5
 21
-23.0
 31
0.0
  0
LINE
  5
230
100
AcDbEntity
  8
0
  6
CONTINUOUS
 62
               4
100
AcDbLine
 10
60.75
 20
-23.0
 30
0.0
 11
60.75
 21
-23.600000000000001
 31
0.0
  0
LINE
  5
231
100
AcDbEntity
  8
0
  6
CONTINUOUS
 62
               4
100
AcDbLine
 10
56.25
 20
-23.0
 30
0.0
 11
56.25
 21
-23.600000000000001
 31
0.0
  0
LINE
  5
232
100
AcDbEntity
  8
0
  6
CONTINUOUS
 62
               7
100
AcDbLine
 10
3.02
 20
-20.0
 30
0.0
 11
13.02
 21
-20.0
 31
0.0
  0
LINE
  5
233
100
AcDbEntity
  8
0
  6
CONTINUOUS
 62
               7
100
AcDbLine
 10
19.02
 20
-20.0
 30
0.0
 11
29.02
 21
-20.0
 31
0.0
  0
LINE
  5
234
100
AcDbEntity
  8
0
  6
CONTINUOUS
 62
               7
100
AcDbLine
 10
35.020000000000003
 20
-20.0
 30
0.0
 11
45.020000000000003
 21
-20.0
 31
0.0
  0
LINE
  5
235
100
AcDbEntity
  8
0
  6
CONTINUOUS
 62
               7
100
AcDbLine
 10
51.020000000000003
 20
-20.0
 30
0.0
 11
82.0
 21
-20.0
 31
0.0
  0
LINE
  5
236
100
AcDbEntity
  8
0
  6
CONTINUOUS
 62
               7
100
AcDbLine
 10
-0.98
 20
-5.0
 30
0.0
 11
0.98
 21
-5.0
 31
0.0
  0
LINE
  5
237
100
AcDbEntity
  8
0
  6
CONTINUOUS
 62
               7
100
AcDbLine
 10
1.6200000000000001
 20
-5.0
 30
0.0
 11
14.380000000000001
 21
-5.0
 31
0.0
  0
LINE
  5
238
100
AcDbEntity
  8
0
  6
CONTINUOUS
 62
               7
100
AcDbLine
 10
15.02
 20
-5.0
 30
0.0
 11
16.98
 21
-5.0
 31
0.0
  0
LINE
  5
239
100
AcDbEntity
  8
0
  6
CONTINUOUS
 62
               7
100
AcDbLine
 10
17.620000000000001
 20
-5.0
 30
0.0
 11
30.379999999999999
 21
-5.0
 31
0.0
  0
LINE
  5
23A
100
AcDbEntity
  8
0
  6
CONTINUOUS
 62
               7
100
AcDbLine
 10
31.02
 20
-5.0
 30
0.0
 11
32.979999999999997
 21
-5.0
 31
0.0
  0
LINE
  5
23B
100
AcDbEntity
  8
0
  6
CONTINUOUS
 62
               7
100
AcDbLine
 10
33.619999999999997
 20
-5.0
 30
0.0
 11
46.380000000000003
 21
-5.0
 31
0.0
  0
LINE
  5
23C
100
AcDbEntity
  8
0
  6
CONTINUOUS
 62
               7
100
AcDbLine
 10
47.020000000000003
 20
-5.0
 30
0.0
 11
48.979999999999997
 21
-5.0
 31
0.0
  0
LINE
  5
23D
100
AcDbEntity
  8
0
  6
CONTINUOUS
 62
               7
100
AcDbLine
 10
49.619999999999997
 20
-5.0
 30
0.0
 11
82.0
 21
-5.0
 31
0.0
  0
ARC
  5
23E
100
AcDbEntity
  8
0
  6
CONTINUOUS
 62
               7
100
AcDbCircle
 10
0.0
 20
0.0
 30
0.0
 40
2.2451725991557976
100
AcDbArc
 50
244.11972632993061
 51
295.88027367006816
  0
CIRCLE
  5
23F
100
AcDbEntity
  8
0
  6
CONTINUOUS
 62
               7
100
AcDbCircle
 10
63.999984741210938
 20
0.0
 30
0.0
 40
2.25
  0
ARC
  5
240
100
AcDbEntity
  8
0
  6
CONTINUOUS
 62
               4
100
AcDbCircle
 10
69.5
 20
-22.961029052734375
 30
0.0
 40
2.3389706863168533
100
AcDbArc
 50
195.853861825698
 51
344.14613817430075
  0
ARC
  5
241
100
AcDbEntity
  8
0
  6
CONTINUOUS
 62
               4
100
AcDbCircle
 10
58.5
 20
-22.961029052734375
 30
0.0
 40
2.3389706863168533
100
AcDbArc
 50
195.853861825698
 51
344.14613817430075
  0
CIRCLE
  5
242
100
AcDbEntity
  8
0
  6
CONTINUOUS
 62
               4
100
AcDbCircle
 10
27.5
 20
-42.0
 30
0.0
 40
2.25
  0
CIRCLE
  5
243
100
AcDbEntity
  8
0
  6
CONTINUOUS
 62
               4
100
AcDbCircle
 10
27.5
 20
-42.0
 30
0.0
 40
2.5500001907348633
  0
CIRCLE
  5
244
100
AcDbEntity
  8
0
  6
CONTINUOUS
 62
               4
100
AcDbCircle
 10
36.5
 20
-24.0
 30
0.0
 40
2.25
  0
ARC
  5
245
100
AcDbEntity
  8
0
  6
CONTINUOUS
 62
               4
100
AcDbCircle
 10
36.5
 20
-24.0
 30
0.0
 40
3.0
100
AcDbArc
 50
179.9999999999996
 51
269.99999999999937
  0
ARC
  5
246
100
AcDbEntity
  8
0
  6
CONTINUOUS
 62
               4
100
AcDbCircle
 10
27.5
 20
-42.0
 30
0.0
 40
3.0
100
AcDbArc
 50
0.0
 51
89.999999999999801
  0
CIRCLE
  5
247
100
AcDbEntity
  8
0
  6
CONTINUOUS
 62
               4
100
AcDbCircle
 10
36.5
 20
-24.0
 30
0.0
 40
2.5500001907348633
  0
CIRCLE
  5
248
100
AcDbEntity
  8
0
  6
CONTINUOUS
 62
               4
100
AcDbCircle
 10
11.499992370605469
 20
-42.0
 30
0.0
 40
2.25
  0
CIRCLE
  5
249
100
AcDbEntity
  8
0
  6
CONTINUOUS
 62
               4
100
AcDbCircle
 10
20.5
 20
-24.0
 30
0.0
 40
2.25
  0
CIRCLE
  5
24A
100
AcDbEntity
  8
0
  6
CONTINUOUS
 62
               4
100
AcDbCircle
 10
11.499992370605469
 20
-42.0
 30
0.0
 40
2.5500001907348633
  0
CIRCLE
  5
24B
100
AcDbEntity
  8
0
  6
CONTINUOUS
 62
               4
100
AcDbCircle
 10
20.5
 20
-24.0
 30
0.0
 40
2.5500001907348633
  0
ARC
  5
24C
100
AcDbEntity
  8
0
  6
CONTINUOUS
 62
               4
100
AcDbCircle
 10
11.499997615813262
 20
-42.000002384186736
 30
0.0
 40
3.0000023841876855
100
AcDbArc
 50
0.0000455345763277
 51
89.999954465423443
  0
ARC
  5
24D
100
AcDbEntity
  8
0
  6
CONTINUOUS
 62
               4
100
AcDbCircle
 10
20.5
 20
-24.0
 30
0.0
 40
3.0
100
AcDbArc
 50
179.9999999999996
 51
269.99999999999937
  0
CIRCLE
  5
24E
100
AcDbEntity
  8
0
  6
CONTINUOUS
 62
               4
100
AcDbCircle
 10
-4.5000076293945313
 20
-42.0
 30
0.0
 40
2.25
  0
CIRCLE
  5
24F
100
AcDbEntity
  8
0
  6
CONTINUOUS
 62
               4
100
AcDbCircle
 10
4.5000076293945313
 20
-24.0
 30
0.0
 40
2.25
  0
CIRCLE
  5
250
100
AcDbEntity
  8
0
  6
CONTINUOUS
 62
               4
100
AcDbCircle
 10
-4.5000076293945313
 20
-42.0
 30
0.0
 40
2.5500001907348633
  0
CIRCLE
  5
251
100
AcDbEntity
  8
0
  6
CONTINUOUS
 62
               4
100
AcDbCircle
 10
4.5000076293945313
 20
-24.0
 30
0.0
 40
2.5500001907348633
  0
ARC
  5
252
100
AcDbEntity
  8
0
  6
CONTINUOUS
 62
               4
100
AcDbCircle
 10
-4.5000019073492394
 20
-42.000001907349237
 30
0.0
 40
3.0000019073498452
100
AcDbArc
 50
0.0000364276639481
 51
89.999963572335801
  0
ARC
  5
253
100
AcDbEntity
  8
0
  6
CONTINUOUS
 62
               4
100
AcDbCircle
 10
4.500009536748621
 20
-23.999990463251379
 30
0.0
 40
3.0000095367637791
100
AcDbArc
 50
180.00018213790267
 51
269.99981786209628
  0
CIRCLE
  5
254
100
AcDbEntity
  8
0
  6
CONTINUOUS
 62
               4
100
AcDbCircle
 10
43.5
 20
-42.0
 30
0.0
 40
2.25
  0
CIRCLE
  5
255
100
AcDbEntity
  8
0
  6
CONTINUOUS
 62
               4
100
AcDbCircle
 10
52.5
 20
-24.0
 30
0.0
 40
2.25
  0
CIRCLE
  5
256
100
AcDbEntity
  8
0
  6
CONTINUOUS
 62
               4
100
AcDbCircle
 10
43.5
 20
-42.0
 30
0.0
 40
2.5500001907348633
  0
CIRCLE
  5
257
100
AcDbEntity
  8
0
  6
CONTINUOUS
 62
               4
100
AcDbCircle
 10
52.5
 20
-24.0
 30
0.0
 40
2.5500001907348633
  0
ARC
  5
258
100
AcDbEntity
  8
0
  6
CONTINUOUS
 62
               4
100
AcDbCircle
 10
43.5
 20
-42.0
 30
0.0
 40
3.0
100
AcDbArc
 50
0.0
 51
89.999999999999801
  0
ARC
  5
259
100
AcDbEntity
  8
0
  6
CONTINUOUS
 62
               4
100
AcDbCircle
 10
52.5
 20
-24.0
 30
0.0
 40
3.0
100
AcDbArc
 50
179.9999999999996
 51
269.99999999999937
  0
ARC
  5
25A
100
AcDbEntity
  8
0
  6
CONTINUOUS
 62
               7
100
AcDbCircle
 10
0.0
 20
0.0
 30
0.0
 40
2.2489997776789576
100
AcDbArc
 50
316.08092418665996
 51
223.91907581333882
  0
ENDBLK
  5
25B
100
AcDbEntity
  8
0
100
AcDbBlockEnd
  0
BLOCK
  5
25E
100
AcDbEntity
  8
0
  6
ByBlock
 62
               0
100
AcDbBlockBegin
  2
_OPEN30
 70
               2
 10
0.0
 20
0.0
 30
0.0
  3
_OPEN30
  1

  0
LINE
  5
25F
100
AcDbEntity
  8
0
  6
ByBlock
 62
               0
100
AcDbLine
 10
-1.0
 20
0.267949
 30
0.0
 11
0.0
 21
0.0
 31
0.0
  0
LINE
  5
260
100
AcDbEntity
  8
0
  6
ByBlock
 62
               0
100
AcDbLine
 10
0.0
 20
0.0
 30
0.0
 11
-1.0
 21
-0.267949
 31
0.0
  0
LINE
  5
261
100
AcDbEntity
  8
0
  6
ByBlock
 62
               0
100
AcDbLine
 10
0.0
 20
0.0
 30
0.0
 11
-1.0
 21
0.0
 31
0.0
  0
ENDBLK
  5
262
100
AcDbEntity
  8
0
  6
ByBlock
 62
               0
100
AcDbBlockEnd
  0
BLOCK
  5
2EA
100
AcDbEntity
  8
0
  6
ByBlock
 62
               0
100
AcDbBlockBegin
  2
*D5
 70
               1
 10
0.0
 20
0.0
 30
0.0
  3
*D5
  1

  0
LINE
  5
2EB
100
AcDbEntity
  8
0
  6
ByBlock
 62
               0
100
AcDbLine
 10
18.030776977539063
 20
110.1739501953125
 30
0.0
 11
36.030792236328125
 21
110.1739501953125
 31
0.0
  0
LINE
  5
2EC
100
AcDbEntity
  8
0
  6
ByBlock
 62
               0
100
AcDbLine
 10
36.030792236328125
 20
87.9091796875
 30
0.0
 11
36.030792236328125
 21
111.6739501953125
 31
0.0
  0
INSERT
  5
2ED
100
AcDbEntity
  8
0
  6
ByBlock
 62
               0
100
AcDbBlockReference
  2
_OPEN30
 10
18.030776977539063
 20
110.1739501953125
 30
0.0
 41
2.77
 42
2.77
 43
2.77
 50
179.9999999999996
  0
INSERT
  5
2EE
100
AcDbEntity
  8
0
  6
ByBlock
 62
               0
100
AcDbBlockReference
  2
_OPEN30
 10
36.030792236328125
 20
110.1739501953125
 30
0.0
 41
2.77
 42
2.77
 43
2.77
  0
MTEXT
  5
2EF
100
AcDbEntity
  8
0
  6
ByBlock
 62
               2
100
AcDbMText
 10
27.030776977539063
 20
113.4239501953125
 30
0.0
 40
4.5
 41
0.0
 71
               5
 72
               1
  1
\A1;18
  7
MX_NOTE_STANDARD
  0
POINT
  5
2F0
100
AcDbEntity
  8
DEFPOINTS
  6
ByBlock
 62
               0
100
AcDbPoint
 10
18.030776977539063
 20
79.4091796875
 30
0.0
  0
POINT
  5
2F1
100
AcDbEntity
  8
DEFPOINTS
  6
ByBlock
 62
               0
100
AcDbPoint
 10
36.030792236328125
 20
87.9091796875
 30
0.0
  0
POINT
  5
2F2
100
AcDbEntity
  8
DEFPOINTS
  6
ByBlock
 62
               0
100
AcDbPoint
 10
36.030792236328125
 20
110.1739501953125
 30
0.0
  0
ENDBLK
  5
2F3
100
AcDbEntity
  8
0
  6
ByBlock
 62
               0
100
AcDbBlockEnd
  0
BLOCK
  5
2F6
100
AcDbEntity
  8
0
  6
ByBlock
 62
               0
100
AcDbBlockBegin
  2
*D6
 70
               1
 10
0.0
 20
0.0
 30
0.0
  3
*D6
  1

  0
LINE
  5
2F7
100
AcDbEntity
  8
0
  6
ByBlock
 62
               0
100
AcDbLine
 10
36.030792236328125
 20
110.1739501953125
 30
0.0
 11
100.03077697753906
 21
110.1739501953125
 31
0.0
  0
LINE
  5
2F8
100
AcDbEntity
  8
0
  6
ByBlock
 62
               0
100
AcDbLine
 10
100.03077697753906
 20
87.9091796875
 30
0.0
 11
100.03077697753906
 21
111.6739501953125
 31
0.0
  0
INSERT
  5
2F9
100
AcDbEntity
  8
0
  6
ByBlock
 62
               0
100
AcDbBlockReference
  2
_OPEN30
 10
36.030792236328125
 20
110.1739501953125
 30
0.0
 41
2.77
 42
2.77
 43
2.77
 50
179.9999999999996
  0
INSERT
  5
2FA
100
AcDbEntity
  8
0
  6
ByBlock
 62
               0
100
AcDbBlockReference
  2
_OPEN30
 10
100.03077697753906
 20
110.1739501953125
 30
0.0
 41
2.77
 42
2.77
 43
2.77
  0
MTEXT
  5
2FB
100
AcDbEntity
  8
0
  6
ByBlock
 62
               2
100
AcDbMText
 10
68.030776977539062
 20
113.4239501953125
 30
0.0
 40
4.5
 41
0.0
 71
               5
 72
               1
  1
\A1;P2
  7
MX_NOTE_STANDARD
  0
POINT
  5
2FC
100
AcDbEntity
  8
DEFPOINTS
  6
ByBlock
 62
               0
100
AcDbPoint
 10
36.030792236328125
 20
87.9091796875
 30
0.0
  0
POINT
  5
2FD
100
AcDbEntity
  8
DEFPOINTS
  6
ByBlock
 62
               0
100
AcDbPoint
 10
100.03077697753906
 20
87.9091796875
 30
0.0
  0
POINT
  5
2FE
100
AcDbEntity
  8
DEFPOINTS
  6
ByBlock
 62
               0
100
AcDbPoint
 10
100.03077697753906
 20
110.1739501953125
 30
0.0
  0
ENDBLK
  5
2FF
100
AcDbEntity
  8
0
  6
ByBlock
 62
               0
100
AcDbBlockEnd
  0
BLOCK
  5
302
100
AcDbEntity
  8
0
  6
ByBlock
 62
               0
100
AcDbBlockBegin
  2
*D7
 70
               1
 10
0.0
 20
0.0
 30
0.0
  3
*D7
  1

  0
LINE
  5
303
100
AcDbEntity
  8
0
  6
ByBlock
 62
               0
100
AcDbLine
 10
100.03077697753906
 20
110.1739501953125
 30
0.0
 11
118.03077697753906
 21
110.1739501953125
 31
0.0
  0
INSERT
  5
304
100
AcDbEntity
  8
0
  6
ByBlock
 62
               0
100
AcDbBlockReference
  2
_OPEN30
 10
100.03077697753906
 20
110.1739501953125
 30
0.0
 41
2.77
 42
2.77
 43
2.77
 50
179.9999999999996
  0
INSERT
  5
305
100
AcDbEntity
  8
0
  6
ByBlock
 62
               0
100
AcDbBlockReference
  2
_OPEN30
 10
118.03077697753906
 20
110.1739501953125
 30
0.0
 41
2.77
 42
2.77
 43
2.77
  0
MTEXT
  5
306
100
AcDbEntity
  8
0
  6
ByBlock
 62
               2
100
AcDbMText
 10
109.03077697753906
 20
113.4239501953125
 30
0.0
 40
4.5
 41
0.0
 71
               5
 72
               1
  1
\A1;18
  7
MX_NOTE_STANDARD
  0
POINT
  5
307
100
AcDbEntity
  8
DEFPOINTS
  6
ByBlock
 62
               0
100
AcDbPoint
 10
100.03077697753906
 20
87.9091796875
 30
0.0
  0
POINT
  5
308
100
AcDbEntity
  8
DEFPOINTS
  6
ByBlock
 62
               0
100
AcDbPoint
 10
118.03077697753906
 20
79.4091796875
 30
0.0
  0
POINT
  5
309
100
AcDbEntity
  8
DEFPOINTS
  6
ByBlock
 62
               0
100
AcDbPoint
 10
118.03077697753906
 20
110.1739501953125
 30
0.0
  0
ENDBLK
  5
30A
100
AcDbEntity
  8
0
  6
ByBlock
 62
               0
100
AcDbBlockEnd
  0
BLOCK
  5
30D
100
AcDbEntity
  8
0
  6
ByBlock
 62
               0
100
AcDbBlockBegin
  2
*D8
 70
               1
 10
0.0
 20
0.0
 30
0.0
  3
*D8
  1

  0
LINE
  5
30E
100
AcDbEntity
  8
0
  6
ByBlock
 62
               0
100
AcDbLine
 10
118.03077697753906
 20
121.33026123046875
 30
0.0
 11
18.030776977539063
 21
121.33026123046875
 31
0.0
  0
LINE
  5
30F
100
AcDbEntity
  8
0
  6
ByBlock
 62
               0
100
AcDbLine
 10
118.03077697753906
 20
80.9091796875
 30
0.0
 11
118.03077697753906
 21
122.83026123046875
 31
0.0
  0
LINE
  5
310
100
AcDbEntity
  8
0
  6
ByBlock
 62
               0
100
AcDbLine
 10
18.030776977539063
 20
80.9091796875
 30
0.0
 11
18.030776977539063
 21
122.83026123046875
 31
0.0
  0
INSERT
  5
311
100
AcDbEntity
  8
0
  6
ByBlock
 62
               0
100
AcDbBlockReference
  2
_OPEN30
 10
118.03077697753906
 20
121.33026123046875
 30
0.0
 41
2.77
 42
2.77
 43
2.77
  0
INSERT
  5
312
100
AcDbEntity
  8
0
  6
ByBlock
 62
               0
100
AcDbBlockReference
  2
_OPEN30
 10
18.030776977539063
 20
121.33026123046875
 30
0.0
 41
2.77
 42
2.77
 43
2.77
 50
179.9999999999996
  0
MTEXT
  5
313
100
AcDbEntity
  8
0
  6
ByBlock
 62
               2
100
AcDbMText
 10
67.923980712890625
 20
124.58026123046875
 30
0.0
 40
4.5
 41
0.0
 71
               5
 72
               1
  1
\A1;L
  7
MX_NOTE_STANDARD
 11
1.0
 21
-0.0000000000000001
 31
0.0
  0
POINT
  5
314
100
AcDbEntity
  8
DEFPOINTS
  6
ByBlock
 62
               0
100
AcDbPoint
 10
118.03077697753906
 20
79.4091796875
 30
0.0
  0
POINT
  5
315
100
AcDbEntity
  8
DEFPOINTS
  6
ByBlock
 62
               0
100
AcDbPoint
 10
18.030776977539063
 20
79.4091796875
 30
0.0
  0
POINT
  5
316
100
AcDbEntity
  8
DEFPOINTS
  6
ByBlock
 62
               0
100
AcDbPoint
 10
18.030776977539063
 20
121.33026123046875
 30
0.0
  0
ENDBLK
  5
317
100
AcDbEntity
  8
0
  6
ByBlock
 62
               0
100
AcDbBlockEnd
  0
BLOCK
  5
31A
100
AcDbEntity
  8
0
  6
ByBlock
 62
               0
100
AcDbBlockBegin
  2
*D9
 70
               1
 10
0.0
 20
0.0
 30
0.0
  3
*D9
  1

  0
LINE
  5
31B
100
AcDbEntity
  8
0
  6
ByBlock
 62
               0
100
AcDbLine
 10
18.030776977539063
 20
-148.06037902832031
 30
0.0
 11
24.030776977539063
 21
-148.06037902832031
 31
0.0
  0
LINE
  5
31C
100
AcDbEntity
  8
0
  6
ByBlock
 62
               0
100
AcDbLine
 10
18.030776977539063
 20
-119.65859985351563
 30
0.0
 11
18.030776977539063
 21
-149.56037902832031
 31
0.0
  0
LINE
  5
31D
100
AcDbEntity
  8
0
  6
ByBlock
 62
               0
100
AcDbLine
 10
24.030776977539063
 20
-99.658599853515625
 30
0.0
 11
24.030776977539063
 21
-149.56037902832031
 31
0.0
  0
LINE
  5
31E
100
AcDbEntity
  8
0
  6
ByBlock
 62
               0
100
AcDbLine
 10
18.030776977539063
 20
-148.06037902832031
 30
0.0
 11
14.474776983261108
 21
-148.06037902832031
 31
0.0
  0
INSERT
  5
31F
100
AcDbEntity
  8
0
  6
ByBlock
 62
               0
100
AcDbBlockReference
  2
_OPEN30
 10
18.030776977539063
 20
-148.06037902832031
 30
0.0
 41
2.77
 42
2.77
 43
2.77
  0
MTEXT
  5
324
100
AcDbEntity
  8
0
  6
ByBlock
 62
               2
100
AcDbMText
 10
21.030776977539063
 20
-144.81037902832031
 30
0.0
 40
4.5
 41
0.0
 71
               5
 72
               1
  1
\A1;6
  7
MX_NOTE_STANDARD
  0
POINT
  5
325
100
AcDbEntity
  8
DEFPOINTS
  6
ByBlock
 62
               0
100
AcDbPoint
 10
18.030776977539063
 20
-118.15859985351562
 30
0.0
  0
POINT
  5
326
100
AcDbEntity
  8
DEFPOINTS
  6
ByBlock
 62
               0
100
AcDbPoint
 10
24.030776977539063
 20
-99.658599853515625
 30
0.0
  0
POINT
  5
327
100
AcDbEntity
  8
DEFPOINTS
  6
ByBlock
 62
               0
100
AcDbPoint
 10
24.030776977539063
 20
-148.06037902832031
 30
0.0
  0
ENDBLK
  5
328
100
AcDbEntity
  8
0
  6
ByBlock
 62
               0
100
AcDbBlockEnd
  0
BLOCK
  5
321
100
AcDbEntity
  8
0
  6
ByBlock
 62
               0
100
AcDbBlockBegin
  2
_NONE
 70
               2
 10
0.0
 20
0.0
 30
0.0
  3
_NONE
  1

  0
CIRCLE
  5
322
100
AcDbEntity
  8
0
  6
ByBlock
 62
               0
100
AcDbCircle
 10
0.0
 20
0.0
 30
0.0
 40
0.25
  0
ENDBLK
  5
323
100
AcDbEntity
  8
0
  6
ByBlock
 62
               0
100
AcDbBlockEnd
  0
BLOCK
  5
32B
100
AcDbEntity
  8
0
  6
ByBlock
 62
               0
100
AcDbBlockBegin
  2
*D11
 70
               1
 10
0.0
 20
0.0
 30
0.0
  3
*D11
  1

  0
LINE
  5
32C
100
AcDbEntity
  8
0
  6
ByBlock
 62
               0
100
AcDbLine
 10
24.030776977539063
 20
-148.06037902832031
 30
0.0
 11
112.03077697753906
 21
-148.06037902832031
 31
0.0
  0
LINE
  5
32D
100
AcDbEntity
  8
0
  6
ByBlock
 62
               0
100
AcDbLine
 10
112.03077697753906
 20
-99.658599853515625
 30
0.0
 11
112.03077697753906
 21
-149.56037902832031
 31
0.0
  0
INSERT
  5
32E
100
AcDbEntity
  8
0
  6
ByBlock
 62
               0
100
AcDbBlockReference
  2
_OPEN30
 10
24.030776977539063
 20
-148.06037902832031
 30
0.0
 41
2.77
 42
2.77
 43
2.77
 50
179.9999999999996
  0
MTEXT
  5
32F
100
AcDbEntity
  8
0
  6
ByBlock
 62
               2
100
AcDbMText
 10
68.030776977539062
 20
-144.81037902832031
 30
0.0
 40
4.5
 41
0.0
 71
               5
 72
               1
  1
\A1;P1
  7
MX_NOTE_STANDARD
  0
POINT
  5
330
100
AcDbEntity
  8
DEFPOINTS
  6
ByBlock
 62
               0
100
AcDbPoint
 10
24.030776977539063
 20
-99.658599853515625
 30
0.0
  0
POINT
  5
331
100
AcDbEntity
  8
DEFPOINTS
  6
ByBlock
 62
               0
100
AcDbPoint
 10
112.03077697753906
 20
-99.658599853515625
 30
0.0
  0
POINT
  5
332
100
AcDbEntity
  8
DEFPOINTS
  6
ByBlock
 62
               0
100
AcDbPoint
 10
112.03077697753906
 20
-148.06037902832031
 30
0.0
  0
ENDBLK
  5
333
100
AcDbEntity
  8
0
  6
ByBlock
 62
               0
100
AcDbBlockEnd
  0
BLOCK
  5
336
100
AcDbEntity
  8
0
  6
ByBlock
 62
               0
100
AcDbBlockBegin
  2
*D12
 70
               1
 10
0.0
 20
0.0
 30
0.0
  3
*D12
  1

  0
LINE
  5
337
100
AcDbEntity
  8
0
  6
ByBlock
 62
               0
100
AcDbLine
 10
112.03077697753906
 20
-148.06037902832031
 30
0.0
 11
118.03077697753906
 21
-148.06037902832031
 31
0.0
  0
LINE
  5
338
100
AcDbEntity
  8
0
  6
ByBlock
 62
               0
100
AcDbLine
 10
118.03077697753906
 20
-119.65859985351563
 30
0.0
 11
118.03077697753906
 21
-149.56037902832031
 31
0.0
  0
LINE
  5
339
100
AcDbEntity
  8
0
  6
ByBlock
 62
               0
100
AcDbLine
 10
112.03077697753906
 20
-148.06037902832031
 30
0.0
 11
108.47477698326111
 21
-148.06037902832031
 31
0.0
  0
LINE
  5
33A
100
AcDbEntity
  8
0
  6
ByBlock
 62
               0
100
AcDbLine
 10
118.03077697753906
 20
-148.06037902832031
 30
0.0
 11
121.58677697181702
 21
-148.06037902832031
 31
0.0
  0
INSERT
  5
33B
100
AcDbEntity
  8
0
  6
ByBlock
 62
               0
100
AcDbBlockReference
  2
_OPEN30
 10
112.03077697753906
 20
-148.06037902832031
 30
0.0
 41
2.77
 42
2.77
 43
2.77
  0
INSERT
  5
33C
100
AcDbEntity
  8
0
  6
ByBlock
 62
               0
100
AcDbBlockReference
  2
_OPEN30
 10
118.03077697753906
 20
-148.06037902832031
 30
0.0
 41
2.77
 42
2.77
 43
2.77
 50
179.9999999999996
  0
MTEXT
  5
33D
100
AcDbEntity
  8
0
  6
ByBlock
 62
               2
100
AcDbMText
 10
115.03077697753906
 20
-144.81037902832031
 30
0.0
 40
4.5
 41
0.0
 71
               5
 72
               1
  1
\A1;6
  7
MX_NOTE_STANDARD
  0
POINT
  5
33E
100
AcDbEntity
  8
DEFPOINTS
  6
ByBlock
 62
               0
100
AcDbPoint
 10
112.03077697753906
 20
-99.658599853515625
 30
0.0
  0
POINT
  5
33F
100
AcDbEntity
  8
DEFPOINTS
  6
ByBlock
 62
               0
100
AcDbPoint
 10
118.03077697753906
 20
-118.15859985351562
 30
0.0
  0
POINT
  5
340
100
AcDbEntity
  8
DEFPOINTS
  6
ByBlock
 62
               0
100
AcDbPoint
 10
118.03077697753906
 20
-148.06037902832031
 30
0.0
  0
ENDBLK
  5
341
100
AcDbEntity
  8
0
  6
ByBlock
 62
               0
100
AcDbBlockEnd
  0
ENDSEC
  0
SECTION
  2
ENTITIES
  0
LEADER
  5
25C
100
AcDbEntity
  8
0
 62
               2
100
AcDbLeader
  3
MXDIMSTYLE
 73
               3
 74
               0
 75
               0
 40
0.0
 76
               3
 10
100.03077697753906
 20
-86.658584594726563
 30
0.0
 10
107.53078466653943
 20
-73.668204869675208
 30
0.0
 10
131.05894845724225
 20
-73.668204869675208
 30
0.0
 77
               2
1001
ACAD
1000
DSTYLE
1002
{
1070
               6
1000
_OPEN30
1070
               7
1000
_OPEN30
1070
              41
1040
2.77
1070
             173
1070
               1
1002
}
  0
MTEXT
  5
263
100
AcDbEntity
  8
0
 62
               2
100
AcDbMText
 10
108.55894845724225
 20
-69.011955346512366
 30
0.0
 40
4.5
 41
0.0
 71
               4
 72
               1
  1
\A1;CS-BP
  7
MX_NOTE_STANDARD
  0
LEADER
  5
264
100
AcDbEntity
  8
0
 62
               2
100
AcDbLeader
  3
MXDIMSTYLE
 73
               3
 74
               0
 75
               0
 40
0.0
 76
               3
 10
84.030807495117188
 20
-57.458602905273437
 30
0.0
 10
94.030806779855084
 20
-40.138077157583211
 30
0.0
 10
133.11981368064244
 20
-40.138077157583211
 30
0.0
 77
               2
1001
ACAD
1000
DSTYLE
1002
{
1070
               6
1000
_OPEN30
1070
               7
1000
_OPEN30
1070
              41
1040
2.77
1070
             173
1070
               1
1002
}
  0
MTEXT
  5
265
100
AcDbEntity
  8
0
 62
               2
100
AcDbMText
 10
97.119813680642437
 20
-35.48182763442037
 30
0.0
 40
4.5
 41
0.0
 71
               4
 72
               1
  1
\W1.091;\A1;CS-030E1
  7
MX_NOTE_STANDARD
  0
LEADER
  5
266
100
AcDbEntity
  8
0
 62
               2
100
AcDbLeader
  3
MXDIMSTYLE
 73
               3
 74
               0
 75
               0
 40
0.0
 76
               3
 10
68.03076171875
 20
-57.458572387695313
 30
0.0
 10
84.030731201182789
 20
-29.745759827053917
 30
0.0
 10
121.68067872525353
 20
-29.745759827053917
 30
0.0
 77
               2
1001
ACAD
1000
DSTYLE
1002
{
1070
               6
1000
_OPEN30
1070
               7
1000
_OPEN30
1070
              41
1040
2.77
1070
             173
1070
               1
1002
}
  0
MTEXT
  5
267
100
AcDbEntity
  8
0
 62
               2
100
AcDbMText
 10
85.680678725253529
 20
-25.089510303891075
 30
0.0
 40
4.5
 41
0.0
 71
               4
 72
               1
  1
\W1.091;\A1;CS-030E1
  7
MX_NOTE_STANDARD
  0
LEADER
  5
268
100
AcDbEntity
  8
0
 62
               2
100
AcDbLeader
  3
MXDIMSTYLE
 73
               3
 74
               0
 75
               0
 40
0.0
 76
               3
 10
52.030776977539062
 20
-57.458587646484375
 30
0.0
 10
36.030769348166359
 20
-29.745726042525348
 30
0.0
 10
-13.655211925484764
 20
-29.745726042525348
 30
0.0
 77
               2
1001
ACAD
1000
DSTYLE
1002
{
1070
               6
1000
_OPEN30
1070
               7
1000
_OPEN30
1070
              41
1040
2.77
1070
             173
1070
               1
1002
}
  0
MTEXT
  5
269
100
AcDbEntity
  8
0
 62
               2
100
AcDbMText
 10
-13.655211925484764
 20
-25.089476519362506
 30
0.0
 40
4.5
 41
0.0
 71
               4
 72
               1
  1
\W1.071;\A1;CS-030-4E1
  7
MX_NOTE_STANDARD
  0
LEADER
  5
26A
100
AcDbEntity
  8
0
 62
               2
100
AcDbLeader
  3
MXDIMSTYLE
 73
               3
 74
               0
 75
               0
 40
0.0
 76
               3
 10
36.03076171875
 20
-57.458572387695313
 30
0.0
 10
26.030763626105909
 20
-40.138045447911281
 30
0.0
 10
-23.378476619713183
 20
-40.138045447911281
 30
0.0
 77
               2
1001
ACAD
1000
DSTYLE
1002
{
1070
               6
1000
_OPEN30
1070
               7
1000
_OPEN30
1070
              41
1040
2.77
1070
             173
1070
               1
1002
}
  0
MTEXT
  5
26B
100
AcDbEntity
  8
0
 62
               2
100
AcDbMText
 10
-23.378476619713183
 20
-35.48179592474844
 30
0.0
 40
4.5
 41
0.0
 71
               4
 72
               1
  1
\W1.071;\A1;CS-030-4E1
  7
MX_NOTE_STANDARD
  0
INSERT
  5
26C
100
AcDbEntity
  8
0
100
AcDbBlockReference
  2
MS_1
 10
36.030776977539062
 20
-120.15859985351562
 30
0.0
  0
INSERT
  5
26D
100
AcDbEntity
  8
0
100
AcDbBlockReference
  2
MS_2
 10
-100.42718505859375
 20
-120.15859985351562
 30
0.0
  0
INSERT
  5
26E
100
AcDbEntity
  8
0
100
AcDbBlockReference
  2
MS_3
 10
224.48873901367187
 20
-120.15859985351562
 30
0.0
  0
INSERT
  5
26F
100
AcDbEntity
  8
0
100
AcDbBlockReference
  2
MS_4
 10
36.030792236328125
 20
84.4091796875
 30
0.0
  0
LINE
  5
270
100
AcDbEntity
  8
0
  6
CONTINUOUS
 62
               7
100
AcDbLine
 10
-281.25
 20
195.5
 30
0.0
 11
282.10000000000002
 21
195.5
 31
0.0
  0
LINE
  5
271
100
AcDbEntity
  8
0
  6
CONTINUOUS
 62
               7
100
AcDbLine
 10
-281.25
 20
195.5
 30
0.0
 11
-281.25
 21
-195.0
 31
0.0
  0
LINE
  5
272
100
AcDbEntity
  8
0
  6
CONTINUOUS
 62
               7
100
AcDbLine
 10
282.10000000000002
 20
195.5
 30
0.0
 11
282.10000000000002
 21
-195.0
 31
0.0
  0
LINE
  5
273
100
AcDbEntity
  8
0
  6
CONTINUOUS
 62
               7
100
AcDbLine
 10
-281.25
 20
-195.0
 30
0.0
 11
282.10000000000002
 21
-195.0
 31
0.0
  0
LINE
  5
274
100
AcDbEntity
  8
0
  6
CONTINUOUS
 62
               7
100
AcDbLine
 10
162.09999999999999
 20
-175.0
 30
0.0
 11
162.09999999999999
 21
-195.0
 31
0.0
  0
LINE
  5
275
100
AcDbEntity
  8
0
  6
CONTINUOUS
 62
               7
100
AcDbLine
 10
162.09999999999999
 20
-175.0
 30
0.0
 11
282.10000000000002
 21
-175.0
 31
0.0
  0
LINE
  5
276
100
AcDbEntity
  8
0
  6
CONTINUOUS
 62
               7
100
AcDbLine
 10
162.09999999999999
 20
175.5
 30
0.0
 11
282.10000000000002
 21
175.5
 31
0.0
  0
LINE
  5
277
100
AcDbEntity
  8
0
  6
CONTINUOUS
 62
               7
100
AcDbLine
 10
-281.25
 20
175.5
 30
0.0
 11
-161.25
 21
175.5
 31
0.0
  0
LINE
  5
278
100
AcDbEntity
  8
0
  6
CONTINUOUS
 62
               7
100
AcDbLine
 10
162.09999999999999
 20
195.5
 30
0.0
 11
162.09999999999999
 21
175.5
 31
0.0
  0
LINE
  5
279
100
AcDbEntity
  8
0
  6
CONTINUOUS
 62
               7
100
AcDbLine
 10
-161.25
 20
195.5
 30
0.0
 11
-161.25
 21
175.5
 31
0.0
  0
LINE
  5
27A
100
AcDbEntity
  8
0
  6
CONTINUOUS
 62
               7
100
AcDbLine
 10
-261.25
 20
120.5
 30
0.0
 11
-261.25
 21
-179.5
 31
0.0
  0
LINE
  5
27B
100
AcDbEntity
  8
0
  6
CONTINUOUS
 62
               7
100
AcDbLine
 10
-213.25
 20
120.5
 30
0.0
 11
-213.25
 21
-179.5
 31
0.0
  0
LINE
  5
27C
100
AcDbEntity
  8
0
  6
CONTINUOUS
 62
               7
100
AcDbLine
 10
-261.25
 20
120.5
 30
0.0
 11
-138.25
 21
120.5
 31
0.0
  0
LINE
  5
27D
100
AcDbEntity
  8
0
  6
CONTINUOUS
 62
               7
100
AcDbLine
 10
-261.25
 20
105.5
 30
0.0
 11
-138.25
 21
105.5
 31
0.0
  0
LINE
  5
27E
100
AcDbEntity
  8
0
  6
CONTINUOUS
 62
               7
100
AcDbLine
 10
-261.25
 20
90.5
 30
0.0
 11
-138.25
 21
90.5
 31
0.0
  0
LINE
  5
27F
100
AcDbEntity
  8
0
  6
CONTINUOUS
 62
               7
100
AcDbLine
 10
-261.25
 20
75.5
 30
0.0
 11
-138.25
 21
75.5
 31
0.0
  0
LINE
  5
280
100
AcDbEntity
  8
0
  6
CONTINUOUS
 62
               7
100
AcDbLine
 10
-261.25
 20
60.5
 30
0.0
 11
-138.25
 21
60.5
 31
0.0
  0
LINE
  5
281
100
AcDbEntity
  8
0
  6
CONTINUOUS
 62
               7
100
AcDbLine
 10
-261.25
 20
45.5
 30
0.0
 11
-138.25
 21
45.5
 31
0.0
  0
LINE
  5
282
100
AcDbEntity
  8
0
  6
CONTINUOUS
 62
               7
100
AcDbLine
 10
-261.25
 20
30.5
 30
0.0
 11
-138.25
 21
30.5
 31
0.0
  0
LINE
  5
283
100
AcDbEntity
  8
0
  6
CONTINUOUS
 62
               7
100
AcDbLine
 10
-261.25
 20
15.5
 30
0.0
 11
-138.25
 21
15.5
 31
0.0
  0
LINE
  5
284
100
AcDbEntity
  8
0
  6
CONTINUOUS
 62
               7
100
AcDbLine
 10
-261.25
 20
0.5
 30
0.0
 11
-138.25
 21
0.5
 31
0.0
  0
LINE
  5
285
100
AcDbEntity
  8
0
  6
CONTINUOUS
 62
               7
100
AcDbLine
 10
-261.25
 20
-14.5
 30
0.0
 11
-138.25
 21
-14.5
 31
0.0
  0
LINE
  5
286
100
AcDbEntity
  8
0
  6
CONTINUOUS
 62
               7
100
AcDbLine
 10
-261.25
 20
-29.5
 30
0.0
 11
-138.25
 21
-29.5
 31
0.0
  0
LINE
  5
287
100
AcDbEntity
  8
0
  6
CONTINUOUS
 62
               7
100
AcDbLine
 10
-188.25
 20
120.5
 30
0.0
 11
-188.25
 21
-179.5
 31
0.0
  0
LINE
  5
288
100
AcDbEntity
  8
0
  6
CONTINUOUS
 62
               7
100
AcDbLine
 10
-163.25
 20
120.5
 30
0.0
 11
-163.25
 21
-179.5
 31
0.0
  0
LINE
  5
289
100
AcDbEntity
  8
0
  6
CONTINUOUS
 62
               7
100
AcDbLine
 10
-138.25
 20
120.5
 30
0.0
 11
-138.25
 21
-179.5
 31
0.0
  0
LINE
  5
28A
100
AcDbEntity
  8
0
  6
CONTINUOUS
 62
               7
100
AcDbLine
 10
-261.25
 20
-44.5
 30
0.0
 11
-138.25
 21
-44.5
 31
0.0
  0
LINE
  5
28B
100
AcDbEntity
  8
0
  6
CONTINUOUS
 62
               7
100
AcDbLine
 10
-261.25
 20
-59.5
 30
0.0
 11
-138.25
 21
-59.5
 31
0.0
  0
LINE
  5
28C
100
AcDbEntity
  8
0
  6
CONTINUOUS
 62
               7
100
AcDbLine
 10
-261.25
 20
-74.5
 30
0.0
 11
-138.25
 21
-74.5
 31
0.0
  0
LINE
  5
28D
100
AcDbEntity
  8
0
  6
CONTINUOUS
 62
               7
100
AcDbLine
 10
-261.25
 20
-89.5
 30
0.0
 11
-138.25
 21
-89.5
 31
0.0
  0
LINE
  5
28E
100
AcDbEntity
  8
0
  6
CONTINUOUS
 62
               7
100
AcDbLine
 10
-261.25
 20
-104.5
 30
0.0
 11
-138.25
 21
-104.5
 31
0.0
  0
LINE
  5
28F
100
AcDbEntity
  8
0
  6
CONTINUOUS
 62
               7
100
AcDbLine
 10
-261.25
 20
-119.5
 30
0.0
 11
-138.25
 21
-119.5
 31
0.0
  0
LINE
  5
290
100
AcDbEntity
  8
0
  6
CONTINUOUS
 62
               7
100
AcDbLine
 10
-261.25
 20
-134.5
 30
0.0
 11
-138.25
 21
-134.5
 31
0.0
  0
LINE
  5
291
100
AcDbEntity
  8
0
  6
CONTINUOUS
 62
               7
100
AcDbLine
 10
-261.25
 20
-149.5
 30
0.0
 11
-138.25
 21
-149.5
 31
0.0
  0
LINE
  5
292
100
AcDbEntity
  8
0
  6
CONTINUOUS
 62
               7
100
AcDbLine
 10
-261.25
 20
-164.5
 30
0.0
 11
-138.25
 21
-164.5
 31
0.0
  0
LINE
  5
293
100
AcDbEntity
  8
0
  6
CONTINUOUS
 62
               7
100
AcDbLine
 10
-261.25
 20
-179.5
 30
0.0
 11
-138.25
 21
-179.5
 31
0.0
  0
MTEXT
  5
294
100
AcDbEntity
  8
0
  6
CONTINUOUS
 62
               7
100
AcDbMText
 10
198.2770240315611
 20
185.5
 30
0.0
 40
6.3000001907348633
 41
0.0
 71
               4
 72
               1
  1
\W1.311;\A1;Ver. 1.0
  7
MX_NOTE_STANDARD
  0
MTEXT
  5
295
100
AcDbEntity
  8
0
  6
CONTINUOUS
 62
               7
100
AcDbMText
 10
170.2809980228688
 20
-185.0
 30
0.0
 40
9.0
 41
0.0
 71
               4
 72
               1
  1
\W1.121;\A1;KOGANEI CORP.
  7
MX_NOTE_STANDARD
  0
MTEXT
  5
296
100
AcDbEntity
  8
0
  6
CONTINUOUS
 62
               7
100
AcDbMText
 10
-261.05614645463817
 20
185.5
 30
0.0
 40
6.3000001907348633
 41
0.0
 71
               4
 72
               1
  1
\W1.089;\A1;CS-030 SERIES
  7
MX_NOTE_STANDARD
  0
MTEXT
  5
297
100
AcDbEntity
  8
0
  6
CONTINUOUS
 62
               7
100
AcDbMText
 10
-265.11144574948003
 20
160.5
 30
0.0
 40
6.3000001907348633
 41
0.0
 71
               4
 72
               1
  1
\W1.084;\A1;MODEL:CS-YM5F01
  7
MX_NOTE_STANDARD
  0
MTEXT
  5
298
100
AcDbEntity
  8
0
  6
CONTINUOUS
 62
               7
100
AcDbMText
 10
-204.35000001072885
 20
113.0
 30
0.0
 40
4.5
 41
0.0
 71
               4
 72
               1
  1
\W1.200;\A1;P1
  7
MX_NOTE_STANDARD
  0
MTEXT
  5
299
100
AcDbEntity
  8
0
  6
CONTINUOUS
 62
               7
100
AcDbMText
 10
-179.5
 20
113.0
 30
0.0
 40
4.5
 41
0.0
 71
               4
 72
               1
  1
\A1;P2
  7
MX_NOTE_STANDARD
  0
MTEXT
  5
29A
100
AcDbEntity
  8
0
  6
CONTINUOUS
 62
               7
100
AcDbMText
 10
-152.25
 20
113.0
 30
0.0
 40
4.5
 41
0.0
 71
               4
 72
               1
  1
\A1;L
  7
MX_NOTE_STANDARD
  0
MTEXT
  5
29B
100
AcDbEntity
  8
0
  6
CONTINUOUS
 62
               7
100
AcDbMText
 10
-244.0
 20
113.0
 30
0.0
 40
4.5
 41
0.0
 71
               4
 72
               1
  1
\A1;TYPE
  7
MX_NOTE_STANDARD
  0
MTEXT
  5
29C
100
AcDbEntity
  8
0
  6
CONTINUOUS
 62
               7
100
AcDbMText
 10
-258.95588235294116
 20
98.0
 30
0.0
 40
4.5
 41
0.0
 71
               4
 72
               1
  1
\W1.059;\A1;CS-YM2F01
  7
MX_NOTE_STANDARD
  0
MTEXT
  5
29D
100
AcDbEntity
  8
0
  6
CONTINUOUS
 62
               7
100
AcDbMText
 10
-258.95588235294116
 20
83.0
 30
0.0
 40
4.5
 41
0.0
 71
               4
 72
               1
  1
\W1.059;\A1;CS-YM3F01
  7
MX_NOTE_STANDARD
  0
MTEXT
  5
29E
100
AcDbEntity
  8
0
  6
CONTINUOUS
 62
               7
100
AcDbMText
 10
-258.95588235294116
 20
68.0
 30
0.0
 40
4.5
 41
0.0
 71
               4
 72
               1
  1
\W1.059;\A1;CS-YM4F01
  7
MX_NOTE_STANDARD
  0
MTEXT
  5
29F
100
AcDbEntity
  8
0
  6
CONTINUOUS
 62
               7
100
AcDbMText
 10
-258.95588235294116
 20
53.0
 30
0.0
 40
4.5
 41
0.0
 71
               4
 72
               1
  1
\W1.059;\A1;CS-YM5F01
  7
MX_NOTE_STANDARD
  0
MTEXT
  5
2A0
100
AcDbEntity
  8
0
  6
CONTINUOUS
 62
               7
100
AcDbMText
 10
-258.95588235294116
 20
38.0
 30
0.0
 40
4.5
 41
0.0
 71
               4
 72
               1
  1
\W1.059;\A1;CS-YM6F01
  7
MX_NOTE_STANDARD
  0
MTEXT
  5
2A1
100
AcDbEntity
  8
0
  6
CONTINUOUS
 62
               7
100
AcDbMText
 10
-258.95588235294116
 20
23.0
 30
0.0
 40
4.5
 41
0.0
 71
               4
 72
               1
  1
\W1.059;\A1;CS-YM7F01
  7
MX_NOTE_STANDARD
  0
MTEXT
  5
2A2
100
AcDbEntity
  8
0
  6
CONTINUOUS
 62
               7
100
AcDbMText
 10
-258.95588235294116
 20
8.0
 30
0.0
 40
4.5
 41
0.0
 71
               4
 72
               1
  1
\W1.059;\A1;CS-YM8F01
  7
MX_NOTE_STANDARD
  0
MTEXT
  5
2A3
100
AcDbEntity
  8
0
  6
CONTINUOUS
 62
               7
100
AcDbMText
 10
-258.95588235294116
 20
-7.0
 30
0.0
 40
4.5
 41
0.0
 71
               4
 72
               1
  1
\W1.059;\A1;CS-YM9F01
  7
MX_NOTE_STANDARD
  0
MTEXT
  5
2A4
100
AcDbEntity
  8
0
  6
CONTINUOUS
 62
               7
100
AcDbMText
 10
-258.94642856971797
 20
-172.0
 30
0.0
 40
4.5
 41
0.0
 71
               4
 72
               1
  1
\W1.071;\A1;CS-YM20F01
  7
MX_NOTE_STANDARD
  0
MTEXT
  5
2A5
100
AcDbEntity
  8
0
  6
CONTINUOUS
 62
               7
100
AcDbMText
 10
-181.65625000628643
 20
-7.0
 30
0.0
 40
4.5
 41
0.0
 71
               4
 72
               1
  1
\W1.125;\A1;128
  7
MX_NOTE_STANDARD
  0
MTEXT
  5
2A6
100
AcDbEntity
  8
0
  6
CONTINUOUS
 62
               7
100
AcDbMText
 10
-181.53571430213597
 20
8.0
 30
0.0
 40
4.5
 41
0.0
 71
               4
 72
               1
  1
\W1.286;\A1;112
  7
MX_NOTE_STANDARD
  0
MTEXT
  5
2A7
100
AcDbEntity
  8
0
  6
CONTINUOUS
 62
               7
100
AcDbMText
 10
-177.25
 20
23.0
 30
0.0
 40
4.5
 41
0.0
 71
               4
 72
               1
  1
\A1;96
  7
MX_NOTE_STANDARD
  0
MTEXT
  5
2A8
100
AcDbEntity
  8
0
  6
CONTINUOUS
 62
               7
100
AcDbMText
 10
-177.18181817295138
 20
38.0
 30
0.0
 40
4.5
 41
0.0
 71
               4
 72
               1
  1
\W1.091;\A1;80
  7
MX_NOTE_STANDARD
  0
MTEXT
  5
2A9
100
AcDbEntity
  8
0
  6
CONTINUOUS
 62
               7
100
AcDbMText
 10
-177.25
 20
53.0
 30
0.0
 40
4.5
 41
0.0
 71
               4
 72
               1
  1
\A1;64
  7
MX_NOTE_STANDARD
  0
MTEXT
  5
2AA
100
AcDbEntity
  8
0
  6
CONTINUOUS
 62
               7
100
AcDbMText
 10
-177.25
 20
68.0
 30
0.0
 40
4.5
 41
0.0
 71
               4
 72
               1
  1
\A1;48
  7
MX_NOTE_STANDARD
  0
MTEXT
  5
2AB
100
AcDbEntity
  8
0
  6
CONTINUOUS
 62
               7
100
AcDbMText
 10
-177.25
 20
83.0
 30
0.0
 40
4.5
 41
0.0
 71
               4
 72
               1
  1
\A1;32
  7
MX_NOTE_STANDARD
  0
MTEXT
  5
2AC
100
AcDbEntity
  8
0
  6
CONTINUOUS
 62
               7
100
AcDbMText
 10
-177.10000001072885
 20
98.0
 30
0.0
 40
4.5
 41
0.0
 71
               4
 72
               1
  1
\W1.200;\A1;16
  7
MX_NOTE_STANDARD
  0
MTEXT
  5
2AD
100
AcDbEntity
  8
0
  6
CONTINUOUS
 62
               7
100
AcDbMText
 10
-258.91666666666669
 20
-22.0
 30
0.0
 40
4.5
 41
0.0
 71
               4
 72
               1
  1
\W1.111;\A1;CS-YM10F01
  7
MX_NOTE_STANDARD
  0
MTEXT
  5
2AE
100
AcDbEntity
  8
0
  6
CONTINUOUS
 62
               7
100
AcDbMText
 10
-258.90094340004589
 20
-37.0
 30
0.0
 40
4.5
 41
0.0
 71
               4
 72
               1
  1
\W1.132;\A1;CS-YM11F01
  7
MX_NOTE_STANDARD
  0
MTEXT
  5
2AF
100
AcDbEntity
  8
0
  6
CONTINUOUS
 62
               7
100
AcDbMText
 10
-258.93181818359153
 20
-52.0
 30
0.0
 40
4.5
 41
0.0
 71
               4
 72
               1
  1
\W1.091;\A1;CS-YM12F01
  7
MX_NOTE_STANDARD
  0
MTEXT
  5
2B0
100
AcDbEntity
  8
0
  6
CONTINUOUS
 62
               7
100
AcDbMText
 10
-258.93181818359153
 20
-67.0
 30
0.0
 40
4.5
 41
0.0
 71
               4
 72
               1
  1
\W1.091;\A1;CS-YM13F01
  7
MX_NOTE_STANDARD
  0
MTEXT
  5
2B1
100
AcDbEntity
  8
0
  6
CONTINUOUS
 62
               7
100
AcDbMText
 10
-258.93181818359153
 20
-82.0
 30
0.0
 40
4.5
 41
0.0
 71
               4
 72
               1
  1
\W1.091;\A1;CS-YM14F01
  7
MX_NOTE_STANDARD
  0
MTEXT
  5
2B2
100
AcDbEntity
  8
0
  6
CONTINUOUS
 62
               7
100
AcDbMText
 10
-258.93181818359153
 20
-97.0
 30
0.0
 40
4.5
 41
0.0
 71
               4
 72
               1
  1
\W1.091;\A1;CS-YM15F01
  7
MX_NOTE_STANDARD
  0
MTEXT
  5
2B3
100
AcDbEntity
  8
0
  6
CONTINUOUS
 62
               7
100
AcDbMText
 10
-258.93181818359153
 20
-112.0
 30
0.0
 40
4.5
 41
0.0
 71
               4
 72
               1
  1
\W1.091;\A1;CS-YM16F01
  7
MX_NOTE_STANDARD
  0
MTEXT
  5
2B4
100
AcDbEntity
  8
0
  6
CONTINUOUS
 62
               7
100
AcDbMText
 10
-258.93181818359153
 20
-127.0
 30
0.0
 40
4.5
 41
0.0
 71
               4
 72
               1
  1
\W1.091;\A1;CS-YM17F01
  7
MX_NOTE_STANDARD
  0
MTEXT
  5
2B5
100
AcDbEntity
  8
0
  6
CONTINUOUS
 62
               7
100
AcDbMText
 10
-258.93181818359153
 20
-142.0
 30
0.0
 40
4.5
 41
0.0
 71
               4
 72
               1
  1
\W1.091;\A1;CS-YM18F01
  7
MX_NOTE_STANDARD
  0
MTEXT
  5
2B6
100
AcDbEntity
  8
0
  6
CONTINUOUS
 62
               7
100
AcDbMText
 10
-258.93181818359153
 20
-157.0
 30
0.0
 40
4.5
 41
0.0
 71
               4
 72
               1
  1
\W1.091;\A1;CS-YM19F01
  7
MX_NOTE_STANDARD
  0
MTEXT
  5
2B7
100
AcDbEntity
  8
0
  6
CONTINUOUS
 62
               7
100
AcDbMText
 10
-181.65625000628643
 20
-22.0
 30
0.0
 40
4.5
 41
0.0
 71
               4
 72
               1
  1
\W1.125;\A1;144
  7
MX_NOTE_STANDARD
  0
MTEXT
  5
2B8
100
AcDbEntity
  8
0
  6
CONTINUOUS
 62
               7
100
AcDbMText
 10
-181.59999999999999
 20
-37.0
 30
0.0
 40
4.5
 41
0.0
 71
               4
 72
               1
  1
\W1.200;\A1;160
  7
MX_NOTE_STANDARD
  0
MTEXT
  5
2B9
100
AcDbEntity
  8
0
  6
CONTINUOUS
 62
               7
100
AcDbMText
 10
-181.65625000628643
 20
-52.0
 30
0.0
 40
4.5
 41
0.0
 71
               4
 72
               1
  1
\W1.125;\A1;176
  7
MX_NOTE_STANDARD
  0
MTEXT
  5
2BA
100
AcDbEntity
  8
0
  6
CONTINUOUS
 62
               7
100
AcDbMText
 10
-181.65625000628643
 20
-67.0
 30
0.0
 40
4.5
 41
0.0
 71
               4
 72
               1
  1
\W1.125;\A1;192
  7
MX_NOTE_STANDARD
  0
MTEXT
  5
2BB
100
AcDbEntity
  8
0
  6
CONTINUOUS
 62
               7
100
AcDbMText
 10
-181.70588234737258
 20
-82.0
 30
0.0
 40
4.5
 41
0.0
 71
               4
 72
               1
  1
\W1.059;\A1;208
  7
MX_NOTE_STANDARD
  0
MTEXT
  5
2BC
100
AcDbEntity
  8
0
  6
CONTINUOUS
 62
               7
100
AcDbMText
 10
-181.75
 20
-97.0
 30
0.0
 40
4.5
 41
0.0
 71
               4
 72
               1
  1
\A1;224
  7
MX_NOTE_STANDARD
  0
MTEXT
  5
2BD
100
AcDbEntity
  8
0
  6
CONTINUOUS
 62
               7
100
AcDbMText
 10
-181.70588234737258
 20
-112.0
 30
0.0
 40
4.5
 41
0.0
 71
               4
 72
               1
  1
\W1.059;\A1;240
  7
MX_NOTE_STANDARD
  0
MTEXT
  5
2BE
100
AcDbEntity
  8
0
  6
CONTINUOUS
 62
               7
100
AcDbMText
 10
-181.75
 20
-127.0
 30
0.0
 40
4.5
 41
0.0
 71
               4
 72
               1
  1
\A1;256
  7
MX_NOTE_STANDARD
  0
MTEXT
  5
2BF
100
AcDbEntity
  8
0
  6
CONTINUOUS
 62
               7
100
AcDbMText
 10
-181.75
 20
-142.0
 30
0.0
 40
4.5
 41
0.0
 71
               4
 72
               1
  1
\A1;272
  7
MX_NOTE_STANDARD
  0
MTEXT
  5
2C0
100
AcDbEntity
  8
0
  6
CONTINUOUS
 62
               7
100
AcDbMText
 10
-181.75
 20
-157.0
 30
0.0
 40
4.5
 41
0.0
 71
               4
 72
               1
  1
\A1;288
  7
MX_NOTE_STANDARD
  0
MTEXT
  5
2C1
100
AcDbEntity
  8
0
  6
CONTINUOUS
 62
               7
100
AcDbMText
 10
-181.70588234737258
 20
-172.0
 30
0.0
 40
4.5
 41
0.0
 71
               4
 72
               1
  1
\W1.059;\A1;304
  7
MX_NOTE_STANDARD
  0
MTEXT
  5
2C2
100
AcDbEntity
  8
0
  6
CONTINUOUS
 62
               7
100
AcDbMText
 10
-204.43181817295138
 20
98.0
 30
0.0
 40
4.5
 41
0.0
 71
               4
 72
               1
  1
\W1.091;\A1;40
  7
MX_NOTE_STANDARD
  0
MTEXT
  5
2C3
100
AcDbEntity
  8
0
  6
CONTINUOUS
 62
               7
100
AcDbMText
 10
-204.5
 20
83.0
 30
0.0
 40
4.5
 41
0.0
 71
               4
 72
               1
  1
\A1;56
  7
MX_NOTE_STANDARD
  0
MTEXT
  5
2C4
100
AcDbEntity
  8
0
  6
CONTINUOUS
 62
               7
100
AcDbMText
 10
-204.5
 20
68.0
 30
0.0
 40
4.5
 41
0.0
 71
               4
 72
               1
  1
\A1;72
  7
MX_NOTE_STANDARD
  0
MTEXT
  5
2C5
100
AcDbEntity
  8
0
  6
CONTINUOUS
 62
               7
100
AcDbMText
 10
-204.5
 20
53.0
 30
0.0
 40
4.5
 41
0.0
 71
               4
 72
               1
  1
\A1;88
  7
MX_NOTE_STANDARD
  0
MTEXT
  5
2C6
100
AcDbEntity
  8
0
  6
CONTINUOUS
 62
               7
100
AcDbMText
 10
-206.59999999999999
 20
38.0
 30
0.0
 40
4.5
 41
0.0
 71
               4
 72
               1
  1
\W1.200;\A1;104
  7
MX_NOTE_STANDARD
  0
MTEXT
  5
2C7
100
AcDbEntity
  8
0
  6
CONTINUOUS
 62
               7
100
AcDbMText
 10
-206.59999999999999
 20
23.0
 30
0.0
 40
4.5
 41
0.0
 71
               4
 72
               1
  1
\W1.200;\A1;120
  7
MX_NOTE_STANDARD
  0
MTEXT
  5
2C8
100
AcDbEntity
  8
0
  6
CONTINUOUS
 62
               7
100
AcDbMText
 10
-206.65625000628643
 20
8.0
 30
0.0
 40
4.5
 41
0.0
 71
               4
 72
               1
  1
\W1.125;\A1;136
  7
MX_NOTE_STANDARD
  0
MTEXT
  5
2C9
100
AcDbEntity
  8
0
  6
CONTINUOUS
 62
               7
100
AcDbMText
 10
-206.65625000628643
 20
-7.0
 30
0.0
 40
4.5
 41
0.0
 71
               4
 72
               1
  1
\W1.125;\A1;152
  7
MX_NOTE_STANDARD
  0
MTEXT
  5
2CA
100
AcDbEntity
  8
0
  6
CONTINUOUS
 62
               7
100
AcDbMText
 10
-206.65625000628643
 20
-22.0
 30
0.0
 40
4.5
 41
0.0
 71
               4
 72
               1
  1
\W1.125;\A1;168
  7
MX_NOTE_STANDARD
  0
MTEXT
  5
2CB
100
AcDbEntity
  8
0
  6
CONTINUOUS
 62
               7
100
AcDbMText
 10
-206.65625000628643
 20
-37.0
 30
0.0
 40
4.5
 41
0.0
 71
               4
 72
               1
  1
\W1.125;\A1;184
  7
MX_NOTE_STANDARD
  0
MTEXT
  5
2CC
100
AcDbEntity
  8
0
  6
CONTINUOUS
 62
               7
100
AcDbMText
 10
-206.65624998742715
 20
-52.0
 30
0.0
 40
4.5
 41
0.0
 71
               4
 72
               1
  1
\W1.125;\A1;200
  7
MX_NOTE_STANDARD
  0
MTEXT
  5
2CD
100
AcDbEntity
  8
0
  6
CONTINUOUS
 62
               7
100
AcDbMText
 10
-206.65625000628643
 20
-67.0
 30
0.0
 40
4.5
 41
0.0
 71
               4
 72
               1
  1
\W1.125;\A1;216
  7
MX_NOTE_STANDARD
  0
MTEXT
  5
2CE
100
AcDbEntity
  8
0
  6
CONTINUOUS
 62
               7
100
AcDbMText
 10
-206.75
 20
-82.0
 30
0.0
 40
4.5
 41
0.0
 71
               4
 72
               1
  1
\A1;232
  7
MX_NOTE_STANDARD
  0
MTEXT
  5
2CF
100
AcDbEntity
  8
0
  6
CONTINUOUS
 62
               7
100
AcDbMText
 10
-206.75
 20
-97.0
 30
0.0
 40
4.5
 41
0.0
 71
               4
 72
               1
  1
\A1;248
  7
MX_NOTE_STANDARD
  0
MTEXT
  5
2D0
100
AcDbEntity
  8
0
  6
CONTINUOUS
 62
               7
100
AcDbMText
 10
-206.75
 20
-112.0
 30
0.0
 40
4.5
 41
0.0
 71
               4
 72
               1
  1
\A1;264
  7
MX_NOTE_STANDARD
  0
MTEXT
  5
2D1
100
AcDbEntity
  8
0
  6
CONTINUOUS
 62
               7
100
AcDbMText
 10
-206.70588234737258
 20
-127.0
 30
0.0
 40
4.5
 41
0.0
 71
               4
 72
               1
  1
\W1.059;\A1;280
  7
MX_NOTE_STANDARD
  0
MTEXT
  5
2D2
100
AcDbEntity
  8
0
  6
CONTINUOUS
 62
               7
100
AcDbMText
 10
-206.75
 20
-142.0
 30
0.0
 40
4.5
 41
0.0
 71
               4
 72
               1
  1
\A1;296
  7
MX_NOTE_STANDARD
  0
MTEXT
  5
2D3
100
AcDbEntity
  8
0
  6
CONTINUOUS
 62
               7
100
AcDbMText
 10
-206.65625000628643
 20
-157.0
 30
0.0
 40
4.5
 41
0.0
 71
               4
 72
               1
  1
\W1.125;\A1;312
  7
MX_NOTE_STANDARD
  0
MTEXT
  5
2D4
100
AcDbEntity
  8
0
  6
CONTINUOUS
 62
               7
100
AcDbMText
 10
-206.75
 20
-172.0
 30
0.0
 40
4.5
 41
0.0
 71
               4
 72
               1
  1
\A1;328
  7
MX_NOTE_STANDARD
  0
MTEXT
  5
2D5
100
AcDbEntity
  8
0
  6
CONTINUOUS
 62
               7
100
AcDbMText
 10
-154.5
 20
98.0
 30
0.0
 40
4.5
 41
0.0
 71
               4
 72
               1
  1
\A1;52
  7
MX_NOTE_STANDARD
  0
MTEXT
  5
2D6
100
AcDbEntity
  8
0
  6
CONTINUOUS
 62
               7
100
AcDbMText
 10
-154.5
 20
83.0
 30
0.0
 40
4.5
 41
0.0
 71
               4
 72
               1
  1
\A1;68
  7
MX_NOTE_STANDARD
  0
MTEXT
  5
2D7
100
AcDbEntity
  8
0
  6
CONTINUOUS
 62
               7
100
AcDbMText
 10
-154.5
 20
68.0
 30
0.0
 40
4.5
 41
0.0
 71
               4
 72
               1
  1
\A1;84
  7
MX_NOTE_STANDARD
  0
MTEXT
  5
2D8
100
AcDbEntity
  8
0
  6
CONTINUOUS
 62
               7
100
AcDbMText
 10
-156.53571427750344
 20
53.0
 30
0.0
 40
4.5
 41
0.0
 71
               4
 72
               1
  1
\W1.286;\A1;100
  7
MX_NOTE_STANDARD
  0
MTEXT
  5
2D9
100
AcDbEntity
  8
0
  6
CONTINUOUS
 62
               7
100
AcDbMText
 10
-156.53571430213597
 20
38.0
 30
0.0
 40
4.5
 41
0.0
 71
               4
 72
               1
  1
\W1.286;\A1;116
  7
MX_NOTE_STANDARD
  0
MTEXT
  5
2DA
100
AcDbEntity
  8
0
  6
CONTINUOUS
 62
               7
100
AcDbMText
 10
-156.65625000628643
 20
23.0
 30
0.0
 40
4.5
 41
0.0
 71
               4
 72
               1
  1
\W1.125;\A1;132
  7
MX_NOTE_STANDARD
  0
MTEXT
  5
2DB
100
AcDbEntity
  8
0
  6
CONTINUOUS
 62
               7
100
AcDbMText
 10
-156.65625000628643
 20
8.0
 30
0.0
 40
4.5
 41
0.0
 71
               4
 72
               1
  1
\W1.125;\A1;148
  7
MX_NOTE_STANDARD
  0
MTEXT
  5
2DC
100
AcDbEntity
  8
0
  6
CONTINUOUS
 62
               7
100
AcDbMText
 10
-156.65625000628643
 20
-7.0
 30
0.0
 40
4.5
 41
0.0
 71
               4
 72
               1
  1
\W1.125;\A1;164
  7
MX_NOTE_STANDARD
  0
MTEXT
  5
2DD
100
AcDbEntity
  8
0
  6
CONTINUOUS
 62
               7
100
AcDbMText
 10
-156.59999999999999
 20
-22.0
 30
0.0
 40
4.5
 41
0.0
 71
               4
 72
               1
  1
\W1.200;\A1;180
  7
MX_NOTE_STANDARD
  0
MTEXT
  5
2DE
100
AcDbEntity
  8
0
  6
CONTINUOUS
 62
               7
100
AcDbMText
 10
-156.65625000628643
 20
-37.0
 30
0.0
 40
4.5
 41
0.0
 71
               4
 72
               1
  1
\W1.125;\A1;196
  7
MX_NOTE_STANDARD
  0
MTEXT
  5
2DF
100
AcDbEntity
  8
0
  6
CONTINUOUS
 62
               7
100
AcDbMText
 10
-156.65625000628643
 20
-52.0
 30
0.0
 40
4.5
 41
0.0
 71
               4
 72
               1
  1
\W1.125;\A1;212
  7
MX_NOTE_STANDARD
  0
MTEXT
  5
2E0
100
AcDbEntity
  8
0
  6
CONTINUOUS
 62
               7
100
AcDbMText
 10
-156.75
 20
-82.0
 30
0.0
 40
4.5
 41
0.0
 71
               4
 72
               1
  1
\A1;244
  7
MX_NOTE_STANDARD
  0
MTEXT
  5
2E1
100
AcDbEntity
  8
0
  6
CONTINUOUS
 62
               7
100
AcDbMText
 10
-156.70588234737258
 20
-97.0
 30
0.0
 40
4.5
 41
0.0
 71
               4
 72
               1
  1
\W1.059;\A1;260
  7
MX_NOTE_STANDARD
  0
MTEXT
  5
2E2
100
AcDbEntity
  8
0
  6
CONTINUOUS
 62
               7
100
AcDbMText
 10
-156.75
 20
-112.0
 30
0.0
 40
4.5
 41
0.0
 71
               4
 72
               1
  1
\A1;276
  7
MX_NOTE_STANDARD
  0
MTEXT
  5
2E3
100
AcDbEntity
  8
0
  6
CONTINUOUS
 62
               7
100
AcDbMText
 10
-156.75
 20
-127.0
 30
0.0
 40
4.5
 41
0.0
 71
               4
 72
               1
  1
\A1;292
  7
MX_NOTE_STANDARD
  0
MTEXT
  5
2E4
100
AcDbEntity
  8
0
  6
CONTINUOUS
 62
               7
100
AcDbMText
 10
-156.70588234737258
 20
-142.0
 30
0.0
 40
4.5
 41
0.0
 71
               4
 72
               1
  1
\W1.059;\A1;308
  7
MX_NOTE_STANDARD
  0
MTEXT
  5
2E5
100
AcDbEntity
  8
0
  6
CONTINUOUS
 62
               7
100
AcDbMText
 10
-156.75
 20
-157.0
 30
0.0
 40
4.5
 41
0.0
 71
               4
 72
               1
  1
\A1;324
  7
MX_NOTE_STANDARD
  0
MTEXT
  5
2E6
100
AcDbEntity
  8
0
  6
CONTINUOUS
 62
               7
100
AcDbMText
 10
-156.70588234737258
 20
-172.0
 30
0.0
 40
4.5
 41
0.0
 71
               4
 72
               1
  1
\W1.059;\A1;340
  7
MX_NOTE_STANDARD
  0
MTEXT
  5
2E7
100
AcDbEntity
  8
0
  6
CONTINUOUS
 62
               7
100
AcDbMText
 10
-156.75
 20
-67.0
 30
0.0
 40
4.5
 41
0.0
 71
               4
 72
               1
  1
\A1;228
  7
MX_NOTE_STANDARD
  0
MTEXT
  5
2E8
100
AcDbEntity
  8
0
  6
CONTINUOUS
 62
               7
100
AcDbMText
 10
-230.41666667060878
 20
128.0
 30
0.0
 40
4.5
 41
0.0
 71
               4
 72
               1
  1
\W1.111;\A1;DIMENSION LIST
  7
MX_NOTE_STANDARD
  0
DIMENSION
  5
2F4
100
AcDbEntity
  8
0
  6
CONTINUOUS
 62
               2
100
AcDbDimension
  2
*D5
 10
36.030792236328125
 20
110.1739501953125
 30
0.0
 11
27.030776977539063
 21
110.1739501953125
 31
0.0
 70
             128
  1
<>
  3
MXDIMSTYLE
100
AcDbAlignedDimension
 13
18.030776977539063
 23
79.4091796875
 33
0.0
 14
36.030792236328125
 24
87.9091796875
 34
0.0
100
AcDbRotatedDimension
1001
ACAD
1000
DSTYLE
1002
{
1070
               6
1000
_OPEN30
1070
               7
1000
_OPEN30
1070
              41
1040
2.77
1070
              42
1040
0.0
1070
              75
1070
               1
1070
              78
1070
               0
1070
             140
1040
4.5
1070
             173
1070
               1
1070
             271
1070
               0
1002
}
  0
DIMENSION
  5
300
100
AcDbEntity
  8
0
  6
CONTINUOUS
 62
               2
100
AcDbDimension
  2
*D6
 10
100.03077697753906
 20
110.1739501953125
 30
0.0
 11
68.030776977539062
 21
110.1739501953125
 31
0.0
 70
             128
  1
P2
  3
MXDIMSTYLE
100
AcDbAlignedDimension
 13
36.030792236328125
 23
87.9091796875
 33
0.0
 14
100.03077697753906
 24
87.9091796875
 34
0.0
100
AcDbRotatedDimension
1001
ACAD
1000
DSTYLE
1002
{
1070
               6
1000
_OPEN30
1070
               7
1000
_OPEN30
1070
              41
1040
2.77
1070
              42
1040
0.0
1070
              75
1070
               1
1070
              78
1070
               0
1070
             140
1040
4.5
1070
             173
1070
               1
1070
             271
1070
               0
1002
}
  0
DIMENSION
  5
30B
100
AcDbEntity
  8
0
  6
CONTINUOUS
 62
               2
100
AcDbDimension
  2
*D7
 10
118.03077697753906
 20
110.1739501953125
 30
0.0
 11
109.03077697753906
 21
110.1739501953125
 31
0.0
 70
             128
  1
<>
  3
MXDIMSTYLE
100
AcDbAlignedDimension
 13
100.03077697753906
 23
87.9091796875
 33
0.0
 14
118.03077697753906
 24
79.4091796875
 34
0.0
100
AcDbRotatedDimension
1001
ACAD
1000
DSTYLE
1002
{
1070
               6
1000
_OPEN30
1070
               7
1000
_OPEN30
1070
              41
1040
2.77
1070
              75
1070
               1
1070
              76
1070
               1
1070
              78
1070
               0
1070
             140
1040
4.5
1070
             173
1070
               1
1070
             271
1070
               0
1002
}
  0
DIMENSION
  5
318
100
AcDbEntity
  8
0
  6
CONTINUOUS
 62
               2
100
AcDbDimension
  2
*D8
 10
18.030776977539063
 20
121.33026123046875
 30
0.0
 11
67.923980712890625
 21
121.33026123046875
 31
0.0
 70
             128
  1
L
  3
MXDIMSTYLE
100
AcDbAlignedDimension
 13
118.03077697753906
 23
79.4091796875
 33
0.0
 14
18.030776977539063
 24
79.4091796875
 34
0.0
100
AcDbRotatedDimension
1001
ACAD
1000
DSTYLE
1002
{
1070
               6
1000
_OPEN30
1070
               7
1000
_OPEN30
1070
              41
1040
2.77
1070
              78
1070
               0
1070
             140
1040
4.5
1070
             173
1070
               1
1070
             271
1070
               0
1002
}
  0
DIMENSION
  5
329
100
AcDbEntity
  8
0
  6
CONTINUOUS
 62
               2
100
AcDbDimension
  2
*D9
 10
24.030776977539063
 20
-148.06037902832031
 30
0.0
 11
21.030776977539063
 21
-148.06037902832031
 31
0.0
 70
             128
  1
<>
  3
MXDIMSTYLE
100
AcDbAlignedDimension
 13
18.030776977539063
 23
-118.15859985351562
 33
0.0
 14
24.030776977539063
 24
-99.658599853515625
 34
0.0
100
AcDbRotatedDimension
1001
ACAD
1000
DSTYLE
1002
{
1070
               6
1000
_OPEN30
1070
               7
1000
_NONE
1070
              41
1040
2.77
1070
              42
1040
0.0
1070
              78
1070
               0
1070
             140
1040
4.5
1070
             173
1070
               1
1070
             271
1070
               0
1002
}
  0
DIMENSION
  5
334
100
AcDbEntity
  8
0
  6
CONTINUOUS
 62
               2
100
AcDbDimension
  2
*D11
 10
112.03077697753906
 20
-148.06037902832031
 30
0.0
 11
68.030776977539062
 21
-148.06037902832031
 31
0.0
 70
             128
  1
P1
  3
MXDIMSTYLE
100
AcDbAlignedDimension
 13
24.030776977539063
 23
-99.658599853515625
 33
0.0
 14
112.03077697753906
 24
-99.658599853515625
 34
0.0
100
AcDbRotatedDimension
1001
ACAD
1000
DSTYLE
1002
{
1070
               6
1000
_OPEN30
1070
               7
1000
_NONE
1070
              41
1040
2.77
1070
              42
1040
0.0
1070
              75
1070
               1
1070
              78
1070
               0
1070
             140
1040
4.5
1070
             173
1070
               1
1070
             271
1070
               0
1002
}
  0
DIMENSION
  5
342
100
AcDbEntity
  8
0
  6
CONTINUOUS
 62
               2
100
AcDbDimension
  2
*D12
 10
118.03077697753906
 20
-148.06037902832031
 30
0.0
 11
115.03077697753906
 21
-148.06037902832031
 31
0.0
 70
             128
  1
<>
  3
MXDIMSTYLE
100
AcDbAlignedDimension
 13
112.03077697753906
 23
-99.658599853515625
 33
0.0
 14
118.03077697753906
 24
-118.15859985351562
 34
0.0
100
AcDbRotatedDimension
1001
ACAD
1000
DSTYLE
1002
{
1070
               6
1000
_OPEN30
1070
               7
1000
_OPEN30
1070
              41
1040
2.77
1070
              75
1070
               1
1070
              78
1070
               0
1070
             140
1040
4.5
1070
             173
1070
               1
1070
             271
1070
               0
1002
}
  0
ENDSEC
  0
SECTION
  2
OBJECTS
  0
DICTIONARY
  5
19
100
AcDbDictionary
  3
ACAD_GROUP
350
1A
  3
ACAD_MLINESTYLE
350
1B
  0
DICTIONARY
  5
1A
102
{ACAD_REACTORS
330
19
102
}
100
AcDbDictionary
  0
DICTIONARY
  5
1B
102
{ACAD_REACTORS
330
19
102
}
100
AcDbDictionary
  3
STANDARD
350
1C
  0
MLINESTYLE
  5
1C
102
{ACAD_REACTORS
330
1B
102
}
100
AcDbMlineStyle
  2
Standard
 70
               0
  3

 62
               0
 51
90.0
 52
90.0
 71
               2
 49
0.5
 62
             256
  6
ByLayer
 49
-0.5
 62
             256
  6
ByLayer
  0
ENDSEC
  0
EOF
