  0
SECTION
  2
HEADER
  9
$ACADVER
  1
AC1012
  9
$DWGCODEPAGE
  3
dos932
  9
$INSBASE
 10
0.0
 20
0.0
 30
0.0
  9
$EXTMIN
 10
-281.25
 20
-195.0
 30
0.0
  9
$EXTMAX
 10
285.59998798370361
 20
195.5
 30
0.0
  9
$LIMMIN
 10
-281.25
 20
-195.0
  9
$LIMMAX
 10
285.59998798370361
 20
195.5
  9
$ORTHOMODE
 70
               0
  9
$REGENMODE
 70
               1
  9
$FILLMODE
 70
               1
  9
$QTEXTMODE
 70
               0
  9
$MIRRTEXT
 70
               1
  9
$DRAGMODE
 70
               2
  9
$LTSCALE
 40
1.0
  9
$OSMODE
 70
               0
  9
$ATTMODE
 70
               1
  9
$TEXTSIZE
 40
3.2000000476837158
  9
$TRACEWID
 40
0.05
  9
$TEXTSTYLE
  7
MX_NOTE_STANDARD
  9
$CLAYER
  8
0
  9
$CELTYPE
  6
CONTINUOUS
  9
$CECOLOR
 62
             256
  9
$CELTSCALE
 40
1.0
  9
$DELOBJ
 70
               1
  9
$DISPSILH
 70
               0
  9
$DIMSCALE
 40
1.0
  9
$DIMASZ
 40
2.5
  9
$DIMEXO
 40
1.5
  9
$DIMDLI
 40
3.75
  9
$DIMRND
 40
0.0
  9
$DIMDLE
 40
0.0
  9
$DIMEXE
 40
1.5
  9
$DIMTP
 40
0.0
  9
$DIMTM
 40
0.0
  9
$DIMTXT
 40
3.2000000476837158
  9
$DIMCEN
 40
2.5
  9
$DIMTSZ
 40
0.0
  9
$DIMTOL
 70
               0
  9
$DIMLIM
 70
               0
  9
$DIMTIH
 70
               0
  9
$DIMTOH
 70
               0
  9
$DIMSE1
 70
               0
  9
$DIMSE2
 70
               0
  9
$DIMTAD
 70
               1
  9
$DIMZIN
 70
               8
  9
$DIMBLK
  1

  9
$DIMASO
 70
               1
  9
$DIMSHO
 70
               1
  9
$DIMPOST
  1

  9
$DIMAPOST
  1

  9
$DIMALT
 70
               0
  9
$DIMALTD
 70
               4
  9
$DIMALTF
 40
0.0394
  9
$DIMLFAC
 40
1.0
  9
$DIMTOFL
 70
               1
  9
$DIMTVP
 40
0.0
  9
$DIMTIX
 70
               0
  9
$DIMSOXD
 70
               0
  9
$DIMSAH
 70
               0
  9
$DIMBLK1
  1

  9
$DIMBLK2
  1

  9
$DIMSTYLE
  2
MXDIMSTYLE
  9
$DIMCLRD
 70
               0
  9
$DIMCLRE
 70
               0
  9
$DIMCLRT
 70
               0
  9
$DIMTFAC
 40
1.0
  9
$DIMGAP
 40
1.0
  9
$DIMJUST
 70
               0
  9
$DIMSD1
 70
               0
  9
$DIMSD2
 70
               0
  9
$DIMTOLJ
 70
               1
  9
$DIMTZIN
 70
               0
  9
$DIMALTZ
 70
               0
  9
$DIMALTTZ
 70
               0
  9
$DIMFIT
 70
               3
  9
$DIMUPT
 70
               1
  9
$DIMUNIT
 70
               2
  9
$DIMDEC
 70
               4
  9
$DIMTDEC
 70
               4
  9
$DIMALTU
 70
               8
  9
$DIMALTTD
 70
               4
  9
$DIMTXSTY
  7
MX_NOTE_STANDARD
  9
$DIMAUNIT
 70
               0
  9
$LUNITS
 70
               2
  9
$LUPREC
 70
               4
  9
$SKETCHINC
 40
0.1
  9
$FILLETRAD
 40
0.0
  9
$AUNITS
 70
               0
  9
$AUPREC
 70
               0
  9
$MENU
  1
acad
  9
$ELEVATION
 40
0.0
  9
$PELEVATION
 40
0.0
  9
$THICKNESS
 40
0.0
  9
$LIMCHECK
 70
               0
  9
$BLIPMODE
 70
               1
  9
$CHAMFERA
 40
0.0
  9
$CHAMFERB
 40
0.0
  9
$CHAMFERC
 40
0.0
  9
$CHAMFERD
 40
0.0
  9
$SKPOLY
 70
               0
  9
$TDCREATE
 40
2452220.696481482
  9
$TDUPDATE
 40
2452220.696481482
  9
$TDINDWG
 40
0.0000000000
  9
$TDUSRTIMER
 40
0.0000000000
  9
$USRTIMER
 70
               1
  9
$ANGBASE
 50
0.0
  9
$ANGDIR
 70
               0
  9
$PDMODE
 70
               0
  9
$PDSIZE
 40
0.0
  9
$PLINEWID
 40
0.0
  9
$COORDS
 70
               1
  9
$SPLFRAME
 70
               0
  9
$SPLINETYPE
 70
               6
  9
$SPLINESEGS
 70
               8
  9
$ATTDIA
 70
               0
  9
$ATTREQ
 70
               1
  9
$HANDLING
 70
               1
  9
$HANDSEED
  5
3DC
  9
$SURFTAB1
 70
               6
  9
$SURFTAB2
 70
               6
  9
$SURFTYPE
 70
               6
  9
$SURFU
 70
               6
  9
$SURFV
 70
               6
  9
$UCSNAME
  2

  9
$UCSORG
 10
0.0
 20
0.0
 30
0.0
  9
$UCSXDIR
 10
1.0
 20
0.0
 30
0.0
  9
$UCSYDIR
 10
0.0
 20
1.0
 30
0.0
  9
$PUCSNAME
  2

  9
$PUCSORG
 10
0.0
 20
0.0
 30
0.0
  9
$PUCSXDIR
 10
1.0
 20
0.0
 30
0.0
  9
$PUCSYDIR
 10
0.0
 20
1.0
 30
0.0
  9
$USERI1
 70
               0
  9
$USERI2
 70
               0
  9
$USERI3
 70
               0
  9
$USERI4
 70
               0
  9
$USERI5
 70
               0
  9
$USERR1
 40
0.0
  9
$USERR2
 40
0.0
  9
$USERR3
 40
0.0
  9
$USERR4
 40
0.0
  9
$USERR5
 40
0.0
  9
$WORLDVIEW
 70
               1
  9
$SHADEDGE
 70
               3
  9
$SHADEDIF
 70
              70
  9
$TILEMODE
 70
               1
  9
$MAXACTVP
 70
              16
  9
$PINSBASE
 10
0.0
 20
0.0
 30
0.0
  9
$PLIMCHECK
 70
               0
  9
$PEXTMIN
 10
1.0000000000000000E+20
 20
1.0000000000000000E+20
 30
1.0000000000000000E+20
  9
$PEXTMAX
 10
-1.0000000000000000E+20
 20
-1.0000000000000000E+20
 30
-1.0000000000000000E+20
  9
$PLIMMIN
 10
0.0
 20
0.0
  9
$PLIMMAX
 10
12.0
 20
9.0
  9
$UNITMODE
 70
               0
  9
$VISRETAIN
 70
               0
  9
$PLINEGEN
 70
               1
  9
$PSLTSCALE
 70
               0
  9
$TREEDEPTH
 70
            3020
  9
$PICKSTYLE
 70
               1
  9
$CMLSTYLE
  2
Standard
  9
$CMLJUST
 70
               0
  9
$CMLSCALE
 40
1.0
  9
$SAVEIMAGES
 70
               0
  0
ENDSEC
  0
SECTION
  2
CLASSES
  0
CLASS
  1
LWPOLYLINE
  2
AcDbPolyline
  3
"AutoCAD"
 90
        0
280
               0
281
               1
  0
CLASS
  1
IMAGE
  2
AcDbRasterImage
  3
ISM
 90
      127
280
               0
281
               1
  0
CLASS
  1
OLE2FRAME
  2
AcDbOle2Frame
  3
""
 90
        0
280
               0
281
               1
  0
CLASS
  1
HATCH
  2
AcDbHatch
  3
"ACAD_SEDONA"
 90
        0
280
               0
281
               1
  0
CLASS
  1
DICTIONARYVAR
  2
AcDbDictionaryVar
  3
"AutoCAD"
 90
        0
280
               0
281
               0
  0
CLASS
  1
RASTERVARIABLES
  2
AcDbRasterVariables
  3
ISM
 90
        0
280
               0
281
               0
  0
CLASS
  1
IMAGEDEF
  2
AcDbRasterImageDef
  3
ISM
 90
        0
280
               0
281
               0
  0
CLASS
  1
IMAGEDEF_REACTOR
  2
AcDbRasterImageDefReactor
  3
ISM
 90
        1
280
               0
281
               0
  0
CLASS
  1
IDBUFFER
  2
AcDbIdBuffer
  3
"Acad"
 90
        0
280
               0
281
               0
  0
CLASS
  1
SPATIAL_FILTER
  2
AcDbSpatialFilter
  3
"Acad"
 90
        0
280
               0
281
               0
  0
CLASS
  1
XRECORD
  2
AcDbXrecord
  3
"<Built In>"
 90
        0
280
               0
281
               0
  0
CLASS
  1
SORTENTSTABLE
  2
AcDbSortentsTable
  3
"AutoCAD"
 90
        0
280
               0
281
               0
  0
CLASS
  1
LAYER_INDEX
  2
AcDbLayerIndex
  3
"Acad"
 90
        0
280
               0
281
               0
  0
CLASS
  1
SPATIAL_INDEX
  2
AcDbSpatialIndex
  3
"Acad"
 90
        0
280
               0
281
               0
  0
CLASS
  1
OBJECT_PTR
  2
CAseDLPNTableRecord
  3
"ASE-LPNTableRecord"
 90
        1
280
               0
281
               0
  0
CLASS
  1
LAYOUT
  2
AcDbLayout
  3
"AutoCAD 2000"
 90
        1
280
               0
281
               0
  0
CLASS
  1
PLOTSETTINGS
  2
AcDbPlotSettings
  3
"AutoCAD 2000"
 90
        1
280
               0
281
               0
  0
CLASS
  1
ACDBDICTIONARYWDFLT
  2
AcDbDictionaryWithDefault
  3
"AutoCAD 2000"
 90
        1
280
               0
281
               0
  0
CLASS
  1
ACDBPLACEHOLDER
  2
AcDbPlaceHolder
  3
"AutoCAD 2000"
 90
        1
280
               0
281
               0
  0
CLASS
  1
VBA_PROJECT
  2
AcDbVbaProject
  3
"acadvba"
 90
        1
280
               0
281
               0
  0
CLASS
  1
WIPEOUT
  2
AcDbWipeout
  3
WipeOut|AutoCAD Express Tool|expresstools@autodesk.com
 90
      127
280
               0
281
               1
  0
CLASS
  1
WIPEOUTVARIABLES
  2
AcDbWipeoutVariables
  3
WipeOut|AutoCAD Express Tool|expresstools@autodesk.com
 90
        0
280
               0
281
               0
  0
CLASS
  1
RTEXT
  2
RText
  3
RText|AutoCAD Express Tool|expresstools@autodesk.com
 90
        0
280
               0
281
               1
  0
CLASS
  1
ARCALIGNEDTEXT
  2
AcDbArcAlignedText
  3
ATEXT|AutoCAD Express Tool|expresstools@autodesk.com
 90
        0
280
               0
281
               1
  0
ENDSEC
  0
SECTION
  2
TABLES
  0
TABLE
  2
VPORT
  5
7
100
AcDbSymbolTable
 70
               1
  0
VPORT
  5
15
100
AcDbSymbolTableRecord
100
AcDbViewportTableRecord
  2
*ACTIVE
 70
               0
 10
0.0
 20
0.0
 11
1.0
 21
1.0
 12
2.1749939918518066
 22
0.25
 13
0.0
 23
0.0
 14
1.0
 24
1.0
 15
0.0
 25
0.0
 16
0.0
 26
0.0
 36
1.0
 17
0.0
 27
0.0
 37
0.0
 40
394.40500000000003
 41
1.7320508075688772
 42
50.0
 43
0.0
 44
0.0
 50
0.0
 51
0.0
 71
               0
 72
             100
 73
               1
 74
               1
 75
               0
 76
               0
 77
               0
 78
               0
  0
ENDTAB
  0
TABLE
  2
LTYPE
  5
4
100
AcDbSymbolTable
 70
               4
  0
LTYPE
  5
11
100
AcDbSymbolTableRecord
100
AcDbLinetypeTableRecord
  2
BYBLOCK
 70
              64
  3

 72
              65
 73
               0
 40
0.0
  0
LTYPE
  5
12
100
AcDbSymbolTableRecord
100
AcDbLinetypeTableRecord
  2
BYLAYER
 70
              64
  3

 72
              65
 73
               0
 40
0.0
  0
LTYPE
  5
13
100
AcDbSymbolTableRecord
100
AcDbLinetypeTableRecord
  2
CONTINUOUS
 70
              64
  3
Solid line
 72
              65
 73
               0
 40
0.0
  0
LTYPE
  5
2B
100
AcDbSymbolTableRecord
100
AcDbLinetypeTableRecord
  2
CENTER
 70
              64
  3
Center ____ _ ____ _ ____ _ ____ _ ____ _ ____
 72
              65
 73
               4
 40
50.800000000000004
 49
31.75
 74
               0
 49
-6.3499999999999996
 74
               0
 49
6.3499999999999996
 74
               0
 49
-6.3499999999999996
 74
               0
  0
ENDTAB
  0
TABLE
  2
LAYER
  5
2
100
AcDbSymbolTable
 70
               2
  0
LAYER
  5
14
100
AcDbSymbolTableRecord
100
AcDbLayerTableRecord
  2
0
 70
               0
 62
               7
  6
CONTINUOUS
  0
LAYER
  5
1D
100
AcDbSymbolTableRecord
100
AcDbLayerTableRecord
  2
DEFPOINTS
 70
               0
 62
               7
  6
CONTINUOUS
  0
ENDTAB
  0
TABLE
  2
STYLE
  5
3
100
AcDbSymbolTable
 70
               1
  0
STYLE
  5
17
100
AcDbSymbolTableRecord
100
AcDbTextStyleTableRecord
  2
MX_NOTE_STANDARD
 70
               0
 40
3.2000000476837158
 41
1.0
 50
0.0
 71
               0
 42
3.2000000476837158
  3
txt.shx
  4
extfont.shx
  0
ENDTAB
  0
TABLE
  2
VIEW
  5
5
100
AcDbSymbolTable
 70
               0
  0
ENDTAB
  0
TABLE
  2
UCS
  5
6
100
AcDbSymbolTable
 70
               0
  0
ENDTAB
  0
TABLE
  2
APPID
  5
8
100
AcDbSymbolTable
 70
               1
  0
APPID
  5
16
100
AcDbSymbolTableRecord
100
AcDbRegAppTableRecord
  2
ACAD
 70
               0
  0
ENDTAB
  0
TABLE
  2
DIMSTYLE
  5
9
100
AcDbSymbolTable
 70
               1
  0
DIMSTYLE
105
18
100
AcDbSymbolTableRecord
100
AcDbDimStyleTableRecord
  2
MXDIMSTYLE
 70
               0
  3

  4

  5

  6

  7

 40
1.0
 41
2.5
 42
1.5
 43
3.75
 44
1.5
 45
0.0
 46
0.0
 47
0.0
 48
0.0
 71
               0
 72
               0
 73
               0
 74
               0
 75
               0
 76
               0
 77
               1
 78
               8
140
3.2000000476837158
141
2.5
142
0.0
143
0.0394
144
1.0
145
0.0
146
1.0
147
1.0
170
               0
171
               4
172
               1
173
               0
174
               0
175
               0
176
               0
177
               0
178
               0
270
               2
271
               4
272
               4
273
               8
274
               4
275
               0
280
               0
281
               0
282
               0
283
               1
284
               0
285
               0
286
               0
287
               3
288
               1
340
17
  0
ENDTAB
  0
TABLE
  2
BLOCK_RECORD
  5
1
100
AcDbSymbolTable
 70
              11
  0
BLOCK_RECORD
  5
A
100
AcDbSymbolTableRecord
100
AcDbBlockTableRecord
  2
*MODEL_SPACE
  0
BLOCK_RECORD
  5
B
100
AcDbSymbolTableRecord
100
AcDbBlockTableRecord
  2
*PAPER_SPACE
  0
BLOCK_RECORD
  5
1E
100
AcDbSymbolTableRecord
100
AcDbBlockTableRecord
  2
MS_1
  0
BLOCK_RECORD
  5
1F
100
AcDbSymbolTableRecord
100
AcDbBlockTableRecord
  2
MS_2
  0
BLOCK_RECORD
  5
20
100
AcDbSymbolTableRecord
100
AcDbBlockTableRecord
  2
MS_3
  0
BLOCK_RECORD
  5
21
100
AcDbSymbolTableRecord
100
AcDbBlockTableRecord
  2
MS_4
  0
BLOCK_RECORD
  5
31E
100
AcDbSymbolTableRecord
100
AcDbBlockTableRecord
  2
_OPEN30
  0
BLOCK_RECORD
  5
393
100
AcDbSymbolTableRecord
100
AcDbBlockTableRecord
  2
*D5
  0
BLOCK_RECORD
  5
3A2
100
AcDbSymbolTableRecord
100
AcDbBlockTableRecord
  2
*D6
  0
BLOCK_RECORD
  5
3A6
100
AcDbSymbolTableRecord
100
AcDbBlockTableRecord
  2
_NONE
  0
BLOCK_RECORD
  5
3B1
100
AcDbSymbolTableRecord
100
AcDbBlockTableRecord
  2
*D8
  0
BLOCK_RECORD
  5
3BD
100
AcDbSymbolTableRecord
100
AcDbBlockTableRecord
  2
*D9
  0
BLOCK_RECORD
  5
3CA
100
AcDbSymbolTableRecord
100
AcDbBlockTableRecord
  2
*D10
  0
ENDTAB
  0
ENDSEC
  0
SECTION
  2
BLOCKS
  0
BLOCK
  5
D
100
AcDbEntity
  8
0
100
AcDbBlockBegin
  2
*MODEL_SPACE
 70
               0
 10
0.0
 20
0.0
 30
0.0
  3
*MODEL_SPACE
  1

  0
ENDBLK
  5
E
100
AcDbEntity
  8
0
100
AcDbBlockEnd
  0
BLOCK
  5
F
100
AcDbEntity
 67
               1
  8
0
100
AcDbBlockBegin
  2
*PAPER_SPACE
 70
               0
 10
0.0
 20
0.0
 30
0.0
  3
*PAPER_SPACE
  1

  0
ENDBLK
  5
10
100
AcDbEntity
 67
               1
  8
0
100
AcDbBlockEnd
  0
BLOCK
  5
22
100
AcDbEntity
  8
0
100
AcDbBlockBegin
  2
MS_1
 70
               0
 10
0.0
 20
0.0
 30
0.0
  3
MS_1
  1

  0
LINE
  5
23
100
AcDbEntity
  8
0
  6
CONTINUOUS
 62
               7
100
AcDbLine
 10
-3.5
 20
20.5
 30
0.0
 11
5.0
 21
20.5
 31
0.0
  0
LINE
  5
24
100
AcDbEntity
  8
0
  6
CONTINUOUS
 62
               7
100
AcDbLine
 10
-3.5
 20
20.5
 30
0.0
 11
-3.5
 21
-32.5
 31
0.0
  0
LINE
  5
25
100
AcDbEntity
  8
0
  6
CONTINUOUS
 62
               7
100
AcDbLine
 10
76.5
 20
20.5
 30
0.0
 11
76.5
 21
-32.5
 31
0.0
  0
LINE
  5
26
100
AcDbEntity
  8
0
  6
CONTINUOUS
 62
               7
100
AcDbLine
 10
20.0
 20
20.5
 30
0.0
 11
21.0
 21
20.5
 31
0.0
  0
LINE
  5
27
100
AcDbEntity
  8
0
  6
CONTINUOUS
 62
               7
100
AcDbLine
 10
-3.5
 20
-32.5
 30
0.0
 11
37.0
 21
-32.5
 31
0.0
  0
LINE
  5
28
100
AcDbEntity
  8
0
  6
CONTINUOUS
 62
               7
100
AcDbLine
 10
36.0
 20
20.5
 30
0.0
 11
37.0
 21
20.5
 31
0.0
  0
LINE
  5
29
100
AcDbEntity
  8
0
  6
CONTINUOUS
 62
               7
100
AcDbLine
 10
52.0
 20
20.5
 30
0.0
 11
76.5
 21
20.5
 31
0.0
  0
LINE
  5
2A
100
AcDbEntity
  8
0
  6
CONTINUOUS
 62
               7
100
AcDbLine
 10
52.0
 20
-32.5
 30
0.0
 11
76.5
 21
-32.5
 31
0.0
  0
LINE
  5
2C
100
AcDbEntity
  8
0
  6
CENTER
 62
               2
100
AcDbLine
 10
73.0
 20
4.0
 30
0.0
 11
73.0
 21
-3.6600000000000001
 31
0.0
  0
LINE
  5
2D
100
AcDbEntity
  8
0
  6
CENTER
 62
               2
100
AcDbLine
 10
-3.5
 20
0.0
 30
0.0
 11
3.5
 21
0.0
 31
0.0
  0
LINE
  5
2E
100
AcDbEntity
  8
0
  6
CENTER
 62
               2
100
AcDbLine
 10
68.829999999999998
 20
0.0
 30
0.0
 11
76.5
 21
0.0
 31
0.0
  0
LINE
  5
2F
100
AcDbEntity
  8
0
  6
CENTER
 62
               2
100
AcDbLine
 10
0.0
 20
4.0
 30
0.0
 11
0.0
 21
-3.3300000000000001
 31
0.0
  0
LINE
  5
30
100
AcDbEntity
  8
0
  6
CONTINUOUS
 62
               7
100
AcDbLine
 10
5.0
 20
-20.0
 30
0.0
 11
20.0
 21
-20.0
 31
0.0
  0
LINE
  5
31
100
AcDbEntity
  8
0
  6
CONTINUOUS
 62
               7
100
AcDbLine
 10
5.0
 20
8.0
 30
0.0
 11
20.0
 21
8.0
 31
0.0
  0
LINE
  5
32
100
AcDbEntity
  8
0
  6
CENTER
 62
               2
100
AcDbLine
 10
12.5
 20
55.0
 30
0.0
 11
12.5
 21
-34.899999999999999
 31
0.0
  0
LINE
  5
33
100
AcDbEntity
  8
0
  6
CENTER
 62
               2
100
AcDbLine
 10
10.109999999999999
 20
21.5
 30
0.0
 11
14.960000000000001
 21
21.5
 31
0.0
  0
LINE
  5
34
100
AcDbEntity
  8
0
  6
CONTINUOUS
 62
               7
100
AcDbLine
 10
5.0
 20
-32.0
 30
0.0
 11
20.0
 21
-32.0
 31
0.0
  0
LINE
  5
35
100
AcDbEntity
  8
0
  6
CONTINUOUS
 62
               7
100
AcDbLine
 10
5.0
 20
25.0
 30
0.0
 11
5.0
 21
4.0300000000000002
 31
0.0
  0
LINE
  5
36
100
AcDbEntity
  8
0
  6
CONTINUOUS
 62
               7
100
AcDbLine
 10
20.0
 20
25.0
 30
0.0
 11
20.0
 21
-13.960000000000001
 31
0.0
  0
LINE
  5
37
100
AcDbEntity
  8
0
  6
CONTINUOUS
 62
               7
100
AcDbLine
 10
5.0
 20
25.0
 30
0.0
 11
20.0
 21
25.0
 31
0.0
  0
LINE
  5
38
100
AcDbEntity
  8
0
  6
CONTINUOUS
 62
               7
100
AcDbLine
 10
17.079999999999998
 20
-15.91
 30
0.0
 11
18.91
 21
-14.08
 31
0.0
  0
LINE
  5
39
100
AcDbEntity
  8
0
  6
CONTINUOUS
 62
               7
100
AcDbLine
 10
17.079999999999998
 20
-14.08
 30
0.0
 11
18.91
 21
-15.91
 31
0.0
  0
LINE
  5
3A
100
AcDbEntity
  8
0
  6
CONTINUOUS
 62
               7
100
AcDbLine
 10
6.0800000000000001
 20
2.0800000000000001
 30
0.0
 11
7.9100000000000001
 21
3.9100000000000001
 31
0.0
  0
LINE
  5
3B
100
AcDbEntity
  8
0
  6
CONTINUOUS
 62
               7
100
AcDbLine
 10
6.0800000000000001
 20
3.9100000000000001
 30
0.0
 11
7.9100000000000001
 21
2.0800000000000001
 31
0.0
  0
LINE
  5
3C
100
AcDbEntity
  8
0
  6
CONTINUOUS
 62
               7
100
AcDbLine
 10
5.0
 20
1.96
 30
0.0
 11
5.0
 21
-32.0
 31
0.0
  0
LINE
  5
3D
100
AcDbEntity
  8
0
  6
CONTINUOUS
 62
               7
100
AcDbLine
 10
20.0
 20
-16.030000000000001
 30
0.0
 11
20.0
 21
-32.0
 31
0.0
  0
LINE
  5
3E
100
AcDbEntity
  8
0
  6
CONTINUOUS
 62
               7
100
AcDbLine
 10
21.0
 20
-20.0
 30
0.0
 11
36.0
 21
-20.0
 31
0.0
  0
LINE
  5
3F
100
AcDbEntity
  8
0
  6
CONTINUOUS
 62
               7
100
AcDbLine
 10
21.0
 20
8.0
 30
0.0
 11
36.0
 21
8.0
 31
0.0
  0
LINE
  5
40
100
AcDbEntity
  8
0
  6
CENTER
 62
               2
100
AcDbLine
 10
28.5
 20
55.0
 30
0.0
 11
28.5
 21
-34.899999999999999
 31
0.0
  0
LINE
  5
41
100
AcDbEntity
  8
0
  6
CENTER
 62
               2
100
AcDbLine
 10
26.109999999999999
 20
21.5
 30
0.0
 11
30.960000000000001
 21
21.5
 31
0.0
  0
LINE
  5
42
100
AcDbEntity
  8
0
  6
CONTINUOUS
 62
               7
100
AcDbLine
 10
21.0
 20
-32.0
 30
0.0
 11
36.0
 21
-32.0
 31
0.0
  0
LINE
  5
43
100
AcDbEntity
  8
0
  6
CONTINUOUS
 62
               7
100
AcDbLine
 10
21.0
 20
25.0
 30
0.0
 11
21.0
 21
4.0300000000000002
 31
0.0
  0
LINE
  5
44
100
AcDbEntity
  8
0
  6
CONTINUOUS
 62
               7
100
AcDbLine
 10
36.0
 20
25.0
 30
0.0
 11
36.0
 21
-13.960000000000001
 31
0.0
  0
LINE
  5
45
100
AcDbEntity
  8
0
  6
CONTINUOUS
 62
               7
100
AcDbLine
 10
21.0
 20
25.0
 30
0.0
 11
36.0
 21
25.0
 31
0.0
  0
LINE
  5
46
100
AcDbEntity
  8
0
  6
CONTINUOUS
 62
               7
100
AcDbLine
 10
33.079999999999998
 20
-15.91
 30
0.0
 11
34.909999999999997
 21
-14.08
 31
0.0
  0
LINE
  5
47
100
AcDbEntity
  8
0
  6
CONTINUOUS
 62
               7
100
AcDbLine
 10
33.079999999999998
 20
-14.08
 30
0.0
 11
34.909999999999997
 21
-15.91
 31
0.0
  0
LINE
  5
48
100
AcDbEntity
  8
0
  6
CONTINUOUS
 62
               7
100
AcDbLine
 10
22.079999999999998
 20
2.0800000000000001
 30
0.0
 11
23.91
 21
3.9100000000000001
 31
0.0
  0
LINE
  5
49
100
AcDbEntity
  8
0
  6
CONTINUOUS
 62
               7
100
AcDbLine
 10
22.079999999999998
 20
3.9100000000000001
 30
0.0
 11
23.91
 21
2.0800000000000001
 31
0.0
  0
LINE
  5
4A
100
AcDbEntity
  8
0
  6
CONTINUOUS
 62
               7
100
AcDbLine
 10
21.0
 20
1.96
 30
0.0
 11
21.0
 21
-32.0
 31
0.0
  0
LINE
  5
4B
100
AcDbEntity
  8
0
  6
CONTINUOUS
 62
               7
100
AcDbLine
 10
36.0
 20
-16.030000000000001
 30
0.0
 11
36.0
 21
-32.0
 31
0.0
  0
LINE
  5
4C
100
AcDbEntity
  8
0
  6
CONTINUOUS
 62
               7
100
AcDbLine
 10
37.0
 20
25.0
 30
0.0
 11
52.0
 21
25.0
 31
0.0
  0
LINE
  5
4D
100
AcDbEntity
  8
0
  6
CONTINUOUS
 62
               7
100
AcDbLine
 10
37.0
 20
8.0
 30
0.0
 11
52.0
 21
8.0
 31
0.0
  0
LINE
  5
4E
100
AcDbEntity
  8
0
  6
CONTINUOUS
 62
               7
100
AcDbLine
 10
37.0
 20
-20.0
 30
0.0
 11
52.0
 21
-20.0
 31
0.0
  0
LINE
  5
4F
100
AcDbEntity
  8
0
  6
CENTER
 62
               2
100
AcDbLine
 10
44.5
 20
55.0
 30
0.0
 11
44.5
 21
-67.140000000000001
 31
0.0
  0
LINE
  5
50
100
AcDbEntity
  8
0
  6
CENTER
 62
               2
100
AcDbLine
 10
42.109999999999999
 20
21.5
 30
0.0
 11
46.960000000000001
 21
21.5
 31
0.0
  0
LINE
  5
51
100
AcDbEntity
  8
0
  6
CONTINUOUS
 62
               7
100
AcDbLine
 10
52.0
 20
-37.0
 30
0.0
 11
37.0
 21
-37.0
 31
0.0
  0
LINE
  5
52
100
AcDbEntity
  8
0
  6
CENTER
 62
               2
100
AcDbLine
 10
41.740000000000002
 20
-33.5
 30
0.0
 11
47.049999999999997
 21
-33.5
 31
0.0
  0
LINE
  5
53
100
AcDbEntity
  8
0
  6
CONTINUOUS
 62
               7
100
AcDbLine
 10
49.079999999999998
 20
-15.91
 30
0.0
 11
50.909999999999997
 21
-14.08
 31
0.0
  0
LINE
  5
54
100
AcDbEntity
  8
0
  6
CONTINUOUS
 62
               7
100
AcDbLine
 10
49.079999999999998
 20
-14.08
 30
0.0
 11
50.909999999999997
 21
-15.91
 31
0.0
  0
LINE
  5
55
100
AcDbEntity
  8
0
  6
CONTINUOUS
 62
               7
100
AcDbLine
 10
38.079999999999998
 20
2.0800000000000001
 30
0.0
 11
39.909999999999997
 21
3.9100000000000001
 31
0.0
  0
LINE
  5
56
100
AcDbEntity
  8
0
  6
CONTINUOUS
 62
               7
100
AcDbLine
 10
38.079999999999998
 20
3.9100000000000001
 30
0.0
 11
39.909999999999997
 21
2.0800000000000001
 31
0.0
  0
LINE
  5
57
100
AcDbEntity
  8
0
  6
CONTINUOUS
 62
               7
100
AcDbLine
 10
37.0
 20
1.96
 30
0.0
 11
37.0
 21
-37.0
 31
0.0
  0
LINE
  5
58
100
AcDbEntity
  8
0
  6
CONTINUOUS
 62
               7
100
AcDbLine
 10
52.0
 20
-16.030000000000001
 30
0.0
 11
52.0
 21
-37.0
 31
0.0
  0
LINE
  5
59
100
AcDbEntity
  8
0
  6
CONTINUOUS
 62
               7
100
AcDbLine
 10
37.0
 20
25.0
 30
0.0
 11
37.0
 21
4.0300000000000002
 31
0.0
  0
LINE
  5
5A
100
AcDbEntity
  8
0
  6
CONTINUOUS
 62
               7
100
AcDbLine
 10
52.0
 20
25.0
 30
0.0
 11
52.0
 21
-13.960000000000001
 31
0.0
  0
LINE
  5
5B
100
AcDbEntity
  8
0
  6
CONTINUOUS
 62
               4
100
AcDbLine
 10
68.0
 20
19.0
 30
0.0
 11
68.0
 21
-13.960000000000001
 31
0.0
  0
LINE
  5
5C
100
AcDbEntity
  8
0
  6
CENTER
 62
               2
100
AcDbLine
 10
60.5
 20
22.0
 30
0.0
 11
60.5
 21
-34.0
 31
0.0
  0
LINE
  5
5D
100
AcDbEntity
  8
0
  6
CONTINUOUS
 62
               4
100
AcDbLine
 10
53.0
 20
19.0
 30
0.0
 11
53.0
 21
4.0300000000000002
 31
0.0
  0
LINE
  5
5E
100
AcDbEntity
  8
0
  6
CONTINUOUS
 62
               4
100
AcDbLine
 10
53.0
 20
19.0
 30
0.0
 11
68.0
 21
19.0
 31
0.0
  0
LINE
  5
5F
100
AcDbEntity
  8
0
  6
CONTINUOUS
 62
               4
100
AcDbLine
 10
53.0
 20
-31.0
 30
0.0
 11
68.0
 21
-31.0
 31
0.0
  0
LINE
  5
60
100
AcDbEntity
  8
0
  6
CONTINUOUS
 62
               4
100
AcDbLine
 10
53.0
 20
1.96
 30
0.0
 11
53.0
 21
-31.0
 31
0.0
  0
LINE
  5
61
100
AcDbEntity
  8
0
  6
CONTINUOUS
 62
               4
100
AcDbLine
 10
68.0
 20
-16.030000000000001
 30
0.0
 11
68.0
 21
-31.0
 31
0.0
  0
LINE
  5
62
100
AcDbEntity
  8
0
  6
CONTINUOUS
 62
               4
100
AcDbLine
 10
54.079999999999998
 20
2.0800000000000001
 30
0.0
 11
55.909999999999997
 21
3.9100000000000001
 31
0.0
  0
LINE
  5
63
100
AcDbEntity
  8
0
  6
CONTINUOUS
 62
               4
100
AcDbLine
 10
65.079999999999998
 20
-15.91
 30
0.0
 11
66.909999999999997
 21
-14.08
 31
0.0
  0
LINE
  5
64
100
AcDbEntity
  8
0
  6
CONTINUOUS
 62
               4
100
AcDbLine
 10
65.079999999999998
 20
-14.08
 30
0.0
 11
66.909999999999997
 21
-15.91
 31
0.0
  0
LINE
  5
65
100
AcDbEntity
  8
0
  6
CONTINUOUS
 62
               4
100
AcDbLine
 10
54.079999999999998
 20
3.9100000000000001
 30
0.0
 11
55.909999999999997
 21
2.0800000000000001
 31
0.0
  0
LINE
  5
66
100
AcDbEntity
  8
0
  6
CONTINUOUS
 62
               7
100
AcDbLine
 10
12.4
 20
-40.0
 30
0.0
 11
2.6000000000000001
 21
-40.0
 31
0.0
  0
LINE
  5
67
100
AcDbEntity
  8
0
  6
CONTINUOUS
 62
               7
100
AcDbLine
 10
12.4
 20
-38.799999999999997
 30
0.0
 11
2.6000000000000001
 21
-38.799999999999997
 31
0.0
  0
LINE
  5
68
100
AcDbEntity
  8
0
  6
CONTINUOUS
 62
               7
100
AcDbLine
 10
11.0
 20
-38.0
 30
0.0
 11
11.0
 21
-38.799999999999997
 31
0.0
  0
LINE
  5
69
100
AcDbEntity
  8
0
  6
CONTINUOUS
 62
               7
100
AcDbLine
 10
4.0
 20
-38.0
 30
0.0
 11
4.0
 21
-38.799999999999997
 31
0.0
  0
LINE
  5
6A
100
AcDbEntity
  8
0
  6
CONTINUOUS
 62
               7
100
AcDbLine
 10
12.5
 20
-38.0
 30
0.0
 11
2.5
 21
-38.0
 31
0.0
  0
LINE
  5
6B
100
AcDbEntity
  8
0
  6
CONTINUOUS
 62
               7
100
AcDbLine
 10
2.5
 20
-32.5
 30
0.0
 11
2.5
 21
-38.0
 31
0.0
  0
LINE
  5
6C
100
AcDbEntity
  8
0
  6
CONTINUOUS
 62
               7
100
AcDbLine
 10
12.5
 20
-32.5
 30
0.0
 11
12.5
 21
-38.0
 31
0.0
  0
LINE
  5
6D
100
AcDbEntity
  8
0
  6
CONTINUOUS
 62
               7
100
AcDbLine
 10
2.6000000000000001
 20
-38.799999999999997
 30
0.0
 11
2.6000000000000001
 21
-40.0
 31
0.0
  0
LINE
  5
6E
100
AcDbEntity
  8
0
  6
CONTINUOUS
 62
               7
100
AcDbLine
 10
12.4
 20
-38.799999999999997
 30
0.0
 11
12.4
 21
-40.0
 31
0.0
  0
LINE
  5
6F
100
AcDbEntity
  8
0
  6
CENTER
 62
               2
100
AcDbLine
 10
7.5
 20
-29.25
 30
0.0
 11
7.5
 21
-43.25
 31
0.0
  0
LINE
  5
70
100
AcDbEntity
  8
0
  6
CONTINUOUS
 62
               7
100
AcDbLine
 10
28.399999999999999
 20
-40.0
 30
0.0
 11
18.600000000000001
 21
-40.0
 31
0.0
  0
LINE
  5
71
100
AcDbEntity
  8
0
  6
CONTINUOUS
 62
               7
100
AcDbLine
 10
28.399999999999999
 20
-38.799999999999997
 30
0.0
 11
18.600000000000001
 21
-38.799999999999997
 31
0.0
  0
LINE
  5
72
100
AcDbEntity
  8
0
  6
CONTINUOUS
 62
               7
100
AcDbLine
 10
27.0
 20
-38.0
 30
0.0
 11
27.0
 21
-38.799999999999997
 31
0.0
  0
LINE
  5
73
100
AcDbEntity
  8
0
  6
CONTINUOUS
 62
               7
100
AcDbLine
 10
20.0
 20
-38.0
 30
0.0
 11
20.0
 21
-38.799999999999997
 31
0.0
  0
LINE
  5
74
100
AcDbEntity
  8
0
  6
CONTINUOUS
 62
               7
100
AcDbLine
 10
28.5
 20
-38.0
 30
0.0
 11
18.5
 21
-38.0
 31
0.0
  0
LINE
  5
75
100
AcDbEntity
  8
0
  6
CONTINUOUS
 62
               7
100
AcDbLine
 10
18.5
 20
-32.5
 30
0.0
 11
18.5
 21
-38.0
 31
0.0
  0
LINE
  5
76
100
AcDbEntity
  8
0
  6
CONTINUOUS
 62
               7
100
AcDbLine
 10
28.5
 20
-32.5
 30
0.0
 11
28.5
 21
-38.0
 31
0.0
  0
LINE
  5
77
100
AcDbEntity
  8
0
  6
CONTINUOUS
 62
               7
100
AcDbLine
 10
18.600000000000001
 20
-38.799999999999997
 30
0.0
 11
18.600000000000001
 21
-40.0
 31
0.0
  0
LINE
  5
78
100
AcDbEntity
  8
0
  6
CONTINUOUS
 62
               7
100
AcDbLine
 10
28.399999999999999
 20
-38.799999999999997
 30
0.0
 11
28.399999999999999
 21
-40.0
 31
0.0
  0
LINE
  5
79
100
AcDbEntity
  8
0
  6
CONTINUOUS
 62
               7
100
AcDbLine
 10
37.0
 20
-40.0
 30
0.0
 11
34.600000000000001
 21
-40.0
 31
0.0
  0
LINE
  5
7A
100
AcDbEntity
  8
0
  6
CONTINUOUS
 62
               7
100
AcDbLine
 10
37.0
 20
-38.799999999999997
 30
0.0
 11
34.600000000000001
 21
-38.799999999999997
 31
0.0
  0
LINE
  5
7B
100
AcDbEntity
  8
0
  6
CONTINUOUS
 62
               7
100
AcDbLine
 10
36.0
 20
-38.0
 30
0.0
 11
36.0
 21
-38.799999999999997
 31
0.0
  0
LINE
  5
7C
100
AcDbEntity
  8
0
  6
CONTINUOUS
 62
               7
100
AcDbLine
 10
37.0
 20
-38.0
 30
0.0
 11
34.5
 21
-38.0
 31
0.0
  0
LINE
  5
7D
100
AcDbEntity
  8
0
  6
CONTINUOUS
 62
               7
100
AcDbLine
 10
34.5
 20
-32.5
 30
0.0
 11
34.5
 21
-38.0
 31
0.0
  0
LINE
  5
7E
100
AcDbEntity
  8
0
  6
CONTINUOUS
 62
               7
100
AcDbLine
 10
34.600000000000001
 20
-38.799999999999997
 30
0.0
 11
34.600000000000001
 21
-40.0
 31
0.0
  0
LINE
  5
7F
100
AcDbEntity
  8
0
  6
CONTINUOUS
 62
               7
100
AcDbLine
 10
60.399999999999999
 20
-40.0
 30
0.0
 11
52.0
 21
-40.0
 31
0.0
  0
LINE
  5
80
100
AcDbEntity
  8
0
  6
CONTINUOUS
 62
               7
100
AcDbLine
 10
60.399999999999999
 20
-38.799999999999997
 30
0.0
 11
52.0
 21
-38.799999999999997
 31
0.0
  0
LINE
  5
81
100
AcDbEntity
  8
0
  6
CONTINUOUS
 62
               7
100
AcDbLine
 10
59.0
 20
-38.0
 30
0.0
 11
59.0
 21
-38.799999999999997
 31
0.0
  0
LINE
  5
82
100
AcDbEntity
  8
0
  6
CONTINUOUS
 62
               7
100
AcDbLine
 10
52.0
 20
-38.0
 30
0.0
 11
52.0
 21
-38.799999999999997
 31
0.0
  0
LINE
  5
83
100
AcDbEntity
  8
0
  6
CONTINUOUS
 62
               7
100
AcDbLine
 10
60.5
 20
-38.0
 30
0.0
 11
52.0
 21
-38.0
 31
0.0
  0
LINE
  5
84
100
AcDbEntity
  8
0
  6
CONTINUOUS
 62
               7
100
AcDbLine
 10
60.5
 20
-32.5
 30
0.0
 11
60.5
 21
-38.0
 31
0.0
  0
LINE
  5
85
100
AcDbEntity
  8
0
  6
CONTINUOUS
 62
               7
100
AcDbLine
 10
60.399999999999999
 20
-38.799999999999997
 30
0.0
 11
60.399999999999999
 21
-40.0
 31
0.0
  0
LINE
  5
86
100
AcDbEntity
  8
0
  6
CENTER
 62
               2
100
AcDbLine
 10
55.5
 20
-29.25
 30
0.0
 11
55.5
 21
-43.25
 31
0.0
  0
LINE
  5
87
100
AcDbEntity
  8
0
  6
CONTINUOUS
 62
               7
100
AcDbLine
 10
68.400000000000006
 20
-40.0
 30
0.0
 11
60.399999999999999
 21
-40.0
 31
0.0
  0
LINE
  5
88
100
AcDbEntity
  8
0
  6
CONTINUOUS
 62
               7
100
AcDbLine
 10
68.400000000000006
 20
-38.799999999999997
 30
0.0
 11
60.399999999999999
 21
-38.799999999999997
 31
0.0
  0
LINE
  5
89
100
AcDbEntity
  8
0
  6
CONTINUOUS
 62
               7
100
AcDbLine
 10
67.0
 20
-38.0
 30
0.0
 11
67.0
 21
-38.799999999999997
 31
0.0
  0
LINE
  5
8A
100
AcDbEntity
  8
0
  6
CONTINUOUS
 62
               7
100
AcDbLine
 10
60.0
 20
-38.0
 30
0.0
 11
60.0
 21
-38.799999999999997
 31
0.0
  0
LINE
  5
8B
100
AcDbEntity
  8
0
  6
CONTINUOUS
 62
               7
100
AcDbLine
 10
68.5
 20
-38.0
 30
0.0
 11
60.5
 21
-38.0
 31
0.0
  0
LINE
  5
8C
100
AcDbEntity
  8
0
  6
CENTER
 62
               2
100
AcDbLine
 10
15.5
 20
-29.25
 30
0.0
 11
15.5
 21
-43.25
 31
0.0
  0
LINE
  5
8D
100
AcDbEntity
  8
0
  6
CONTINUOUS
 62
               7
100
AcDbLine
 10
18.600000000000001
 20
-40.0
 30
0.0
 11
12.4
 21
-40.0
 31
0.0
  0
LINE
  5
8E
100
AcDbEntity
  8
0
  6
CONTINUOUS
 62
               7
100
AcDbLine
 10
18.600000000000001
 20
-38.799999999999997
 30
0.0
 11
12.4
 21
-38.799999999999997
 31
0.0
  0
LINE
  5
8F
100
AcDbEntity
  8
0
  6
CONTINUOUS
 62
               7
100
AcDbLine
 10
19.0
 20
-38.0
 30
0.0
 11
19.0
 21
-38.799999999999997
 31
0.0
  0
LINE
  5
90
100
AcDbEntity
  8
0
  6
CONTINUOUS
 62
               7
100
AcDbLine
 10
12.0
 20
-38.0
 30
0.0
 11
12.0
 21
-38.799999999999997
 31
0.0
  0
LINE
  5
91
100
AcDbEntity
  8
0
  6
CONTINUOUS
 62
               7
100
AcDbLine
 10
18.5
 20
-38.0
 30
0.0
 11
12.5
 21
-38.0
 31
0.0
  0
LINE
  5
92
100
AcDbEntity
  8
0
  6
CONTINUOUS
 62
               7
100
AcDbLine
 10
34.600000000000001
 20
-40.0
 30
0.0
 11
28.399999999999999
 21
-40.0
 31
0.0
  0
LINE
  5
93
100
AcDbEntity
  8
0
  6
CONTINUOUS
 62
               7
100
AcDbLine
 10
34.600000000000001
 20
-38.799999999999997
 30
0.0
 11
28.399999999999999
 21
-38.799999999999997
 31
0.0
  0
LINE
  5
94
100
AcDbEntity
  8
0
  6
CONTINUOUS
 62
               7
100
AcDbLine
 10
35.0
 20
-38.0
 30
0.0
 11
35.0
 21
-38.799999999999997
 31
0.0
  0
LINE
  5
95
100
AcDbEntity
  8
0
  6
CONTINUOUS
 62
               7
100
AcDbLine
 10
28.0
 20
-38.0
 30
0.0
 11
28.0
 21
-38.799999999999997
 31
0.0
  0
LINE
  5
96
100
AcDbEntity
  8
0
  6
CONTINUOUS
 62
               7
100
AcDbLine
 10
34.5
 20
-38.0
 30
0.0
 11
28.5
 21
-38.0
 31
0.0
  0
LINE
  5
97
100
AcDbEntity
  8
0
  6
CONTINUOUS
 62
               7
100
AcDbLine
 10
68.5
 20
-32.5
 30
0.0
 11
68.5
 21
-38.0
 31
0.0
  0
LINE
  5
98
100
AcDbEntity
  8
0
  6
CONTINUOUS
 62
               7
100
AcDbLine
 10
68.400000000000006
 20
-38.799999999999997
 30
0.0
 11
68.400000000000006
 21
-40.0
 31
0.0
  0
LINE
  5
99
100
AcDbEntity
  8
0
  6
CENTER
 62
               2
100
AcDbLine
 10
23.5
 20
-29.25
 30
0.0
 11
23.5
 21
-43.25
 31
0.0
  0
LINE
  5
9A
100
AcDbEntity
  8
0
  6
CENTER
 62
               2
100
AcDbLine
 10
31.5
 20
-29.25
 30
0.0
 11
31.5
 21
-43.25
 31
0.0
  0
LINE
  5
9B
100
AcDbEntity
  8
0
  6
CENTER
 62
               2
100
AcDbLine
 10
63.5
 20
-29.25
 30
0.0
 11
63.5
 21
-43.25
 31
0.0
  0
LINE
  5
9C
100
AcDbEntity
  8
0
  6
CONTINUOUS
 62
               4
100
AcDbLine
 10
5.0
 20
51.200000000000003
 30
0.0
 11
5.0
 21
25.0
 31
0.0
  0
LINE
  5
9D
100
AcDbEntity
  8
0
  6
CONTINUOUS
 62
               4
100
AcDbLine
 10
5.0
 20
50.200000000000003
 30
0.0
 11
20.0
 21
50.200000000000003
 31
0.0
  0
LINE
  5
9E
100
AcDbEntity
  8
0
  6
CONTINUOUS
 62
               4
100
AcDbLine
 10
20.0
 20
51.200000000000003
 30
0.0
 11
20.0
 21
25.0
 31
0.0
  0
LINE
  5
9F
100
AcDbEntity
  8
0
  6
CONTINUOUS
 62
               4
100
AcDbLine
 10
5.0
 20
51.200000000000003
 30
0.0
 11
20.0
 21
51.200000000000003
 31
0.0
  0
LINE
  5
A0
100
AcDbEntity
  8
0
  6
CONTINUOUS
 62
               4
100
AcDbLine
 10
6.0
 20
53.200000000000003
 30
0.0
 11
6.1200000000000001
 21
53.200000000000003
 31
0.0
  0
LINE
  5
A1
100
AcDbEntity
  8
0
  6
CONTINUOUS
 62
               4
100
AcDbLine
 10
20.0
 20
51.200000000000003
 30
0.0
 11
19.0
 21
53.200000000000003
 31
0.0
  0
LINE
  5
A2
100
AcDbEntity
  8
0
  6
CONTINUOUS
 62
               4
100
AcDbLine
 10
5.0
 20
51.200000000000003
 30
0.0
 11
5.75
 21
52.700000000000003
 31
0.0
  0
LINE
  5
A3
100
AcDbEntity
  8
0
  6
CONTINUOUS
 62
               4
100
AcDbLine
 10
10.550000000000001
 20
51.799999999999997
 30
0.0
 11
5.4500000000000002
 21
51.799999999999997
 31
0.0
  0
LINE
  5
A4
100
AcDbEntity
  8
0
  6
CONTINUOUS
 62
               4
100
AcDbLine
 10
5.4500000000000002
 20
51.799999999999997
 30
0.0
 11
5.4500000000000002
 21
51.200000000000003
 31
0.0
  0
LINE
  5
A5
100
AcDbEntity
  8
0
  6
CONTINUOUS
 62
               4
100
AcDbLine
 10
5.75
 20
53.060000000000002
 30
0.0
 11
5.75
 21
51.799999999999997
 31
0.0
  0
LINE
  5
A6
100
AcDbEntity
  8
0
  6
CONTINUOUS
 62
               4
100
AcDbLine
 10
9.8699999999999992
 20
53.200000000000003
 30
0.0
 11
19.0
 21
53.200000000000003
 31
0.0
  0
LINE
  5
A7
100
AcDbEntity
  8
0
  6
CONTINUOUS
 62
               4
100
AcDbLine
 10
10.550000000000001
 20
51.799999999999997
 30
0.0
 11
10.550000000000001
 21
51.200000000000003
 31
0.0
  0
LINE
  5
A8
100
AcDbEntity
  8
0
  6
CONTINUOUS
 62
               4
100
AcDbLine
 10
10.25
 20
53.060000000000002
 30
0.0
 11
10.25
 21
51.799999999999997
 31
0.0
  0
LINE
  5
A9
100
AcDbEntity
  8
0
  6
CONTINUOUS
 62
               4
100
AcDbLine
 10
11.0
 20
53.200000000000003
 30
0.0
 11
11.0
 21
51.200000000000003
 31
0.0
  0
LINE
  5
AA
100
AcDbEntity
  8
0
  6
CONTINUOUS
 62
               4
100
AcDbLine
 10
5.9699999999999998
 20
53.140000000000001
 30
0.0
 11
6.0
 21
53.200000000000003
 31
0.0
  0
LINE
  5
AB
100
AcDbEntity
  8
0
  6
CONTINUOUS
 62
               4
100
AcDbLine
 10
11.199999999999999
 20
44.700000000000003
 30
0.0
 11
13.800000000000001
 21
44.700000000000003
 31
0.0
  0
LINE
  5
AC
100
AcDbEntity
  8
0
  6
CONTINUOUS
 62
               4
100
AcDbLine
 10
11.199999999999999
 20
41.299999999999997
 30
0.0
 11
13.800000000000001
 21
41.299999999999997
 31
0.0
  0
LINE
  5
AD
100
AcDbEntity
  8
0
  6
CONTINUOUS
 62
               4
100
AcDbLine
 10
21.0
 20
51.200000000000003
 30
0.0
 11
21.0
 21
25.0
 31
0.0
  0
LINE
  5
AE
100
AcDbEntity
  8
0
  6
CONTINUOUS
 62
               4
100
AcDbLine
 10
21.0
 20
50.200000000000003
 30
0.0
 11
36.0
 21
50.200000000000003
 31
0.0
  0
LINE
  5
AF
100
AcDbEntity
  8
0
  6
CONTINUOUS
 62
               4
100
AcDbLine
 10
36.0
 20
51.200000000000003
 30
0.0
 11
36.0
 21
25.0
 31
0.0
  0
LINE
  5
B0
100
AcDbEntity
  8
0
  6
CONTINUOUS
 62
               4
100
AcDbLine
 10
21.0
 20
51.200000000000003
 30
0.0
 11
36.0
 21
51.200000000000003
 31
0.0
  0
LINE
  5
B1
100
AcDbEntity
  8
0
  6
CONTINUOUS
 62
               4
100
AcDbLine
 10
22.0
 20
53.200000000000003
 30
0.0
 11
22.120000000000001
 21
53.200000000000003
 31
0.0
  0
LINE
  5
B2
100
AcDbEntity
  8
0
  6
CONTINUOUS
 62
               4
100
AcDbLine
 10
36.0
 20
51.200000000000003
 30
0.0
 11
35.0
 21
53.200000000000003
 31
0.0
  0
LINE
  5
B3
100
AcDbEntity
  8
0
  6
CONTINUOUS
 62
               4
100
AcDbLine
 10
21.0
 20
51.200000000000003
 30
0.0
 11
21.75
 21
52.700000000000003
 31
0.0
  0
LINE
  5
B4
100
AcDbEntity
  8
0
  6
CONTINUOUS
 62
               4
100
AcDbLine
 10
26.550000000000001
 20
51.799999999999997
 30
0.0
 11
21.449999999999999
 21
51.799999999999997
 31
0.0
  0
LINE
  5
B5
100
AcDbEntity
  8
0
  6
CONTINUOUS
 62
               4
100
AcDbLine
 10
21.449999999999999
 20
51.799999999999997
 30
0.0
 11
21.449999999999999
 21
51.200000000000003
 31
0.0
  0
LINE
  5
B6
100
AcDbEntity
  8
0
  6
CONTINUOUS
 62
               4
100
AcDbLine
 10
21.75
 20
53.060000000000002
 30
0.0
 11
21.75
 21
51.799999999999997
 31
0.0
  0
LINE
  5
B7
100
AcDbEntity
  8
0
  6
CONTINUOUS
 62
               4
100
AcDbLine
 10
25.870000000000001
 20
53.200000000000003
 30
0.0
 11
35.0
 21
53.200000000000003
 31
0.0
  0
LINE
  5
B8
100
AcDbEntity
  8
0
  6
CONTINUOUS
 62
               4
100
AcDbLine
 10
26.550000000000001
 20
51.799999999999997
 30
0.0
 11
26.550000000000001
 21
51.200000000000003
 31
0.0
  0
LINE
  5
B9
100
AcDbEntity
  8
0
  6
CONTINUOUS
 62
               4
100
AcDbLine
 10
26.25
 20
53.060000000000002
 30
0.0
 11
26.25
 21
51.799999999999997
 31
0.0
  0
LINE
  5
BA
100
AcDbEntity
  8
0
  6
CONTINUOUS
 62
               4
100
AcDbLine
 10
27.0
 20
53.200000000000003
 30
0.0
 11
27.0
 21
51.200000000000003
 31
0.0
  0
LINE
  5
BB
100
AcDbEntity
  8
0
  6
CONTINUOUS
 62
               4
100
AcDbLine
 10
21.969999999999999
 20
53.140000000000001
 30
0.0
 11
22.0
 21
53.200000000000003
 31
0.0
  0
LINE
  5
BC
100
AcDbEntity
  8
0
  6
CONTINUOUS
 62
               4
100
AcDbLine
 10
27.199999999999999
 20
44.700000000000003
 30
0.0
 11
29.800000000000001
 21
44.700000000000003
 31
0.0
  0
LINE
  5
BD
100
AcDbEntity
  8
0
  6
CONTINUOUS
 62
               4
100
AcDbLine
 10
27.199999999999999
 20
41.299999999999997
 30
0.0
 11
29.800000000000001
 21
41.299999999999997
 31
0.0
  0
LINE
  5
BE
100
AcDbEntity
  8
0
  6
CONTINUOUS
 62
               4
100
AcDbLine
 10
37.0
 20
51.200000000000003
 30
0.0
 11
37.0
 21
25.0
 31
0.0
  0
LINE
  5
BF
100
AcDbEntity
  8
0
  6
CONTINUOUS
 62
               4
100
AcDbLine
 10
37.0
 20
50.200000000000003
 30
0.0
 11
52.0
 21
50.200000000000003
 31
0.0
  0
LINE
  5
C0
100
AcDbEntity
  8
0
  6
CONTINUOUS
 62
               4
100
AcDbLine
 10
37.0
 20
51.200000000000003
 30
0.0
 11
52.0
 21
51.200000000000003
 31
0.0
  0
LINE
  5
C1
100
AcDbEntity
  8
0
  6
CONTINUOUS
 62
               4
100
AcDbLine
 10
38.0
 20
53.200000000000003
 30
0.0
 11
38.119999999999997
 21
53.200000000000003
 31
0.0
  0
LINE
  5
C2
100
AcDbEntity
  8
0
  6
CONTINUOUS
 62
               4
100
AcDbLine
 10
52.0
 20
51.200000000000003
 30
0.0
 11
51.0
 21
53.200000000000003
 31
0.0
  0
LINE
  5
C3
100
AcDbEntity
  8
0
  6
CONTINUOUS
 62
               4
100
AcDbLine
 10
37.0
 20
51.200000000000003
 30
0.0
 11
37.75
 21
52.700000000000003
 31
0.0
  0
LINE
  5
C4
100
AcDbEntity
  8
0
  6
CONTINUOUS
 62
               4
100
AcDbLine
 10
42.549999999999997
 20
51.799999999999997
 30
0.0
 11
37.450000000000003
 21
51.799999999999997
 31
0.0
  0
LINE
  5
C5
100
AcDbEntity
  8
0
  6
CONTINUOUS
 62
               4
100
AcDbLine
 10
37.450000000000003
 20
51.799999999999997
 30
0.0
 11
37.450000000000003
 21
51.200000000000003
 31
0.0
  0
LINE
  5
C6
100
AcDbEntity
  8
0
  6
CONTINUOUS
 62
               4
100
AcDbLine
 10
37.75
 20
53.060000000000002
 30
0.0
 11
37.75
 21
51.799999999999997
 31
0.0
  0
LINE
  5
C7
100
AcDbEntity
  8
0
  6
CONTINUOUS
 62
               4
100
AcDbLine
 10
41.869999999999997
 20
53.200000000000003
 30
0.0
 11
51.0
 21
53.200000000000003
 31
0.0
  0
LINE
  5
C8
100
AcDbEntity
  8
0
  6
CONTINUOUS
 62
               4
100
AcDbLine
 10
42.549999999999997
 20
51.799999999999997
 30
0.0
 11
42.549999999999997
 21
51.200000000000003
 31
0.0
  0
LINE
  5
C9
100
AcDbEntity
  8
0
  6
CONTINUOUS
 62
               4
100
AcDbLine
 10
42.25
 20
53.060000000000002
 30
0.0
 11
42.25
 21
51.799999999999997
 31
0.0
  0
LINE
  5
CA
100
AcDbEntity
  8
0
  6
CONTINUOUS
 62
               4
100
AcDbLine
 10
43.0
 20
53.200000000000003
 30
0.0
 11
43.0
 21
51.200000000000003
 31
0.0
  0
LINE
  5
CB
100
AcDbEntity
  8
0
  6
CONTINUOUS
 62
               4
100
AcDbLine
 10
52.0
 20
-63.200000000000003
 30
0.0
 11
52.0
 21
-37.0
 31
0.0
  0
LINE
  5
CC
100
AcDbEntity
  8
0
  6
CONTINUOUS
 62
               4
100
AcDbLine
 10
52.0
 20
-62.200000000000003
 30
0.0
 11
37.0
 21
-62.200000000000003
 31
0.0
  0
LINE
  5
CD
100
AcDbEntity
  8
0
  6
CONTINUOUS
 62
               4
100
AcDbLine
 10
37.0
 20
-63.200000000000003
 30
0.0
 11
37.0
 21
-37.0
 31
0.0
  0
LINE
  5
CE
100
AcDbEntity
  8
0
  6
CONTINUOUS
 62
               4
100
AcDbLine
 10
52.0
 20
-63.200000000000003
 30
0.0
 11
37.0
 21
-63.200000000000003
 31
0.0
  0
LINE
  5
CF
100
AcDbEntity
  8
0
  6
CONTINUOUS
 62
               4
100
AcDbLine
 10
51.0
 20
-65.200000000000003
 30
0.0
 11
50.82
 21
-65.200000000000003
 31
0.0
  0
LINE
  5
D0
100
AcDbEntity
  8
0
  6
CONTINUOUS
 62
               4
100
AcDbLine
 10
37.0
 20
-63.200000000000003
 30
0.0
 11
38.0
 21
-65.200000000000003
 31
0.0
  0
LINE
  5
D1
100
AcDbEntity
  8
0
  6
CONTINUOUS
 62
               4
100
AcDbLine
 10
52.0
 20
-63.200000000000003
 30
0.0
 11
51.0
 21
-65.200000000000003
 31
0.0
  0
LINE
  5
D2
100
AcDbEntity
  8
0
  6
CONTINUOUS
 62
               4
100
AcDbLine
 10
46.450000000000003
 20
-63.799999999999997
 30
0.0
 11
51.549999999999997
 21
-63.799999999999997
 31
0.0
  0
LINE
  5
D3
100
AcDbEntity
  8
0
  6
CONTINUOUS
 62
               4
100
AcDbLine
 10
51.549999999999997
 20
-63.799999999999997
 30
0.0
 11
51.549999999999997
 21
-63.200000000000003
 31
0.0
  0
LINE
  5
D4
100
AcDbEntity
  8
0
  6
CONTINUOUS
 62
               4
100
AcDbLine
 10
51.25
 20
-64.489999999999995
 30
0.0
 11
51.25
 21
-63.799999999999997
 31
0.0
  0
LINE
  5
D5
100
AcDbEntity
  8
0
  6
CONTINUOUS
 62
               4
100
AcDbLine
 10
47.170000000000002
 20
-65.200000000000003
 30
0.0
 11
38.0
 21
-65.200000000000003
 31
0.0
  0
LINE
  5
D6
100
AcDbEntity
  8
0
  6
CONTINUOUS
 62
               4
100
AcDbLine
 10
46.450000000000003
 20
-63.799999999999997
 30
0.0
 11
46.450000000000003
 21
-63.200000000000003
 31
0.0
  0
LINE
  5
D7
100
AcDbEntity
  8
0
  6
CONTINUOUS
 62
               4
100
AcDbLine
 10
46.75
 20
-64.489999999999995
 30
0.0
 11
46.75
 21
-63.799999999999997
 31
0.0
  0
LINE
  5
D8
100
AcDbEntity
  8
0
  6
CONTINUOUS
 62
               4
100
AcDbLine
 10
46.0
 20
-65.200000000000003
 30
0.0
 11
46.0
 21
-63.200000000000003
 31
0.0
  0
LINE
  5
D9
100
AcDbEntity
  8
0
  6
CONTINUOUS
 62
               4
100
AcDbLine
 10
52.0
 20
51.200000000000003
 30
0.0
 11
52.0
 21
25.0
 31
0.0
  0
LINE
  5
DA
100
AcDbEntity
  8
0
  6
CONTINUOUS
 62
               4
100
AcDbLine
 10
43.200000000000003
 20
44.700000000000003
 30
0.0
 11
45.799999999999997
 21
44.700000000000003
 31
0.0
  0
LINE
  5
DB
100
AcDbEntity
  8
0
  6
CONTINUOUS
 62
               4
100
AcDbLine
 10
43.200000000000003
 20
41.299999999999997
 30
0.0
 11
45.799999999999997
 21
41.299999999999997
 31
0.0
  0
LINE
  5
DC
100
AcDbEntity
  8
0
  6
CONTINUOUS
 62
               4
100
AcDbLine
 10
43.200000000000003
 20
-53.299999999999997
 30
0.0
 11
45.799999999999997
 21
-53.299999999999997
 31
0.0
  0
LINE
  5
DD
100
AcDbEntity
  8
0
  6
CONTINUOUS
 62
               4
100
AcDbLine
 10
43.200000000000003
 20
-56.700000000000003
 30
0.0
 11
45.799999999999997
 21
-56.700000000000003
 31
0.0
  0
LINE
  5
DE
100
AcDbEntity
  8
0
  6
CONTINUOUS
 62
               4
100
AcDbLine
 10
37.969999999999999
 20
53.140000000000001
 30
0.0
 11
38.0
 21
53.200000000000003
 31
0.0
  0
CIRCLE
  5
DF
100
AcDbEntity
  8
0
  6
CONTINUOUS
 62
               7
100
AcDbCircle
 10
0.0
 20
0.0
 30
0.0
 40
2.0999994277954102
  0
CIRCLE
  5
E0
100
AcDbEntity
  8
0
  6
CONTINUOUS
 62
               7
100
AcDbCircle
 10
73.0
 20
0.0
 30
0.0
 40
2.0999994277954102
  0
ARC
  5
E1
100
AcDbEntity
  8
0
  6
CONTINUOUS
 62
               4
100
AcDbCircle
 10
60.495000000000005
 20
-28.699981689450883
 30
0.0
 40
3.4976147913772921
100
AcDbArc
 50
221.11680448162019
 51
318.88319551837856
  0
ARC
  5
E2
100
AcDbEntity
  8
0
  6
CONTINUOUS
 62
               4
100
AcDbCircle
 10
60.495000000000005
 20
16.699981689450883
 30
0.0
 40
3.4976147913772921
100
AcDbArc
 50
41.116804481620662
 51
138.88319551837901
  0
ARC
  5
E3
100
AcDbEntity
  8
0
  6
CONTINUOUS
 62
               7
100
AcDbCircle
 10
7.000002861022951
 20
2.9949999999999997
 30
0.0
 40
2.700784412740119
100
AcDbArc
 50
222.22370172225794
 51
137.77629827774123
  0
ARC
  5
E4
100
AcDbEntity
  8
0
  6
CONTINUOUS
 62
               7
100
AcDbCircle
 10
17.999999999999996
 20
-14.994999999999999
 30
0.0
 40
2.7007822940770341
100
AcDbArc
 50
42.223742511075088
 51
317.7762574889241
  0
CIRCLE
  5
E5
100
AcDbEntity
  8
0
  6
CONTINUOUS
 62
               7
100
AcDbCircle
 10
12.5
 20
21.500015258789063
 30
0.0
 40
1.649998664855957
  0
CIRCLE
  5
E6
100
AcDbEntity
  8
0
  6
CONTINUOUS
 62
               7
100
AcDbCircle
 10
18.000015258789063
 20
-14.999992370605469
 30
0.0
 40
2.25
  0
CIRCLE
  5
E7
100
AcDbEntity
  8
0
  6
CONTINUOUS
 62
               7
100
AcDbCircle
 10
7.0
 20
3.0000038146972656
 30
0.0
 40
2.25
  0
ARC
  5
E8
100
AcDbEntity
  8
0
  6
CONTINUOUS
 62
               7
100
AcDbCircle
 10
23.0
 20
2.9949999999999997
 30
0.0
 40
2.7007822940770341
100
AcDbArc
 50
222.22374251107476
 51
137.77625748892444
  0
ARC
  5
E9
100
AcDbEntity
  8
0
  6
CONTINUOUS
 62
               7
100
AcDbCircle
 10
34.0
 20
-14.994999999999999
 30
0.0
 40
2.7007822940770341
100
AcDbArc
 50
42.223742511075137
 51
317.77625748892405
  0
CIRCLE
  5
EA
100
AcDbEntity
  8
0
  6
CONTINUOUS
 62
               7
100
AcDbCircle
 10
28.5
 20
21.500015258789063
 30
0.0
 40
1.649998664855957
  0
CIRCLE
  5
EB
100
AcDbEntity
  8
0
  6
CONTINUOUS
 62
               7
100
AcDbCircle
 10
34.000015258789063
 20
-14.999992370605469
 30
0.0
 40
2.25
  0
CIRCLE
  5
EC
100
AcDbEntity
  8
0
  6
CONTINUOUS
 62
               7
100
AcDbCircle
 10
23.0
 20
3.0000038146972656
 30
0.0
 40
2.25
  0
CIRCLE
  5
ED
100
AcDbEntity
  8
0
  6
CONTINUOUS
 62
               7
100
AcDbCircle
 10
44.5
 20
21.5
 30
0.0
 40
1.649998664855957
  0
CIRCLE
  5
EE
100
AcDbEntity
  8
0
  6
CONTINUOUS
 62
               7
100
AcDbCircle
 10
44.500030517578125
 20
-33.5
 30
0.0
 40
1.649998664855957
  0
CIRCLE
  5
EF
100
AcDbEntity
  8
0
  6
CONTINUOUS
 62
               7
100
AcDbCircle
 10
50.0
 20
-14.999990463256836
 30
0.0
 40
2.25
  0
CIRCLE
  5
F0
100
AcDbEntity
  8
0
  6
CONTINUOUS
 62
               7
100
AcDbCircle
 10
39.0
 20
3.0000038146972656
 30
0.0
 40
2.25
  0
ARC
  5
F1
100
AcDbEntity
  8
0
  6
CONTINUOUS
 62
               7
100
AcDbCircle
 10
39.0
 20
2.9949999999999997
 30
0.0
 40
2.7007822940770341
100
AcDbArc
 50
222.22374251107476
 51
137.77625748892444
  0
ARC
  5
F2
100
AcDbEntity
  8
0
  6
CONTINUOUS
 62
               7
100
AcDbCircle
 10
49.999984741210938
 20
-14.994999999999999
 30
0.0
 40
2.700793593629303
100
AcDbArc
 50
42.223524971458637
 51
317.77647502854052
  0
CIRCLE
  5
F3
100
AcDbEntity
  8
0
  6
CONTINUOUS
 62
               4
100
AcDbCircle
 10
66.0
 20
-14.999996185302734
 30
0.0
 40
2.25
  0
CIRCLE
  5
F4
100
AcDbEntity
  8
0
  6
CONTINUOUS
 62
               4
100
AcDbCircle
 10
55.0
 20
3.0000038146972656
 30
0.0
 40
2.25
  0
CIRCLE
  5
F5
100
AcDbEntity
  8
0
  6
CONTINUOUS
 62
               4
100
AcDbCircle
 10
11.199996948242188
 20
43.000015258789063
 30
0.0
 40
0.8499999642372131
  0
CIRCLE
  5
F6
100
AcDbEntity
  8
0
  6
CONTINUOUS
 62
               4
100
AcDbCircle
 10
13.800003051757812
 20
43.000015258789063
 30
0.0
 40
0.8499999642372131
  0
ARC
  5
F7
100
AcDbEntity
  8
0
  6
CONTINUOUS
 62
               4
100
AcDbCircle
 10
8.0
 20
47.499969482421875
 30
0.0
 40
5.9980362916874794
100
AcDbArc
 50
67.968098905336589
 51
112.03190109466301
  0
ARC
  5
F8
100
AcDbEntity
  8
0
  6
CONTINUOUS
 62
               4
100
AcDbCircle
 10
16.995000000000001
 20
47.499984741209047
 30
0.0
 40
6.0004832264118271
100
AcDbArc
 50
71.791561056795487
 51
108.20843894320414
  0
ARC
  5
F9
100
AcDbEntity
  8
0
  6
CONTINUOUS
 62
               4
100
AcDbCircle
 10
11.199999999999999
 20
43.0
 30
0.0
 40
1.7000000000000135
100
AcDbArc
 50
89.999999999999801
 51
269.99999999999937
  0
ARC
  5
FA
100
AcDbEntity
  8
0
  6
CONTINUOUS
 62
               4
100
AcDbCircle
 10
13.800000000000001
 20
43.0
 30
0.0
 40
1.700000000000174
100
AcDbArc
 50
269.99999999999937
 51
89.999999999999801
  0
CIRCLE
  5
FB
100
AcDbEntity
  8
0
  6
CONTINUOUS
 62
               4
100
AcDbCircle
 10
27.199996948242187
 20
43.000015258789063
 30
0.0
 40
0.8499999642372131
  0
CIRCLE
  5
FC
100
AcDbEntity
  8
0
  6
CONTINUOUS
 62
               4
100
AcDbCircle
 10
29.800003051757813
 20
43.000015258789063
 30
0.0
 40
0.8499999642372131
  0
ARC
  5
FD
100
AcDbEntity
  8
0
  6
CONTINUOUS
 62
               4
100
AcDbCircle
 10
24.0
 20
47.499969482421875
 30
0.0
 40
5.9980362916874794
100
AcDbArc
 50
67.968098905336589
 51
112.03190109466301
  0
ARC
  5
FE
100
AcDbEntity
  8
0
  6
CONTINUOUS
 62
               4
100
AcDbCircle
 10
32.994999999999997
 20
47.499984741209047
 30
0.0
 40
6.0004832264118262
100
AcDbArc
 50
71.791561056795487
 51
108.2084389432041
  0
ARC
  5
FF
100
AcDbEntity
  8
0
  6
CONTINUOUS
 62
               4
100
AcDbCircle
 10
27.199999999999999
 20
43.0
 30
0.0
 40
1.700000000002742
100
AcDbArc
 50
89.999999999999801
 51
269.99999999999937
  0
ARC
  5
100
100
AcDbEntity
  8
0
  6
CONTINUOUS
 62
               4
100
AcDbCircle
 10
29.800000000000001
 20
43.0
 30
0.0
 40
1.7000000000438298
100
AcDbArc
 50
269.99999999999937
 51
89.999999999999801
  0
ARC
  5
101
100
AcDbEntity
  8
0
  6
CONTINUOUS
 62
               4
100
AcDbCircle
 10
40.0
 20
47.499969482421875
 30
0.0
 40
5.9980362916874794
100
AcDbArc
 50
67.968098905336589
 51
112.03190109466301
  0
ARC
  5
102
100
AcDbEntity
  8
0
  6
CONTINUOUS
 62
               4
100
AcDbCircle
 10
48.995000000000005
 20
47.499984741209026
 30
0.0
 40
5.9986165723027165
100
AcDbArc
 50
73.785683299661557
 51
106.21431670033812
  0
ARC
  5
103
100
AcDbEntity
  8
0
  6
CONTINUOUS
 62
               4
100
AcDbCircle
 10
47.540965534110697
 20
52.490086164723223
 30
0.0
 40
0.8009950567983708
100
AcDbArc
 50
106.01349715939519
 51
117.58932181330594
  0
ARC
  5
104
100
AcDbEntity
  8
0
  6
CONTINUOUS
 62
               4
100
AcDbCircle
 10
50.450416933239836
 20
52.493542333099526
 30
0.0
 40
0.7972917147182214
100
AcDbArc
 50
62.383701431786982
 51
74.013479595512436
  0
ARC
  5
105
100
AcDbEntity
  8
0
  6
CONTINUOUS
 62
               4
100
AcDbCircle
 10
48.995000000000005
 20
-59.499969482419964
 30
0.0
 40
5.9986312241588386
100
AcDbArc
 50
253.7857239958974
 51
286.21427600410135
  0
ARC
  5
106
100
AcDbEntity
  8
0
  6
CONTINUOUS
 62
               4
100
AcDbCircle
 10
47.550056818762215
 20
-64.493724173124079
 30
0.0
 40
0.8000654865155572
100
AcDbArc
 50
179.73329661589418
 51
253.28881562309482
  0
ARC
  5
107
100
AcDbEntity
  8
0
  6
CONTINUOUS
 62
               4
100
AcDbCircle
 10
50.451399945441345
 20
-64.49189866020258
 30
0.0
 40
0.7986023115741996
100
AcDbArc
 50
285.88624358641994
 51
0.1362196392925873
  0
ARC
  5
108
100
AcDbEntity
  8
0
  6
CONTINUOUS
 62
               4
100
AcDbCircle
 10
39.995000000000005
 20
-59.499969482419964
 30
0.0
 40
5.9986312241588386
100
AcDbArc
 50
253.7857239958974
 51
286.21427600410135
  0
ARC
  5
109
100
AcDbEntity
  8
0
  6
CONTINUOUS
 62
               4
100
AcDbCircle
 10
41.450419037910407
 20
-64.493547594776047
 30
0.0
 40
0.7972860768794212
100
AcDbArc
 50
285.9864791439785
 51
297.61633982872524
  0
ARC
  5
10A
100
AcDbEntity
  8
0
  6
CONTINUOUS
 62
               4
100
AcDbCircle
 10
38.540990790014042
 20
-64.490023024964941
 30
0.0
 40
0.8010627137466715
100
AcDbArc
 50
242.41116869734714
 51
253.98601232994594
  0
ARC
  5
10B
100
AcDbEntity
  8
0
  6
CONTINUOUS
 62
               4
100
AcDbCircle
 10
43.200000000000003
 20
43.0
 30
0.0
 40
1.700000000002742
100
AcDbArc
 50
89.999999999999801
 51
269.99999999999937
  0
ARC
  5
10C
100
AcDbEntity
  8
0
  6
CONTINUOUS
 62
               4
100
AcDbCircle
 10
45.799999999999997
 20
43.0
 30
0.0
 40
1.7000000000438298
100
AcDbArc
 50
269.99999999999937
 51
89.999999999999801
  0
CIRCLE
  5
10D
100
AcDbEntity
  8
0
  6
CONTINUOUS
 62
               4
100
AcDbCircle
 10
43.199966430664063
 20
43.0
 30
0.0
 40
0.8500000238418579
  0
CIRCLE
  5
10E
100
AcDbEntity
  8
0
  6
CONTINUOUS
 62
               4
100
AcDbCircle
 10
45.799972534179687
 20
43.0
 30
0.0
 40
0.8500000238418579
  0
ARC
  5
10F
100
AcDbEntity
  8
0
  6
CONTINUOUS
 62
               4
100
AcDbCircle
 10
43.200000000000003
 20
-55.0
 30
0.0
 40
1.700000000002742
100
AcDbArc
 50
89.999999999999801
 51
269.99999999999937
  0
ARC
  5
110
100
AcDbEntity
  8
0
  6
CONTINUOUS
 62
               4
100
AcDbCircle
 10
45.799999999999997
 20
-55.0
 30
0.0
 40
1.7000000000438298
100
AcDbArc
 50
269.99999999999937
 51
89.999999999999801
  0
CIRCLE
  5
111
100
AcDbEntity
  8
0
  6
CONTINUOUS
 62
               4
100
AcDbCircle
 10
43.20001220703125
 20
-55.0
 30
0.0
 40
0.8500000238418579
  0
CIRCLE
  5
112
100
AcDbEntity
  8
0
  6
CONTINUOUS
 62
               4
100
AcDbCircle
 10
45.800018310546875
 20
-55.0
 30
0.0
 40
0.8500000238418579
  0
ENDBLK
  5
113
100
AcDbEntity
  8
0
100
AcDbBlockEnd
  0
BLOCK
  5
114
100
AcDbEntity
  8
0
100
AcDbBlockBegin
  2
MS_2
 70
               0
 10
0.0
 20
0.0
 30
0.0
  3
MS_2
  1

  0
LINE
  5
115
100
AcDbEntity
  8
0
  6
CENTER
 62
               2
100
AcDbLine
 10
-29.5
 20
17.0
 30
0.0
 11
-29.5
 21
9.0
 31
0.0
  0
LINE
  5
116
100
AcDbEntity
  8
0
  6
CENTER
 62
               2
100
AcDbLine
 10
-33.5
 20
13.0
 30
0.0
 11
-25.5
 21
13.0
 31
0.0
  0
LINE
  5
117
100
AcDbEntity
  8
0
  6
CONTINUOUS
 62
               7
100
AcDbLine
 10
0.0
 20
20.5
 30
0.0
 11
0.0
 21
-32.5
 31
0.0
  0
LINE
  5
118
100
AcDbEntity
  8
0
  6
CONTINUOUS
 62
               7
100
AcDbLine
 10
-35.0
 20
-32.5
 30
0.0
 11
0.0
 21
-32.5
 31
0.0
  0
LINE
  5
119
100
AcDbEntity
  8
0
  6
CONTINUOUS
 62
               7
100
AcDbLine
 10
-35.0
 20
20.5
 30
0.0
 11
0.0
 21
20.5
 31
0.0
  0
LINE
  5
11A
100
AcDbEntity
  8
0
  6
CENTER
 62
               2
100
AcDbLine
 10
-33.5
 20
-25.0
 30
0.0
 11
-25.5
 21
-25.0
 31
0.0
  0
LINE
  5
11B
100
AcDbEntity
  8
0
  6
CENTER
 62
               2
100
AcDbLine
 10
-29.5
 20
-21.170000000000002
 30
0.0
 11
-29.5
 21
-29.0
 31
0.0
  0
LINE
  5
11C
100
AcDbEntity
  8
0
  6
CONTINUOUS
 62
               7
100
AcDbLine
 10
-36.0
 20
-20.0
 30
0.0
 11
-35.0
 21
-20.0
 31
0.0
  0
LINE
  5
11D
100
AcDbEntity
  8
0
  6
CONTINUOUS
 62
               7
100
AcDbLine
 10
-36.0
 20
8.0
 30
0.0
 11
-35.0
 21
8.0
 31
0.0
  0
LINE
  5
11E
100
AcDbEntity
  8
0
  6
CONTINUOUS
 62
               7
100
AcDbLine
 10
-36.0
 20
-32.200000000000003
 30
0.0
 11
-35.0
 21
-32.200000000000003
 31
0.0
  0
LINE
  5
11F
100
AcDbEntity
  8
0
  6
CONTINUOUS
 62
               7
100
AcDbLine
 10
-36.0
 20
-25.199999999999999
 30
0.0
 11
-35.0
 21
-25.199999999999999
 31
0.0
  0
LINE
  5
120
100
AcDbEntity
  8
0
  6
CONTINUOUS
 62
               7
100
AcDbLine
 10
-36.0
 20
13.199999999999999
 30
0.0
 11
-35.0
 21
13.199999999999999
 31
0.0
  0
LINE
  5
121
100
AcDbEntity
  8
0
  6
CONTINUOUS
 62
               7
100
AcDbLine
 10
-36.0
 20
20.199999999999999
 30
0.0
 11
-35.0
 21
20.199999999999999
 31
0.0
  0
LINE
  5
122
100
AcDbEntity
  8
0
  6
CENTER
 62
               2
100
AcDbLine
 10
-19.5
 20
9.5
 30
0.0
 11
-6.5
 21
9.5
 31
0.0
  0
LINE
  5
123
100
AcDbEntity
  8
0
  6
CENTER
 62
               2
100
AcDbLine
 10
-15.0
 20
-1.5
 30
0.0
 11
-15.0
 21
-14.5
 31
0.0
  0
LINE
  5
124
100
AcDbEntity
  8
0
  6
CENTER
 62
               2
100
AcDbLine
 10
-13.0
 20
16.0
 30
0.0
 11
-13.0
 21
3.0
 31
0.0
  0
LINE
  5
125
100
AcDbEntity
  8
0
  6
CONTINUOUS
 62
               7
100
AcDbLine
 10
-35.0
 20
20.5
 30
0.0
 11
-35.0
 21
-32.5
 31
0.0
  0
LINE
  5
126
100
AcDbEntity
  8
0
  6
CENTER
 62
               2
100
AcDbLine
 10
-21.5
 20
-8.0
 30
0.0
 11
-8.5
 21
-8.0
 31
0.0
  0
LINE
  5
127
100
AcDbEntity
  8
0
  6
CONTINUOUS
 62
               7
100
AcDbLine
 10
-11.5
 20
-38.0
 30
0.0
 11
-1.5
 21
-38.0
 31
0.0
  0
LINE
  5
128
100
AcDbEntity
  8
0
  6
CONTINUOUS
 62
               7
100
AcDbLine
 10
-1.5
 20
-32.5
 30
0.0
 11
-1.5
 21
-38.0
 31
0.0
  0
LINE
  5
129
100
AcDbEntity
  8
0
  6
CONTINUOUS
 62
               7
100
AcDbLine
 10
-11.5
 20
-32.5
 30
0.0
 11
-11.5
 21
-38.0
 31
0.0
  0
LINE
  5
12A
100
AcDbEntity
  8
0
  6
CONTINUOUS
 62
               7
100
AcDbLine
 10
-26.399999999999999
 20
-40.0
 30
0.0
 11
-14.6
 21
-40.0
 31
0.0
  0
LINE
  5
12B
100
AcDbEntity
  8
0
  6
CONTINUOUS
 62
               7
100
AcDbLine
 10
-26.399999999999999
 20
-38.799999999999997
 30
0.0
 11
-14.6
 21
-38.799999999999997
 31
0.0
  0
LINE
  5
12C
100
AcDbEntity
  8
0
  6
CONTINUOUS
 62
               7
100
AcDbLine
 10
-14.6
 20
-38.799999999999997
 30
0.0
 11
-14.6
 21
-40.0
 31
0.0
  0
LINE
  5
12D
100
AcDbEntity
  8
0
  6
CONTINUOUS
 62
               7
100
AcDbLine
 10
-26.399999999999999
 20
-38.799999999999997
 30
0.0
 11
-26.399999999999999
 21
-40.0
 31
0.0
  0
LINE
  5
12E
100
AcDbEntity
  8
0
  6
CONTINUOUS
 62
               7
100
AcDbLine
 10
-24.0
 20
-38.0
 30
0.0
 11
-24.0
 21
-38.799999999999997
 31
0.0
  0
LINE
  5
12F
100
AcDbEntity
  8
0
  6
CONTINUOUS
 62
               7
100
AcDbLine
 10
-17.0
 20
-38.0
 30
0.0
 11
-17.0
 21
-38.799999999999997
 31
0.0
  0
LINE
  5
130
100
AcDbEntity
  8
0
  6
CONTINUOUS
 62
               7
100
AcDbLine
 10
-25.5
 20
-38.0
 30
0.0
 11
-15.5
 21
-38.0
 31
0.0
  0
LINE
  5
131
100
AcDbEntity
  8
0
  6
CONTINUOUS
 62
               7
100
AcDbLine
 10
-15.5
 20
-32.5
 30
0.0
 11
-15.5
 21
-38.0
 31
0.0
  0
LINE
  5
132
100
AcDbEntity
  8
0
  6
CONTINUOUS
 62
               7
100
AcDbLine
 10
-25.5
 20
-32.5
 30
0.0
 11
-25.5
 21
-38.0
 31
0.0
  0
LINE
  5
133
100
AcDbEntity
  8
0
  6
CENTER
 62
               2
100
AcDbLine
 10
-6.5
 20
-29.25
 30
0.0
 11
-6.5
 21
-43.25
 31
0.0
  0
LINE
  5
134
100
AcDbEntity
  8
0
  6
CENTER
 62
               2
100
AcDbLine
 10
-20.5
 20
-29.25
 30
0.0
 11
-20.5
 21
-43.25
 31
0.0
  0
LINE
  5
135
100
AcDbEntity
  8
0
  6
CONTINUOUS
 62
               7
100
AcDbLine
 10
-12.4
 20
-40.0
 30
0.0
 11
-0.6
 21
-40.0
 31
0.0
  0
LINE
  5
136
100
AcDbEntity
  8
0
  6
CONTINUOUS
 62
               7
100
AcDbLine
 10
-12.4
 20
-38.799999999999997
 30
0.0
 11
-0.6
 21
-38.799999999999997
 31
0.0
  0
LINE
  5
137
100
AcDbEntity
  8
0
  6
CONTINUOUS
 62
               7
100
AcDbLine
 10
-0.6
 20
-38.799999999999997
 30
0.0
 11
-0.6
 21
-40.0
 31
0.0
  0
LINE
  5
138
100
AcDbEntity
  8
0
  6
CONTINUOUS
 62
               7
100
AcDbLine
 10
-12.4
 20
-38.799999999999997
 30
0.0
 11
-12.4
 21
-40.0
 31
0.0
  0
LINE
  5
139
100
AcDbEntity
  8
0
  6
CONTINUOUS
 62
               7
100
AcDbLine
 10
-10.0
 20
-38.0
 30
0.0
 11
-10.0
 21
-38.799999999999997
 31
0.0
  0
LINE
  5
13A
100
AcDbEntity
  8
0
  6
CONTINUOUS
 62
               7
100
AcDbLine
 10
-3.0
 20
-38.0
 30
0.0
 11
-3.0
 21
-38.799999999999997
 31
0.0
  0
LINE
  5
13B
100
AcDbEntity
  8
0
  6
CONTINUOUS
 62
               4
100
AcDbLine
 10
-36.0
 20
19.0
 30
0.0
 11
-39.0
 21
19.0
 31
0.0
  0
LINE
  5
13C
100
AcDbEntity
  8
0
  6
CONTINUOUS
 62
               4
100
AcDbLine
 10
-36.0
 20
-31.0
 30
0.0
 11
-39.0
 21
-31.0
 31
0.0
  0
LINE
  5
13D
100
AcDbEntity
  8
0
  6
CONTINUOUS
 62
               4
100
AcDbLine
 10
-39.5
 20
5.25
 30
0.0
 11
-39.0
 21
5.25
 31
0.0
  0
LINE
  5
13E
100
AcDbEntity
  8
0
  6
CONTINUOUS
 62
               4
100
AcDbLine
 10
-39.5
 20
0.75
 30
0.0
 11
-39.0
 21
0.75
 31
0.0
  0
LINE
  5
13F
100
AcDbEntity
  8
0
  6
CONTINUOUS
 62
               4
100
AcDbLine
 10
-39.5
 20
0.75
 30
0.0
 11
-39.5
 21
5.25
 31
0.0
  0
LINE
  5
140
100
AcDbEntity
  8
0
  6
CONTINUOUS
 62
               4
100
AcDbLine
 10
-40.280000000000001
 20
0.8100000000000001
 30
0.0
 11
-39.5
 21
0.75
 31
0.0
  0
LINE
  5
141
100
AcDbEntity
  8
0
  6
CONTINUOUS
 62
               4
100
AcDbLine
 10
-40.280000000000001
 20
5.1799999999999997
 30
0.0
 11
-39.5
 21
5.25
 31
0.0
  0
LINE
  5
142
100
AcDbEntity
  8
0
  6
CONTINUOUS
 62
               4
100
AcDbLine
 10
-39.0
 20
19.0
 30
0.0
 11
-39.0
 21
-31.0
 31
0.0
  0
LINE
  5
143
100
AcDbEntity
  8
0
  6
CONTINUOUS
 62
               4
100
AcDbLine
 10
-39.5
 20
-12.75
 30
0.0
 11
-39.0
 21
-12.75
 31
0.0
  0
LINE
  5
144
100
AcDbEntity
  8
0
  6
CONTINUOUS
 62
               4
100
AcDbLine
 10
-39.5
 20
-17.25
 30
0.0
 11
-39.0
 21
-17.25
 31
0.0
  0
LINE
  5
145
100
AcDbEntity
  8
0
  6
CONTINUOUS
 62
               4
100
AcDbLine
 10
-39.5
 20
-17.25
 30
0.0
 11
-39.5
 21
-12.75
 31
0.0
  0
LINE
  5
146
100
AcDbEntity
  8
0
  6
CONTINUOUS
 62
               4
100
AcDbLine
 10
-40.280000000000001
 20
-17.18
 30
0.0
 11
-39.5
 21
-17.25
 31
0.0
  0
LINE
  5
147
100
AcDbEntity
  8
0
  6
CONTINUOUS
 62
               4
100
AcDbLine
 10
-40.280000000000001
 20
-12.81
 30
0.0
 11
-39.5
 21
-12.75
 31
0.0
  0
LINE
  5
148
100
AcDbEntity
  8
0
  6
CENTER
 62
               2
100
AcDbLine
 10
-4.0
 20
0.0
 30
0.0
 11
4.0
 21
0.0
 31
0.0
  0
LINE
  5
149
100
AcDbEntity
  8
0
  6
CONTINUOUS
 62
               7
100
AcDbLine
 10
-36.0
 20
25.0
 30
0.0
 11
-36.0
 21
-37.0
 31
0.0
  0
LINE
  5
14A
100
AcDbEntity
  8
0
  6
CONTINUOUS
 62
               7
100
AcDbLine
 10
-39.0
 20
8.0
 30
0.0
 11
-60.0
 21
8.0
 31
0.0
  0
LINE
  5
14B
100
AcDbEntity
  8
0
  6
CONTINUOUS
 62
               7
100
AcDbLine
 10
-39.0
 20
-20.0
 30
0.0
 11
-60.0
 21
-20.0
 31
0.0
  0
LINE
  5
14C
100
AcDbEntity
  8
0
  6
CONTINUOUS
 62
               7
100
AcDbLine
 10
-57.0
 20
-13.18
 30
0.0
 11
-57.0
 21
-16.809999999999999
 31
0.0
  0
LINE
  5
14D
100
AcDbEntity
  8
0
  6
CONTINUOUS
 62
               7
100
AcDbLine
 10
-57.0
 20
-16.809999999999999
 30
0.0
 11
-60.0
 21
-16.809999999999999
 31
0.0
  0
LINE
  5
14E
100
AcDbEntity
  8
0
  6
CONTINUOUS
 62
               7
100
AcDbLine
 10
-57.0
 20
-13.18
 30
0.0
 11
-60.0
 21
-13.18
 31
0.0
  0
LINE
  5
14F
100
AcDbEntity
  8
0
  6
CONTINUOUS
 62
               7
100
AcDbLine
 10
-36.0
 20
-37.0
 30
0.0
 11
-60.0
 21
-37.0
 31
0.0
  0
LINE
  5
150
100
AcDbEntity
  8
0
  6
CONTINUOUS
 62
               7
100
AcDbLine
 10
-60.0
 20
25.0
 30
0.0
 11
-60.0
 21
-37.0
 31
0.0
  0
LINE
  5
151
100
AcDbEntity
  8
0
  6
CONTINUOUS
 62
               7
100
AcDbLine
 10
-36.0
 20
25.0
 30
0.0
 11
-60.0
 21
25.0
 31
0.0
  0
LINE
  5
152
100
AcDbEntity
  8
0
  6
CONTINUOUS
 62
               4
100
AcDbLine
 10
-36.0
 20
50.200000000000003
 30
0.0
 11
-60.0
 21
50.200000000000003
 31
0.0
  0
LINE
  5
153
100
AcDbEntity
  8
0
  6
CONTINUOUS
 62
               4
100
AcDbLine
 10
-36.0
 20
51.200000000000003
 30
0.0
 11
-36.0
 21
25.0
 31
0.0
  0
LINE
  5
154
100
AcDbEntity
  8
0
  6
CONTINUOUS
 62
               4
100
AcDbLine
 10
-60.0
 20
51.200000000000003
 30
0.0
 11
-60.0
 21
25.0
 31
0.0
  0
LINE
  5
155
100
AcDbEntity
  8
0
  6
CONTINUOUS
 62
               4
100
AcDbLine
 10
-59.0
 20
53.200000000000003
 30
0.0
 11
-40.869999999999997
 21
53.200000000000003
 31
0.0
  0
LINE
  5
156
100
AcDbEntity
  8
0
  6
CONTINUOUS
 62
               4
100
AcDbLine
 10
-36.0
 20
51.200000000000003
 30
0.0
 11
-60.0
 21
51.200000000000003
 31
0.0
  0
LINE
  5
157
100
AcDbEntity
  8
0
  6
CONTINUOUS
 62
               4
100
AcDbLine
 10
-60.0
 20
51.200000000000003
 30
0.0
 11
-59.0
 21
53.200000000000003
 31
0.0
  0
LINE
  5
158
100
AcDbEntity
  8
0
  6
CONTINUOUS
 62
               4
100
AcDbLine
 10
-36.0
 20
51.200000000000003
 30
0.0
 11
-36.75
 21
52.700000000000003
 31
0.0
  0
LINE
  5
159
100
AcDbEntity
  8
0
  6
CONTINUOUS
 62
               4
100
AcDbLine
 10
-42.0
 20
53.200000000000003
 30
0.0
 11
-42.0
 21
51.200000000000003
 31
0.0
  0
LINE
  5
15A
100
AcDbEntity
  8
0
  6
CONTINUOUS
 62
               4
100
AcDbLine
 10
-36.450000000000003
 20
51.799999999999997
 30
0.0
 11
-41.549999999999997
 21
51.799999999999997
 31
0.0
  0
LINE
  5
15B
100
AcDbEntity
  8
0
  6
CONTINUOUS
 62
               4
100
AcDbLine
 10
-36.450000000000003
 20
51.799999999999997
 30
0.0
 11
-36.450000000000003
 21
51.200000000000003
 31
0.0
  0
LINE
  5
15C
100
AcDbEntity
  8
0
  6
CONTINUOUS
 62
               4
100
AcDbLine
 10
-41.549999999999997
 20
51.799999999999997
 30
0.0
 11
-41.549999999999997
 21
51.200000000000003
 31
0.0
  0
LINE
  5
15D
100
AcDbEntity
  8
0
  6
CONTINUOUS
 62
               4
100
AcDbLine
 10
-36.75
 20
53.060000000000002
 30
0.0
 11
-36.75
 21
51.799999999999997
 31
0.0
  0
LINE
  5
15E
100
AcDbEntity
  8
0
  6
CONTINUOUS
 62
               4
100
AcDbLine
 10
-41.25
 20
53.060000000000002
 30
0.0
 11
-41.25
 21
51.799999999999997
 31
0.0
  0
LINE
  5
15F
100
AcDbEntity
  8
0
  6
CONTINUOUS
 62
               4
100
AcDbLine
 10
-37.119999999999997
 20
53.200000000000003
 30
0.0
 11
-37.0
 21
53.200000000000003
 31
0.0
  0
LINE
  5
160
100
AcDbEntity
  8
0
  6
CONTINUOUS
 62
               4
100
AcDbLine
 10
-72.0
 20
43.850000000000001
 30
0.0
 11
-68.060000000000002
 21
43.850000000000001
 31
0.0
  0
LINE
  5
161
100
AcDbEntity
  8
0
  6
CONTINUOUS
 62
               4
100
AcDbLine
 10
-72.0
 20
42.149999999999999
 30
0.0
 11
-68.519999999999996
 21
42.149999999999999
 31
0.0
  0
LINE
  5
162
100
AcDbEntity
  8
0
  6
CONTINUOUS
 62
               4
100
AcDbLine
 10
-82.0
 20
43.32
 30
0.0
 11
-72.0
 21
43.32
 31
0.0
  0
LINE
  5
163
100
AcDbEntity
  8
0
  6
CONTINUOUS
 62
               4
100
AcDbLine
 10
-82.0
 20
42.68
 30
0.0
 11
-72.0
 21
42.68
 31
0.0
  0
LINE
  5
164
100
AcDbEntity
  8
0
  6
CONTINUOUS
 62
               4
100
AcDbLine
 10
-72.0
 20
42.149999999999999
 30
0.0
 11
-72.0
 21
43.850000000000001
 31
0.0
  0
LINE
  5
165
100
AcDbEntity
  8
0
  6
CONTINUOUS
 62
               4
100
AcDbLine
 10
-82.0
 20
42.68
 30
0.0
 11
-82.0
 21
43.32
 31
0.0
  0
LINE
  5
166
100
AcDbEntity
  8
0
  6
CONTINUOUS
 62
               4
100
AcDbLine
 10
-66.140000000000001
 20
43.850000000000001
 30
0.0
 11
-62.0
 21
43.850000000000001
 31
0.0
  0
LINE
  5
167
100
AcDbEntity
  8
0
  6
CONTINUOUS
 62
               4
100
AcDbLine
 10
-66.590000000000003
 20
42.149999999999999
 30
0.0
 11
-62.0
 21
42.149999999999999
 31
0.0
  0
LINE
  5
168
100
AcDbEntity
  8
0
  6
CONTINUOUS
 62
               4
100
AcDbLine
 10
-36.0
 20
-62.200000000000003
 30
0.0
 11
-60.0
 21
-62.200000000000003
 31
0.0
  0
LINE
  5
169
100
AcDbEntity
  8
0
  6
CONTINUOUS
 62
               4
100
AcDbLine
 10
-36.0
 20
-63.200000000000003
 30
0.0
 11
-36.0
 21
-37.0
 31
0.0
  0
LINE
  5
16A
100
AcDbEntity
  8
0
  6
CONTINUOUS
 62
               4
100
AcDbLine
 10
-60.0
 20
-63.200000000000003
 30
0.0
 11
-60.0
 21
-37.0
 31
0.0
  0
LINE
  5
16B
100
AcDbEntity
  8
0
  6
CONTINUOUS
 62
               4
100
AcDbLine
 10
-37.0
 20
-65.200000000000003
 30
0.0
 11
-55.119999999999997
 21
-65.200000000000003
 31
0.0
  0
LINE
  5
16C
100
AcDbEntity
  8
0
  6
CONTINUOUS
 62
               4
100
AcDbLine
 10
-36.0
 20
-63.200000000000003
 30
0.0
 11
-60.0
 21
-63.200000000000003
 31
0.0
  0
LINE
  5
16D
100
AcDbEntity
  8
0
  6
CONTINUOUS
 62
               4
100
AcDbLine
 10
-36.0
 20
-63.200000000000003
 30
0.0
 11
-37.0
 21
-65.200000000000003
 31
0.0
  0
LINE
  5
16E
100
AcDbEntity
  8
0
  6
CONTINUOUS
 62
               4
100
AcDbLine
 10
-60.0
 20
-63.200000000000003
 30
0.0
 11
-59.25
 21
-64.700000000000003
 31
0.0
  0
LINE
  5
16F
100
AcDbEntity
  8
0
  6
CONTINUOUS
 62
               4
100
AcDbLine
 10
-54.0
 20
-65.200000000000003
 30
0.0
 11
-54.0
 21
-63.200000000000003
 31
0.0
  0
LINE
  5
170
100
AcDbEntity
  8
0
  6
CONTINUOUS
 62
               4
100
AcDbLine
 10
-59.549999999999997
 20
-63.799999999999997
 30
0.0
 11
-54.450000000000003
 21
-63.799999999999997
 31
0.0
  0
LINE
  5
171
100
AcDbEntity
  8
0
  6
CONTINUOUS
 62
               4
100
AcDbLine
 10
-59.549999999999997
 20
-63.799999999999997
 30
0.0
 11
-59.549999999999997
 21
-63.200000000000003
 31
0.0
  0
LINE
  5
172
100
AcDbEntity
  8
0
  6
CONTINUOUS
 62
               4
100
AcDbLine
 10
-54.450000000000003
 20
-63.799999999999997
 30
0.0
 11
-54.450000000000003
 21
-63.200000000000003
 31
0.0
  0
LINE
  5
173
100
AcDbEntity
  8
0
  6
CONTINUOUS
 62
               4
100
AcDbLine
 10
-59.25
 20
-65.060000000000002
 30
0.0
 11
-59.25
 21
-63.799999999999997
 31
0.0
  0
LINE
  5
174
100
AcDbEntity
  8
0
  6
CONTINUOUS
 62
               4
100
AcDbLine
 10
-54.75
 20
-65.060000000000002
 30
0.0
 11
-54.75
 21
-63.799999999999997
 31
0.0
  0
LINE
  5
175
100
AcDbEntity
  8
0
  6
CONTINUOUS
 62
               4
100
AcDbLine
 10
-58.869999999999997
 20
-65.200000000000003
 30
0.0
 11
-59.0
 21
-65.200000000000003
 31
0.0
  0
LINE
  5
176
100
AcDbEntity
  8
0
  6
CONTINUOUS
 62
               4
100
AcDbLine
 10
-72.0
 20
-54.149999999999999
 30
0.0
 11
-68.060000000000002
 21
-54.149999999999999
 31
0.0
  0
LINE
  5
177
100
AcDbEntity
  8
0
  6
CONTINUOUS
 62
               4
100
AcDbLine
 10
-72.0
 20
-55.850000000000001
 30
0.0
 11
-68.519999999999996
 21
-55.850000000000001
 31
0.0
  0
LINE
  5
178
100
AcDbEntity
  8
0
  6
CONTINUOUS
 62
               4
100
AcDbLine
 10
-82.0
 20
-54.68
 30
0.0
 11
-72.0
 21
-54.68
 31
0.0
  0
LINE
  5
179
100
AcDbEntity
  8
0
  6
CONTINUOUS
 62
               4
100
AcDbLine
 10
-82.0
 20
-55.32
 30
0.0
 11
-72.0
 21
-55.32
 31
0.0
  0
LINE
  5
17A
100
AcDbEntity
  8
0
  6
CONTINUOUS
 62
               4
100
AcDbLine
 10
-72.0
 20
-55.850000000000001
 30
0.0
 11
-72.0
 21
-54.149999999999999
 31
0.0
  0
LINE
  5
17B
100
AcDbEntity
  8
0
  6
CONTINUOUS
 62
               4
100
AcDbLine
 10
-82.0
 20
-55.32
 30
0.0
 11
-82.0
 21
-54.68
 31
0.0
  0
LINE
  5
17C
100
AcDbEntity
  8
0
  6
CONTINUOUS
 62
               4
100
AcDbLine
 10
-66.590000000000003
 20
-55.850000000000001
 30
0.0
 11
-62.0
 21
-55.850000000000001
 31
0.0
  0
LINE
  5
17D
100
AcDbEntity
  8
0
  6
CONTINUOUS
 62
               4
100
AcDbLine
 10
-66.140000000000001
 20
-54.149999999999999
 30
0.0
 11
-62.0
 21
-54.149999999999999
 31
0.0
  0
LINE
  5
17E
100
AcDbEntity
  8
0
  6
CONTINUOUS
 62
             200
100
AcDbLine
 10
-69.019999999999996
 20
-57.710000000000001
 30
0.0
 11
-67.709999999999994
 21
-52.850000000000001
 31
0.0
  0
LINE
  5
17F
100
AcDbEntity
  8
0
  6
CONTINUOUS
 62
             200
100
AcDbLine
 10
-67.109999999999999
 20
-57.759999999999998
 30
0.0
 11
-65.730000000000004
 21
-52.640000000000001
 31
0.0
  0
LINE
  5
180
100
AcDbEntity
  8
0
  6
CONTINUOUS
 62
             200
100
AcDbLine
 10
-68.989999999999995
 20
40.380000000000003
 30
0.0
 11
-67.579999999999998
 21
45.659999999999997
 31
0.0
  0
LINE
  5
181
100
AcDbEntity
  8
0
  6
CONTINUOUS
 62
             200
100
AcDbLine
 10
-66.989999999999995
 20
40.670000000000002
 30
0.0
 11
-65.75
 21
45.289999999999999
 31
0.0
  0
LINE
  5
182
100
AcDbEntity
  8
0
  6
CONTINUOUS
 62
               4
100
AcDbLine
 10
-62.0
 20
-56.700000000000003
 30
0.0
 11
-60.0
 21
-56.700000000000003
 31
0.0
  0
LINE
  5
183
100
AcDbEntity
  8
0
  6
CONTINUOUS
 62
               4
100
AcDbLine
 10
-62.0
 20
-53.299999999999997
 30
0.0
 11
-62.0
 21
-56.700000000000003
 31
0.0
  0
LINE
  5
184
100
AcDbEntity
  8
0
  6
CONTINUOUS
 62
               4
100
AcDbLine
 10
-62.0
 20
-53.299999999999997
 30
0.0
 11
-60.0
 21
-53.299999999999997
 31
0.0
  0
LINE
  5
185
100
AcDbEntity
  8
0
  6
CONTINUOUS
 62
               4
100
AcDbLine
 10
-62.0
 20
41.299999999999997
 30
0.0
 11
-60.0
 21
41.299999999999997
 31
0.0
  0
LINE
  5
186
100
AcDbEntity
  8
0
  6
CONTINUOUS
 62
               4
100
AcDbLine
 10
-62.0
 20
44.700000000000003
 30
0.0
 11
-62.0
 21
41.299999999999997
 31
0.0
  0
LINE
  5
187
100
AcDbEntity
  8
0
  6
CONTINUOUS
 62
               4
100
AcDbLine
 10
-62.0
 20
44.700000000000003
 30
0.0
 11
-60.0
 21
44.700000000000003
 31
0.0
  0
LINE
  5
188
100
AcDbEntity
  8
0
  6
CONTINUOUS
 62
               4
100
AcDbLine
 10
-36.969999999999999
 20
53.140000000000001
 30
0.0
 11
-37.0
 21
53.200000000000003
 31
0.0
  0
LINE
  5
189
100
AcDbEntity
  8
0
  6
CONTINUOUS
 62
               4
100
AcDbLine
 10
-59.020000000000003
 20
-65.140000000000001
 30
0.0
 11
-59.0
 21
-65.200000000000003
 31
0.0
  0
LINE
  5
18A
100
AcDbEntity
  8
0
  6
CENTER
 62
               2
100
AcDbLine
 10
-48.0
 20
58.200000000000003
 30
0.0
 11
-48.0
 21
-70.200000000000003
 31
0.0
  0
ARC
  5
18B
100
AcDbEntity
  8
0
  6
CONTINUOUS
 62
               4
100
AcDbCircle
 10
-40.209930210912304
 20
-16.386612114641721
 30
0.0
 40
0.7964760586333244
100
AcDbArc
 50
194.79489995304499
 51
264.95289289136315
  0
ARC
  5
18C
100
AcDbEntity
  8
0
  6
CONTINUOUS
 62
               4
100
AcDbCircle
 10
-35.199996948242187
 20
-14.995000000000001
 30
0.0
 40
5.996037047778275
100
AcDbArc
 50
164.57308184875734
 51
195.42691815124181
  0
ARC
  5
18D
100
AcDbEntity
  8
0
  6
CONTINUOUS
 62
               4
100
AcDbCircle
 10
-35.199996948242187
 20
2.9950000000000001
 30
0.0
 40
5.996037047778275
100
AcDbArc
 50
164.57308184875734
 51
195.42691815124184
  0
ARC
  5
18E
100
AcDbEntity
  8
0
  6
CONTINUOUS
 62
               4
100
AcDbCircle
 10
-40.204959941109479
 20
1.6092848156328099
 30
0.0
 40
0.8027996181734687
100
AcDbArc
 50
195.111228767223
 51
264.63656407718463
  0
CIRCLE
  5
18F
100
AcDbEntity
  8
0
  6
CONTINUOUS
 62
               2
100
AcDbCircle
 10
-13.0
 20
9.5
 30
0.0
 40
4.8639993667602539
  0
CIRCLE
  5
190
100
AcDbEntity
  8
0
  6
CONTINUOUS
 62
               2
100
AcDbCircle
 10
-15.0
 20
-8.0
 30
0.0
 40
4.8639993667602539
  0
CIRCLE
  5
191
100
AcDbEntity
  8
0
  6
CONTINUOUS
 62
               7
100
AcDbCircle
 10
-13.0
 20
9.5
 30
0.0
 40
4.2829999923706055
  0
CIRCLE
  5
192
100
AcDbEntity
  8
0
  6
CONTINUOUS
 62
               7
100
AcDbCircle
 10
-15.0
 20
-8.0
 30
0.0
 40
4.2829999923706055
  0
CIRCLE
  5
193
100
AcDbEntity
  8
0
  6
CONTINUOUS
 62
               2
100
AcDbCircle
 10
-29.5
 20
-25.0
 30
0.0
 40
2.5
  0
CIRCLE
  5
194
100
AcDbEntity
  8
0
  6
CONTINUOUS
 62
               7
100
AcDbCircle
 10
-29.5
 20
-25.0
 30
0.0
 40
2.0669994354248047
  0
CIRCLE
  5
195
100
AcDbEntity
  8
0
  6
CONTINUOUS
 62
               2
100
AcDbCircle
 10
-29.5
 20
13.0
 30
0.0
 40
2.5
  0
CIRCLE
  5
196
100
AcDbEntity
  8
0
  6
CONTINUOUS
 62
               7
100
AcDbCircle
 10
-29.5
 20
13.0
 30
0.0
 40
2.0669994354248047
  0
ARC
  5
197
100
AcDbEntity
  8
0
  6
CONTINUOUS
 62
               7
100
AcDbCircle
 10
-52.699935913085938
 20
-14.994999999999999
 30
0.0
 40
5.9915821680642658
100
AcDbArc
 50
162.36662987991079
 51
197.63337012008841
  0
ARC
  5
198
100
AcDbEntity
  8
0
  6
CONTINUOUS
 62
               4
100
AcDbCircle
 10
-40.209921053525491
 20
4.386601249945504
 30
0.0
 40
0.7964876868646574
100
AcDbArc
 50
95.047694538786104
 51
165.20451261680429
  0
ARC
  5
199
100
AcDbEntity
  8
0
  6
CONTINUOUS
 62
               4
100
AcDbCircle
 10
-40.204965110553218
 20
-13.609278682394482
 30
0.0
 40
0.8027930285973768
100
AcDbArc
 50
95.363109508249607
 51
164.88909764734075
  0
ARC
  5
19A
100
AcDbEntity
  8
0
  6
CONTINUOUS
 62
               4
100
AcDbCircle
 10
-39.0
 20
47.499969482421875
 30
0.0
 40
5.9980362916874794
100
AcDbArc
 50
67.968098905336589
 51
112.03190109466301
  0
ARC
  5
19B
100
AcDbEntity
  8
0
  6
CONTINUOUS
 62
               4
100
AcDbCircle
 10
-56.995000000000005
 20
47.499923706052776
 30
0.0
 40
5.9986751797453355
100
AcDbArc
 50
73.785846083413887
 51
106.21415391658566
  0
ARC
  5
19C
100
AcDbEntity
  8
0
  6
CONTINUOUS
 62
               4
100
AcDbCircle
 10
-58.450411671603611
 20
52.493529179008974
 30
0.0
 40
0.7973058092091018
100
AcDbArc
 50
105.98662355242128
 51
117.6161954202791
  0
ARC
  5
19D
100
AcDbEntity
  8
0
  6
CONTINUOUS
 62
               4
100
AcDbCircle
 10
-55.541008679638622
 20
52.489978300903395
 30
0.0
 40
0.8011106375246977
100
AcDbArc
 50
62.411516092783501
 51
73.985664934515327
  0
ARC
  5
19E
100
AcDbEntity
  8
0
  6
CONTINUOUS
 62
               4
100
AcDbCircle
 10
-57.0
 20
-59.500030517578125
 30
0.0
 40
5.9979797136588084
100
AcDbArc
 50
247.96788019408277
 51
292.03211980591601
  0
ARC
  5
19F
100
AcDbEntity
  8
0
  6
CONTINUOUS
 62
               4
100
AcDbCircle
 10
-38.994999999999997
 20
-59.499969482419985
 30
0.0
 40
6.0004977211347637
100
AcDbArc
 50
251.79160658394596
 51
288.20839341605284
  0
ENDBLK
  5
1A0
100
AcDbEntity
  8
0
100
AcDbBlockEnd
  0
BLOCK
  5
1A1
100
AcDbEntity
  8
0
100
AcDbBlockBegin
  2
MS_3
 70
               0
 10
0.0
 20
0.0
 30
0.0
  3
MS_3
  1

  0
LINE
  5
1A2
100
AcDbEntity
  8
0
  6
CONTINUOUS
 62
               7
100
AcDbLine
 10
-3.5
 20
-35.0
 30
0.0
 11
-3.5
 21
0.0
 31
0.0
  0
LINE
  5
1A3
100
AcDbEntity
  8
0
  6
CONTINUOUS
 62
               7
100
AcDbLine
 10
76.5
 20
-35.0
 30
0.0
 11
76.5
 21
0.0
 31
0.0
  0
LINE
  5
1A4
100
AcDbEntity
  8
0
  6
CONTINUOUS
 62
               7
100
AcDbLine
 10
5.5
 20
-35.0
 30
0.0
 11
5.5
 21
-36.0
 31
0.0
  0
LINE
  5
1A5
100
AcDbEntity
  8
0
  6
CONTINUOUS
 62
               7
100
AcDbLine
 10
19.5
 20
-35.0
 30
0.0
 11
19.5
 21
-36.0
 31
0.0
  0
LINE
  5
1A6
100
AcDbEntity
  8
0
  6
CONTINUOUS
 62
               7
100
AcDbLine
 10
21.5
 20
-35.0
 30
0.0
 11
21.5
 21
-36.0
 31
0.0
  0
LINE
  5
1A7
100
AcDbEntity
  8
0
  6
CONTINUOUS
 62
               7
100
AcDbLine
 10
35.5
 20
-35.0
 30
0.0
 11
35.5
 21
-36.0
 31
0.0
  0
LINE
  5
1A8
100
AcDbEntity
  8
0
  6
CONTINUOUS
 62
               7
100
AcDbLine
 10
37.5
 20
-36.0
 30
0.0
 11
37.5
 21
-35.0
 31
0.0
  0
LINE
  5
1A9
100
AcDbEntity
  8
0
  6
CONTINUOUS
 62
               7
100
AcDbLine
 10
51.5
 20
-36.0
 30
0.0
 11
51.5
 21
-35.0
 31
0.0
  0
LINE
  5
1AA
100
AcDbEntity
  8
0
  6
CONTINUOUS
 62
               7
100
AcDbLine
 10
53.5
 20
-36.0
 30
0.0
 11
53.5
 21
-35.0
 31
0.0
  0
LINE
  5
1AB
100
AcDbEntity
  8
0
  6
CONTINUOUS
 62
               7
100
AcDbLine
 10
67.5
 20
-36.060000000000002
 30
0.0
 11
67.5
 21
-35.0
 31
0.0
  0
LINE
  5
1AC
100
AcDbEntity
  8
0
  6
CONTINUOUS
 62
               7
100
AcDbLine
 10
-3.5
 20
0.0
 30
0.0
 11
76.5
 21
0.0
 31
0.0
  0
LINE
  5
1AD
100
AcDbEntity
  8
0
  6
CONTINUOUS
 62
               7
100
AcDbLine
 10
-3.5
 20
-35.0
 30
0.0
 11
76.5
 21
-35.0
 31
0.0
  0
LINE
  5
1AE
100
AcDbEntity
  8
0
  6
CENTER
 62
               2
100
AcDbLine
 10
73.0
 20
4.0
 30
0.0
 11
73.0
 21
-4.0
 31
0.0
  0
LINE
  5
1AF
100
AcDbEntity
  8
0
  6
CENTER
 62
               2
100
AcDbLine
 10
0.0
 20
4.0
 30
0.0
 11
0.0
 21
-4.0
 31
0.0
  0
LINE
  5
1B0
100
AcDbEntity
  8
0
  6
CENTER
 62
               2
100
AcDbLine
 10
12.5
 20
-31.0
 30
0.0
 11
12.5
 21
-88.549999999999997
 31
0.0
  0
LINE
  5
1B1
100
AcDbEntity
  8
0
  6
CENTER
 62
               2
100
AcDbLine
 10
28.5
 20
-31.0
 30
0.0
 11
28.5
 21
-88.549999999999997
 31
0.0
  0
LINE
  5
1B2
100
AcDbEntity
  8
0
  6
CENTER
 62
               2
100
AcDbLine
 10
44.5
 20
-31.0
 30
0.0
 11
44.5
 21
-88.549999999999997
 31
0.0
  0
LINE
  5
1B3
100
AcDbEntity
  8
0
  6
CENTER
 62
               2
100
AcDbLine
 10
60.5
 20
-31.0
 30
0.0
 11
60.5
 21
-46.0
 31
0.0
  0
LINE
  5
1B4
100
AcDbEntity
  8
0
  6
CONTINUOUS
 62
               4
100
AcDbLine
 10
53.0
 20
-39.0
 30
0.0
 11
53.0
 21
-36.0
 31
0.0
  0
LINE
  5
1B5
100
AcDbEntity
  8
0
  6
CONTINUOUS
 62
               4
100
AcDbLine
 10
68.0
 20
-39.0
 30
0.0
 11
68.0
 21
-36.0
 31
0.0
  0
LINE
  5
1B6
100
AcDbEntity
  8
0
  6
CONTINUOUS
 62
               4
100
AcDbLine
 10
52.75
 20
-39.0
 30
0.0
 11
68.25
 21
-39.0
 31
0.0
  0
LINE
  5
1B7
100
AcDbEntity
  8
0
  6
CONTINUOUS
 62
               4
100
AcDbLine
 10
57.18
 20
-40.280000000000001
 30
0.0
 11
57.25
 21
-39.5
 31
0.0
  0
LINE
  5
1B8
100
AcDbEntity
  8
0
  6
CONTINUOUS
 62
               4
100
AcDbLine
 10
52.810000000000002
 20
-40.280000000000001
 30
0.0
 11
52.75
 21
-39.5
 31
0.0
  0
LINE
  5
1B9
100
AcDbEntity
  8
0
  6
CONTINUOUS
 62
               4
100
AcDbLine
 10
52.75
 20
-39.5
 30
0.0
 11
57.25
 21
-39.5
 31
0.0
  0
LINE
  5
1BA
100
AcDbEntity
  8
0
  6
CONTINUOUS
 62
               4
100
AcDbLine
 10
68.180000000000007
 20
-40.280000000000001
 30
0.0
 11
68.25
 21
-39.5
 31
0.0
  0
LINE
  5
1BB
100
AcDbEntity
  8
0
  6
CONTINUOUS
 62
               4
100
AcDbLine
 10
63.810000000000002
 20
-40.280000000000001
 30
0.0
 11
63.75
 21
-39.5
 31
0.0
  0
LINE
  5
1BC
100
AcDbEntity
  8
0
  6
CONTINUOUS
 62
               4
100
AcDbLine
 10
68.25
 20
-39.5
 30
0.0
 11
63.75
 21
-39.5
 31
0.0
  0
LINE
  5
1BD
100
AcDbEntity
  8
0
  6
CONTINUOUS
 62
               4
100
AcDbLine
 10
52.75
 20
-39.5
 30
0.0
 11
52.75
 21
-39.0
 31
0.0
  0
LINE
  5
1BE
100
AcDbEntity
  8
0
  6
CONTINUOUS
 62
               4
100
AcDbLine
 10
63.75
 20
-39.5
 30
0.0
 11
63.75
 21
-39.0
 31
0.0
  0
LINE
  5
1BF
100
AcDbEntity
  8
0
  6
CONTINUOUS
 62
               4
100
AcDbLine
 10
57.25
 20
-39.5
 30
0.0
 11
57.25
 21
-39.0
 31
0.0
  0
LINE
  5
1C0
100
AcDbEntity
  8
0
  6
CONTINUOUS
 62
               4
100
AcDbLine
 10
68.25
 20
-39.5
 30
0.0
 11
68.25
 21
-39.0
 31
0.0
  0
LINE
  5
1C1
100
AcDbEntity
  8
0
  6
CONTINUOUS
 62
               4
100
AcDbLine
 10
53.0
 20
-36.0
 30
0.0
 11
68.0
 21
-36.0
 31
0.0
  0
LINE
  5
1C2
100
AcDbEntity
  8
0
  6
CONTINUOUS
 62
               4
100
AcDbLine
 10
12.050000000000001
 20
-72.0
 30
0.0
 11
12.050000000000001
 21
-67.650000000000006
 31
0.0
  0
LINE
  5
1C3
100
AcDbEntity
  8
0
  6
CONTINUOUS
 62
               4
100
AcDbLine
 10
10.35
 20
-72.0
 30
0.0
 11
10.35
 21
-67.200000000000003
 31
0.0
  0
LINE
  5
1C4
100
AcDbEntity
  8
0
  6
CONTINUOUS
 62
               4
100
AcDbLine
 10
11.52
 20
-82.0
 30
0.0
 11
11.52
 21
-72.0
 31
0.0
  0
LINE
  5
1C5
100
AcDbEntity
  8
0
  6
CONTINUOUS
 62
               4
100
AcDbLine
 10
10.880000000000001
 20
-82.0
 30
0.0
 11
10.880000000000001
 21
-72.0
 31
0.0
  0
LINE
  5
1C6
100
AcDbEntity
  8
0
  6
CONTINUOUS
 62
               4
100
AcDbLine
 10
10.35
 20
-72.0
 30
0.0
 11
12.050000000000001
 21
-72.0
 31
0.0
  0
LINE
  5
1C7
100
AcDbEntity
  8
0
  6
CONTINUOUS
 62
               4
100
AcDbLine
 10
10.880000000000001
 20
-82.0
 30
0.0
 11
11.52
 21
-82.0
 31
0.0
  0
LINE
  5
1C8
100
AcDbEntity
  8
0
  6
CONTINUOUS
 62
               4
100
AcDbLine
 10
14.65
 20
-72.0
 30
0.0
 11
14.65
 21
-68.349999999999994
 31
0.0
  0
LINE
  5
1C9
100
AcDbEntity
  8
0
  6
CONTINUOUS
 62
               4
100
AcDbLine
 10
12.949999999999999
 20
-72.0
 30
0.0
 11
12.949999999999999
 21
-67.890000000000001
 31
0.0
  0
LINE
  5
1CA
100
AcDbEntity
  8
0
  6
CONTINUOUS
 62
               4
100
AcDbLine
 10
14.119999999999999
 20
-82.0
 30
0.0
 11
14.119999999999999
 21
-72.0
 31
0.0
  0
LINE
  5
1CB
100
AcDbEntity
  8
0
  6
CONTINUOUS
 62
               4
100
AcDbLine
 10
13.48
 20
-82.0
 30
0.0
 11
13.48
 21
-72.0
 31
0.0
  0
LINE
  5
1CC
100
AcDbEntity
  8
0
  6
CONTINUOUS
 62
               4
100
AcDbLine
 10
12.949999999999999
 20
-72.0
 30
0.0
 11
14.65
 21
-72.0
 31
0.0
  0
LINE
  5
1CD
100
AcDbEntity
  8
0
  6
CONTINUOUS
 62
               4
100
AcDbLine
 10
13.48
 20
-82.0
 30
0.0
 11
14.119999999999999
 21
-82.0
 31
0.0
  0
LINE
  5
1CE
100
AcDbEntity
  8
0
  6
CONTINUOUS
 62
             200
100
AcDbLine
 10
16.649999999999999
 20
-67.329999999999998
 30
0.0
 11
8.3499999999999996
 21
-65.109999999999999
 31
0.0
  0
LINE
  5
1CF
100
AcDbEntity
  8
0
  6
CONTINUOUS
 62
             200
100
AcDbLine
 10
16.649999999999999
 20
-68.879999999999995
 30
0.0
 11
8.3499999999999996
 21
-66.659999999999997
 31
0.0
  0
LINE
  5
1D0
100
AcDbEntity
  8
0
  6
CONTINUOUS
 62
               4
100
AcDbLine
 10
14.65
 20
-66.799999999999997
 30
0.0
 11
14.65
 21
-62.0
 31
0.0
  0
LINE
  5
1D1
100
AcDbEntity
  8
0
  6
CONTINUOUS
 62
               4
100
AcDbLine
 10
12.949999999999999
 20
-66.340000000000003
 30
0.0
 11
12.949999999999999
 21
-62.0
 31
0.0
  0
LINE
  5
1D2
100
AcDbEntity
  8
0
  6
CONTINUOUS
 62
               4
100
AcDbLine
 10
12.050000000000001
 20
-66.099999999999994
 30
0.0
 11
12.050000000000001
 21
-62.0
 31
0.0
  0
LINE
  5
1D3
100
AcDbEntity
  8
0
  6
CONTINUOUS
 62
               4
100
AcDbLine
 10
10.35
 20
-65.640000000000001
 30
0.0
 11
10.35
 21
-62.0
 31
0.0
  0
LINE
  5
1D4
100
AcDbEntity
  8
0
  6
CONTINUOUS
 62
               4
100
AcDbLine
 10
15.5
 20
-60.0
 30
0.0
 11
15.5
 21
-62.0
 31
0.0
  0
LINE
  5
1D5
100
AcDbEntity
  8
0
  6
CONTINUOUS
 62
               4
100
AcDbLine
 10
15.5
 20
-62.0
 30
0.0
 11
9.5
 21
-62.0
 31
0.0
  0
LINE
  5
1D6
100
AcDbEntity
  8
0
  6
CONTINUOUS
 62
               4
100
AcDbLine
 10
9.5
 20
-60.0
 30
0.0
 11
9.5
 21
-62.0
 31
0.0
  0
LINE
  5
1D7
100
AcDbEntity
  8
0
  6
CONTINUOUS
 62
               4
100
AcDbLine
 10
11.0
 20
-57.0
 30
0.0
 11
11.0
 21
-60.0
 31
0.0
  0
LINE
  5
1D8
100
AcDbEntity
  8
0
  6
CONTINUOUS
 62
               4
100
AcDbLine
 10
14.0
 20
-39.0
 30
0.0
 11
14.0
 21
-36.0
 31
0.0
  0
LINE
  5
1D9
100
AcDbEntity
  8
0
  6
CONTINUOUS
 62
               4
100
AcDbLine
 10
17.0
 20
-42.0
 30
0.0
 11
20.0
 21
-42.0
 31
0.0
  0
LINE
  5
1DA
100
AcDbEntity
  8
0
  6
CONTINUOUS
 62
               4
100
AcDbLine
 10
8.0
 20
-54.0
 30
0.0
 11
5.0
 21
-54.0
 31
0.0
  0
LINE
  5
1DB
100
AcDbEntity
  8
0
  6
CONTINUOUS
 62
               4
100
AcDbLine
 10
14.0
 20
-37.0
 30
0.0
 11
6.0
 21
-37.0
 31
0.0
  0
LINE
  5
1DC
100
AcDbEntity
  8
0
  6
CONTINUOUS
 62
               4
100
AcDbLine
 10
19.0
 20
-59.0
 30
0.0
 11
11.0
 21
-59.0
 31
0.0
  0
LINE
  5
1DD
100
AcDbEntity
  8
0
  6
CONTINUOUS
 62
               4
100
AcDbLine
 10
19.0
 20
-42.0
 30
0.0
 11
19.0
 21
-59.0
 31
0.0
  0
LINE
  5
1DE
100
AcDbEntity
  8
0
  6
CONTINUOUS
 62
               4
100
AcDbLine
 10
6.0
 20
-37.0
 30
0.0
 11
6.0
 21
-54.0
 31
0.0
  0
LINE
  5
1DF
100
AcDbEntity
  8
0
  6
CONTINUOUS
 62
               4
100
AcDbLine
 10
20.0
 20
-36.0
 30
0.0
 11
5.0
 21
-36.0
 31
0.0
  0
LINE
  5
1E0
100
AcDbEntity
  8
0
  6
CONTINUOUS
 62
               4
100
AcDbLine
 10
20.0
 20
-36.0
 30
0.0
 11
20.0
 21
-60.0
 31
0.0
  0
LINE
  5
1E1
100
AcDbEntity
  8
0
  6
CONTINUOUS
 62
               4
100
AcDbLine
 10
5.0
 20
-36.0
 30
0.0
 11
5.0
 21
-60.0
 31
0.0
  0
LINE
  5
1E2
100
AcDbEntity
  8
0
  6
CONTINUOUS
 62
               4
100
AcDbLine
 10
20.0
 20
-60.0
 30
0.0
 11
5.0
 21
-60.0
 31
0.0
  0
LINE
  5
1E3
100
AcDbEntity
  8
0
  6
CONTINUOUS
 62
               4
100
AcDbLine
 10
16.079999999999998
 20
-39.909999999999997
 30
0.0
 11
17.91
 21
-38.079999999999998
 31
0.0
  0
LINE
  5
1E4
100
AcDbEntity
  8
0
  6
CONTINUOUS
 62
               4
100
AcDbLine
 10
16.079999999999998
 20
-38.079999999999998
 30
0.0
 11
17.91
 21
-39.909999999999997
 31
0.0
  0
LINE
  5
1E5
100
AcDbEntity
  8
0
  6
CONTINUOUS
 62
               4
100
AcDbLine
 10
7.0800000000000001
 20
-56.079999999999998
 30
0.0
 11
8.9100000000000001
 21
-57.909999999999997
 31
0.0
  0
LINE
  5
1E6
100
AcDbEntity
  8
0
  6
CONTINUOUS
 62
               4
100
AcDbLine
 10
8.9100000000000001
 20
-56.079999999999998
 30
0.0
 11
7.0800000000000001
 21
-57.909999999999997
 31
0.0
  0
LINE
  5
1E7
100
AcDbEntity
  8
0
  6
CONTINUOUS
 62
               4
100
AcDbLine
 10
28.050000000000001
 20
-72.0
 30
0.0
 11
28.050000000000001
 21
-67.650000000000006
 31
0.0
  0
LINE
  5
1E8
100
AcDbEntity
  8
0
  6
CONTINUOUS
 62
               4
100
AcDbLine
 10
26.350000000000001
 20
-72.0
 30
0.0
 11
26.350000000000001
 21
-67.200000000000003
 31
0.0
  0
LINE
  5
1E9
100
AcDbEntity
  8
0
  6
CONTINUOUS
 62
               4
100
AcDbLine
 10
27.52
 20
-82.0
 30
0.0
 11
27.52
 21
-72.0
 31
0.0
  0
LINE
  5
1EA
100
AcDbEntity
  8
0
  6
CONTINUOUS
 62
               4
100
AcDbLine
 10
26.879999999999999
 20
-82.0
 30
0.0
 11
26.879999999999999
 21
-72.0
 31
0.0
  0
LINE
  5
1EB
100
AcDbEntity
  8
0
  6
CONTINUOUS
 62
               4
100
AcDbLine
 10
26.350000000000001
 20
-72.0
 30
0.0
 11
28.050000000000001
 21
-72.0
 31
0.0
  0
LINE
  5
1EC
100
AcDbEntity
  8
0
  6
CONTINUOUS
 62
               4
100
AcDbLine
 10
26.879999999999999
 20
-82.0
 30
0.0
 11
27.52
 21
-82.0
 31
0.0
  0
LINE
  5
1ED
100
AcDbEntity
  8
0
  6
CONTINUOUS
 62
               4
100
AcDbLine
 10
30.649999999999999
 20
-72.0
 30
0.0
 11
30.649999999999999
 21
-68.349999999999994
 31
0.0
  0
LINE
  5
1EE
100
AcDbEntity
  8
0
  6
CONTINUOUS
 62
               4
100
AcDbLine
 10
28.949999999999999
 20
-72.0
 30
0.0
 11
28.949999999999999
 21
-67.890000000000001
 31
0.0
  0
LINE
  5
1EF
100
AcDbEntity
  8
0
  6
CONTINUOUS
 62
               4
100
AcDbLine
 10
30.120000000000001
 20
-82.0
 30
0.0
 11
30.120000000000001
 21
-72.0
 31
0.0
  0
LINE
  5
1F0
100
AcDbEntity
  8
0
  6
CONTINUOUS
 62
               4
100
AcDbLine
 10
29.48
 20
-82.0
 30
0.0
 11
29.48
 21
-72.0
 31
0.0
  0
LINE
  5
1F1
100
AcDbEntity
  8
0
  6
CONTINUOUS
 62
               4
100
AcDbLine
 10
28.949999999999999
 20
-72.0
 30
0.0
 11
30.649999999999999
 21
-72.0
 31
0.0
  0
LINE
  5
1F2
100
AcDbEntity
  8
0
  6
CONTINUOUS
 62
               4
100
AcDbLine
 10
29.48
 20
-82.0
 30
0.0
 11
30.120000000000001
 21
-82.0
 31
0.0
  0
LINE
  5
1F3
100
AcDbEntity
  8
0
  6
CONTINUOUS
 62
             200
100
AcDbLine
 10
32.649999999999999
 20
-67.329999999999998
 30
0.0
 11
24.350000000000001
 21
-65.109999999999999
 31
0.0
  0
LINE
  5
1F4
100
AcDbEntity
  8
0
  6
CONTINUOUS
 62
             200
100
AcDbLine
 10
32.649999999999999
 20
-68.879999999999995
 30
0.0
 11
24.350000000000001
 21
-66.659999999999997
 31
0.0
  0
LINE
  5
1F5
100
AcDbEntity
  8
0
  6
CONTINUOUS
 62
               4
100
AcDbLine
 10
30.649999999999999
 20
-66.799999999999997
 30
0.0
 11
30.649999999999999
 21
-62.0
 31
0.0
  0
LINE
  5
1F6
100
AcDbEntity
  8
0
  6
CONTINUOUS
 62
               4
100
AcDbLine
 10
28.949999999999999
 20
-66.340000000000003
 30
0.0
 11
28.949999999999999
 21
-62.0
 31
0.0
  0
LINE
  5
1F7
100
AcDbEntity
  8
0
  6
CONTINUOUS
 62
               4
100
AcDbLine
 10
28.050000000000001
 20
-66.099999999999994
 30
0.0
 11
28.050000000000001
 21
-62.0
 31
0.0
  0
LINE
  5
1F8
100
AcDbEntity
  8
0
  6
CONTINUOUS
 62
               4
100
AcDbLine
 10
26.350000000000001
 20
-65.640000000000001
 30
0.0
 11
26.350000000000001
 21
-62.0
 31
0.0
  0
LINE
  5
1F9
100
AcDbEntity
  8
0
  6
CONTINUOUS
 62
               4
100
AcDbLine
 10
31.5
 20
-60.0
 30
0.0
 11
31.5
 21
-62.0
 31
0.0
  0
LINE
  5
1FA
100
AcDbEntity
  8
0
  6
CONTINUOUS
 62
               4
100
AcDbLine
 10
31.5
 20
-62.0
 30
0.0
 11
25.5
 21
-62.0
 31
0.0
  0
LINE
  5
1FB
100
AcDbEntity
  8
0
  6
CONTINUOUS
 62
               4
100
AcDbLine
 10
25.5
 20
-60.0
 30
0.0
 11
25.5
 21
-62.0
 31
0.0
  0
LINE
  5
1FC
100
AcDbEntity
  8
0
  6
CONTINUOUS
 62
               4
100
AcDbLine
 10
27.0
 20
-57.0
 30
0.0
 11
27.0
 21
-60.0
 31
0.0
  0
LINE
  5
1FD
100
AcDbEntity
  8
0
  6
CONTINUOUS
 62
               4
100
AcDbLine
 10
30.0
 20
-39.0
 30
0.0
 11
30.0
 21
-36.0
 31
0.0
  0
LINE
  5
1FE
100
AcDbEntity
  8
0
  6
CONTINUOUS
 62
               4
100
AcDbLine
 10
33.0
 20
-42.0
 30
0.0
 11
36.0
 21
-42.0
 31
0.0
  0
LINE
  5
1FF
100
AcDbEntity
  8
0
  6
CONTINUOUS
 62
               4
100
AcDbLine
 10
24.0
 20
-54.0
 30
0.0
 11
21.0
 21
-54.0
 31
0.0
  0
LINE
  5
200
100
AcDbEntity
  8
0
  6
CONTINUOUS
 62
               4
100
AcDbLine
 10
30.0
 20
-37.0
 30
0.0
 11
22.0
 21
-37.0
 31
0.0
  0
LINE
  5
201
100
AcDbEntity
  8
0
  6
CONTINUOUS
 62
               4
100
AcDbLine
 10
35.0
 20
-59.0
 30
0.0
 11
27.0
 21
-59.0
 31
0.0
  0
LINE
  5
202
100
AcDbEntity
  8
0
  6
CONTINUOUS
 62
               4
100
AcDbLine
 10
35.0
 20
-42.0
 30
0.0
 11
35.0
 21
-59.0
 31
0.0
  0
LINE
  5
203
100
AcDbEntity
  8
0
  6
CONTINUOUS
 62
               4
100
AcDbLine
 10
22.0
 20
-37.0
 30
0.0
 11
22.0
 21
-54.0
 31
0.0
  0
LINE
  5
204
100
AcDbEntity
  8
0
  6
CONTINUOUS
 62
               4
100
AcDbLine
 10
36.0
 20
-36.0
 30
0.0
 11
21.0
 21
-36.0
 31
0.0
  0
LINE
  5
205
100
AcDbEntity
  8
0
  6
CONTINUOUS
 62
               4
100
AcDbLine
 10
36.0
 20
-36.0
 30
0.0
 11
36.0
 21
-60.0
 31
0.0
  0
LINE
  5
206
100
AcDbEntity
  8
0
  6
CONTINUOUS
 62
               4
100
AcDbLine
 10
21.0
 20
-36.0
 30
0.0
 11
21.0
 21
-60.0
 31
0.0
  0
LINE
  5
207
100
AcDbEntity
  8
0
  6
CONTINUOUS
 62
               4
100
AcDbLine
 10
36.0
 20
-60.0
 30
0.0
 11
21.0
 21
-60.0
 31
0.0
  0
LINE
  5
208
100
AcDbEntity
  8
0
  6
CONTINUOUS
 62
               4
100
AcDbLine
 10
32.079999999999998
 20
-39.909999999999997
 30
0.0
 11
33.909999999999997
 21
-38.079999999999998
 31
0.0
  0
LINE
  5
209
100
AcDbEntity
  8
0
  6
CONTINUOUS
 62
               4
100
AcDbLine
 10
32.079999999999998
 20
-38.079999999999998
 30
0.0
 11
33.909999999999997
 21
-39.909999999999997
 31
0.0
  0
LINE
  5
20A
100
AcDbEntity
  8
0
  6
CONTINUOUS
 62
               4
100
AcDbLine
 10
23.079999999999998
 20
-56.079999999999998
 30
0.0
 11
24.91
 21
-57.909999999999997
 31
0.0
  0
LINE
  5
20B
100
AcDbEntity
  8
0
  6
CONTINUOUS
 62
               4
100
AcDbLine
 10
24.91
 20
-56.079999999999998
 30
0.0
 11
23.079999999999998
 21
-57.909999999999997
 31
0.0
  0
LINE
  5
20C
100
AcDbEntity
  8
0
  6
CONTINUOUS
 62
               4
100
AcDbLine
 10
44.049999999999997
 20
-72.0
 30
0.0
 11
44.049999999999997
 21
-67.650000000000006
 31
0.0
  0
LINE
  5
20D
100
AcDbEntity
  8
0
  6
CONTINUOUS
 62
               4
100
AcDbLine
 10
42.350000000000001
 20
-72.0
 30
0.0
 11
42.350000000000001
 21
-67.200000000000003
 31
0.0
  0
LINE
  5
20E
100
AcDbEntity
  8
0
  6
CONTINUOUS
 62
               4
100
AcDbLine
 10
43.520000000000003
 20
-82.0
 30
0.0
 11
43.520000000000003
 21
-72.0
 31
0.0
  0
LINE
  5
20F
100
AcDbEntity
  8
0
  6
CONTINUOUS
 62
               4
100
AcDbLine
 10
42.880000000000003
 20
-82.0
 30
0.0
 11
42.880000000000003
 21
-72.0
 31
0.0
  0
LINE
  5
210
100
AcDbEntity
  8
0
  6
CONTINUOUS
 62
               4
100
AcDbLine
 10
42.350000000000001
 20
-72.0
 30
0.0
 11
44.049999999999997
 21
-72.0
 31
0.0
  0
LINE
  5
211
100
AcDbEntity
  8
0
  6
CONTINUOUS
 62
               4
100
AcDbLine
 10
42.880000000000003
 20
-82.0
 30
0.0
 11
43.520000000000003
 21
-82.0
 31
0.0
  0
LINE
  5
212
100
AcDbEntity
  8
0
  6
CONTINUOUS
 62
               4
100
AcDbLine
 10
46.649999999999999
 20
-72.0
 30
0.0
 11
46.649999999999999
 21
-68.349999999999994
 31
0.0
  0
LINE
  5
213
100
AcDbEntity
  8
0
  6
CONTINUOUS
 62
               4
100
AcDbLine
 10
44.950000000000003
 20
-72.0
 30
0.0
 11
44.950000000000003
 21
-67.890000000000001
 31
0.0
  0
LINE
  5
214
100
AcDbEntity
  8
0
  6
CONTINUOUS
 62
               4
100
AcDbLine
 10
46.119999999999997
 20
-82.0
 30
0.0
 11
46.119999999999997
 21
-72.0
 31
0.0
  0
LINE
  5
215
100
AcDbEntity
  8
0
  6
CONTINUOUS
 62
               4
100
AcDbLine
 10
45.479999999999997
 20
-82.0
 30
0.0
 11
45.479999999999997
 21
-72.0
 31
0.0
  0
LINE
  5
216
100
AcDbEntity
  8
0
  6
CONTINUOUS
 62
               4
100
AcDbLine
 10
44.950000000000003
 20
-72.0
 30
0.0
 11
46.649999999999999
 21
-72.0
 31
0.0
  0
LINE
  5
217
100
AcDbEntity
  8
0
  6
CONTINUOUS
 62
               4
100
AcDbLine
 10
45.479999999999997
 20
-82.0
 30
0.0
 11
46.119999999999997
 21
-82.0
 31
0.0
  0
LINE
  5
218
100
AcDbEntity
  8
0
  6
CONTINUOUS
 62
             200
100
AcDbLine
 10
48.649999999999999
 20
-67.329999999999998
 30
0.0
 11
40.350000000000001
 21
-65.109999999999999
 31
0.0
  0
LINE
  5
219
100
AcDbEntity
  8
0
  6
CONTINUOUS
 62
             200
100
AcDbLine
 10
48.649999999999999
 20
-68.879999999999995
 30
0.0
 11
40.350000000000001
 21
-66.659999999999997
 31
0.0
  0
LINE
  5
21A
100
AcDbEntity
  8
0
  6
CONTINUOUS
 62
               4
100
AcDbLine
 10
46.649999999999999
 20
-66.799999999999997
 30
0.0
 11
46.649999999999999
 21
-62.0
 31
0.0
  0
LINE
  5
21B
100
AcDbEntity
  8
0
  6
CONTINUOUS
 62
               4
100
AcDbLine
 10
44.950000000000003
 20
-66.340000000000003
 30
0.0
 11
44.950000000000003
 21
-62.0
 31
0.0
  0
LINE
  5
21C
100
AcDbEntity
  8
0
  6
CONTINUOUS
 62
               4
100
AcDbLine
 10
44.049999999999997
 20
-66.099999999999994
 30
0.0
 11
44.049999999999997
 21
-62.0
 31
0.0
  0
LINE
  5
21D
100
AcDbEntity
  8
0
  6
CONTINUOUS
 62
               4
100
AcDbLine
 10
42.350000000000001
 20
-65.640000000000001
 30
0.0
 11
42.350000000000001
 21
-62.0
 31
0.0
  0
LINE
  5
21E
100
AcDbEntity
  8
0
  6
CONTINUOUS
 62
               4
100
AcDbLine
 10
47.5
 20
-60.0
 30
0.0
 11
47.5
 21
-62.0
 31
0.0
  0
LINE
  5
21F
100
AcDbEntity
  8
0
  6
CONTINUOUS
 62
               4
100
AcDbLine
 10
47.5
 20
-62.0
 30
0.0
 11
41.5
 21
-62.0
 31
0.0
  0
LINE
  5
220
100
AcDbEntity
  8
0
  6
CONTINUOUS
 62
               4
100
AcDbLine
 10
41.5
 20
-60.0
 30
0.0
 11
41.5
 21
-62.0
 31
0.0
  0
LINE
  5
221
100
AcDbEntity
  8
0
  6
CONTINUOUS
 62
               4
100
AcDbLine
 10
43.0
 20
-57.0
 30
0.0
 11
43.0
 21
-60.0
 31
0.0
  0
LINE
  5
222
100
AcDbEntity
  8
0
  6
CONTINUOUS
 62
               4
100
AcDbLine
 10
46.0
 20
-39.0
 30
0.0
 11
46.0
 21
-36.0
 31
0.0
  0
LINE
  5
223
100
AcDbEntity
  8
0
  6
CONTINUOUS
 62
               4
100
AcDbLine
 10
49.0
 20
-42.0
 30
0.0
 11
52.0
 21
-42.0
 31
0.0
  0
LINE
  5
224
100
AcDbEntity
  8
0
  6
CONTINUOUS
 62
               4
100
AcDbLine
 10
40.0
 20
-54.0
 30
0.0
 11
37.0
 21
-54.0
 31
0.0
  0
LINE
  5
225
100
AcDbEntity
  8
0
  6
CONTINUOUS
 62
               4
100
AcDbLine
 10
46.0
 20
-37.0
 30
0.0
 11
38.0
 21
-37.0
 31
0.0
  0
LINE
  5
226
100
AcDbEntity
  8
0
  6
CONTINUOUS
 62
               4
100
AcDbLine
 10
51.0
 20
-59.0
 30
0.0
 11
43.0
 21
-59.0
 31
0.0
  0
LINE
  5
227
100
AcDbEntity
  8
0
  6
CONTINUOUS
 62
               4
100
AcDbLine
 10
51.0
 20
-42.0
 30
0.0
 11
51.0
 21
-59.0
 31
0.0
  0
LINE
  5
228
100
AcDbEntity
  8
0
  6
CONTINUOUS
 62
               4
100
AcDbLine
 10
38.0
 20
-37.0
 30
0.0
 11
38.0
 21
-54.0
 31
0.0
  0
LINE
  5
229
100
AcDbEntity
  8
0
  6
CONTINUOUS
 62
               4
100
AcDbLine
 10
52.0
 20
-36.0
 30
0.0
 11
37.0
 21
-36.0
 31
0.0
  0
LINE
  5
22A
100
AcDbEntity
  8
0
  6
CONTINUOUS
 62
               4
100
AcDbLine
 10
52.0
 20
-36.0
 30
0.0
 11
52.0
 21
-60.0
 31
0.0
  0
LINE
  5
22B
100
AcDbEntity
  8
0
  6
CONTINUOUS
 62
               4
100
AcDbLine
 10
37.0
 20
-36.0
 30
0.0
 11
37.0
 21
-60.0
 31
0.0
  0
LINE
  5
22C
100
AcDbEntity
  8
0
  6
CONTINUOUS
 62
               4
100
AcDbLine
 10
52.0
 20
-60.0
 30
0.0
 11
37.0
 21
-60.0
 31
0.0
  0
LINE
  5
22D
100
AcDbEntity
  8
0
  6
CONTINUOUS
 62
               4
100
AcDbLine
 10
48.079999999999998
 20
-39.909999999999997
 30
0.0
 11
49.909999999999997
 21
-38.079999999999998
 31
0.0
  0
LINE
  5
22E
100
AcDbEntity
  8
0
  6
CONTINUOUS
 62
               4
100
AcDbLine
 10
48.079999999999998
 20
-38.079999999999998
 30
0.0
 11
49.909999999999997
 21
-39.909999999999997
 31
0.0
  0
LINE
  5
22F
100
AcDbEntity
  8
0
  6
CONTINUOUS
 62
               4
100
AcDbLine
 10
39.079999999999998
 20
-56.079999999999998
 30
0.0
 11
40.909999999999997
 21
-57.909999999999997
 31
0.0
  0
LINE
  5
230
100
AcDbEntity
  8
0
  6
CONTINUOUS
 62
               4
100
AcDbLine
 10
40.909999999999997
 20
-56.079999999999998
 30
0.0
 11
39.079999999999998
 21
-57.909999999999997
 31
0.0
  0
CIRCLE
  5
231
100
AcDbEntity
  8
0
  6
CONTINUOUS
 62
               4
100
AcDbCircle
 10
33.0
 20
-38.999969482421875
 30
0.0
 40
2.5500001907348633
  0
CIRCLE
  5
232
100
AcDbEntity
  8
0
  6
CONTINUOUS
 62
               4
100
AcDbCircle
 10
24.000045776367188
 20
-57.0
 30
0.0
 40
2.5500001907348633
  0
ARC
  5
233
100
AcDbEntity
  8
0
  6
CONTINUOUS
 62
               4
100
AcDbCircle
 10
33.000022888193293
 20
-38.999977111806707
 30
0.0
 40
3.0000228882806059
100
AcDbArc
 50
180.00043712895666
 51
269.99956287104231
  0
ARC
  5
234
100
AcDbEntity
  8
0
  6
CONTINUOUS
 62
               4
100
AcDbCircle
 10
24.000022888173891
 20
-56.999977111826105
 30
0.0
 40
2.9999771119134193
100
AcDbArc
 50
359.99956286474247
 51
90.000437135256448
  0
CIRCLE
  5
235
100
AcDbEntity
  8
0
  6
CONTINUOUS
 62
               4
100
AcDbCircle
 10
33.0
 20
-38.999969482421875
 30
0.0
 40
2.25
  0
CIRCLE
  5
236
100
AcDbEntity
  8
0
  6
CONTINUOUS
 62
               4
100
AcDbCircle
 10
24.000045776367188
 20
-57.0
 30
0.0
 40
2.25
  0
CIRCLE
  5
237
100
AcDbEntity
  8
0
  6
CONTINUOUS
 62
               4
100
AcDbCircle
 10
17.0
 20
-38.999969482421875
 30
0.0
 40
2.5500001907348633
  0
CIRCLE
  5
238
100
AcDbEntity
  8
0
  6
CONTINUOUS
 62
               4
100
AcDbCircle
 10
8.0000457763671875
 20
-57.0
 30
0.0
 40
2.5500001907348633
  0
ARC
  5
239
100
AcDbEntity
  8
0
  6
CONTINUOUS
 62
               4
100
AcDbCircle
 10
17.000022888193296
 20
-38.999977111806707
 30
0.0
 40
3.0000228882806059
100
AcDbArc
 50
180.00043712895666
 51
269.99956287104226
  0
ARC
  5
23A
100
AcDbEntity
  8
0
  6
CONTINUOUS
 62
               4
100
AcDbCircle
 10
8.0000262260406316
 20
-56.999973773959368
 30
0.0
 40
2.9999737740740038
100
AcDbArc
 50
359.99949911513994
 51
90.000500884859065
  0
CIRCLE
  5
23B
100
AcDbEntity
  8
0
  6
CONTINUOUS
 62
               4
100
AcDbCircle
 10
17.0
 20
-38.999969482421875
 30
0.0
 40
2.25
  0
CIRCLE
  5
23C
100
AcDbEntity
  8
0
  6
CONTINUOUS
 62
               4
100
AcDbCircle
 10
8.0000457763671875
 20
-57.0
 30
0.0
 40
2.25
  0
ARC
  5
23D
100
AcDbEntity
  8
0
  6
CONTINUOUS
 62
               4
100
AcDbCircle
 10
54.995000000000005
 20
-35.199996948240269
 30
0.0
 40
5.9960370477801215
100
AcDbArc
 50
254.57308184876197
 51
285.42691815123675
  0
ARC
  5
23E
100
AcDbEntity
  8
0
  6
CONTINUOUS
 62
               4
100
AcDbCircle
 10
53.609260569296183
 20
-40.2049803773075
 30
0.0
 40
0.8027735679633306
100
AcDbArc
 50
185.36214548718294
 51
254.89006166840676
  0
ARC
  5
23F
100
AcDbEntity
  8
0
  6
CONTINUOUS
 62
               4
100
AcDbCircle
 10
56.386595674255972
 20
-40.209916354015739
 30
0.0
 40
0.7964936544278238
100
AcDbArc
 50
284.79578884176448
 51
354.95200400264309
  0
ARC
  5
240
100
AcDbEntity
  8
0
  6
CONTINUOUS
 62
               4
100
AcDbCircle
 10
64.609260569296183
 20
-40.2049803773075
 30
0.0
 40
0.8027735679633296
100
AcDbArc
 50
185.36214548718294
 51
254.89006166840727
  0
CIRCLE
  5
241
100
AcDbEntity
  8
0
  6
CONTINUOUS
 62
               4
100
AcDbCircle
 10
49.0
 20
-39.0
 30
0.0
 40
2.25
  0
CIRCLE
  5
242
100
AcDbEntity
  8
0
  6
CONTINUOUS
 62
               4
100
AcDbCircle
 10
40.000015258789063
 20
-57.0
 30
0.0
 40
2.25
  0
CIRCLE
  5
243
100
AcDbEntity
  8
0
  6
CONTINUOUS
 62
               4
100
AcDbCircle
 10
49.0
 20
-39.0
 30
0.0
 40
2.5500001907348633
  0
CIRCLE
  5
244
100
AcDbEntity
  8
0
  6
CONTINUOUS
 62
               4
100
AcDbCircle
 10
40.000015258789063
 20
-57.0
 30
0.0
 40
2.5500001907348633
  0
ARC
  5
245
100
AcDbEntity
  8
0
  6
CONTINUOUS
 62
               4
100
AcDbCircle
 10
49.0
 20
-39.0
 30
0.0
 40
3.0
100
AcDbArc
 50
179.9999999999996
 51
269.99999999999937
  0
ARC
  5
246
100
AcDbEntity
  8
0
  6
CONTINUOUS
 62
               4
100
AcDbCircle
 10
40.000007629384832
 20
-56.999992370615168
 30
0.0
 40
2.999992370624871
100
AcDbArc
 50
359.99985428911162
 51
90.000145710887395
  0
ARC
  5
247
100
AcDbEntity
  8
0
  6
CONTINUOUS
 62
               4
100
AcDbCircle
 10
67.386595674255972
 20
-40.209916354015732
 30
0.0
 40
0.7964936544278274
100
AcDbArc
 50
284.79578884176436
 51
354.95200400264264
  0
ARC
  5
248
100
AcDbEntity
  8
0
  6
CONTINUOUS
 62
               4
100
AcDbCircle
 10
65.995000000000005
 20
-35.199996948240269
 30
0.0
 40
5.9960370477801206
100
AcDbArc
 50
254.57308184876203
 51
285.42691815123675
  0
ENDBLK
  5
249
100
AcDbEntity
  8
0
100
AcDbBlockEnd
  0
BLOCK
  5
24A
100
AcDbEntity
  8
0
100
AcDbBlockBegin
  2
MS_4
 70
               0
 10
0.0
 20
0.0
 30
0.0
  3
MS_4
  1

  0
LINE
  5
24B
100
AcDbEntity
  8
0
  6
CONTINUOUS
 62
               7
100
AcDbLine
 10
-3.5
 20
35.0
 30
0.0
 11
76.5
 21
35.0
 31
0.0
  0
LINE
  5
24C
100
AcDbEntity
  8
0
  6
CONTINUOUS
 62
               7
100
AcDbLine
 10
-3.5
 20
35.0
 30
0.0
 11
-3.5
 21
0.0
 31
0.0
  0
LINE
  5
24D
100
AcDbEntity
  8
0
  6
CONTINUOUS
 62
               7
100
AcDbLine
 10
76.5
 20
35.0
 30
0.0
 11
76.5
 21
0.0
 31
0.0
  0
LINE
  5
24E
100
AcDbEntity
  8
0
  6
CONTINUOUS
 62
               7
100
AcDbLine
 10
5.5
 20
35.0
 30
0.0
 11
5.5
 21
36.0
 31
0.0
  0
LINE
  5
24F
100
AcDbEntity
  8
0
  6
CONTINUOUS
 62
               7
100
AcDbLine
 10
19.5
 20
35.0
 30
0.0
 11
19.5
 21
36.0
 31
0.0
  0
LINE
  5
250
100
AcDbEntity
  8
0
  6
CONTINUOUS
 62
               7
100
AcDbLine
 10
21.5
 20
35.0
 30
0.0
 11
21.5
 21
36.0
 31
0.0
  0
LINE
  5
251
100
AcDbEntity
  8
0
  6
CONTINUOUS
 62
               7
100
AcDbLine
 10
35.5
 20
35.0
 30
0.0
 11
35.5
 21
36.0
 31
0.0
  0
LINE
  5
252
100
AcDbEntity
  8
0
  6
CONTINUOUS
 62
               7
100
AcDbLine
 10
37.5
 20
36.0
 30
0.0
 11
37.5
 21
35.0
 31
0.0
  0
LINE
  5
253
100
AcDbEntity
  8
0
  6
CONTINUOUS
 62
               7
100
AcDbLine
 10
51.5
 20
36.0
 30
0.0
 11
51.5
 21
35.0
 31
0.0
  0
LINE
  5
254
100
AcDbEntity
  8
0
  6
CONTINUOUS
 62
               7
100
AcDbLine
 10
53.5
 20
36.0
 30
0.0
 11
53.5
 21
35.0
 31
0.0
  0
LINE
  5
255
100
AcDbEntity
  8
0
  6
CONTINUOUS
 62
               7
100
AcDbLine
 10
67.5
 20
36.060000000000002
 30
0.0
 11
67.5
 21
35.0
 31
0.0
  0
LINE
  5
256
100
AcDbEntity
  8
0
  6
CENTER
 62
               2
100
AcDbLine
 10
15.5
 20
13.5
 30
0.0
 11
15.5
 21
-0.5
 31
0.0
  0
LINE
  5
257
100
AcDbEntity
  8
0
  6
CENTER
 62
               2
100
AcDbLine
 10
55.5
 20
13.5
 30
0.0
 11
55.5
 21
27.5
 31
0.0
  0
LINE
  5
258
100
AcDbEntity
  8
0
  6
CENTER
 62
               2
100
AcDbLine
 10
63.5
 20
-0.5
 30
0.0
 11
63.5
 21
13.5
 31
0.0
  0
LINE
  5
259
100
AcDbEntity
  8
0
  6
CONTINUOUS
 62
               7
100
AcDbLine
 10
-3.5
 20
0.0
 30
0.0
 11
76.5
 21
0.0
 31
0.0
  0
LINE
  5
25A
100
AcDbEntity
  8
0
  6
CENTER
 62
               2
100
AcDbLine
 10
7.8300000000000001
 20
6.5
 30
0.0
 11
72.459999999999994
 21
6.5
 31
0.0
  0
LINE
  5
25B
100
AcDbEntity
  8
0
  6
CENTER
 62
               2
100
AcDbLine
 10
-0.16
 20
20.5
 30
0.0
 11
65.680000000000007
 21
20.5
 31
0.0
  0
LINE
  5
25C
100
AcDbEntity
  8
0
  6
CENTER
 62
               2
100
AcDbLine
 10
31.5
 20
-0.5
 30
0.0
 11
31.5
 21
13.5
 31
0.0
  0
LINE
  5
25D
100
AcDbEntity
  8
0
  6
CENTER
 62
               2
100
AcDbLine
 10
7.5
 20
13.5
 30
0.0
 11
7.5
 21
27.5
 31
0.0
  0
LINE
  5
25E
100
AcDbEntity
  8
0
  6
CENTER
 62
               2
100
AcDbLine
 10
47.5
 20
-0.5
 30
0.0
 11
47.5
 21
13.5
 31
0.0
  0
LINE
  5
25F
100
AcDbEntity
  8
0
  6
CENTER
 62
               2
100
AcDbLine
 10
39.5
 20
13.5
 30
0.0
 11
39.5
 21
27.5
 31
0.0
  0
LINE
  5
260
100
AcDbEntity
  8
0
  6
CENTER
 62
               2
100
AcDbLine
 10
12.5
 20
76.0
 30
0.0
 11
12.5
 21
31.0
 31
0.0
  0
LINE
  5
261
100
AcDbEntity
  8
0
  6
CENTER
 62
               2
100
AcDbLine
 10
28.5
 20
76.0
 30
0.0
 11
28.5
 21
31.0
 31
0.0
  0
LINE
  5
262
100
AcDbEntity
  8
0
  6
CENTER
 62
               2
100
AcDbLine
 10
44.5
 20
76.0
 30
0.0
 11
44.5
 21
31.0
 31
0.0
  0
LINE
  5
263
100
AcDbEntity
  8
0
  6
CENTER
 62
               2
100
AcDbLine
 10
60.5
 20
46.0
 30
0.0
 11
60.5
 21
31.0
 31
0.0
  0
LINE
  5
264
100
AcDbEntity
  8
0
  6
CENTER
 62
               2
100
AcDbLine
 10
0.0
 20
4.0
 30
0.0
 11
0.0
 21
-4.0
 31
0.0
  0
LINE
  5
265
100
AcDbEntity
  8
0
  6
CENTER
 62
               2
100
AcDbLine
 10
73.0
 20
4.0
 30
0.0
 11
73.0
 21
-4.0
 31
0.0
  0
LINE
  5
266
100
AcDbEntity
  8
0
  6
CENTER
 62
               2
100
AcDbLine
 10
23.5
 20
13.5
 30
0.0
 11
23.5
 21
27.5
 31
0.0
  0
LINE
  5
267
100
AcDbEntity
  8
0
  6
CONTINUOUS
 62
               7
100
AcDbLine
 10
2.6000000000000001
 20
21.5
 30
0.0
 11
2.6000000000000001
 21
19.5
 31
0.0
  0
LINE
  5
268
100
AcDbEntity
  8
0
  6
CONTINUOUS
 62
               7
100
AcDbLine
 10
12.4
 20
21.5
 30
0.0
 11
12.4
 21
19.5
 31
0.0
  0
LINE
  5
269
100
AcDbEntity
  8
0
  6
CONTINUOUS
 62
               7
100
AcDbLine
 10
18.600000000000001
 20
21.5
 30
0.0
 11
18.600000000000001
 21
19.5
 31
0.0
  0
LINE
  5
26A
100
AcDbEntity
  8
0
  6
CONTINUOUS
 62
               7
100
AcDbLine
 10
28.399999999999999
 20
21.5
 30
0.0
 11
28.399999999999999
 21
19.5
 31
0.0
  0
LINE
  5
26B
100
AcDbEntity
  8
0
  6
CONTINUOUS
 62
               7
100
AcDbLine
 10
34.600000000000001
 20
21.5
 30
0.0
 11
34.600000000000001
 21
19.5
 31
0.0
  0
LINE
  5
26C
100
AcDbEntity
  8
0
  6
CONTINUOUS
 62
               7
100
AcDbLine
 10
44.399999999999999
 20
21.5
 30
0.0
 11
44.399999999999999
 21
19.5
 31
0.0
  0
LINE
  5
26D
100
AcDbEntity
  8
0
  6
CONTINUOUS
 62
               7
100
AcDbLine
 10
50.600000000000001
 20
21.5
 30
0.0
 11
50.600000000000001
 21
19.5
 31
0.0
  0
LINE
  5
26E
100
AcDbEntity
  8
0
  6
CONTINUOUS
 62
               7
100
AcDbLine
 10
60.399999999999999
 20
21.5
 30
0.0
 11
60.399999999999999
 21
19.5
 31
0.0
  0
LINE
  5
26F
100
AcDbEntity
  8
0
  6
CONTINUOUS
 62
               7
100
AcDbLine
 10
10.6
 20
7.5
 30
0.0
 11
10.6
 21
5.5
 31
0.0
  0
LINE
  5
270
100
AcDbEntity
  8
0
  6
CONTINUOUS
 62
               7
100
AcDbLine
 10
20.399999999999999
 20
7.5
 30
0.0
 11
20.399999999999999
 21
5.5
 31
0.0
  0
LINE
  5
271
100
AcDbEntity
  8
0
  6
CONTINUOUS
 62
               7
100
AcDbLine
 10
26.600000000000001
 20
7.5
 30
0.0
 11
26.600000000000001
 21
5.5
 31
0.0
  0
LINE
  5
272
100
AcDbEntity
  8
0
  6
CONTINUOUS
 62
               7
100
AcDbLine
 10
36.399999999999999
 20
7.5
 30
0.0
 11
36.399999999999999
 21
5.5
 31
0.0
  0
LINE
  5
273
100
AcDbEntity
  8
0
  6
CONTINUOUS
 62
               7
100
AcDbLine
 10
42.600000000000001
 20
7.5
 30
0.0
 11
42.600000000000001
 21
5.5
 31
0.0
  0
LINE
  5
274
100
AcDbEntity
  8
0
  6
CONTINUOUS
 62
               7
100
AcDbLine
 10
52.399999999999999
 20
7.5
 30
0.0
 11
52.399999999999999
 21
5.5
 31
0.0
  0
LINE
  5
275
100
AcDbEntity
  8
0
  6
CONTINUOUS
 62
               7
100
AcDbLine
 10
58.600000000000001
 20
7.5
 30
0.0
 11
58.600000000000001
 21
5.5
 31
0.0
  0
LINE
  5
276
100
AcDbEntity
  8
0
  6
CONTINUOUS
 62
               7
100
AcDbLine
 10
68.400000000000006
 20
7.5
 30
0.0
 11
68.400000000000006
 21
5.5
 31
0.0
  0
LINE
  5
277
100
AcDbEntity
  8
0
  6
CONTINUOUS
 62
               7
100
AcDbLine
 10
5.0
 20
36.0
 30
0.0
 11
20.0
 21
36.0
 31
0.0
  0
LINE
  5
278
100
AcDbEntity
  8
0
  6
CONTINUOUS
 62
               7
100
AcDbLine
 10
20.0
 20
36.0
 30
0.0
 11
20.0
 21
60.0
 31
0.0
  0
LINE
  5
279
100
AcDbEntity
  8
0
  6
CONTINUOUS
 62
               7
100
AcDbLine
 10
5.0
 20
36.0
 30
0.0
 11
5.0
 21
60.0
 31
0.0
  0
LINE
  5
27A
100
AcDbEntity
  8
0
  6
CONTINUOUS
 62
               7
100
AcDbLine
 10
5.0
 20
60.0
 30
0.0
 11
20.0
 21
60.0
 31
0.0
  0
LINE
  5
27B
100
AcDbEntity
  8
0
  6
CONTINUOUS
 62
               7
100
AcDbLine
 10
7.0800000000000001
 20
56.079999999999998
 30
0.0
 11
8.9100000000000001
 21
57.909999999999997
 31
0.0
  0
LINE
  5
27C
100
AcDbEntity
  8
0
  6
CONTINUOUS
 62
               7
100
AcDbLine
 10
7.0800000000000001
 20
57.909999999999997
 30
0.0
 11
8.9100000000000001
 21
56.079999999999998
 31
0.0
  0
LINE
  5
27D
100
AcDbEntity
  8
0
  6
CONTINUOUS
 62
               7
100
AcDbLine
 10
16.079999999999998
 20
38.079999999999998
 30
0.0
 11
17.91
 21
39.909999999999997
 31
0.0
  0
LINE
  5
27E
100
AcDbEntity
  8
0
  6
CONTINUOUS
 62
               7
100
AcDbLine
 10
16.079999999999998
 20
39.909999999999997
 30
0.0
 11
17.91
 21
38.079999999999998
 31
0.0
  0
LINE
  5
27F
100
AcDbEntity
  8
0
  6
CONTINUOUS
 62
               7
100
AcDbLine
 10
21.0
 20
36.0
 30
0.0
 11
36.0
 21
36.0
 31
0.0
  0
LINE
  5
280
100
AcDbEntity
  8
0
  6
CONTINUOUS
 62
               7
100
AcDbLine
 10
36.0
 20
36.0
 30
0.0
 11
36.0
 21
60.0
 31
0.0
  0
LINE
  5
281
100
AcDbEntity
  8
0
  6
CONTINUOUS
 62
               7
100
AcDbLine
 10
21.0
 20
36.0
 30
0.0
 11
21.0
 21
60.0
 31
0.0
  0
LINE
  5
282
100
AcDbEntity
  8
0
  6
CONTINUOUS
 62
               7
100
AcDbLine
 10
21.0
 20
60.0
 30
0.0
 11
36.0
 21
60.0
 31
0.0
  0
LINE
  5
283
100
AcDbEntity
  8
0
  6
CONTINUOUS
 62
               7
100
AcDbLine
 10
23.079999999999998
 20
56.079999999999998
 30
0.0
 11
24.91
 21
57.909999999999997
 31
0.0
  0
LINE
  5
284
100
AcDbEntity
  8
0
  6
CONTINUOUS
 62
               7
100
AcDbLine
 10
23.079999999999998
 20
57.909999999999997
 30
0.0
 11
24.91
 21
56.079999999999998
 31
0.0
  0
LINE
  5
285
100
AcDbEntity
  8
0
  6
CONTINUOUS
 62
               7
100
AcDbLine
 10
32.079999999999998
 20
38.079999999999998
 30
0.0
 11
33.909999999999997
 21
39.909999999999997
 31
0.0
  0
LINE
  5
286
100
AcDbEntity
  8
0
  6
CONTINUOUS
 62
               7
100
AcDbLine
 10
32.079999999999998
 20
39.909999999999997
 30
0.0
 11
33.909999999999997
 21
38.079999999999998
 31
0.0
  0
LINE
  5
287
100
AcDbEntity
  8
0
  6
CONTINUOUS
 62
               4
100
AcDbLine
 10
53.0
 20
39.0
 30
0.0
 11
53.0
 21
36.0
 31
0.0
  0
LINE
  5
288
100
AcDbEntity
  8
0
  6
CONTINUOUS
 62
               4
100
AcDbLine
 10
68.0
 20
39.0
 30
0.0
 11
68.0
 21
36.0
 31
0.0
  0
LINE
  5
289
100
AcDbEntity
  8
0
  6
CONTINUOUS
 62
               4
100
AcDbLine
 10
52.75
 20
39.0
 30
0.0
 11
68.25
 21
39.0
 31
0.0
  0
LINE
  5
28A
100
AcDbEntity
  8
0
  6
CONTINUOUS
 62
               4
100
AcDbLine
 10
68.180000000000007
 20
40.280000000000001
 30
0.0
 11
68.25
 21
39.5
 31
0.0
  0
LINE
  5
28B
100
AcDbEntity
  8
0
  6
CONTINUOUS
 62
               4
100
AcDbLine
 10
63.810000000000002
 20
40.280000000000001
 30
0.0
 11
63.75
 21
39.5
 31
0.0
  0
LINE
  5
28C
100
AcDbEntity
  8
0
  6
CONTINUOUS
 62
               4
100
AcDbLine
 10
68.25
 20
39.5
 30
0.0
 11
63.75
 21
39.5
 31
0.0
  0
LINE
  5
28D
100
AcDbEntity
  8
0
  6
CONTINUOUS
 62
               4
100
AcDbLine
 10
63.75
 20
39.5
 30
0.0
 11
63.75
 21
39.0
 31
0.0
  0
LINE
  5
28E
100
AcDbEntity
  8
0
  6
CONTINUOUS
 62
               4
100
AcDbLine
 10
68.25
 20
39.5
 30
0.0
 11
68.25
 21
39.0
 31
0.0
  0
LINE
  5
28F
100
AcDbEntity
  8
0
  6
CONTINUOUS
 62
               4
100
AcDbLine
 10
57.18
 20
40.280000000000001
 30
0.0
 11
57.25
 21
39.5
 31
0.0
  0
LINE
  5
290
100
AcDbEntity
  8
0
  6
CONTINUOUS
 62
               4
100
AcDbLine
 10
52.810000000000002
 20
40.280000000000001
 30
0.0
 11
52.75
 21
39.5
 31
0.0
  0
LINE
  5
291
100
AcDbEntity
  8
0
  6
CONTINUOUS
 62
               4
100
AcDbLine
 10
52.75
 20
39.5
 30
0.0
 11
57.25
 21
39.5
 31
0.0
  0
LINE
  5
292
100
AcDbEntity
  8
0
  6
CONTINUOUS
 62
               4
100
AcDbLine
 10
52.75
 20
39.5
 30
0.0
 11
52.75
 21
39.0
 31
0.0
  0
LINE
  5
293
100
AcDbEntity
  8
0
  6
CONTINUOUS
 62
               4
100
AcDbLine
 10
57.25
 20
39.5
 30
0.0
 11
57.25
 21
39.0
 31
0.0
  0
LINE
  5
294
100
AcDbEntity
  8
0
  6
CONTINUOUS
 62
               4
100
AcDbLine
 10
53.0
 20
36.0
 30
0.0
 11
68.0
 21
36.0
 31
0.0
  0
LINE
  5
295
100
AcDbEntity
  8
0
  6
CONTINUOUS
 62
               4
100
AcDbLine
 10
46.0
 20
57.0
 30
0.0
 11
46.0
 21
60.0
 31
0.0
  0
LINE
  5
296
100
AcDbEntity
  8
0
  6
CONTINUOUS
 62
               4
100
AcDbLine
 10
43.0
 20
39.0
 30
0.0
 11
43.0
 21
36.0
 31
0.0
  0
LINE
  5
297
100
AcDbEntity
  8
0
  6
CONTINUOUS
 62
               4
100
AcDbLine
 10
40.0
 20
42.0
 30
0.0
 11
37.0
 21
42.0
 31
0.0
  0
LINE
  5
298
100
AcDbEntity
  8
0
  6
CONTINUOUS
 62
               4
100
AcDbLine
 10
49.0
 20
54.0
 30
0.0
 11
52.0
 21
54.0
 31
0.0
  0
LINE
  5
299
100
AcDbEntity
  8
0
  6
CONTINUOUS
 62
               4
100
AcDbLine
 10
47.520000000000003
 20
60.009999999999998
 30
0.0
 11
47.520000000000003
 21
62.009999999999998
 31
0.0
  0
LINE
  5
29A
100
AcDbEntity
  8
0
  6
CONTINUOUS
 62
               4
100
AcDbLine
 10
41.520000000000003
 20
62.009999999999998
 30
0.0
 11
47.520000000000003
 21
62.009999999999998
 31
0.0
  0
LINE
  5
29B
100
AcDbEntity
  8
0
  6
CONTINUOUS
 62
               4
100
AcDbLine
 10
41.520000000000003
 20
60.009999999999998
 30
0.0
 11
41.520000000000003
 21
62.009999999999998
 31
0.0
  0
LINE
  5
29C
100
AcDbEntity
  8
0
  6
CONTINUOUS
 62
               4
100
AcDbLine
 10
46.649999999999999
 20
65.640000000000001
 30
0.0
 11
46.649999999999999
 21
62.0
 31
0.0
  0
LINE
  5
29D
100
AcDbEntity
  8
0
  6
CONTINUOUS
 62
               4
100
AcDbLine
 10
44.049999999999997
 20
66.340000000000003
 30
0.0
 11
44.049999999999997
 21
62.0
 31
0.0
  0
LINE
  5
29E
100
AcDbEntity
  8
0
  6
CONTINUOUS
 62
               4
100
AcDbLine
 10
44.950000000000003
 20
66.099999999999994
 30
0.0
 11
44.950000000000003
 21
62.0
 31
0.0
  0
LINE
  5
29F
100
AcDbEntity
  8
0
  6
CONTINUOUS
 62
               4
100
AcDbLine
 10
12.949999999999999
 20
72.0
 30
0.0
 11
12.949999999999999
 21
67.650000000000006
 31
0.0
  0
LINE
  5
2A0
100
AcDbEntity
  8
0
  6
CONTINUOUS
 62
               4
100
AcDbLine
 10
14.65
 20
72.0
 30
0.0
 11
14.65
 21
67.200000000000003
 31
0.0
  0
LINE
  5
2A1
100
AcDbEntity
  8
0
  6
CONTINUOUS
 62
               4
100
AcDbLine
 10
13.48
 20
82.0
 30
0.0
 11
13.48
 21
72.0
 31
0.0
  0
LINE
  5
2A2
100
AcDbEntity
  8
0
  6
CONTINUOUS
 62
               4
100
AcDbLine
 10
14.119999999999999
 20
82.0
 30
0.0
 11
14.119999999999999
 21
72.0
 31
0.0
  0
LINE
  5
2A3
100
AcDbEntity
  8
0
  6
CONTINUOUS
 62
               4
100
AcDbLine
 10
14.65
 20
72.0
 30
0.0
 11
12.949999999999999
 21
72.0
 31
0.0
  0
LINE
  5
2A4
100
AcDbEntity
  8
0
  6
CONTINUOUS
 62
               4
100
AcDbLine
 10
14.119999999999999
 20
82.0
 30
0.0
 11
13.48
 21
82.0
 31
0.0
  0
LINE
  5
2A5
100
AcDbEntity
  8
0
  6
CONTINUOUS
 62
               4
100
AcDbLine
 10
10.35
 20
72.0
 30
0.0
 11
10.35
 21
68.349999999999994
 31
0.0
  0
LINE
  5
2A6
100
AcDbEntity
  8
0
  6
CONTINUOUS
 62
               4
100
AcDbLine
 10
12.050000000000001
 20
72.0
 30
0.0
 11
12.050000000000001
 21
67.890000000000001
 31
0.0
  0
LINE
  5
2A7
100
AcDbEntity
  8
0
  6
CONTINUOUS
 62
               4
100
AcDbLine
 10
10.880000000000001
 20
82.0
 30
0.0
 11
10.880000000000001
 21
72.0
 31
0.0
  0
LINE
  5
2A8
100
AcDbEntity
  8
0
  6
CONTINUOUS
 62
               4
100
AcDbLine
 10
11.52
 20
82.0
 30
0.0
 11
11.52
 21
72.0
 31
0.0
  0
LINE
  5
2A9
100
AcDbEntity
  8
0
  6
CONTINUOUS
 62
               4
100
AcDbLine
 10
12.050000000000001
 20
72.0
 30
0.0
 11
10.35
 21
72.0
 31
0.0
  0
LINE
  5
2AA
100
AcDbEntity
  8
0
  6
CONTINUOUS
 62
               4
100
AcDbLine
 10
11.52
 20
82.0
 30
0.0
 11
10.880000000000001
 21
82.0
 31
0.0
  0
LINE
  5
2AB
100
AcDbEntity
  8
0
  6
CONTINUOUS
 62
             200
100
AcDbLine
 10
8.3499999999999996
 20
67.329999999999998
 30
0.0
 11
16.649999999999999
 21
65.109999999999999
 31
0.0
  0
LINE
  5
2AC
100
AcDbEntity
  8
0
  6
CONTINUOUS
 62
             200
100
AcDbLine
 10
8.3499999999999996
 20
68.879999999999995
 30
0.0
 11
16.649999999999999
 21
66.659999999999997
 31
0.0
  0
LINE
  5
2AD
100
AcDbEntity
  8
0
  6
CONTINUOUS
 62
               4
100
AcDbLine
 10
10.35
 20
66.799999999999997
 30
0.0
 11
10.35
 21
62.0
 31
0.0
  0
LINE
  5
2AE
100
AcDbEntity
  8
0
  6
CONTINUOUS
 62
               4
100
AcDbLine
 10
12.050000000000001
 20
66.340000000000003
 30
0.0
 11
12.050000000000001
 21
62.0
 31
0.0
  0
LINE
  5
2AF
100
AcDbEntity
  8
0
  6
CONTINUOUS
 62
               4
100
AcDbLine
 10
12.949999999999999
 20
66.099999999999994
 30
0.0
 11
12.949999999999999
 21
62.0
 31
0.0
  0
LINE
  5
2B0
100
AcDbEntity
  8
0
  6
CONTINUOUS
 62
               4
100
AcDbLine
 10
14.65
 20
65.640000000000001
 30
0.0
 11
14.65
 21
62.0
 31
0.0
  0
LINE
  5
2B1
100
AcDbEntity
  8
0
  6
CONTINUOUS
 62
               4
100
AcDbLine
 10
9.5
 20
60.0
 30
0.0
 11
9.5
 21
62.0
 31
0.0
  0
LINE
  5
2B2
100
AcDbEntity
  8
0
  6
CONTINUOUS
 62
               4
100
AcDbLine
 10
9.5
 20
62.0
 30
0.0
 11
15.5
 21
62.0
 31
0.0
  0
LINE
  5
2B3
100
AcDbEntity
  8
0
  6
CONTINUOUS
 62
               4
100
AcDbLine
 10
15.5
 20
60.0
 30
0.0
 11
15.5
 21
62.0
 31
0.0
  0
LINE
  5
2B4
100
AcDbEntity
  8
0
  6
CONTINUOUS
 62
               4
100
AcDbLine
 10
48.079999999999998
 20
56.079999999999998
 30
0.0
 11
49.909999999999997
 21
57.909999999999997
 31
0.0
  0
LINE
  5
2B5
100
AcDbEntity
  8
0
  6
CONTINUOUS
 62
               4
100
AcDbLine
 10
49.909999999999997
 20
56.079999999999998
 30
0.0
 11
48.079999999999998
 21
57.909999999999997
 31
0.0
  0
LINE
  5
2B6
100
AcDbEntity
  8
0
  6
CONTINUOUS
 62
               4
100
AcDbLine
 10
40.909999999999997
 20
38.079999999999998
 30
0.0
 11
39.079999999999998
 21
39.909999999999997
 31
0.0
  0
LINE
  5
2B7
100
AcDbEntity
  8
0
  6
CONTINUOUS
 62
               4
100
AcDbLine
 10
40.909999999999997
 20
39.909999999999997
 30
0.0
 11
39.079999999999998
 21
38.079999999999998
 31
0.0
  0
LINE
  5
2B8
100
AcDbEntity
  8
0
  6
CONTINUOUS
 62
               4
100
AcDbLine
 10
37.0
 20
60.0
 30
0.0
 11
52.0
 21
60.0
 31
0.0
  0
LINE
  5
2B9
100
AcDbEntity
  8
0
  6
CONTINUOUS
 62
               4
100
AcDbLine
 10
52.0
 20
36.0
 30
0.0
 11
52.0
 21
60.0
 31
0.0
  0
LINE
  5
2BA
100
AcDbEntity
  8
0
  6
CONTINUOUS
 62
               4
100
AcDbLine
 10
37.0
 20
36.0
 30
0.0
 11
37.0
 21
60.0
 31
0.0
  0
LINE
  5
2BB
100
AcDbEntity
  8
0
  6
CONTINUOUS
 62
               4
100
AcDbLine
 10
37.0
 20
36.0
 30
0.0
 11
52.0
 21
36.0
 31
0.0
  0
LINE
  5
2BC
100
AcDbEntity
  8
0
  6
CONTINUOUS
 62
               4
100
AcDbLine
 10
28.949999999999999
 20
72.0
 30
0.0
 11
28.949999999999999
 21
67.650000000000006
 31
0.0
  0
LINE
  5
2BD
100
AcDbEntity
  8
0
  6
CONTINUOUS
 62
               4
100
AcDbLine
 10
30.649999999999999
 20
72.0
 30
0.0
 11
30.649999999999999
 21
67.200000000000003
 31
0.0
  0
LINE
  5
2BE
100
AcDbEntity
  8
0
  6
CONTINUOUS
 62
               4
100
AcDbLine
 10
29.48
 20
82.0
 30
0.0
 11
29.48
 21
72.0
 31
0.0
  0
LINE
  5
2BF
100
AcDbEntity
  8
0
  6
CONTINUOUS
 62
               4
100
AcDbLine
 10
30.120000000000001
 20
82.0
 30
0.0
 11
30.120000000000001
 21
72.0
 31
0.0
  0
LINE
  5
2C0
100
AcDbEntity
  8
0
  6
CONTINUOUS
 62
               4
100
AcDbLine
 10
30.649999999999999
 20
72.0
 30
0.0
 11
28.949999999999999
 21
72.0
 31
0.0
  0
LINE
  5
2C1
100
AcDbEntity
  8
0
  6
CONTINUOUS
 62
               4
100
AcDbLine
 10
30.120000000000001
 20
82.0
 30
0.0
 11
29.48
 21
82.0
 31
0.0
  0
LINE
  5
2C2
100
AcDbEntity
  8
0
  6
CONTINUOUS
 62
               4
100
AcDbLine
 10
26.350000000000001
 20
72.0
 30
0.0
 11
26.350000000000001
 21
68.349999999999994
 31
0.0
  0
LINE
  5
2C3
100
AcDbEntity
  8
0
  6
CONTINUOUS
 62
               4
100
AcDbLine
 10
28.050000000000001
 20
72.0
 30
0.0
 11
28.050000000000001
 21
67.890000000000001
 31
0.0
  0
LINE
  5
2C4
100
AcDbEntity
  8
0
  6
CONTINUOUS
 62
               4
100
AcDbLine
 10
26.879999999999999
 20
82.0
 30
0.0
 11
26.879999999999999
 21
72.0
 31
0.0
  0
LINE
  5
2C5
100
AcDbEntity
  8
0
  6
CONTINUOUS
 62
               4
100
AcDbLine
 10
27.52
 20
82.0
 30
0.0
 11
27.52
 21
72.0
 31
0.0
  0
LINE
  5
2C6
100
AcDbEntity
  8
0
  6
CONTINUOUS
 62
               4
100
AcDbLine
 10
28.050000000000001
 20
72.0
 30
0.0
 11
26.350000000000001
 21
72.0
 31
0.0
  0
LINE
  5
2C7
100
AcDbEntity
  8
0
  6
CONTINUOUS
 62
               4
100
AcDbLine
 10
27.52
 20
82.0
 30
0.0
 11
26.879999999999999
 21
82.0
 31
0.0
  0
LINE
  5
2C8
100
AcDbEntity
  8
0
  6
CONTINUOUS
 62
             200
100
AcDbLine
 10
24.350000000000001
 20
67.329999999999998
 30
0.0
 11
32.649999999999999
 21
65.109999999999999
 31
0.0
  0
LINE
  5
2C9
100
AcDbEntity
  8
0
  6
CONTINUOUS
 62
             200
100
AcDbLine
 10
24.350000000000001
 20
68.879999999999995
 30
0.0
 11
32.649999999999999
 21
66.659999999999997
 31
0.0
  0
LINE
  5
2CA
100
AcDbEntity
  8
0
  6
CONTINUOUS
 62
               4
100
AcDbLine
 10
26.350000000000001
 20
66.799999999999997
 30
0.0
 11
26.350000000000001
 21
62.0
 31
0.0
  0
LINE
  5
2CB
100
AcDbEntity
  8
0
  6
CONTINUOUS
 62
               4
100
AcDbLine
 10
28.050000000000001
 20
66.340000000000003
 30
0.0
 11
28.050000000000001
 21
62.0
 31
0.0
  0
LINE
  5
2CC
100
AcDbEntity
  8
0
  6
CONTINUOUS
 62
               4
100
AcDbLine
 10
28.949999999999999
 20
66.099999999999994
 30
0.0
 11
28.949999999999999
 21
62.0
 31
0.0
  0
LINE
  5
2CD
100
AcDbEntity
  8
0
  6
CONTINUOUS
 62
               4
100
AcDbLine
 10
30.649999999999999
 20
65.640000000000001
 30
0.0
 11
30.649999999999999
 21
62.0
 31
0.0
  0
LINE
  5
2CE
100
AcDbEntity
  8
0
  6
CONTINUOUS
 62
               4
100
AcDbLine
 10
25.5
 20
60.0
 30
0.0
 11
25.5
 21
62.0
 31
0.0
  0
LINE
  5
2CF
100
AcDbEntity
  8
0
  6
CONTINUOUS
 62
               4
100
AcDbLine
 10
25.5
 20
62.0
 30
0.0
 11
31.5
 21
62.0
 31
0.0
  0
LINE
  5
2D0
100
AcDbEntity
  8
0
  6
CONTINUOUS
 62
               4
100
AcDbLine
 10
31.5
 20
60.0
 30
0.0
 11
31.5
 21
62.0
 31
0.0
  0
LINE
  5
2D1
100
AcDbEntity
  8
0
  6
CONTINUOUS
 62
               4
100
AcDbLine
 10
51.0
 20
37.0
 30
0.0
 11
51.0
 21
54.0
 31
0.0
  0
LINE
  5
2D2
100
AcDbEntity
  8
0
  6
CONTINUOUS
 62
               4
100
AcDbLine
 10
38.0
 20
42.0
 30
0.0
 11
38.0
 21
59.0
 31
0.0
  0
LINE
  5
2D3
100
AcDbEntity
  8
0
  6
CONTINUOUS
 62
               4
100
AcDbLine
 10
38.0
 20
59.0
 30
0.0
 11
46.0
 21
59.0
 31
0.0
  0
LINE
  5
2D4
100
AcDbEntity
  8
0
  6
CONTINUOUS
 62
               4
100
AcDbLine
 10
43.0
 20
37.0
 30
0.0
 11
51.0
 21
37.0
 31
0.0
  0
LINE
  5
2D5
100
AcDbEntity
  8
0
  6
CONTINUOUS
 62
               4
100
AcDbLine
 10
44.950000000000003
 20
72.0
 30
0.0
 11
44.950000000000003
 21
67.650000000000006
 31
0.0
  0
LINE
  5
2D6
100
AcDbEntity
  8
0
  6
CONTINUOUS
 62
               4
100
AcDbLine
 10
46.649999999999999
 20
72.0
 30
0.0
 11
46.649999999999999
 21
67.200000000000003
 31
0.0
  0
LINE
  5
2D7
100
AcDbEntity
  8
0
  6
CONTINUOUS
 62
               4
100
AcDbLine
 10
45.479999999999997
 20
82.0
 30
0.0
 11
45.479999999999997
 21
72.0
 31
0.0
  0
LINE
  5
2D8
100
AcDbEntity
  8
0
  6
CONTINUOUS
 62
               4
100
AcDbLine
 10
46.119999999999997
 20
82.0
 30
0.0
 11
46.119999999999997
 21
72.0
 31
0.0
  0
LINE
  5
2D9
100
AcDbEntity
  8
0
  6
CONTINUOUS
 62
               4
100
AcDbLine
 10
46.649999999999999
 20
72.0
 30
0.0
 11
44.950000000000003
 21
72.0
 31
0.0
  0
LINE
  5
2DA
100
AcDbEntity
  8
0
  6
CONTINUOUS
 62
               4
100
AcDbLine
 10
46.119999999999997
 20
82.0
 30
0.0
 11
45.479999999999997
 21
82.0
 31
0.0
  0
LINE
  5
2DB
100
AcDbEntity
  8
0
  6
CONTINUOUS
 62
               4
100
AcDbLine
 10
42.350000000000001
 20
72.0
 30
0.0
 11
42.350000000000001
 21
68.349999999999994
 31
0.0
  0
LINE
  5
2DC
100
AcDbEntity
  8
0
  6
CONTINUOUS
 62
               4
100
AcDbLine
 10
44.049999999999997
 20
72.0
 30
0.0
 11
44.049999999999997
 21
67.890000000000001
 31
0.0
  0
LINE
  5
2DD
100
AcDbEntity
  8
0
  6
CONTINUOUS
 62
               4
100
AcDbLine
 10
42.880000000000003
 20
82.0
 30
0.0
 11
42.880000000000003
 21
72.0
 31
0.0
  0
LINE
  5
2DE
100
AcDbEntity
  8
0
  6
CONTINUOUS
 62
               4
100
AcDbLine
 10
43.520000000000003
 20
82.0
 30
0.0
 11
43.520000000000003
 21
72.0
 31
0.0
  0
LINE
  5
2DF
100
AcDbEntity
  8
0
  6
CONTINUOUS
 62
               4
100
AcDbLine
 10
44.049999999999997
 20
72.0
 30
0.0
 11
42.350000000000001
 21
72.0
 31
0.0
  0
LINE
  5
2E0
100
AcDbEntity
  8
0
  6
CONTINUOUS
 62
               4
100
AcDbLine
 10
43.520000000000003
 20
82.0
 30
0.0
 11
42.880000000000003
 21
82.0
 31
0.0
  0
LINE
  5
2E1
100
AcDbEntity
  8
0
  6
CONTINUOUS
 62
             200
100
AcDbLine
 10
40.350000000000001
 20
67.329999999999998
 30
0.0
 11
48.649999999999999
 21
65.109999999999999
 31
0.0
  0
LINE
  5
2E2
100
AcDbEntity
  8
0
  6
CONTINUOUS
 62
             200
100
AcDbLine
 10
40.350000000000001
 20
68.879999999999995
 30
0.0
 11
48.649999999999999
 21
66.659999999999997
 31
0.0
  0
LINE
  5
2E3
100
AcDbEntity
  8
0
  6
CONTINUOUS
 62
               4
100
AcDbLine
 10
42.350000000000001
 20
66.799999999999997
 30
0.0
 11
42.350000000000001
 21
62.0
 31
0.0
  0
ARC
  5
2E4
100
AcDbEntity
  8
0
  6
CONTINUOUS
 62
               7
100
AcDbCircle
 10
7.5
 20
21.5
 30
0.0
 40
4.9000000000000004
100
AcDbArc
 50
0.0
 51
179.9999999999996
  0
ARC
  5
2E5
100
AcDbEntity
  8
0
  6
CONTINUOUS
 62
               7
100
AcDbCircle
 10
7.5
 20
19.5
 30
0.0
 40
4.9000000000000004
100
AcDbArc
 50
179.9999999999996
 51
0.0
  0
CIRCLE
  5
2E6
100
AcDbEntity
  8
0
  6
CONTINUOUS
 62
               7
100
AcDbCircle
 10
7.5
 20
20.5
 30
0.0
 40
3.0
  0
ARC
  5
2E7
100
AcDbEntity
  8
0
  6
CONTINUOUS
 62
               7
100
AcDbCircle
 10
7.5000019073509687
 20
20.494999999999997
 30
0.0
 40
5.0000043692024043
100
AcDbArc
 50
168.52152231404963
 51
191.47847768594951
  0
ARC
  5
2E8
100
AcDbEntity
  8
0
  6
CONTINUOUS
 62
               7
100
AcDbCircle
 10
7.4999971389747149
 20
20.494999999999997
 30
0.0
 40
5.0000053038027854
100
AcDbArc
 50
348.52152448877735
 51
11.478475511221927
  0
ARC
  5
2E9
100
AcDbEntity
  8
0
  6
CONTINUOUS
 62
               7
100
AcDbCircle
 10
23.5
 20
21.5
 30
0.0
 40
4.8999999999999986
100
AcDbArc
 50
0.0
 51
179.9999999999996
  0
ARC
  5
2EA
100
AcDbEntity
  8
0
  6
CONTINUOUS
 62
               7
100
AcDbCircle
 10
23.5
 20
19.5
 30
0.0
 40
4.8999999999999986
100
AcDbArc
 50
179.9999999999996
 51
0.0
  0
CIRCLE
  5
2EB
100
AcDbEntity
  8
0
  6
CONTINUOUS
 62
               7
100
AcDbCircle
 10
23.5
 20
20.5
 30
0.0
 40
3.0
  0
ARC
  5
2EC
100
AcDbEntity
  8
0
  6
CONTINUOUS
 62
               7
100
AcDbCircle
 10
23.500000000002338
 20
20.494999999999997
 30
0.0
 40
5.0000025000016635
100
AcDbArc
 50
168.52151796459117
 51
191.47848203540801
  0
ARC
  5
2ED
100
AcDbEntity
  8
0
  6
CONTINUOUS
 62
               7
100
AcDbCircle
 10
23.4999847412086
 20
20.494999999999997
 30
0.0
 40
5.0000174536083897
100
AcDbArc
 50
348.52155276016765
 51
11.478447239831599
  0
ARC
  5
2EE
100
AcDbEntity
  8
0
  6
CONTINUOUS
 62
               7
100
AcDbCircle
 10
39.5
 20
21.5
 30
0.0
 40
4.8999999999999986
100
AcDbArc
 50
0.0
 51
179.9999999999996
  0
ARC
  5
2EF
100
AcDbEntity
  8
0
  6
CONTINUOUS
 62
               7
100
AcDbCircle
 10
39.5
 20
19.5
 30
0.0
 40
4.8999999999999986
100
AcDbArc
 50
179.9999999999996
 51
0.0
  0
CIRCLE
  5
2F0
100
AcDbEntity
  8
0
  6
CONTINUOUS
 62
               7
100
AcDbCircle
 10
39.5
 20
20.5
 30
0.0
 40
3.0
  0
ARC
  5
2F1
100
AcDbEntity
  8
0
  6
CONTINUOUS
 62
               7
100
AcDbCircle
 10
39.500000000002338
 20
20.494999999999997
 30
0.0
 40
5.0000025000016635
100
AcDbArc
 50
168.52151796459117
 51
191.47848203540801
  0
ARC
  5
2F2
100
AcDbEntity
  8
0
  6
CONTINUOUS
 62
               7
100
AcDbCircle
 10
39.4999847412086
 20
20.494999999999997
 30
0.0
 40
5.0000174536083897
100
AcDbArc
 50
348.52155276016765
 51
11.478447239831599
  0
ARC
  5
2F3
100
AcDbEntity
  8
0
  6
CONTINUOUS
 62
               7
100
AcDbCircle
 10
55.5
 20
21.5
 30
0.0
 40
4.8999999999999986
100
AcDbArc
 50
0.0
 51
179.9999999999996
  0
ARC
  5
2F4
100
AcDbEntity
  8
0
  6
CONTINUOUS
 62
               7
100
AcDbCircle
 10
55.5
 20
19.5
 30
0.0
 40
4.8999999999999986
100
AcDbArc
 50
179.9999999999996
 51
0.0
  0
CIRCLE
  5
2F5
100
AcDbEntity
  8
0
  6
CONTINUOUS
 62
               7
100
AcDbCircle
 10
55.5
 20
20.5
 30
0.0
 40
3.0
  0
ARC
  5
2F6
100
AcDbEntity
  8
0
  6
CONTINUOUS
 62
               7
100
AcDbCircle
 10
55.500000000002338
 20
20.494999999999997
 30
0.0
 40
5.0000025000016635
100
AcDbArc
 50
168.52151796459117
 51
191.47848203540801
  0
ARC
  5
2F7
100
AcDbEntity
  8
0
  6
CONTINUOUS
 62
               7
100
AcDbCircle
 10
55.4999847412086
 20
20.494999999999997
 30
0.0
 40
5.0000174536083897
100
AcDbArc
 50
348.52155276016765
 51
11.478447239831599
  0
ARC
  5
2F8
100
AcDbEntity
  8
0
  6
CONTINUOUS
 62
               7
100
AcDbCircle
 10
15.5
 20
7.5
 30
0.0
 40
4.8999999999999995
100
AcDbArc
 50
0.0
 51
179.9999999999996
  0
ARC
  5
2F9
100
AcDbEntity
  8
0
  6
CONTINUOUS
 62
               7
100
AcDbCircle
 10
15.5
 20
5.5
 30
0.0
 40
4.8999999999999995
100
AcDbArc
 50
179.9999999999996
 51
0.0
  0
CIRCLE
  5
2FA
100
AcDbEntity
  8
0
  6
CONTINUOUS
 62
               7
100
AcDbCircle
 10
15.5
 20
6.5
 30
0.0
 40
3.0
  0
ARC
  5
2FB
100
AcDbEntity
  8
0
  6
CONTINUOUS
 62
               7
100
AcDbCircle
 10
15.500001907348633
 20
6.4950000000000001
 30
0.0
 40
5.0000043692001164
100
AcDbArc
 50
168.52152231404432
 51
191.47847768595486
  0
ARC
  5
2FC
100
AcDbEntity
  8
0
  6
CONTINUOUS
 62
               7
100
AcDbCircle
 10
15.499997138977049
 20
6.4950000000000001
 30
0.0
 40
5.0000053038004957
100
AcDbArc
 50
348.52152448877195
 51
11.47847551122727
  0
ARC
  5
2FD
100
AcDbEntity
  8
0
  6
CONTINUOUS
 62
               7
100
AcDbCircle
 10
31.5
 20
7.5
 30
0.0
 40
4.8999999999999986
100
AcDbArc
 50
0.0
 51
179.9999999999996
  0
ARC
  5
2FE
100
AcDbEntity
  8
0
  6
CONTINUOUS
 62
               7
100
AcDbCircle
 10
31.5
 20
5.5
 30
0.0
 40
4.8999999999999986
100
AcDbArc
 50
179.9999999999996
 51
0.0
  0
CIRCLE
  5
2FF
100
AcDbEntity
  8
0
  6
CONTINUOUS
 62
               7
100
AcDbCircle
 10
31.5
 20
6.5
 30
0.0
 40
3.0
  0
ARC
  5
300
100
AcDbEntity
  8
0
  6
CONTINUOUS
 62
               7
100
AcDbCircle
 10
31.5
 20
6.4950000000000001
 30
0.0
 40
5.0000024999993746
100
AcDbArc
 50
168.52151796458585
 51
191.47848203541335
  0
ARC
  5
301
100
AcDbEntity
  8
0
  6
CONTINUOUS
 62
               7
100
AcDbCircle
 10
31.499984741210938
 20
6.4950000000000001
 30
0.0
 40
5.0000174536061017
100
AcDbArc
 50
348.52155276016231
 51
11.478447239836891
  0
ARC
  5
302
100
AcDbEntity
  8
0
  6
CONTINUOUS
 62
               7
100
AcDbCircle
 10
47.5
 20
7.5
 30
0.0
 40
4.8999999999999986
100
AcDbArc
 50
0.0
 51
179.9999999999996
  0
ARC
  5
303
100
AcDbEntity
  8
0
  6
CONTINUOUS
 62
               7
100
AcDbCircle
 10
47.5
 20
5.5
 30
0.0
 40
4.8999999999999986
100
AcDbArc
 50
179.9999999999996
 51
0.0
  0
CIRCLE
  5
304
100
AcDbEntity
  8
0
  6
CONTINUOUS
 62
               7
100
AcDbCircle
 10
47.5
 20
6.5
 30
0.0
 40
3.0
  0
ARC
  5
305
100
AcDbEntity
  8
0
  6
CONTINUOUS
 62
               7
100
AcDbCircle
 10
47.5
 20
6.4950000000000001
 30
0.0
 40
5.0000024999993746
100
AcDbArc
 50
168.52151796458585
 51
191.47848203541335
  0
ARC
  5
306
100
AcDbEntity
  8
0
  6
CONTINUOUS
 62
               7
100
AcDbCircle
 10
47.499984741210938
 20
6.4950000000000001
 30
0.0
 40
5.0000174536061017
100
AcDbArc
 50
348.52155276016231
 51
11.478447239836891
  0
ARC
  5
307
100
AcDbEntity
  8
0
  6
CONTINUOUS
 62
               7
100
AcDbCircle
 10
63.5
 20
7.5
 30
0.0
 40
4.9000000000000021
100
AcDbArc
 50
0.0
 51
179.9999999999996
  0
ARC
  5
308
100
AcDbEntity
  8
0
  6
CONTINUOUS
 62
               7
100
AcDbCircle
 10
63.5
 20
5.5
 30
0.0
 40
4.9000000000000021
100
AcDbArc
 50
179.9999999999996
 51
0.0
  0
CIRCLE
  5
309
100
AcDbEntity
  8
0
  6
CONTINUOUS
 62
               7
100
AcDbCircle
 10
63.5
 20
6.5
 30
0.0
 40
3.0
  0
ARC
  5
30A
100
AcDbEntity
  8
0
  6
CONTINUOUS
 62
               7
100
AcDbCircle
 10
63.5
 20
6.4950000000000001
 30
0.0
 40
5.0000024999993746
100
AcDbArc
 50
168.52151796458585
 51
191.47848203541335
  0
ARC
  5
30B
100
AcDbEntity
  8
0
  6
CONTINUOUS
 62
               7
100
AcDbCircle
 10
63.499984741210938
 20
6.4950000000000001
 30
0.0
 40
5.0000174536061088
100
AcDbArc
 50
348.52155276016231
 51
11.478447239836891
  0
CIRCLE
  5
30C
100
AcDbEntity
  8
0
  6
CONTINUOUS
 62
               7
100
AcDbCircle
 10
7.9999847412109375
 20
57.0
 30
0.0
 40
2.25
  0
CIRCLE
  5
30D
100
AcDbEntity
  8
0
  6
CONTINUOUS
 62
               7
100
AcDbCircle
 10
16.999984741210937
 20
39.0
 30
0.0
 40
2.25
  0
CIRCLE
  5
30E
100
AcDbEntity
  8
0
  6
CONTINUOUS
 62
               7
100
AcDbCircle
 10
23.999984741210937
 20
57.0
 30
0.0
 40
2.25
  0
CIRCLE
  5
30F
100
AcDbEntity
  8
0
  6
CONTINUOUS
 62
               7
100
AcDbCircle
 10
32.999984741210938
 20
39.0
 30
0.0
 40
2.25
  0
CIRCLE
  5
310
100
AcDbEntity
  8
0
  6
CONTINUOUS
 62
               4
100
AcDbCircle
 10
39.999984741210937
 20
39.0
 30
0.0
 40
2.25
  0
CIRCLE
  5
311
100
AcDbEntity
  8
0
  6
CONTINUOUS
 62
               4
100
AcDbCircle
 10
48.999954223632813
 20
57.000030517578125
 30
0.0
 40
2.25
  0
CIRCLE
  5
312
100
AcDbEntity
  8
0
  6
CONTINUOUS
 62
               4
100
AcDbCircle
 10
39.999984741210937
 20
39.0
 30
0.0
 40
2.5500001907348633
  0
CIRCLE
  5
313
100
AcDbEntity
  8
0
  6
CONTINUOUS
 62
               4
100
AcDbCircle
 10
48.999954223632813
 20
57.000030517578125
 30
0.0
 40
2.5500001907348633
  0
ARC
  5
314
100
AcDbEntity
  8
0
  6
CONTINUOUS
 62
               4
100
AcDbCircle
 10
39.999984741210937
 20
38.999984741210938
 30
0.0
 40
3.0000152588278675
100
AcDbArc
 50
0.0002914199223463
 51
89.999708580077453
  0
ARC
  5
315
100
AcDbEntity
  8
0
  6
CONTINUOUS
 62
               4
100
AcDbCircle
 10
48.999984741210937
 20
56.999984741210937
 30
0.0
 40
2.9999847412497429
100
AcDbArc
 50
179.99970857711276
 51
270.00029142288622
  0
ARC
  5
316
100
AcDbEntity
  8
0
  6
CONTINUOUS
 62
               4
100
AcDbCircle
 10
56.386595674255972
 20
40.209916354015739
 30
0.0
 40
0.7964936544278238
100
AcDbArc
 50
5.0479959973561286
 51
75.204211158234699
  0
ARC
  5
317
100
AcDbEntity
  8
0
  6
CONTINUOUS
 62
               4
100
AcDbCircle
 10
54.995000000000005
 20
35.199996948240269
 30
0.0
 40
5.9960370477801215
100
AcDbArc
 50
74.573081848762456
 51
105.42691815123722
  0
ARC
  5
318
100
AcDbEntity
  8
0
  6
CONTINUOUS
 62
               4
100
AcDbCircle
 10
64.609260569296183
 20
40.2049803773075
 30
0.0
 40
0.8027735679633296
100
AcDbArc
 50
105.10993833159193
 51
174.63785451281626
  0
ARC
  5
319
100
AcDbEntity
  8
0
  6
CONTINUOUS
 62
               4
100
AcDbCircle
 10
67.386595674255972
 20
40.209916354015732
 30
0.0
 40
0.7964936544278274
100
AcDbArc
 50
5.0479959973565922
 51
75.204211158234827
  0
ARC
  5
31A
100
AcDbEntity
  8
0
  6
CONTINUOUS
 62
               4
100
AcDbCircle
 10
65.995000000000005
 20
35.199996948240269
 30
0.0
 40
5.9960370477801206
100
AcDbArc
 50
74.573081848762456
 51
105.42691815123716
  0
ARC
  5
31B
100
AcDbEntity
  8
0
  6
CONTINUOUS
 62
               4
100
AcDbCircle
 10
53.609260569296183
 20
40.2049803773075
 30
0.0
 40
0.8027735679633306
100
AcDbArc
 50
105.10993833159243
 51
174.63785451281626
  0
ENDBLK
  5
31C
100
AcDbEntity
  8
0
100
AcDbBlockEnd
  0
BLOCK
  5
31F
100
AcDbEntity
  8
0
  6
ByBlock
 62
               0
100
AcDbBlockBegin
  2
_OPEN30
 70
               2
 10
0.0
 20
0.0
 30
0.0
  3
_OPEN30
  1

  0
LINE
  5
320
100
AcDbEntity
  8
0
  6
ByBlock
 62
               0
100
AcDbLine
 10
-1.0
 20
0.267949
 30
0.0
 11
0.0
 21
0.0
 31
0.0
  0
LINE
  5
321
100
AcDbEntity
  8
0
  6
ByBlock
 62
               0
100
AcDbLine
 10
0.0
 20
0.0
 30
0.0
 11
-1.0
 21
-0.267949
 31
0.0
  0
LINE
  5
322
100
AcDbEntity
  8
0
  6
ByBlock
 62
               0
100
AcDbLine
 10
0.0
 20
0.0
 30
0.0
 11
-1.0
 21
0.0
 31
0.0
  0
ENDBLK
  5
323
100
AcDbEntity
  8
0
  6
ByBlock
 62
               0
100
AcDbBlockEnd
  0
BLOCK
  5
394
100
AcDbEntity
  8
0
  6
ByBlock
 62
               0
100
AcDbBlockBegin
  2
*D5
 70
               1
 10
0.0
 20
0.0
 30
0.0
  3
*D5
  1

  0
LINE
  5
395
100
AcDbEntity
  8
0
  6
ByBlock
 62
               0
100
AcDbLine
 10
-50.636184692382813
 20
56.660629272460938
 30
0.0
 11
-47.136184692382813
 21
56.660629272460938
 31
0.0
  0
LINE
  5
396
100
AcDbEntity
  8
0
  6
ByBlock
 62
               0
100
AcDbLine
 10
-66.227325439453125
 20
56.660629272460938
 30
0.0
 11
-50.636184692382813
 21
56.660629272460938
 31
0.0
  0
LINE
  5
397
100
AcDbEntity
  8
0
  6
ByBlock
 62
               0
100
AcDbLine
 10
-47.136184692382813
 20
0.4159278869628906
 30
0.0
 11
-47.136184692382813
 21
58.160629272460938
 31
0.0
  0
LINE
  5
398
100
AcDbEntity
  8
0
  6
ByBlock
 62
               0
100
AcDbLine
 10
-50.636184692382813
 20
56.660629272460938
 30
0.0
 11
-54.192184686660767
 21
56.660629272460938
 31
0.0
  0
LINE
  5
399
100
AcDbEntity
  8
0
  6
ByBlock
 62
               0
100
AcDbLine
 10
-47.136184692382813
 20
56.660629272460938
 30
0.0
 11
-43.580184698104858
 21
56.660629272460938
 31
0.0
  0
INSERT
  5
39A
100
AcDbEntity
  8
0
  6
ByBlock
 62
               0
100
AcDbBlockReference
  2
_OPEN30
 10
-50.636184692382813
 20
56.660629272460938
 30
0.0
 41
2.77
 42
2.77
 43
2.77
  0
INSERT
  5
39B
100
AcDbEntity
  8
0
  6
ByBlock
 62
               0
100
AcDbBlockReference
  2
_OPEN30
 10
-47.136184692382813
 20
56.660629272460938
 30
0.0
 41
2.77
 42
2.77
 43
2.77
 50
179.9999999999996
  0
MTEXT
  5
39C
100
AcDbEntity
  8
0
  6
ByBlock
 62
               2
100
AcDbMText
 10
-59.477325439453125
 20
59.910629272460938
 30
0.0
 40
4.5
 41
0.0
 71
               5
 72
               1
  1
\A1;3.5
  7
MX_NOTE_STANDARD
  0
POINT
  5
39D
100
AcDbEntity
  8
DEFPOINTS
  6
ByBlock
 62
               0
100
AcDbPoint
 10
-50.636184692382813
 20
16.915924072265625
 30
0.0
  0
POINT
  5
39E
100
AcDbEntity
  8
DEFPOINTS
  6
ByBlock
 62
               0
100
AcDbPoint
 10
-47.136184692382813
 20
0.4159278869628906
 30
0.0
  0
POINT
  5
39F
100
AcDbEntity
  8
DEFPOINTS
  6
ByBlock
 62
               0
100
AcDbPoint
 10
-47.136184692382813
 20
56.660629272460938
 30
0.0
  0
ENDBLK
  5
3A0
100
AcDbEntity
  8
0
  6
ByBlock
 62
               0
100
AcDbBlockEnd
  0
BLOCK
  5
3A3
100
AcDbEntity
  8
0
  6
ByBlock
 62
               0
100
AcDbBlockBegin
  2
*D6
 70
               1
 10
0.0
 20
0.0
 30
0.0
  3
*D6
  1

  0
LINE
  5
3A4
100
AcDbEntity
  8
0
  6
ByBlock
 62
               0
100
AcDbLine
 10
-47.136184692382813
 20
56.660629272460938
 30
0.0
 11
25.863815307617188
 21
56.660629272460938
 31
0.0
  0
LINE
  5
3A5
100
AcDbEntity
  8
0
  6
ByBlock
 62
               0
100
AcDbLine
 10
25.863815307617188
 20
0.4159278869628906
 30
0.0
 11
25.863815307617188
 21
58.160629272460938
 31
0.0
  0
INSERT
  5
3AA
100
AcDbEntity
  8
0
  6
ByBlock
 62
               0
100
AcDbBlockReference
  2
_OPEN30
 10
25.863815307617188
 20
56.660629272460938
 30
0.0
 41
2.77
 42
2.77
 43
2.77
  0
MTEXT
  5
3AB
100
AcDbEntity
  8
0
  6
ByBlock
 62
               2
100
AcDbMText
 10
-10.636184692382813
 20
59.910629272460938
 30
0.0
 40
4.5
 41
0.0
 71
               5
 72
               1
  1
\A1;P
  7
MX_NOTE_STANDARD
  0
POINT
  5
3AC
100
AcDbEntity
  8
DEFPOINTS
  6
ByBlock
 62
               0
100
AcDbPoint
 10
-47.136184692382813
 20
0.4159278869628906
 30
0.0
  0
POINT
  5
3AD
100
AcDbEntity
  8
DEFPOINTS
  6
ByBlock
 62
               0
100
AcDbPoint
 10
25.863815307617188
 20
0.4159278869628906
 30
0.0
  0
POINT
  5
3AE
100
AcDbEntity
  8
DEFPOINTS
  6
ByBlock
 62
               0
100
AcDbPoint
 10
25.863815307617188
 20
56.660629272460938
 30
0.0
  0
ENDBLK
  5
3AF
100
AcDbEntity
  8
0
  6
ByBlock
 62
               0
100
AcDbBlockEnd
  0
BLOCK
  5
3A7
100
AcDbEntity
  8
0
  6
ByBlock
 62
               0
100
AcDbBlockBegin
  2
_NONE
 70
               2
 10
0.0
 20
0.0
 30
0.0
  3
_NONE
  1

  0
CIRCLE
  5
3A8
100
AcDbEntity
  8
0
  6
ByBlock
 62
               0
100
AcDbCircle
 10
0.0
 20
0.0
 30
0.0
 40
0.25
  0
ENDBLK
  5
3A9
100
AcDbEntity
  8
0
  6
ByBlock
 62
               0
100
AcDbBlockEnd
  0
BLOCK
  5
3B2
100
AcDbEntity
  8
0
  6
ByBlock
 62
               0
100
AcDbBlockBegin
  2
*D8
 70
               1
 10
0.0
 20
0.0
 30
0.0
  3
*D8
  1

  0
LINE
  5
3B3
100
AcDbEntity
  8
0
  6
ByBlock
 62
               0
100
AcDbLine
 10
25.863815307617188
 20
56.660629272460938
 30
0.0
 11
29.363815307617188
 21
56.660629272460938
 31
0.0
  0
LINE
  5
3B4
100
AcDbEntity
  8
0
  6
ByBlock
 62
               0
100
AcDbLine
 10
29.363815307617188
 20
56.660629272460938
 30
0.0
 11
46.468093872070313
 21
56.660629272460938
 31
0.0
  0
LINE
  5
3B5
100
AcDbEntity
  8
0
  6
ByBlock
 62
               0
100
AcDbLine
 10
29.363815307617188
 20
56.660629272460938
 30
0.0
 11
32.919815301895142
 21
56.660629272460938
 31
0.0
  0
INSERT
  5
3B6
100
AcDbEntity
  8
0
  6
ByBlock
 62
               0
100
AcDbBlockReference
  2
_OPEN30
 10
29.363815307617188
 20
56.660629272460938
 30
0.0
 41
2.77
 42
2.77
 43
2.77
 50
179.9999999999996
  0
MTEXT
  5
3B7
100
AcDbEntity
  8
0
  6
ByBlock
 62
               2
100
AcDbMText
 10
39.718093872070313
 20
59.910629272460938
 30
0.0
 40
4.5
 41
0.0
 71
               5
 72
               1
  1
\A1;3.5
  7
MX_NOTE_STANDARD
  0
POINT
  5
3B8
100
AcDbEntity
  8
DEFPOINTS
  6
ByBlock
 62
               0
100
AcDbPoint
 10
25.863815307617188
 20
0.4159278869628906
 30
0.0
  0
POINT
  5
3B9
100
AcDbEntity
  8
DEFPOINTS
  6
ByBlock
 62
               0
100
AcDbPoint
 10
29.363815307617188
 20
16.915924072265625
 30
0.0
  0
POINT
  5
3BA
100
AcDbEntity
  8
DEFPOINTS
  6
ByBlock
 62
               0
100
AcDbPoint
 10
29.363815307617188
 20
56.660629272460938
 30
0.0
  0
ENDBLK
  5
3BB
100
AcDbEntity
  8
0
  6
ByBlock
 62
               0
100
AcDbBlockEnd
  0
BLOCK
  5
3BE
100
AcDbEntity
  8
0
  6
ByBlock
 62
               0
100
AcDbBlockBegin
  2
*D9
 70
               1
 10
0.0
 20
0.0
 30
0.0
  3
*D9
  1

  0
LINE
  5
3BF
100
AcDbEntity
  8
0
  6
ByBlock
 62
               0
100
AcDbLine
 10
-50.636184692382813
 20
68.660629272460938
 30
0.0
 11
29.363815307617188
 21
68.660629272460938
 31
0.0
  0
LINE
  5
3C0
100
AcDbEntity
  8
0
  6
ByBlock
 62
               0
100
AcDbLine
 10
-50.636184692382813
 20
18.415924072265625
 30
0.0
 11
-50.636184692382813
 21
70.160629272460938
 31
0.0
  0
LINE
  5
3C1
100
AcDbEntity
  8
0
  6
ByBlock
 62
               0
100
AcDbLine
 10
29.363815307617188
 20
18.415924072265625
 30
0.0
 11
29.363815307617188
 21
70.160629272460938
 31
0.0
  0
INSERT
  5
3C2
100
AcDbEntity
  8
0
  6
ByBlock
 62
               0
100
AcDbBlockReference
  2
_OPEN30
 10
-50.636184692382813
 20
68.660629272460938
 30
0.0
 41
2.77
 42
2.77
 43
2.77
 50
179.9999999999996
  0
INSERT
  5
3C3
100
AcDbEntity
  8
0
  6
ByBlock
 62
               0
100
AcDbBlockReference
  2
_OPEN30
 10
29.363815307617188
 20
68.660629272460938
 30
0.0
 41
2.77
 42
2.77
 43
2.77
  0
MTEXT
  5
3C4
100
AcDbEntity
  8
0
  6
ByBlock
 62
               2
100
AcDbMText
 10
-10.636184692382813
 20
71.910629272460938
 30
0.0
 40
4.5
 41
0.0
 71
               5
 72
               1
  1
\A1;L
  7
MX_NOTE_STANDARD
  0
POINT
  5
3C5
100
AcDbEntity
  8
DEFPOINTS
  6
ByBlock
 62
               0
100
AcDbPoint
 10
-50.636184692382813
 20
16.915924072265625
 30
0.0
  0
POINT
  5
3C6
100
AcDbEntity
  8
DEFPOINTS
  6
ByBlock
 62
               0
100
AcDbPoint
 10
29.363815307617188
 20
16.915924072265625
 30
0.0
  0
POINT
  5
3C7
100
AcDbEntity
  8
DEFPOINTS
  6
ByBlock
 62
               0
100
AcDbPoint
 10
29.363815307617188
 20
68.660629272460938
 30
0.0
  0
ENDBLK
  5
3C8
100
AcDbEntity
  8
0
  6
ByBlock
 62
               0
100
AcDbBlockEnd
  0
BLOCK
  5
3CB
100
AcDbEntity
  8
0
  6
ByBlock
 62
               0
100
AcDbBlockBegin
  2
*D10
 70
               1
 10
0.0
 20
0.0
 30
0.0
  3
*D10
  1

  0
LINE
  5
3CC
100
AcDbEntity
  8
0
  6
ByBlock
 62
               0
100
AcDbLine
 10
40.34649658203125
 20
-36.084075927734375
 30
0.0
 11
40.34649658203125
 21
-43.584075927734375
 31
0.0
  0
LINE
  5
3CD
100
AcDbEntity
  8
0
  6
ByBlock
 62
               0
100
AcDbLine
 10
40.34649658203125
 20
-43.584075927734375
 30
0.0
 11
40.34649658203125
 21
-81.560821533203125
 31
0.0
  0
LINE
  5
3CE
100
AcDbEntity
  8
0
  6
ByBlock
 62
               0
100
AcDbLine
 10
30.863815307617187
 20
-36.084075927734375
 30
0.0
 11
41.84649658203125
 21
-36.084075927734375
 31
0.0
  0
LINE
  5
3CF
100
AcDbEntity
  8
0
  6
ByBlock
 62
               0
100
AcDbLine
 10
22.763809204101563
 20
-43.584075927734375
 30
0.0
 11
41.84649658203125
 21
-43.584075927734375
 31
0.0
  0
LINE
  5
3D0
100
AcDbEntity
  8
0
  6
ByBlock
 62
               0
100
AcDbLine
 10
40.34649658203125
 20
-36.084075927734375
 30
0.0
 11
40.34649658203125
 21
-32.528075933456421
 31
0.0
  0
LINE
  5
3D1
100
AcDbEntity
  8
0
  6
ByBlock
 62
               0
100
AcDbLine
 10
40.34649658203125
 20
-43.584075927734375
 30
0.0
 11
40.34649658203125
 21
-47.140075922012329
 31
0.0
  0
INSERT
  5
3D2
100
AcDbEntity
  8
0
  6
ByBlock
 62
               0
100
AcDbBlockReference
  2
_OPEN30
 10
40.34649658203125
 20
-36.084075927734375
 30
0.0
 41
2.77
 42
2.77
 43
2.77
 50
269.99999999999937
  0
INSERT
  5
3D3
100
AcDbEntity
  8
0
  6
ByBlock
 62
               0
100
AcDbBlockReference
  2
_OPEN30
 10
40.34649658203125
 20
-43.584075927734375
 30
0.0
 41
2.77
 42
2.77
 43
2.77
 50
89.999999999999801
  0
MTEXT
  5
3D4
100
AcDbEntity
  8
0
  6
ByBlock
 62
               2
100
AcDbMText
 10
37.09649658203125
 20
-63.560821533203125
 30
0.0
 40
4.5
 41
0.0
 71
               5
 72
               1
  1
\A1;7.5(-J6)
  7
MX_NOTE_STANDARD
 11
-0.0000000000000001
 21
1.0
 31
0.0
  0
POINT
  5
3D5
100
AcDbEntity
  8
DEFPOINTS
  6
ByBlock
 62
               0
100
AcDbPoint
 10
29.363815307617188
 20
-36.084075927734375
 30
0.0
  0
POINT
  5
3D6
100
AcDbEntity
  8
DEFPOINTS
  6
ByBlock
 62
               0
100
AcDbPoint
 10
21.263809204101563
 20
-43.584075927734375
 30
0.0
  0
POINT
  5
3D7
100
AcDbEntity
  8
DEFPOINTS
  6
ByBlock
 62
               0
100
AcDbPoint
 10
40.34649658203125
 20
-43.584075927734375
 30
0.0
  0
ENDBLK
  5
3D8
100
AcDbEntity
  8
0
  6
ByBlock
 62
               0
100
AcDbBlockEnd
  0
ENDSEC
  0
SECTION
  2
ENTITIES
  0
LEADER
  5
31D
100
AcDbEntity
  8
0
 62
               2
100
AcDbLeader
  3
MXDIMSTYLE
 73
               3
 74
               0
 75
               0
 40
0.0
 76
               3
 10
0.387814462184906
 20
-114.11296081542969
 30
0.0
 10
5.3799999999999999
 20
-105.45
 30
0.0
 10
49.623223309516909
 20
-105.45
 30
0.0
 77
               2
1001
ACAD
1000
DSTYLE
1002
{
1070
               6
1000
_OPEN30
1070
               7
1000
_OPEN30
1070
              41
1040
2.77
1070
             173
1070
               1
1002
}
  0
MTEXT
  5
324
100
AcDbEntity
  8
0
 62
               2
100
AcDbMText
 10
5.6232233095169066
 20
-101.20000023841858
 30
0.0
 40
4.0
 41
0.0
 71
               4
 72
               1
  1
\W1.082;\A1;CS-A110-4E2
  7
MX_NOTE_STANDARD
  0
LEADER
  5
325
100
AcDbEntity
  8
0
 62
               2
100
AcDbLeader
  3
MXDIMSTYLE
 73
               3
 74
               0
 75
               0
 40
0.0
 76
               3
 10
13.36383056640625
 20
-137.1287841796875
 30
0.0
 10
23.359999999999999
 20
-119.8
 30
0.0
 10
43.589363679885864
 20
-119.8
 30
0.0
 77
               2
1001
ACAD
1000
DSTYLE
1002
{
1070
               6
1000
_OPEN30
1070
               7
1000
_OPEN30
1070
              41
1040
2.77
1070
             173
1070
               1
1002
}
  0
MTEXT
  5
326
100
AcDbEntity
  8
0
 62
               2
100
AcDbMText
 10
23.589363679885864
 20
-115.55000023841858
 30
0.0
 40
4.0
 41
0.0
 71
               4
 72
               1
  1
\A1;CS-BP
  7
MX_NOTE_STANDARD
  0
LEADER
  5
327
100
AcDbEntity
  8
0
 62
               2
100
AcDbLeader
  3
MXDIMSTYLE
 73
               3
 74
               0
 75
               0
 40
0.0
 76
               3
 10
-37.660247802734375
 20
-114.12882995605469
 30
0.0
 10
-47.660272598281153
 20
-96.808300530619817
 30
0.0
 10
-84.275197803988704
 20
-96.808300530619817
 30
0.0
 77
               2
1001
ACAD
1000
DSTYLE
1002
{
1070
               6
1000
_OPEN30
1070
               7
1000
_OPEN30
1070
              41
1040
2.77
1070
             173
1070
               1
1002
}
  0
MTEXT
  5
328
100
AcDbEntity
  8
0
 62
               2
100
AcDbMText
 10
-84.275197803988704
 20
-92.558300769038397
 30
0.0
 40
4.0
 41
0.0
 71
               4
 72
               1
  1
\W1.149;\A1;CS-A110E1
  7
MX_NOTE_STANDARD
  0
LEADER
  5
329
100
AcDbEntity
  8
0
 62
               2
100
AcDbLeader
  3
MXDIMSTYLE
 73
               3
 74
               0
 75
               0
 40
0.0
 76
               3
 10
-21.636260986328125
 20
-114.12881469726562
 30
0.0
 10
-39.130000000000003
 20
-83.810000000000002
 30
0.0
 10
-83.518591587543483
 20
-83.810000000000002
 30
0.0
 77
               2
1001
ACAD
1000
DSTYLE
1002
{
1070
               6
1000
_OPEN30
1070
               7
1000
_OPEN30
1070
              41
1040
2.77
1070
             173
1070
               1
1002
}
  0
MTEXT
  5
32A
100
AcDbEntity
  8
0
 62
               2
100
AcDbMText
 10
-83.518591587543483
 20
-79.560000238418581
 30
0.0
 40
4.0
 41
0.0
 71
               4
 72
               1
  1
\W1.119;\A1;CS-A110-4E1
  7
MX_NOTE_STANDARD
  0
MTEXT
  5
32B
100
AcDbEntity
  8
0
  6
CONTINUOUS
 62
               7
100
AcDbMText
 10
198.2770240315611
 20
185.5
 30
0.0
 40
6.3000001907348633
 41
0.0
 71
               4
 72
               1
  1
\W1.311;\A1;Ver. 1.0
  7
MX_NOTE_STANDARD
  0
INSERT
  5
32C
100
AcDbEntity
  8
0
100
AcDbBlockReference
  2
MS_1
 10
-47.136184692382813
 20
-3.584075927734375
 30
0.0
  0
INSERT
  5
32D
100
AcDbEntity
  8
0
100
AcDbBlockReference
  2
MS_2
 10
190.02262878417969
 20
-3.584075927734375
 30
0.0
  0
INSERT
  5
32E
100
AcDbEntity
  8
0
100
AcDbBlockReference
  2
MS_3
 10
-47.136184692382813
 20
173.96070861816406
 30
0.0
  0
INSERT
  5
32F
100
AcDbEntity
  8
0
100
AcDbBlockReference
  2
MS_4
 10
-47.136184692382813
 20
-176.12881469726562
 30
0.0
  0
LINE
  5
330
100
AcDbEntity
  8
0
  6
CONTINUOUS
 62
               7
100
AcDbLine
 10
-281.25
 20
195.5
 30
0.0
 11
282.10000000000002
 21
195.5
 31
0.0
  0
LINE
  5
331
100
AcDbEntity
  8
0
  6
CONTINUOUS
 62
               7
100
AcDbLine
 10
-281.25
 20
195.5
 30
0.0
 11
-281.25
 21
-195.0
 31
0.0
  0
LINE
  5
332
100
AcDbEntity
  8
0
  6
CONTINUOUS
 62
               7
100
AcDbLine
 10
282.10000000000002
 20
195.5
 30
0.0
 11
282.10000000000002
 21
-195.0
 31
0.0
  0
LINE
  5
333
100
AcDbEntity
  8
0
  6
CONTINUOUS
 62
               7
100
AcDbLine
 10
-281.25
 20
-195.0
 30
0.0
 11
282.10000000000002
 21
-195.0
 31
0.0
  0
LINE
  5
334
100
AcDbEntity
  8
0
  6
CONTINUOUS
 62
               7
100
AcDbLine
 10
162.09999999999999
 20
-175.0
 30
0.0
 11
162.09999999999999
 21
-195.0
 31
0.0
  0
LINE
  5
335
100
AcDbEntity
  8
0
  6
CONTINUOUS
 62
               7
100
AcDbLine
 10
162.09999999999999
 20
-175.0
 30
0.0
 11
282.10000000000002
 21
-175.0
 31
0.0
  0
LINE
  5
336
100
AcDbEntity
  8
0
  6
CONTINUOUS
 62
               7
100
AcDbLine
 10
162.09999999999999
 20
175.5
 30
0.0
 11
282.10000000000002
 21
175.5
 31
0.0
  0
LINE
  5
337
100
AcDbEntity
  8
0
  6
CONTINUOUS
 62
               7
100
AcDbLine
 10
-281.25
 20
175.5
 30
0.0
 11
-161.25
 21
175.5
 31
0.0
  0
LINE
  5
338
100
AcDbEntity
  8
0
  6
CONTINUOUS
 62
               7
100
AcDbLine
 10
162.09999999999999
 20
195.5
 30
0.0
 11
162.09999999999999
 21
175.5
 31
0.0
  0
LINE
  5
339
100
AcDbEntity
  8
0
  6
CONTINUOUS
 62
               7
100
AcDbLine
 10
-161.25
 20
195.5
 30
0.0
 11
-161.25
 21
175.5
 31
0.0
  0
LINE
  5
33A
100
AcDbEntity
  8
0
  6
CONTINUOUS
 62
               7
100
AcDbLine
 10
-261.25
 20
25.0
 30
0.0
 11
-261.25
 21
-175.0
 31
0.0
  0
LINE
  5
33B
100
AcDbEntity
  8
0
  6
CONTINUOUS
 62
               7
100
AcDbLine
 10
-261.25
 20
-175.0
 30
0.0
 11
-141.25
 21
-175.0
 31
0.0
  0
LINE
  5
33C
100
AcDbEntity
  8
0
  6
CONTINUOUS
 62
               7
100
AcDbLine
 10
-261.25
 20
-165.0
 30
0.0
 11
-141.25
 21
-165.0
 31
0.0
  0
LINE
  5
33D
100
AcDbEntity
  8
0
  6
CONTINUOUS
 62
               7
100
AcDbLine
 10
-261.25
 20
-155.0
 30
0.0
 11
-141.25
 21
-155.0
 31
0.0
  0
LINE
  5
33E
100
AcDbEntity
  8
0
  6
CONTINUOUS
 62
               7
100
AcDbLine
 10
-261.25
 20
-145.0
 30
0.0
 11
-141.25
 21
-145.0
 31
0.0
  0
LINE
  5
33F
100
AcDbEntity
  8
0
  6
CONTINUOUS
 62
               7
100
AcDbLine
 10
-261.25
 20
-135.0
 30
0.0
 11
-141.25
 21
-135.0
 31
0.0
  0
LINE
  5
340
100
AcDbEntity
  8
0
  6
CONTINUOUS
 62
               7
100
AcDbLine
 10
-261.25
 20
-125.0
 30
0.0
 11
-141.25
 21
-125.0
 31
0.0
  0
LINE
  5
341
100
AcDbEntity
  8
0
  6
CONTINUOUS
 62
               7
100
AcDbLine
 10
-261.25
 20
-115.0
 30
0.0
 11
-141.25
 21
-115.0
 31
0.0
  0
LINE
  5
342
100
AcDbEntity
  8
0
  6
CONTINUOUS
 62
               7
100
AcDbLine
 10
-261.25
 20
-105.0
 30
0.0
 11
-141.25
 21
-105.0
 31
0.0
  0
LINE
  5
343
100
AcDbEntity
  8
0
  6
CONTINUOUS
 62
               7
100
AcDbLine
 10
-261.25
 20
-95.0
 30
0.0
 11
-141.25
 21
-95.0
 31
0.0
  0
LINE
  5
344
100
AcDbEntity
  8
0
  6
CONTINUOUS
 62
               7
100
AcDbLine
 10
-261.25
 20
-85.0
 30
0.0
 11
-141.25
 21
-85.0
 31
0.0
  0
LINE
  5
345
100
AcDbEntity
  8
0
  6
CONTINUOUS
 62
               7
100
AcDbLine
 10
-261.25
 20
-75.0
 30
0.0
 11
-141.25
 21
-75.0
 31
0.0
  0
LINE
  5
346
100
AcDbEntity
  8
0
  6
CONTINUOUS
 62
               7
100
AcDbLine
 10
-261.25
 20
-65.0
 30
0.0
 11
-141.25
 21
-65.0
 31
0.0
  0
LINE
  5
347
100
AcDbEntity
  8
0
  6
CONTINUOUS
 62
               7
100
AcDbLine
 10
-261.25
 20
-55.0
 30
0.0
 11
-141.25
 21
-55.0
 31
0.0
  0
LINE
  5
348
100
AcDbEntity
  8
0
  6
CONTINUOUS
 62
               7
100
AcDbLine
 10
-261.25
 20
-45.0
 30
0.0
 11
-141.25
 21
-45.0
 31
0.0
  0
LINE
  5
349
100
AcDbEntity
  8
0
  6
CONTINUOUS
 62
               7
100
AcDbLine
 10
-261.25
 20
-35.0
 30
0.0
 11
-141.25
 21
-35.0
 31
0.0
  0
LINE
  5
34A
100
AcDbEntity
  8
0
  6
CONTINUOUS
 62
               7
100
AcDbLine
 10
-261.25
 20
-25.0
 30
0.0
 11
-141.25
 21
-25.0
 31
0.0
  0
LINE
  5
34B
100
AcDbEntity
  8
0
  6
CONTINUOUS
 62
               7
100
AcDbLine
 10
-261.25
 20
-15.0
 30
0.0
 11
-141.25
 21
-15.0
 31
0.0
  0
LINE
  5
34C
100
AcDbEntity
  8
0
  6
CONTINUOUS
 62
               7
100
AcDbLine
 10
-261.25
 20
-5.0
 30
0.0
 11
-141.25
 21
-5.0
 31
0.0
  0
LINE
  5
34D
100
AcDbEntity
  8
0
  6
CONTINUOUS
 62
               7
100
AcDbLine
 10
-261.25
 20
5.0
 30
0.0
 11
-141.25
 21
5.0
 31
0.0
  0
LINE
  5
34E
100
AcDbEntity
  8
0
  6
CONTINUOUS
 62
               7
100
AcDbLine
 10
-261.25
 20
15.0
 30
0.0
 11
-141.25
 21
15.0
 31
0.0
  0
LINE
  5
34F
100
AcDbEntity
  8
0
  6
CONTINUOUS
 62
               7
100
AcDbLine
 10
-261.25
 20
25.0
 30
0.0
 11
-141.25
 21
25.0
 31
0.0
  0
LINE
  5
350
100
AcDbEntity
  8
0
  6
CONTINUOUS
 62
               7
100
AcDbLine
 10
-201.25
 20
25.0
 30
0.0
 11
-201.25
 21
-175.0
 31
0.0
  0
LINE
  5
351
100
AcDbEntity
  8
0
  6
CONTINUOUS
 62
               7
100
AcDbLine
 10
-171.25
 20
25.0
 30
0.0
 11
-171.25
 21
-175.0
 31
0.0
  0
LINE
  5
352
100
AcDbEntity
  8
0
  6
CONTINUOUS
 62
               7
100
AcDbLine
 10
-141.25
 20
25.0
 30
0.0
 11
-141.25
 21
-175.0
 31
0.0
  0
MTEXT
  5
353
100
AcDbEntity
  8
0
  6
CONTINUOUS
 62
               7
100
AcDbMText
 10
170.2809980228688
 20
-185.0
 30
0.0
 40
9.0
 41
0.0
 71
               4
 72
               1
  1
\W1.121;\A1;KOGANEI CORP.
  7
MX_NOTE_STANDARD
  0
MTEXT
  5
354
100
AcDbEntity
  8
0
  6
CONTINUOUS
 62
               7
100
AcDbMText
 10
-261.00612365676039
 20
185.5
 30
0.0
 40
6.3000001907348633
 41
0.0
 71
               4
 72
               1
  1
\W1.137;\A1;CS-110 SERIES
  7
MX_NOTE_STANDARD
  0
MTEXT
  5
355
100
AcDbEntity
  8
0
  6
CONTINUOUS
 62
               7
100
AcDbMText
 10
-239.5
 20
20.0
 30
0.0
 40
4.5
 41
0.0
 71
               4
 72
               1
  1
\A1;TYPE
  7
MX_NOTE_STANDARD
  0
MTEXT
  5
356
100
AcDbEntity
  8
0
  6
CONTINUOUS
 62
               7
100
AcDbMText
 10
-251.93181818359153
 20
10.0
 30
0.0
 40
4.5
 41
0.0
 71
               4
 72
               1
  1
\W1.091;\A1;CS-110M2AJ
  7
MX_NOTE_STANDARD
  0
MTEXT
  5
357
100
AcDbEntity
  8
0
  6
CONTINUOUS
 62
               7
100
AcDbMText
 10
-251.93181818359153
 20
0.0
 30
0.0
 40
4.5
 41
0.0
 71
               4
 72
               1
  1
\W1.091;\A1;CS-110M3AJ
  7
MX_NOTE_STANDARD
  0
MTEXT
  5
358
100
AcDbEntity
  8
0
  6
CONTINUOUS
 62
               7
100
AcDbMText
 10
-251.93181818359153
 20
-10.0
 30
0.0
 40
4.5
 41
0.0
 71
               4
 72
               1
  1
\W1.091;\A1;CS-110M4AJ
  7
MX_NOTE_STANDARD
  0
MTEXT
  5
359
100
AcDbEntity
  8
0
  6
CONTINUOUS
 62
               7
100
AcDbMText
 10
-251.93181818359153
 20
-20.0
 30
0.0
 40
4.5
 41
0.0
 71
               4
 72
               1
  1
\W1.091;\A1;CS-110M5AJ
  7
MX_NOTE_STANDARD
  0
MTEXT
  5
35A
100
AcDbEntity
  8
0
  6
CONTINUOUS
 62
               7
100
AcDbMText
 10
-251.93181818359153
 20
-30.0
 30
0.0
 40
4.5
 41
0.0
 71
               4
 72
               1
  1
\W1.091;\A1;CS-110M6AJ
  7
MX_NOTE_STANDARD
  0
MTEXT
  5
35B
100
AcDbEntity
  8
0
  6
CONTINUOUS
 62
               7
100
AcDbMText
 10
-251.93181818359153
 20
-40.0
 30
0.0
 40
4.5
 41
0.0
 71
               4
 72
               1
  1
\W1.091;\A1;CS-110M7AJ
  7
MX_NOTE_STANDARD
  0
MTEXT
  5
35C
100
AcDbEntity
  8
0
  6
CONTINUOUS
 62
               7
100
AcDbMText
 10
-251.93181818359153
 20
-50.0
 30
0.0
 40
4.5
 41
0.0
 71
               4
 72
               1
  1
\W1.091;\A1;CS-110M8AJ
  7
MX_NOTE_STANDARD
  0
MTEXT
  5
35D
100
AcDbEntity
  8
0
  6
CONTINUOUS
 62
               7
100
AcDbMText
 10
-251.93181818359153
 20
-60.0
 30
0.0
 40
4.5
 41
0.0
 71
               4
 72
               1
  1
\W1.091;\A1;CS-110M9AJ
  7
MX_NOTE_STANDARD
  0
MTEXT
  5
35E
100
AcDbEntity
  8
0
  6
CONTINUOUS
 62
               7
100
AcDbMText
 10
-251.89655172589204
 20
-70.0
 30
0.0
 40
4.5
 41
0.0
 71
               4
 72
               1
  1
\W1.138;\A1;CS-110M10AJ
  7
MX_NOTE_STANDARD
  0
MTEXT
  5
35F
100
AcDbEntity
  8
0
  6
CONTINUOUS
 62
               7
100
AcDbMText
 10
-251.88157895281705
 20
-80.0
 30
0.0
 40
4.5
 41
0.0
 71
               4
 72
               1
  1
\W1.158;\A1;CS-110M11AJ
  7
MX_NOTE_STANDARD
  0
MTEXT
  5
360
100
AcDbEntity
  8
0
  6
CONTINUOUS
 62
               7
100
AcDbMText
 10
-251.91101695254287
 20
-90.0
 30
0.0
 40
4.5
 41
0.0
 71
               4
 72
               1
  1
\W1.119;\A1;CS-110M12AJ
  7
MX_NOTE_STANDARD
  0
MTEXT
  5
361
100
AcDbEntity
  8
0
  6
CONTINUOUS
 62
               7
100
AcDbMText
 10
-251.91101695254287
 20
-100.0
 30
0.0
 40
4.5
 41
0.0
 71
               4
 72
               1
  1
\W1.119;\A1;CS-110M13AJ
  7
MX_NOTE_STANDARD
  0
MTEXT
  5
362
100
AcDbEntity
  8
0
  6
CONTINUOUS
 62
               7
100
AcDbMText
 10
-251.91101695254287
 20
-110.0
 30
0.0
 40
4.5
 41
0.0
 71
               4
 72
               1
  1
\W1.119;\A1;CS-110M14AJ
  7
MX_NOTE_STANDARD
  0
MTEXT
  5
363
100
AcDbEntity
  8
0
  6
CONTINUOUS
 62
               7
100
AcDbMText
 10
-251.91101695254287
 20
-120.0
 30
0.0
 40
4.5
 41
0.0
 71
               4
 72
               1
  1
\W1.119;\A1;CS-110M15AJ
  7
MX_NOTE_STANDARD
  0
MTEXT
  5
364
100
AcDbEntity
  8
0
  6
CONTINUOUS
 62
               7
100
AcDbMText
 10
-251.91101695254287
 20
-130.0
 30
0.0
 40
4.5
 41
0.0
 71
               4
 72
               1
  1
\W1.119;\A1;CS-110M16AJ
  7
MX_NOTE_STANDARD
  0
MTEXT
  5
365
100
AcDbEntity
  8
0
  6
CONTINUOUS
 62
               7
100
AcDbMText
 10
-251.91101695254287
 20
-140.0
 30
0.0
 40
4.5
 41
0.0
 71
               4
 72
               1
  1
\W1.119;\A1;CS-110M17AJ
  7
MX_NOTE_STANDARD
  0
MTEXT
  5
366
100
AcDbEntity
  8
0
  6
CONTINUOUS
 62
               7
100
AcDbMText
 10
-251.91101695254287
 20
-150.0
 30
0.0
 40
4.5
 41
0.0
 71
               4
 72
               1
  1
\W1.119;\A1;CS-110M18AJ
  7
MX_NOTE_STANDARD
  0
MTEXT
  5
367
100
AcDbEntity
  8
0
  6
CONTINUOUS
 62
               7
100
AcDbMText
 10
-251.91101695254287
 20
-160.0
 30
0.0
 40
4.5
 41
0.0
 71
               4
 72
               1
  1
\W1.119;\A1;CS-110M19AJ
  7
MX_NOTE_STANDARD
  0
MTEXT
  5
368
100
AcDbEntity
  8
0
  6
CONTINUOUS
 62
               7
100
AcDbMText
 10
-251.92500000000001
 20
-170.0
 30
0.0
 40
4.5
 41
0.0
 71
               4
 72
               1
  1
\W1.100;\A1;CS-110M20AJ
  7
MX_NOTE_STANDARD
  0
MTEXT
  5
369
100
AcDbEntity
  8
0
  6
CONTINUOUS
 62
               7
100
AcDbMText
 10
-187.75
 20
20.0
 30
0.0
 40
4.5
 41
0.0
 71
               4
 72
               1
  1
\A1;P
  7
MX_NOTE_STANDARD
  0
MTEXT
  5
36A
100
AcDbEntity
  8
0
  6
CONTINUOUS
 62
               7
100
AcDbMText
 10
-157.75
 20
20.0
 30
0.0
 40
4.5
 41
0.0
 71
               4
 72
               1
  1
\A1;L
  7
MX_NOTE_STANDARD
  0
MTEXT
  5
36B
100
AcDbEntity
  8
0
  6
CONTINUOUS
 62
               7
100
AcDbMText
 10
-187.60000001072885
 20
10.0
 30
0.0
 40
4.5
 41
0.0
 71
               4
 72
               1
  1
\W1.200;\A1;41
  7
MX_NOTE_STANDARD
  0
MTEXT
  5
36C
100
AcDbEntity
  8
0
  6
CONTINUOUS
 62
               7
100
AcDbMText
 10
-187.75
 20
0.0
 30
0.0
 40
4.5
 41
0.0
 71
               4
 72
               1
  1
\A1;57
  7
MX_NOTE_STANDARD
  0
MTEXT
  5
36D
100
AcDbEntity
  8
0
  6
CONTINUOUS
 62
               7
100
AcDbMText
 10
-187.75
 20
-10.0
 30
0.0
 40
4.5
 41
0.0
 71
               4
 72
               1
  1
\A1;73
  7
MX_NOTE_STANDARD
  0
MTEXT
  5
36E
100
AcDbEntity
  8
0
  6
CONTINUOUS
 62
               7
100
AcDbMText
 10
-187.75
 20
-20.0
 30
0.0
 40
4.5
 41
0.0
 71
               4
 72
               1
  1
\A1;89
  7
MX_NOTE_STANDARD
  0
MTEXT
  5
36F
100
AcDbEntity
  8
0
  6
CONTINUOUS
 62
               7
100
AcDbMText
 10
-192.09999999999999
 20
-30.0
 30
0.0
 40
4.5
 41
0.0
 71
               4
 72
               1
  1
\W1.200;\A1;105
  7
MX_NOTE_STANDARD
  0
MTEXT
  5
370
100
AcDbEntity
  8
0
  6
CONTINUOUS
 62
               7
100
AcDbMText
 10
-192.03571430213597
 20
-40.0
 30
0.0
 40
4.5
 41
0.0
 71
               4
 72
               1
  1
\W1.286;\A1;121
  7
MX_NOTE_STANDARD
  0
MTEXT
  5
371
100
AcDbEntity
  8
0
  6
CONTINUOUS
 62
               7
100
AcDbMText
 10
-192.15625000628643
 20
-50.0
 30
0.0
 40
4.5
 41
0.0
 71
               4
 72
               1
  1
\W1.125;\A1;137
  7
MX_NOTE_STANDARD
  0
MTEXT
  5
372
100
AcDbEntity
  8
0
  6
CONTINUOUS
 62
               7
100
AcDbMText
 10
-192.15625000628643
 20
-60.0
 30
0.0
 40
4.5
 41
0.0
 71
               4
 72
               1
  1
\W1.125;\A1;153
  7
MX_NOTE_STANDARD
  0
MTEXT
  5
373
100
AcDbEntity
  8
0
  6
CONTINUOUS
 62
               7
100
AcDbMText
 10
-192.15625000628643
 20
-70.0
 30
0.0
 40
4.5
 41
0.0
 71
               4
 72
               1
  1
\W1.125;\A1;169
  7
MX_NOTE_STANDARD
  0
MTEXT
  5
374
100
AcDbEntity
  8
0
  6
CONTINUOUS
 62
               7
100
AcDbMText
 10
-192.15625000628643
 20
-80.0
 30
0.0
 40
4.5
 41
0.0
 71
               4
 72
               1
  1
\W1.125;\A1;185
  7
MX_NOTE_STANDARD
  0
MTEXT
  5
375
100
AcDbEntity
  8
0
  6
CONTINUOUS
 62
               7
100
AcDbMText
 10
-192.09999999999999
 20
-90.0
 30
0.0
 40
4.5
 41
0.0
 71
               4
 72
               1
  1
\W1.200;\A1;201
  7
MX_NOTE_STANDARD
  0
MTEXT
  5
376
100
AcDbEntity
  8
0
  6
CONTINUOUS
 62
               7
100
AcDbMText
 10
-192.15625000628643
 20
-100.0
 30
0.0
 40
4.5
 41
0.0
 71
               4
 72
               1
  1
\W1.125;\A1;217
  7
MX_NOTE_STANDARD
  0
MTEXT
  5
377
100
AcDbEntity
  8
0
  6
CONTINUOUS
 62
               7
100
AcDbMText
 10
-192.25
 20
-110.0
 30
0.0
 40
4.5
 41
0.0
 71
               4
 72
               1
  1
\A1;233
  7
MX_NOTE_STANDARD
  0
MTEXT
  5
378
100
AcDbEntity
  8
0
  6
CONTINUOUS
 62
               7
100
AcDbMText
 10
-192.25
 20
-120.0
 30
0.0
 40
4.5
 41
0.0
 71
               4
 72
               1
  1
\A1;249
  7
MX_NOTE_STANDARD
  0
MTEXT
  5
379
100
AcDbEntity
  8
0
  6
CONTINUOUS
 62
               7
100
AcDbMText
 10
-192.25
 20
-130.0
 30
0.0
 40
4.5
 41
0.0
 71
               4
 72
               1
  1
\A1;265
  7
MX_NOTE_STANDARD
  0
MTEXT
  5
37A
100
AcDbEntity
  8
0
  6
CONTINUOUS
 62
               7
100
AcDbMText
 10
-192.15625000628643
 20
-140.0
 30
0.0
 40
4.5
 41
0.0
 71
               4
 72
               1
  1
\W1.125;\A1;281
  7
MX_NOTE_STANDARD
  0
MTEXT
  5
37B
100
AcDbEntity
  8
0
  6
CONTINUOUS
 62
               7
100
AcDbMText
 10
-192.25
 20
-150.0
 30
0.0
 40
4.5
 41
0.0
 71
               4
 72
               1
  1
\A1;297
  7
MX_NOTE_STANDARD
  0
MTEXT
  5
37C
100
AcDbEntity
  8
0
  6
CONTINUOUS
 62
               7
100
AcDbMText
 10
-192.15625000628643
 20
-160.0
 30
0.0
 40
4.5
 41
0.0
 71
               4
 72
               1
  1
\W1.125;\A1;313
  7
MX_NOTE_STANDARD
  0
MTEXT
  5
37D
100
AcDbEntity
  8
0
  6
CONTINUOUS
 62
               7
100
AcDbMText
 10
-192.25
 20
-170.0
 30
0.0
 40
4.5
 41
0.0
 71
               4
 72
               1
  1
\A1;329
  7
MX_NOTE_STANDARD
  0
MTEXT
  5
37E
100
AcDbEntity
  8
0
  6
CONTINUOUS
 62
               7
100
AcDbMText
 10
-157.75
 20
10.0
 30
0.0
 40
4.5
 41
0.0
 71
               4
 72
               1
  1
\A1;48
  7
MX_NOTE_STANDARD
  0
MTEXT
  5
37F
100
AcDbEntity
  8
0
  6
CONTINUOUS
 62
               7
100
AcDbMText
 10
-157.75
 20
0.0
 30
0.0
 40
4.5
 41
0.0
 71
               4
 72
               1
  1
\A1;64
  7
MX_NOTE_STANDARD
  0
MTEXT
  5
380
100
AcDbEntity
  8
0
  6
CONTINUOUS
 62
               7
100
AcDbMText
 10
-157.68181817295138
 20
-10.0
 30
0.0
 40
4.5
 41
0.0
 71
               4
 72
               1
  1
\W1.091;\A1;80
  7
MX_NOTE_STANDARD
  0
MTEXT
  5
381
100
AcDbEntity
  8
0
  6
CONTINUOUS
 62
               7
100
AcDbMText
 10
-157.75
 20
-20.0
 30
0.0
 40
4.5
 41
0.0
 71
               4
 72
               1
  1
\A1;96
  7
MX_NOTE_STANDARD
  0
MTEXT
  5
382
100
AcDbEntity
  8
0
  6
CONTINUOUS
 62
               7
100
AcDbMText
 10
-162.03571430213597
 20
-30.0
 30
0.0
 40
4.5
 41
0.0
 71
               4
 72
               1
  1
\W1.286;\A1;112
  7
MX_NOTE_STANDARD
  0
MTEXT
  5
383
100
AcDbEntity
  8
0
  6
CONTINUOUS
 62
               7
100
AcDbMText
 10
-162.15625000628643
 20
-40.0
 30
0.0
 40
4.5
 41
0.0
 71
               4
 72
               1
  1
\W1.125;\A1;128
  7
MX_NOTE_STANDARD
  0
MTEXT
  5
384
100
AcDbEntity
  8
0
  6
CONTINUOUS
 62
               7
100
AcDbMText
 10
-162.15625000628643
 20
-50.0
 30
0.0
 40
4.5
 41
0.0
 71
               4
 72
               1
  1
\W1.125;\A1;144
  7
MX_NOTE_STANDARD
  0
MTEXT
  5
385
100
AcDbEntity
  8
0
  6
CONTINUOUS
 62
               7
100
AcDbMText
 10
-162.09999999999999
 20
-60.0
 30
0.0
 40
4.5
 41
0.0
 71
               4
 72
               1
  1
\W1.200;\A1;160
  7
MX_NOTE_STANDARD
  0
MTEXT
  5
386
100
AcDbEntity
  8
0
  6
CONTINUOUS
 62
               7
100
AcDbMText
 10
-162.15625000628643
 20
-70.0
 30
0.0
 40
4.5
 41
0.0
 71
               4
 72
               1
  1
\W1.125;\A1;176
  7
MX_NOTE_STANDARD
  0
MTEXT
  5
387
100
AcDbEntity
  8
0
  6
CONTINUOUS
 62
               7
100
AcDbMText
 10
-162.15625000628643
 20
-80.0
 30
0.0
 40
4.5
 41
0.0
 71
               4
 72
               1
  1
\W1.125;\A1;192
  7
MX_NOTE_STANDARD
  0
MTEXT
  5
388
100
AcDbEntity
  8
0
  6
CONTINUOUS
 62
               7
100
AcDbMText
 10
-162.20588234737258
 20
-90.0
 30
0.0
 40
4.5
 41
0.0
 71
               4
 72
               1
  1
\W1.059;\A1;208
  7
MX_NOTE_STANDARD
  0
MTEXT
  5
389
100
AcDbEntity
  8
0
  6
CONTINUOUS
 62
               7
100
AcDbMText
 10
-162.25
 20
-100.0
 30
0.0
 40
4.5
 41
0.0
 71
               4
 72
               1
  1
\A1;224
  7
MX_NOTE_STANDARD
  0
MTEXT
  5
38A
100
AcDbEntity
  8
0
  6
CONTINUOUS
 62
               7
100
AcDbMText
 10
-162.20588234737258
 20
-110.0
 30
0.0
 40
4.5
 41
0.0
 71
               4
 72
               1
  1
\W1.059;\A1;240
  7
MX_NOTE_STANDARD
  0
MTEXT
  5
38B
100
AcDbEntity
  8
0
  6
CONTINUOUS
 62
               7
100
AcDbMText
 10
-162.25
 20
-120.0
 30
0.0
 40
4.5
 41
0.0
 71
               4
 72
               1
  1
\A1;256
  7
MX_NOTE_STANDARD
  0
MTEXT
  5
38C
100
AcDbEntity
  8
0
  6
CONTINUOUS
 62
               7
100
AcDbMText
 10
-162.25
 20
-130.0
 30
0.0
 40
4.5
 41
0.0
 71
               4
 72
               1
  1
\A1;272
  7
MX_NOTE_STANDARD
  0
MTEXT
  5
38D
100
AcDbEntity
  8
0
  6
CONTINUOUS
 62
               7
100
AcDbMText
 10
-162.25
 20
-140.0
 30
0.0
 40
4.5
 41
0.0
 71
               4
 72
               1
  1
\A1;288
  7
MX_NOTE_STANDARD
  0
MTEXT
  5
38E
100
AcDbEntity
  8
0
  6
CONTINUOUS
 62
               7
100
AcDbMText
 10
-162.20588234737258
 20
-150.0
 30
0.0
 40
4.5
 41
0.0
 71
               4
 72
               1
  1
\W1.059;\A1;304
  7
MX_NOTE_STANDARD
  0
MTEXT
  5
38F
100
AcDbEntity
  8
0
  6
CONTINUOUS
 62
               7
100
AcDbMText
 10
-162.20588234737258
 20
-160.0
 30
0.0
 40
4.5
 41
0.0
 71
               4
 72
               1
  1
\W1.059;\A1;320
  7
MX_NOTE_STANDARD
  0
MTEXT
  5
390
100
AcDbEntity
  8
0
  6
CONTINUOUS
 62
               7
100
AcDbMText
 10
-162.25
 20
-170.0
 30
0.0
 40
4.5
 41
0.0
 71
               4
 72
               1
  1
\A1;336
  7
MX_NOTE_STANDARD
  0
MTEXT
  5
391
100
AcDbEntity
  8
0
  6
CONTINUOUS
 62
               7
100
AcDbMText
 10
-265.09137927764851
 20
160.5
 30
0.0
 40
6.3000001907348633
 41
0.0
 71
               4
 72
               1
  1
\W1.103;\A1;MODEL:CS-110M4AJ
  7
MX_NOTE_STANDARD
  0
MTEXT
  5
392
100
AcDbEntity
  8
0
  6
CONTINUOUS
 62
               7
100
AcDbMText
 10
-231.91666667060878
 20
32.5
 30
0.0
 40
4.5
 41
0.0
 71
               4
 72
               1
  1
\W1.111;\A1;DIMENSION LIST
  7
MX_NOTE_STANDARD
  0
DIMENSION
  5
3A1
100
AcDbEntity
  8
0
  6
CONTINUOUS
 62
               2
100
AcDbDimension
  2
*D5
 10
-47.136184692382813
 20
56.660629272460938
 30
0.0
 11
-59.477325439453125
 21
56.660629272460938
 31
0.0
 70
             128
  1
<>
  3
MXDIMSTYLE
100
AcDbAlignedDimension
 13
-50.636184692382813
 23
16.915924072265625
 33
0.0
 14
-47.136184692382813
 24
0.4159278869628906
 34
0.0
100
AcDbRotatedDimension
1001
ACAD
1000
DSTYLE
1002
{
1070
               6
1000
_OPEN30
1070
               7
1000
_OPEN30
1070
              41
1040
2.77
1070
              42
1040
0.0
1070
              75
1070
               1
1070
              78
1070
               0
1070
             140
1040
4.5
1070
             173
1070
               1
1070
             271
1070
               1
1002
}
  0
DIMENSION
  5
3B0
100
AcDbEntity
  8
0
  6
CONTINUOUS
 62
               2
100
AcDbDimension
  2
*D6
 10
25.863815307617188
 20
56.660629272460938
 30
0.0
 11
-10.636184692382813
 21
56.660629272460938
 31
0.0
 70
             128
  1
P
  3
MXDIMSTYLE
100
AcDbAlignedDimension
 13
-47.136184692382813
 23
0.4159278869628906
 33
0.0
 14
25.863815307617188
 24
0.4159278869628906
 34
0.0
100
AcDbRotatedDimension
1001
ACAD
1000
DSTYLE
1002
{
1070
               6
1000
_NONE
1070
               7
1000
_OPEN30
1070
              42
1040
0.0
1070
              75
1070
               1
1070
              78
1070
               0
1070
             140
1040
4.5
1070
             173
1070
               1
1070
             271
1070
               0
1002
}
  0
DIMENSION
  5
3BC
100
AcDbEntity
  8
0
  6
CONTINUOUS
 62
               2
100
AcDbDimension
  2
*D8
 10
29.363815307617188
 20
56.660629272460938
 30
0.0
 11
39.718093872070313
 21
56.660629272460938
 31
0.0
 70
             128
  1
<>
  3
MXDIMSTYLE
100
AcDbAlignedDimension
 13
25.863815307617188
 23
0.4159278869628906
 33
0.0
 14
29.363815307617188
 24
16.915924072265625
 34
0.0
100
AcDbRotatedDimension
1001
ACAD
1000
DSTYLE
1002
{
1070
               6
1000
_NONE
1070
               7
1000
_OPEN30
1070
              75
1070
               1
1070
              76
1070
               1
1070
              78
1070
               0
1070
             140
1040
4.5
1070
             173
1070
               1
1070
             271
1070
               1
1002
}
  0
DIMENSION
  5
3C9
100
AcDbEntity
  8
0
  6
CONTINUOUS
 62
               2
100
AcDbDimension
  2
*D9
 10
29.363815307617188
 20
68.660629272460938
 30
0.0
 11
-10.636184692382813
 21
68.660629272460938
 31
0.0
 70
             128
  1
L
  3
MXDIMSTYLE
100
AcDbAlignedDimension
 13
-50.636184692382813
 23
16.915924072265625
 33
0.0
 14
29.363815307617188
 24
16.915924072265625
 34
0.0
100
AcDbRotatedDimension
1001
ACAD
1000
DSTYLE
1002
{
1070
               6
1000
_OPEN30
1070
               7
1000
_OPEN30
1070
              41
1040
2.77
1070
              78
1070
               0
1070
             140
1040
4.5
1070
             173
1070
               1
1070
             271
1070
               0
1002
}
  0
DIMENSION
  5
3D9
100
AcDbEntity
  8
0
  6
CONTINUOUS
 62
               2
100
AcDbDimension
  2
*D10
 10
40.34649658203125
 20
-43.584075927734375
 30
0.0
 11
40.34649658203125
 21
-63.560821533203125
 31
0.0
 70
             128
  1
<>(-J6)
  3
MXDIMSTYLE
100
AcDbAlignedDimension
 13
29.363815307617188
 23
-36.084075927734375
 33
0.0
 14
21.263809204101563
 24
-43.584075927734375
 34
0.0
 50
89.999999999999801
100
AcDbRotatedDimension
1001
ACAD
1000
DSTYLE
1002
{
1070
               6
1000
_OPEN30
1070
               7
1000
_OPEN30
1070
              41
1040
2.77
1070
              78
1070
               0
1070
             140
1040
4.5
1070
             173
1070
               1
1070
             271
1070
               1
1002
}
  0
ENDSEC
  0
SECTION
  2
OBJECTS
  0
DICTIONARY
  5
19
100
AcDbDictionary
  3
ACAD_GROUP
350
1A
  3
ACAD_MLINESTYLE
350
1B
  0
DICTIONARY
  5
1A
102
{ACAD_REACTORS
330
19
102
}
100
AcDbDictionary
  0
DICTIONARY
  5
1B
102
{ACAD_REACTORS
330
19
102
}
100
AcDbDictionary
  3
STANDARD
350
1C
  0
MLINESTYLE
  5
1C
102
{ACAD_REACTORS
330
1B
102
}
100
AcDbMlineStyle
  2
Standard
 70
               0
  3

 62
               0
 51
90.0
 52
90.0
 71
               2
 49
0.5
 62
             256
  6
ByLayer
 49
-0.5
 62
             256
  6
ByLayer
  0
ENDSEC
  0
EOF
