  0
SECTION
  2
HEADER
  9
$ACADVER
  1
AC1012
  9
$DWGCODEPAGE
  3
dos932
  9
$INSBASE
 10
0.0
 20
0.0
 30
0.0
  9
$EXTMIN
 10
-281.25
 20
-195.0
 30
0.0
  9
$EXTMAX
 10
285.59998798370361
 20
195.5
 30
0.0
  9
$LIMMIN
 10
-281.25
 20
-195.0
  9
$LIMMAX
 10
285.59998798370361
 20
195.5
  9
$ORTHOMODE
 70
               0
  9
$REGENMODE
 70
               1
  9
$FILLMODE
 70
               1
  9
$QTEXTMODE
 70
               0
  9
$MIRRTEXT
 70
               1
  9
$DRAGMODE
 70
               2
  9
$LTSCALE
 40
1.0
  9
$OSMODE
 70
               0
  9
$ATTMODE
 70
               1
  9
$TEXTSIZE
 40
3.2000000476837158
  9
$TRACEWID
 40
0.05
  9
$TEXTSTYLE
  7
MX_NOTE_STANDARD
  9
$CLAYER
  8
0
  9
$CELTYPE
  6
CONTINUOUS
  9
$CECOLOR
 62
             256
  9
$CELTSCALE
 40
1.0
  9
$DELOBJ
 70
               1
  9
$DISPSILH
 70
               0
  9
$DIMSCALE
 40
1.0
  9
$DIMASZ
 40
2.5
  9
$DIMEXO
 40
1.5
  9
$DIMDLI
 40
3.75
  9
$DIMRND
 40
0.0
  9
$DIMDLE
 40
0.0
  9
$DIMEXE
 40
1.5
  9
$DIMTP
 40
0.0
  9
$DIMTM
 40
0.0
  9
$DIMTXT
 40
3.2000000476837158
  9
$DIMCEN
 40
2.5
  9
$DIMTSZ
 40
0.0
  9
$DIMTOL
 70
               0
  9
$DIMLIM
 70
               0
  9
$DIMTIH
 70
               0
  9
$DIMTOH
 70
               0
  9
$DIMSE1
 70
               0
  9
$DIMSE2
 70
               0
  9
$DIMTAD
 70
               1
  9
$DIMZIN
 70
               8
  9
$DIMBLK
  1

  9
$DIMASO
 70
               1
  9
$DIMSHO
 70
               1
  9
$DIMPOST
  1

  9
$DIMAPOST
  1

  9
$DIMALT
 70
               0
  9
$DIMALTD
 70
               4
  9
$DIMALTF
 40
0.0394
  9
$DIMLFAC
 40
1.0
  9
$DIMTOFL
 70
               1
  9
$DIMTVP
 40
0.0
  9
$DIMTIX
 70
               0
  9
$DIMSOXD
 70
               0
  9
$DIMSAH
 70
               0
  9
$DIMBLK1
  1

  9
$DIMBLK2
  1

  9
$DIMSTYLE
  2
MXDIMSTYLE
  9
$DIMCLRD
 70
               0
  9
$DIMCLRE
 70
               0
  9
$DIMCLRT
 70
               0
  9
$DIMTFAC
 40
1.0
  9
$DIMGAP
 40
1.0
  9
$DIMJUST
 70
               0
  9
$DIMSD1
 70
               0
  9
$DIMSD2
 70
               0
  9
$DIMTOLJ
 70
               1
  9
$DIMTZIN
 70
               0
  9
$DIMALTZ
 70
               0
  9
$DIMALTTZ
 70
               0
  9
$DIMFIT
 70
               3
  9
$DIMUPT
 70
               1
  9
$DIMUNIT
 70
               2
  9
$DIMDEC
 70
               4
  9
$DIMTDEC
 70
               4
  9
$DIMALTU
 70
               8
  9
$DIMALTTD
 70
               4
  9
$DIMTXSTY
  7
MX_NOTE_STANDARD
  9
$DIMAUNIT
 70
               0
  9
$LUNITS
 70
               2
  9
$LUPREC
 70
               4
  9
$SKETCHINC
 40
0.1
  9
$FILLETRAD
 40
0.0
  9
$AUNITS
 70
               0
  9
$AUPREC
 70
               0
  9
$MENU
  1
acad
  9
$ELEVATION
 40
0.0
  9
$PELEVATION
 40
0.0
  9
$THICKNESS
 40
0.0
  9
$LIMCHECK
 70
               0
  9
$BLIPMODE
 70
               1
  9
$CHAMFERA
 40
0.0
  9
$CHAMFERB
 40
0.0
  9
$CHAMFERC
 40
0.0
  9
$CHAMFERD
 40
0.0
  9
$SKPOLY
 70
               0
  9
$TDCREATE
 40
2452220.696539352
  9
$TDUPDATE
 40
2452220.696539352
  9
$TDINDWG
 40
0.0000000000
  9
$TDUSRTIMER
 40
0.0000000000
  9
$USRTIMER
 70
               1
  9
$ANGBASE
 50
0.0
  9
$ANGDIR
 70
               0
  9
$PDMODE
 70
               0
  9
$PDSIZE
 40
0.0
  9
$PLINEWID
 40
0.0
  9
$COORDS
 70
               1
  9
$SPLFRAME
 70
               0
  9
$SPLINETYPE
 70
               6
  9
$SPLINESEGS
 70
               8
  9
$ATTDIA
 70
               0
  9
$ATTREQ
 70
               1
  9
$HANDLING
 70
               1
  9
$HANDSEED
  5
4CE
  9
$SURFTAB1
 70
               6
  9
$SURFTAB2
 70
               6
  9
$SURFTYPE
 70
               6
  9
$SURFU
 70
               6
  9
$SURFV
 70
               6
  9
$UCSNAME
  2

  9
$UCSORG
 10
0.0
 20
0.0
 30
0.0
  9
$UCSXDIR
 10
1.0
 20
0.0
 30
0.0
  9
$UCSYDIR
 10
0.0
 20
1.0
 30
0.0
  9
$PUCSNAME
  2

  9
$PUCSORG
 10
0.0
 20
0.0
 30
0.0
  9
$PUCSXDIR
 10
1.0
 20
0.0
 30
0.0
  9
$PUCSYDIR
 10
0.0
 20
1.0
 30
0.0
  9
$USERI1
 70
               0
  9
$USERI2
 70
               0
  9
$USERI3
 70
               0
  9
$USERI4
 70
               0
  9
$USERI5
 70
               0
  9
$USERR1
 40
0.0
  9
$USERR2
 40
0.0
  9
$USERR3
 40
0.0
  9
$USERR4
 40
0.0
  9
$USERR5
 40
0.0
  9
$WORLDVIEW
 70
               1
  9
$SHADEDGE
 70
               3
  9
$SHADEDIF
 70
              70
  9
$TILEMODE
 70
               1
  9
$MAXACTVP
 70
              16
  9
$PINSBASE
 10
0.0
 20
0.0
 30
0.0
  9
$PLIMCHECK
 70
               0
  9
$PEXTMIN
 10
1.0000000000000000E+20
 20
1.0000000000000000E+20
 30
1.0000000000000000E+20
  9
$PEXTMAX
 10
-1.0000000000000000E+20
 20
-1.0000000000000000E+20
 30
-1.0000000000000000E+20
  9
$PLIMMIN
 10
0.0
 20
0.0
  9
$PLIMMAX
 10
12.0
 20
9.0
  9
$UNITMODE
 70
               0
  9
$VISRETAIN
 70
               0
  9
$PLINEGEN
 70
               1
  9
$PSLTSCALE
 70
               0
  9
$TREEDEPTH
 70
            3020
  9
$PICKSTYLE
 70
               1
  9
$CMLSTYLE
  2
Standard
  9
$CMLJUST
 70
               0
  9
$CMLSCALE
 40
1.0
  9
$SAVEIMAGES
 70
               0
  0
ENDSEC
  0
SECTION
  2
CLASSES
  0
CLASS
  1
LWPOLYLINE
  2
AcDbPolyline
  3
"AutoCAD"
 90
        0
280
               0
281
               1
  0
CLASS
  1
IMAGE
  2
AcDbRasterImage
  3
ISM
 90
      127
280
               0
281
               1
  0
CLASS
  1
OLE2FRAME
  2
AcDbOle2Frame
  3
""
 90
        0
280
               0
281
               1
  0
CLASS
  1
HATCH
  2
AcDbHatch
  3
"ACAD_SEDONA"
 90
        0
280
               0
281
               1
  0
CLASS
  1
DICTIONARYVAR
  2
AcDbDictionaryVar
  3
"AutoCAD"
 90
        0
280
               0
281
               0
  0
CLASS
  1
RASTERVARIABLES
  2
AcDbRasterVariables
  3
ISM
 90
        0
280
               0
281
               0
  0
CLASS
  1
IMAGEDEF
  2
AcDbRasterImageDef
  3
ISM
 90
        0
280
               0
281
               0
  0
CLASS
  1
IMAGEDEF_REACTOR
  2
AcDbRasterImageDefReactor
  3
ISM
 90
        1
280
               0
281
               0
  0
CLASS
  1
IDBUFFER
  2
AcDbIdBuffer
  3
"Acad"
 90
        0
280
               0
281
               0
  0
CLASS
  1
SPATIAL_FILTER
  2
AcDbSpatialFilter
  3
"Acad"
 90
        0
280
               0
281
               0
  0
CLASS
  1
XRECORD
  2
AcDbXrecord
  3
"<Built In>"
 90
        0
280
               0
281
               0
  0
CLASS
  1
SORTENTSTABLE
  2
AcDbSortentsTable
  3
"AutoCAD"
 90
        0
280
               0
281
               0
  0
CLASS
  1
LAYER_INDEX
  2
AcDbLayerIndex
  3
"Acad"
 90
        0
280
               0
281
               0
  0
CLASS
  1
SPATIAL_INDEX
  2
AcDbSpatialIndex
  3
"Acad"
 90
        0
280
               0
281
               0
  0
CLASS
  1
OBJECT_PTR
  2
CAseDLPNTableRecord
  3
"ASE-LPNTableRecord"
 90
        1
280
               0
281
               0
  0
CLASS
  1
LAYOUT
  2
AcDbLayout
  3
"AutoCAD 2000"
 90
        1
280
               0
281
               0
  0
CLASS
  1
PLOTSETTINGS
  2
AcDbPlotSettings
  3
"AutoCAD 2000"
 90
        1
280
               0
281
               0
  0
CLASS
  1
ACDBDICTIONARYWDFLT
  2
AcDbDictionaryWithDefault
  3
"AutoCAD 2000"
 90
        1
280
               0
281
               0
  0
CLASS
  1
ACDBPLACEHOLDER
  2
AcDbPlaceHolder
  3
"AutoCAD 2000"
 90
        1
280
               0
281
               0
  0
CLASS
  1
VBA_PROJECT
  2
AcDbVbaProject
  3
"acadvba"
 90
        1
280
               0
281
               0
  0
CLASS
  1
WIPEOUT
  2
AcDbWipeout
  3
WipeOut|AutoCAD Express Tool|expresstools@autodesk.com
 90
      127
280
               0
281
               1
  0
CLASS
  1
WIPEOUTVARIABLES
  2
AcDbWipeoutVariables
  3
WipeOut|AutoCAD Express Tool|expresstools@autodesk.com
 90
        0
280
               0
281
               0
  0
CLASS
  1
RTEXT
  2
RText
  3
RText|AutoCAD Express Tool|expresstools@autodesk.com
 90
        0
280
               0
281
               1
  0
CLASS
  1
ARCALIGNEDTEXT
  2
AcDbArcAlignedText
  3
ATEXT|AutoCAD Express Tool|expresstools@autodesk.com
 90
        0
280
               0
281
               1
  0
ENDSEC
  0
SECTION
  2
TABLES
  0
TABLE
  2
VPORT
  5
7
100
AcDbSymbolTable
 70
               1
  0
VPORT
  5
15
100
AcDbSymbolTableRecord
100
AcDbViewportTableRecord
  2
*ACTIVE
 70
               0
 10
0.0
 20
0.0
 11
1.0
 21
1.0
 12
2.1749939918518066
 22
0.25
 13
0.0
 23
0.0
 14
1.0
 24
1.0
 15
0.0
 25
0.0
 16
0.0
 26
0.0
 36
1.0
 17
0.0
 27
0.0
 37
0.0
 40
394.40500000000003
 41
1.7320508075688772
 42
50.0
 43
0.0
 44
0.0
 50
0.0
 51
0.0
 71
               0
 72
             100
 73
               1
 74
               1
 75
               0
 76
               0
 77
               0
 78
               0
  0
ENDTAB
  0
TABLE
  2
LTYPE
  5
4
100
AcDbSymbolTable
 70
               4
  0
LTYPE
  5
11
100
AcDbSymbolTableRecord
100
AcDbLinetypeTableRecord
  2
BYBLOCK
 70
              64
  3

 72
              65
 73
               0
 40
0.0
  0
LTYPE
  5
12
100
AcDbSymbolTableRecord
100
AcDbLinetypeTableRecord
  2
BYLAYER
 70
              64
  3

 72
              65
 73
               0
 40
0.0
  0
LTYPE
  5
13
100
AcDbSymbolTableRecord
100
AcDbLinetypeTableRecord
  2
CONTINUOUS
 70
              64
  3
Solid line
 72
              65
 73
               0
 40
0.0
  0
LTYPE
  5
23
100
AcDbSymbolTableRecord
100
AcDbLinetypeTableRecord
  2
CENTER
 70
              64
  3
Center ____ _ ____ _ ____ _ ____ _ ____ _ ____
 72
              65
 73
               4
 40
50.800000000000004
 49
31.75
 74
               0
 49
-6.3499999999999996
 74
               0
 49
6.3499999999999996
 74
               0
 49
-6.3499999999999996
 74
               0
  0
ENDTAB
  0
TABLE
  2
LAYER
  5
2
100
AcDbSymbolTable
 70
               2
  0
LAYER
  5
14
100
AcDbSymbolTableRecord
100
AcDbLayerTableRecord
  2
0
 70
               0
 62
               7
  6
CONTINUOUS
  0
LAYER
  5
1D
100
AcDbSymbolTableRecord
100
AcDbLayerTableRecord
  2
DEFPOINTS
 70
               0
 62
               7
  6
CONTINUOUS
  0
ENDTAB
  0
TABLE
  2
STYLE
  5
3
100
AcDbSymbolTable
 70
               1
  0
STYLE
  5
17
100
AcDbSymbolTableRecord
100
AcDbTextStyleTableRecord
  2
MX_NOTE_STANDARD
 70
               0
 40
3.2000000476837158
 41
1.0
 50
0.0
 71
               0
 42
3.2000000476837158
  3
txt.shx
  4
extfont.shx
  0
ENDTAB
  0
TABLE
  2
VIEW
  5
5
100
AcDbSymbolTable
 70
               0
  0
ENDTAB
  0
TABLE
  2
UCS
  5
6
100
AcDbSymbolTable
 70
               0
  0
ENDTAB
  0
TABLE
  2
APPID
  5
8
100
AcDbSymbolTable
 70
               1
  0
APPID
  5
16
100
AcDbSymbolTableRecord
100
AcDbRegAppTableRecord
  2
ACAD
 70
               0
  0
ENDTAB
  0
TABLE
  2
DIMSTYLE
  5
9
100
AcDbSymbolTable
 70
               1
  0
DIMSTYLE
105
18
100
AcDbSymbolTableRecord
100
AcDbDimStyleTableRecord
  2
MXDIMSTYLE
 70
               0
  3

  4

  5

  6

  7

 40
1.0
 41
2.5
 42
1.5
 43
3.75
 44
1.5
 45
0.0
 46
0.0
 47
0.0
 48
0.0
 71
               0
 72
               0
 73
               0
 74
               0
 75
               0
 76
               0
 77
               1
 78
               8
140
3.2000000476837158
141
2.5
142
0.0
143
0.0394
144
1.0
145
0.0
146
1.0
147
1.0
170
               0
171
               4
172
               1
173
               0
174
               0
175
               0
176
               0
177
               0
178
               0
270
               2
271
               4
272
               4
273
               8
274
               4
275
               0
280
               0
281
               0
282
               0
283
               1
284
               0
285
               0
286
               0
287
               3
288
               1
340
17
  0
ENDTAB
  0
TABLE
  2
BLOCK_RECORD
  5
1
100
AcDbSymbolTable
 70
              10
  0
BLOCK_RECORD
  5
A
100
AcDbSymbolTableRecord
100
AcDbBlockTableRecord
  2
*MODEL_SPACE
  0
BLOCK_RECORD
  5
B
100
AcDbSymbolTableRecord
100
AcDbBlockTableRecord
  2
*PAPER_SPACE
  0
BLOCK_RECORD
  5
1E
100
AcDbSymbolTableRecord
100
AcDbBlockTableRecord
  2
MS_1
  0
BLOCK_RECORD
  5
1F
100
AcDbSymbolTableRecord
100
AcDbBlockTableRecord
  2
MS_2
  0
BLOCK_RECORD
  5
20
100
AcDbSymbolTableRecord
100
AcDbBlockTableRecord
  2
MS_3
  0
BLOCK_RECORD
  5
21
100
AcDbSymbolTableRecord
100
AcDbBlockTableRecord
  2
MS_4
  0
BLOCK_RECORD
  5
41E
100
AcDbSymbolTableRecord
100
AcDbBlockTableRecord
  2
_OPEN30
  0
BLOCK_RECORD
  5
495
100
AcDbSymbolTableRecord
100
AcDbBlockTableRecord
  2
*D5
  0
BLOCK_RECORD
  5
49C
100
AcDbSymbolTableRecord
100
AcDbBlockTableRecord
  2
_NONE
  0
BLOCK_RECORD
  5
4A6
100
AcDbSymbolTableRecord
100
AcDbBlockTableRecord
  2
*D7
  0
BLOCK_RECORD
  5
4B1
100
AcDbSymbolTableRecord
100
AcDbBlockTableRecord
  2
*D8
  0
BLOCK_RECORD
  5
4BF
100
AcDbSymbolTableRecord
100
AcDbBlockTableRecord
  2
*D9
  0
ENDTAB
  0
ENDSEC
  0
SECTION
  2
BLOCKS
  0
BLOCK
  5
D
100
AcDbEntity
  8
0
100
AcDbBlockBegin
  2
*MODEL_SPACE
 70
               0
 10
0.0
 20
0.0
 30
0.0
  3
*MODEL_SPACE
  1

  0
ENDBLK
  5
E
100
AcDbEntity
  8
0
100
AcDbBlockEnd
  0
BLOCK
  5
F
100
AcDbEntity
 67
               1
  8
0
100
AcDbBlockBegin
  2
*PAPER_SPACE
 70
               0
 10
0.0
 20
0.0
 30
0.0
  3
*PAPER_SPACE
  1

  0
ENDBLK
  5
10
100
AcDbEntity
 67
               1
  8
0
100
AcDbBlockEnd
  0
BLOCK
  5
22
100
AcDbEntity
  8
0
100
AcDbBlockBegin
  2
MS_1
 70
               0
 10
0.0
 20
0.0
 30
0.0
  3
MS_1
  1

  0
LINE
  5
24
100
AcDbEntity
  8
0
  6
CENTER
 62
               2
100
AcDbLine
 10
90.0
 20
28.550000000000001
 30
0.0
 11
90.0
 21
-49.170000000000002
 31
0.0
  0
LINE
  5
25
100
AcDbEntity
  8
0
  6
CONTINUOUS
 62
               4
100
AcDbLine
 10
99.0
 20
24.0
 30
0.0
 11
99.0
 21
6.6500000000000004
 31
0.0
  0
LINE
  5
26
100
AcDbEntity
  8
0
  6
CONTINUOUS
 62
               4
100
AcDbLine
 10
81.0
 20
24.0
 30
0.0
 11
81.0
 21
-23.34
 31
0.0
  0
LINE
  5
27
100
AcDbEntity
  8
0
  6
CENTER
 62
               2
100
AcDbLine
 10
0.0
 20
3.5
 30
0.0
 11
0.0
 21
-3.5
 31
0.0
  0
LINE
  5
28
100
AcDbEntity
  8
0
  6
CENTER
 62
               2
100
AcDbLine
 10
0.0
 20
-16.5
 30
0.0
 11
0.0
 21
-23.5
 31
0.0
  0
LINE
  5
29
100
AcDbEntity
  8
0
  6
CENTER
 62
               2
100
AcDbLine
 10
104.0
 20
3.5
 30
0.0
 11
104.0
 21
-3.5
 31
0.0
  0
LINE
  5
2A
100
AcDbEntity
  8
0
  6
CENTER
 62
               2
100
AcDbLine
 10
104.0
 20
-16.5
 30
0.0
 11
104.0
 21
-23.5
 31
0.0
  0
LINE
  5
2B
100
AcDbEntity
  8
0
  6
CENTER
 62
               2
100
AcDbLine
 10
-3.5
 20
0.0
 30
0.0
 11
3.5
 21
0.0
 31
0.0
  0
LINE
  5
2C
100
AcDbEntity
  8
0
  6
CENTER
 62
               2
100
AcDbLine
 10
-3.5
 20
-20.0
 30
0.0
 11
3.5
 21
-20.0
 31
0.0
  0
LINE
  5
2D
100
AcDbEntity
  8
0
  6
CENTER
 62
               2
100
AcDbLine
 10
100.5
 20
0.0
 30
0.0
 11
107.5
 21
0.0
 31
0.0
  0
LINE
  5
2E
100
AcDbEntity
  8
0
  6
CENTER
 62
               2
100
AcDbLine
 10
100.5
 20
-20.0
 30
0.0
 11
107.5
 21
-20.0
 31
0.0
  0
LINE
  5
2F
100
AcDbEntity
  8
0
  6
CONTINUOUS
 62
               4
100
AcDbLine
 10
81.0
 20
-26.649999999999999
 30
0.0
 11
81.0
 21
-44.0
 31
0.0
  0
LINE
  5
30
100
AcDbEntity
  8
0
  6
CONTINUOUS
 62
               4
100
AcDbLine
 10
99.0
 20
3.3399999999999999
 30
0.0
 11
99.0
 21
-44.0
 31
0.0
  0
LINE
  5
31
100
AcDbEntity
  8
0
  6
CENTER
 62
               2
100
AcDbLine
 10
64.849999999999994
 20
-3.0
 30
0.0
 11
76.480000000000004
 21
-3.0
 31
0.0
  0
LINE
  5
32
100
AcDbEntity
  8
0
  6
CONTINUOUS
 62
               7
100
AcDbLine
 10
109.0
 20
27.0
 30
0.0
 11
109.0
 21
-47.0
 31
0.0
  0
LINE
  5
33
100
AcDbEntity
  8
0
  6
CONTINUOUS
 62
               7
100
AcDbLine
 10
-5.0
 20
27.0
 30
0.0
 11
-5.0
 21
-47.0
 31
0.0
  0
LINE
  5
34
100
AcDbEntity
  8
0
  6
CONTINUOUS
 62
               4
100
AcDbLine
 10
81.0
 20
-44.0
 30
0.0
 11
99.0
 21
-44.0
 31
0.0
  0
LINE
  5
35
100
AcDbEntity
  8
0
  6
CONTINUOUS
 62
               4
100
AcDbLine
 10
81.0
 20
24.0
 30
0.0
 11
99.0
 21
24.0
 31
0.0
  0
LINE
  5
36
100
AcDbEntity
  8
0
  6
CONTINUOUS
 62
               7
100
AcDbLine
 10
-5.0
 20
27.0
 30
0.0
 11
5.0
 21
27.0
 31
0.0
  0
LINE
  5
37
100
AcDbEntity
  8
0
  6
CONTINUOUS
 62
               7
100
AcDbLine
 10
-5.0
 20
-47.0
 30
0.0
 11
43.0
 21
-47.0
 31
0.0
  0
LINE
  5
38
100
AcDbEntity
  8
0
  6
CONTINUOUS
 62
               7
100
AcDbLine
 10
80.0
 20
-47.0
 30
0.0
 11
109.0
 21
-47.0
 31
0.0
  0
LINE
  5
39
100
AcDbEntity
  8
0
  6
CONTINUOUS
 62
               7
100
AcDbLine
 10
23.0
 20
27.0
 30
0.0
 11
24.0
 21
27.0
 31
0.0
  0
LINE
  5
3A
100
AcDbEntity
  8
0
  6
CONTINUOUS
 62
               7
100
AcDbLine
 10
42.0
 20
27.0
 30
0.0
 11
43.0
 21
27.0
 31
0.0
  0
LINE
  5
3B
100
AcDbEntity
  8
0
  6
CONTINUOUS
 62
               7
100
AcDbLine
 10
61.0
 20
27.0
 30
0.0
 11
62.0
 21
27.0
 31
0.0
  0
LINE
  5
3C
100
AcDbEntity
  8
0
  6
CONTINUOUS
 62
               7
100
AcDbLine
 10
80.0
 20
27.0
 30
0.0
 11
109.0
 21
27.0
 31
0.0
  0
LINE
  5
3D
100
AcDbEntity
  8
0
  6
CENTER
 62
               2
100
AcDbLine
 10
13.5
 20
-11.69
 30
0.0
 11
13.5
 21
-24.030000000000001
 31
0.0
  0
LINE
  5
3E
100
AcDbEntity
  8
0
  6
CENTER
 62
               2
100
AcDbLine
 10
7.9100000000000001
 20
-18.0
 30
0.0
 11
20.07
 21
-18.0
 31
0.0
  0
LINE
  5
3F
100
AcDbEntity
  8
0
  6
CENTER
 62
               2
100
AcDbLine
 10
8.3499999999999996
 20
-2.0
 30
0.0
 11
19.98
 21
-2.0
 31
0.0
  0
LINE
  5
40
100
AcDbEntity
  8
0
  6
CENTER
 62
               2
100
AcDbLine
 10
14.5
 20
4.3300000000000001
 30
0.0
 11
14.5
 21
-8.1400000000000006
 31
0.0
  0
LINE
  5
41
100
AcDbEntity
  8
0
  6
CENTER
 62
               2
100
AcDbLine
 10
14.0
 20
61.0
 30
0.0
 11
14.0
 21
-47.07
 31
0.0
  0
LINE
  5
42
100
AcDbEntity
  8
0
  6
CONTINUOUS
 62
               7
100
AcDbLine
 10
23.0
 20
28.199999999999999
 30
0.0
 11
23.0
 21
6.2599999999999998
 31
0.0
  0
LINE
  5
43
100
AcDbEntity
  8
0
  6
CONTINUOUS
 62
               7
100
AcDbLine
 10
5.0
 20
28.199999999999999
 30
0.0
 11
5.0
 21
-23.73
 31
0.0
  0
LINE
  5
44
100
AcDbEntity
  8
0
  6
CONTINUOUS
 62
               7
100
AcDbLine
 10
5.0
 20
11.0
 30
0.0
 11
23.0
 21
11.0
 31
0.0
  0
LINE
  5
45
100
AcDbEntity
  8
0
  6
CONTINUOUS
 62
               7
100
AcDbLine
 10
5.0
 20
-31.0
 30
0.0
 11
23.0
 21
-31.0
 31
0.0
  0
LINE
  5
46
100
AcDbEntity
  8
0
  6
CONTINUOUS
 62
               7
100
AcDbLine
 10
6.0
 20
29.199999999999999
 30
0.0
 11
5.0
 21
28.199999999999999
 31
0.0
  0
LINE
  5
47
100
AcDbEntity
  8
0
  6
CONTINUOUS
 62
               7
100
AcDbLine
 10
22.0
 20
29.199999999999999
 30
0.0
 11
23.0
 21
28.199999999999999
 31
0.0
  0
LINE
  5
48
100
AcDbEntity
  8
0
  6
CENTER
 62
               2
100
AcDbLine
 10
11.07
 20
25.699999999999999
 30
0.0
 11
16.91
 21
25.699999999999999
 31
0.0
  0
LINE
  5
49
100
AcDbEntity
  8
0
  6
CONTINUOUS
 62
               7
100
AcDbLine
 10
5.0
 20
28.199999999999999
 30
0.0
 11
23.0
 21
28.199999999999999
 31
0.0
  0
LINE
  5
4A
100
AcDbEntity
  8
0
  6
CONTINUOUS
 62
               7
100
AcDbLine
 10
5.0
 20
-45.0
 30
0.0
 11
23.0
 21
-45.0
 31
0.0
  0
LINE
  5
4B
100
AcDbEntity
  8
0
  6
CONTINUOUS
 62
               7
100
AcDbLine
 10
6.0
 20
29.199999999999999
 30
0.0
 11
22.0
 21
29.199999999999999
 31
0.0
  0
LINE
  5
4C
100
AcDbEntity
  8
0
  6
CONTINUOUS
 62
               4
100
AcDbLine
 10
6.5
 20
55.399999999999999
 30
0.0
 11
6.5
 21
29.199999999999999
 31
0.0
  0
LINE
  5
4D
100
AcDbEntity
  8
0
  6
CONTINUOUS
 62
               4
100
AcDbLine
 10
6.5
 20
54.399999999999999
 30
0.0
 11
21.5
 21
54.399999999999999
 31
0.0
  0
LINE
  5
4E
100
AcDbEntity
  8
0
  6
CONTINUOUS
 62
               4
100
AcDbLine
 10
21.5
 20
55.399999999999999
 30
0.0
 11
21.5
 21
29.199999999999999
 31
0.0
  0
LINE
  5
4F
100
AcDbEntity
  8
0
  6
CONTINUOUS
 62
               4
100
AcDbLine
 10
6.5
 20
55.399999999999999
 30
0.0
 11
21.5
 21
55.399999999999999
 31
0.0
  0
LINE
  5
50
100
AcDbEntity
  8
0
  6
CONTINUOUS
 62
               4
100
AcDbLine
 10
7.5
 20
57.399999999999999
 30
0.0
 11
7.6200000000000001
 21
57.399999999999999
 31
0.0
  0
LINE
  5
51
100
AcDbEntity
  8
0
  6
CONTINUOUS
 62
               4
100
AcDbLine
 10
21.5
 20
55.399999999999999
 30
0.0
 11
20.5
 21
57.399999999999999
 31
0.0
  0
LINE
  5
52
100
AcDbEntity
  8
0
  6
CONTINUOUS
 62
               4
100
AcDbLine
 10
6.5
 20
55.399999999999999
 30
0.0
 11
7.25
 21
56.899999999999999
 31
0.0
  0
LINE
  5
53
100
AcDbEntity
  8
0
  6
CONTINUOUS
 62
               4
100
AcDbLine
 10
12.050000000000001
 20
56.0
 30
0.0
 11
6.9500000000000002
 21
56.0
 31
0.0
  0
LINE
  5
54
100
AcDbEntity
  8
0
  6
CONTINUOUS
 62
               4
100
AcDbLine
 10
6.9500000000000002
 20
56.0
 30
0.0
 11
6.9500000000000002
 21
55.399999999999999
 31
0.0
  0
LINE
  5
55
100
AcDbEntity
  8
0
  6
CONTINUOUS
 62
               4
100
AcDbLine
 10
7.25
 20
57.259999999999998
 30
0.0
 11
7.25
 21
56.0
 31
0.0
  0
LINE
  5
56
100
AcDbEntity
  8
0
  6
CONTINUOUS
 62
               4
100
AcDbLine
 10
11.369999999999999
 20
57.399999999999999
 30
0.0
 11
20.5
 21
57.399999999999999
 31
0.0
  0
LINE
  5
57
100
AcDbEntity
  8
0
  6
CONTINUOUS
 62
               4
100
AcDbLine
 10
12.050000000000001
 20
56.0
 30
0.0
 11
12.050000000000001
 21
55.399999999999999
 31
0.0
  0
LINE
  5
58
100
AcDbEntity
  8
0
  6
CONTINUOUS
 62
               4
100
AcDbLine
 10
11.75
 20
57.259999999999998
 30
0.0
 11
11.75
 21
56.0
 31
0.0
  0
LINE
  5
59
100
AcDbEntity
  8
0
  6
CONTINUOUS
 62
               4
100
AcDbLine
 10
12.5
 20
57.399999999999999
 30
0.0
 11
12.5
 21
55.399999999999999
 31
0.0
  0
LINE
  5
5A
100
AcDbEntity
  8
0
  6
CONTINUOUS
 62
               4
100
AcDbLine
 10
7.4699999999999998
 20
57.340000000000003
 30
0.0
 11
7.5
 21
57.399999999999999
 31
0.0
  0
LINE
  5
5B
100
AcDbEntity
  8
0
  6
CONTINUOUS
 62
               4
100
AcDbLine
 10
12.699999999999999
 20
48.899999999999999
 30
0.0
 11
15.300000000000001
 21
48.899999999999999
 31
0.0
  0
LINE
  5
5C
100
AcDbEntity
  8
0
  6
CONTINUOUS
 62
               4
100
AcDbLine
 10
12.699999999999999
 20
45.5
 30
0.0
 11
15.300000000000001
 21
45.5
 31
0.0
  0
LINE
  5
5D
100
AcDbEntity
  8
0
  6
CONTINUOUS
 62
               7
100
AcDbLine
 10
19.43
 20
6.0599999999999996
 30
0.0
 11
21.559999999999999
 21
3.9300000000000002
 31
0.0
  0
LINE
  5
5E
100
AcDbEntity
  8
0
  6
CONTINUOUS
 62
               7
100
AcDbLine
 10
19.43
 20
3.9300000000000002
 30
0.0
 11
21.559999999999999
 21
6.0599999999999996
 31
0.0
  0
LINE
  5
5F
100
AcDbEntity
  8
0
  6
CONTINUOUS
 62
               7
100
AcDbLine
 10
6.4299999999999997
 20
-23.93
 30
0.0
 11
8.5600000000000005
 21
-26.059999999999999
 31
0.0
  0
LINE
  5
60
100
AcDbEntity
  8
0
  6
CONTINUOUS
 62
               7
100
AcDbLine
 10
6.4299999999999997
 20
-26.059999999999999
 30
0.0
 11
8.5600000000000005
 21
-23.93
 31
0.0
  0
LINE
  5
61
100
AcDbEntity
  8
0
  6
CONTINUOUS
 62
               7
100
AcDbLine
 10
5.0
 20
-26.260000000000002
 30
0.0
 11
5.0
 21
-45.0
 31
0.0
  0
LINE
  5
62
100
AcDbEntity
  8
0
  6
CONTINUOUS
 62
               7
100
AcDbLine
 10
23.0
 20
3.73
 30
0.0
 11
23.0
 21
-45.0
 31
0.0
  0
LINE
  5
63
100
AcDbEntity
  8
0
  6
CONTINUOUS
 62
               4
100
AcDbLine
 10
95.430000000000007
 20
6.0599999999999996
 30
0.0
 11
97.560000000000002
 21
3.9300000000000002
 31
0.0
  0
LINE
  5
64
100
AcDbEntity
  8
0
  6
CONTINUOUS
 62
               4
100
AcDbLine
 10
95.430000000000007
 20
3.9300000000000002
 30
0.0
 11
97.560000000000002
 21
6.0599999999999996
 31
0.0
  0
LINE
  5
65
100
AcDbEntity
  8
0
  6
CONTINUOUS
 62
               4
100
AcDbLine
 10
82.430000000000007
 20
-23.93
 30
0.0
 11
84.560000000000002
 21
-26.059999999999999
 31
0.0
  0
LINE
  5
66
100
AcDbEntity
  8
0
  6
CONTINUOUS
 62
               4
100
AcDbLine
 10
82.430000000000007
 20
-26.059999999999999
 30
0.0
 11
84.560000000000002
 21
-23.93
 31
0.0
  0
LINE
  5
67
100
AcDbEntity
  8
0
  6
CENTER
 62
               2
100
AcDbLine
 10
33.0
 20
61.0
 30
0.0
 11
33.0
 21
-47.07
 31
0.0
  0
LINE
  5
68
100
AcDbEntity
  8
0
  6
CONTINUOUS
 62
               7
100
AcDbLine
 10
42.0
 20
28.199999999999999
 30
0.0
 11
42.0
 21
6.2599999999999998
 31
0.0
  0
LINE
  5
69
100
AcDbEntity
  8
0
  6
CONTINUOUS
 62
               7
100
AcDbLine
 10
24.0
 20
28.199999999999999
 30
0.0
 11
24.0
 21
-23.73
 31
0.0
  0
LINE
  5
6A
100
AcDbEntity
  8
0
  6
CONTINUOUS
 62
               7
100
AcDbLine
 10
24.0
 20
11.0
 30
0.0
 11
42.0
 21
11.0
 31
0.0
  0
LINE
  5
6B
100
AcDbEntity
  8
0
  6
CONTINUOUS
 62
               7
100
AcDbLine
 10
24.0
 20
-31.0
 30
0.0
 11
42.0
 21
-31.0
 31
0.0
  0
LINE
  5
6C
100
AcDbEntity
  8
0
  6
CONTINUOUS
 62
               7
100
AcDbLine
 10
25.0
 20
29.199999999999999
 30
0.0
 11
24.0
 21
28.199999999999999
 31
0.0
  0
LINE
  5
6D
100
AcDbEntity
  8
0
  6
CONTINUOUS
 62
               7
100
AcDbLine
 10
41.0
 20
29.199999999999999
 30
0.0
 11
42.0
 21
28.199999999999999
 31
0.0
  0
LINE
  5
6E
100
AcDbEntity
  8
0
  6
CENTER
 62
               2
100
AcDbLine
 10
30.07
 20
25.699999999999999
 30
0.0
 11
35.909999999999997
 21
25.699999999999999
 31
0.0
  0
LINE
  5
6F
100
AcDbEntity
  8
0
  6
CONTINUOUS
 62
               7
100
AcDbLine
 10
24.0
 20
28.199999999999999
 30
0.0
 11
42.0
 21
28.199999999999999
 31
0.0
  0
LINE
  5
70
100
AcDbEntity
  8
0
  6
CONTINUOUS
 62
               7
100
AcDbLine
 10
24.0
 20
-45.0
 30
0.0
 11
42.0
 21
-45.0
 31
0.0
  0
LINE
  5
71
100
AcDbEntity
  8
0
  6
CONTINUOUS
 62
               7
100
AcDbLine
 10
25.0
 20
29.199999999999999
 30
0.0
 11
41.0
 21
29.199999999999999
 31
0.0
  0
LINE
  5
72
100
AcDbEntity
  8
0
  6
CONTINUOUS
 62
               4
100
AcDbLine
 10
25.5
 20
55.399999999999999
 30
0.0
 11
25.5
 21
29.199999999999999
 31
0.0
  0
LINE
  5
73
100
AcDbEntity
  8
0
  6
CONTINUOUS
 62
               4
100
AcDbLine
 10
25.5
 20
54.399999999999999
 30
0.0
 11
40.5
 21
54.399999999999999
 31
0.0
  0
LINE
  5
74
100
AcDbEntity
  8
0
  6
CONTINUOUS
 62
               4
100
AcDbLine
 10
40.5
 20
55.399999999999999
 30
0.0
 11
40.5
 21
29.199999999999999
 31
0.0
  0
LINE
  5
75
100
AcDbEntity
  8
0
  6
CONTINUOUS
 62
               4
100
AcDbLine
 10
25.5
 20
55.399999999999999
 30
0.0
 11
40.5
 21
55.399999999999999
 31
0.0
  0
LINE
  5
76
100
AcDbEntity
  8
0
  6
CONTINUOUS
 62
               4
100
AcDbLine
 10
26.5
 20
57.399999999999999
 30
0.0
 11
26.620000000000001
 21
57.399999999999999
 31
0.0
  0
LINE
  5
77
100
AcDbEntity
  8
0
  6
CONTINUOUS
 62
               4
100
AcDbLine
 10
40.5
 20
55.399999999999999
 30
0.0
 11
39.5
 21
57.399999999999999
 31
0.0
  0
LINE
  5
78
100
AcDbEntity
  8
0
  6
CONTINUOUS
 62
               4
100
AcDbLine
 10
25.5
 20
55.399999999999999
 30
0.0
 11
26.25
 21
56.899999999999999
 31
0.0
  0
LINE
  5
79
100
AcDbEntity
  8
0
  6
CONTINUOUS
 62
               4
100
AcDbLine
 10
31.050000000000001
 20
56.0
 30
0.0
 11
25.949999999999999
 21
56.0
 31
0.0
  0
LINE
  5
7A
100
AcDbEntity
  8
0
  6
CONTINUOUS
 62
               4
100
AcDbLine
 10
25.949999999999999
 20
56.0
 30
0.0
 11
25.949999999999999
 21
55.399999999999999
 31
0.0
  0
LINE
  5
7B
100
AcDbEntity
  8
0
  6
CONTINUOUS
 62
               4
100
AcDbLine
 10
26.25
 20
57.259999999999998
 30
0.0
 11
26.25
 21
56.0
 31
0.0
  0
LINE
  5
7C
100
AcDbEntity
  8
0
  6
CONTINUOUS
 62
               4
100
AcDbLine
 10
30.370000000000001
 20
57.399999999999999
 30
0.0
 11
39.5
 21
57.399999999999999
 31
0.0
  0
LINE
  5
7D
100
AcDbEntity
  8
0
  6
CONTINUOUS
 62
               4
100
AcDbLine
 10
31.050000000000001
 20
56.0
 30
0.0
 11
31.050000000000001
 21
55.399999999999999
 31
0.0
  0
LINE
  5
7E
100
AcDbEntity
  8
0
  6
CONTINUOUS
 62
               4
100
AcDbLine
 10
30.75
 20
57.259999999999998
 30
0.0
 11
30.75
 21
56.0
 31
0.0
  0
LINE
  5
7F
100
AcDbEntity
  8
0
  6
CONTINUOUS
 62
               4
100
AcDbLine
 10
31.5
 20
57.399999999999999
 30
0.0
 11
31.5
 21
55.399999999999999
 31
0.0
  0
LINE
  5
80
100
AcDbEntity
  8
0
  6
CONTINUOUS
 62
               4
100
AcDbLine
 10
26.469999999999999
 20
57.340000000000003
 30
0.0
 11
26.5
 21
57.399999999999999
 31
0.0
  0
LINE
  5
81
100
AcDbEntity
  8
0
  6
CONTINUOUS
 62
               4
100
AcDbLine
 10
31.699999999999999
 20
48.899999999999999
 30
0.0
 11
34.299999999999997
 21
48.899999999999999
 31
0.0
  0
LINE
  5
82
100
AcDbEntity
  8
0
  6
CONTINUOUS
 62
               4
100
AcDbLine
 10
31.699999999999999
 20
45.5
 30
0.0
 11
34.299999999999997
 21
45.5
 31
0.0
  0
LINE
  5
83
100
AcDbEntity
  8
0
  6
CONTINUOUS
 62
               7
100
AcDbLine
 10
38.43
 20
6.0599999999999996
 30
0.0
 11
40.560000000000002
 21
3.9300000000000002
 31
0.0
  0
LINE
  5
84
100
AcDbEntity
  8
0
  6
CONTINUOUS
 62
               7
100
AcDbLine
 10
38.43
 20
3.9300000000000002
 30
0.0
 11
40.560000000000002
 21
6.0599999999999996
 31
0.0
  0
LINE
  5
85
100
AcDbEntity
  8
0
  6
CONTINUOUS
 62
               7
100
AcDbLine
 10
25.43
 20
-23.93
 30
0.0
 11
27.559999999999999
 21
-26.059999999999999
 31
0.0
  0
LINE
  5
86
100
AcDbEntity
  8
0
  6
CONTINUOUS
 62
               7
100
AcDbLine
 10
25.43
 20
-26.059999999999999
 30
0.0
 11
27.559999999999999
 21
-23.93
 31
0.0
  0
LINE
  5
87
100
AcDbEntity
  8
0
  6
CONTINUOUS
 62
               7
100
AcDbLine
 10
24.0
 20
-26.260000000000002
 30
0.0
 11
24.0
 21
-45.0
 31
0.0
  0
LINE
  5
88
100
AcDbEntity
  8
0
  6
CONTINUOUS
 62
               7
100
AcDbLine
 10
42.0
 20
3.73
 30
0.0
 11
42.0
 21
-45.0
 31
0.0
  0
LINE
  5
89
100
AcDbEntity
  8
0
  6
CONTINUOUS
 62
               7
100
AcDbLine
 10
61.0
 20
28.199999999999999
 30
0.0
 11
61.0
 21
6.2599999999999998
 31
0.0
  0
LINE
  5
8A
100
AcDbEntity
  8
0
  6
CONTINUOUS
 62
               7
100
AcDbLine
 10
43.0
 20
28.199999999999999
 30
0.0
 11
43.0
 21
-23.73
 31
0.0
  0
LINE
  5
8B
100
AcDbEntity
  8
0
  6
CONTINUOUS
 62
               7
100
AcDbLine
 10
43.0
 20
11.0
 30
0.0
 11
61.0
 21
11.0
 31
0.0
  0
LINE
  5
8C
100
AcDbEntity
  8
0
  6
CONTINUOUS
 62
               7
100
AcDbLine
 10
43.0
 20
-31.0
 30
0.0
 11
61.0
 21
-31.0
 31
0.0
  0
LINE
  5
8D
100
AcDbEntity
  8
0
  6
CONTINUOUS
 62
               7
100
AcDbLine
 10
44.0
 20
29.199999999999999
 30
0.0
 11
43.0
 21
28.199999999999999
 31
0.0
  0
LINE
  5
8E
100
AcDbEntity
  8
0
  6
CONTINUOUS
 62
               7
100
AcDbLine
 10
60.0
 20
29.199999999999999
 30
0.0
 11
61.0
 21
28.199999999999999
 31
0.0
  0
LINE
  5
8F
100
AcDbEntity
  8
0
  6
CENTER
 62
               2
100
AcDbLine
 10
49.07
 20
25.699999999999999
 30
0.0
 11
54.909999999999997
 21
25.699999999999999
 31
0.0
  0
LINE
  5
90
100
AcDbEntity
  8
0
  6
CONTINUOUS
 62
               7
100
AcDbLine
 10
44.0
 20
29.199999999999999
 30
0.0
 11
60.0
 21
29.199999999999999
 31
0.0
  0
LINE
  5
91
100
AcDbEntity
  8
0
  6
CONTINUOUS
 62
               7
100
AcDbLine
 10
43.0
 20
28.199999999999999
 30
0.0
 11
61.0
 21
28.199999999999999
 31
0.0
  0
LINE
  5
92
100
AcDbEntity
  8
0
  6
CONTINUOUS
 62
               7
100
AcDbLine
 10
44.0
 20
-49.200000000000003
 30
0.0
 11
43.0
 21
-48.200000000000003
 31
0.0
  0
LINE
  5
93
100
AcDbEntity
  8
0
  6
CONTINUOUS
 62
               7
100
AcDbLine
 10
60.0
 20
-49.200000000000003
 30
0.0
 11
61.0
 21
-48.200000000000003
 31
0.0
  0
LINE
  5
94
100
AcDbEntity
  8
0
  6
CONTINUOUS
 62
               7
100
AcDbLine
 10
44.0
 20
-49.200000000000003
 30
0.0
 11
60.0
 21
-49.200000000000003
 31
0.0
  0
LINE
  5
95
100
AcDbEntity
  8
0
  6
CONTINUOUS
 62
               7
100
AcDbLine
 10
43.0
 20
-48.200000000000003
 30
0.0
 11
61.0
 21
-48.200000000000003
 31
0.0
  0
LINE
  5
96
100
AcDbEntity
  8
0
  6
CENTER
 62
               2
100
AcDbLine
 10
49.0
 20
-45.700000000000003
 30
0.0
 11
55.0
 21
-45.700000000000003
 31
0.0
  0
LINE
  5
97
100
AcDbEntity
  8
0
  6
CENTER
 62
               2
100
AcDbLine
 10
52.0
 20
62.0
 30
0.0
 11
52.0
 21
-82.0
 31
0.0
  0
LINE
  5
98
100
AcDbEntity
  8
0
  6
CONTINUOUS
 62
               4
100
AcDbLine
 10
59.5
 20
-75.400000000000006
 30
0.0
 11
59.5
 21
-49.200000000000003
 31
0.0
  0
LINE
  5
99
100
AcDbEntity
  8
0
  6
CONTINUOUS
 62
               4
100
AcDbLine
 10
59.5
 20
-74.400000000000006
 30
0.0
 11
44.5
 21
-74.400000000000006
 31
0.0
  0
LINE
  5
9A
100
AcDbEntity
  8
0
  6
CONTINUOUS
 62
               4
100
AcDbLine
 10
44.5
 20
-75.400000000000006
 30
0.0
 11
44.5
 21
-49.200000000000003
 31
0.0
  0
LINE
  5
9B
100
AcDbEntity
  8
0
  6
CONTINUOUS
 62
               4
100
AcDbLine
 10
59.5
 20
-75.400000000000006
 30
0.0
 11
44.5
 21
-75.400000000000006
 31
0.0
  0
LINE
  5
9C
100
AcDbEntity
  8
0
  6
CONTINUOUS
 62
               4
100
AcDbLine
 10
58.5
 20
-77.400000000000006
 30
0.0
 11
58.32
 21
-77.400000000000006
 31
0.0
  0
LINE
  5
9D
100
AcDbEntity
  8
0
  6
CONTINUOUS
 62
               4
100
AcDbLine
 10
44.5
 20
-75.400000000000006
 30
0.0
 11
45.5
 21
-77.400000000000006
 31
0.0
  0
LINE
  5
9E
100
AcDbEntity
  8
0
  6
CONTINUOUS
 62
               4
100
AcDbLine
 10
59.5
 20
-75.400000000000006
 30
0.0
 11
58.5
 21
-77.400000000000006
 31
0.0
  0
LINE
  5
9F
100
AcDbEntity
  8
0
  6
CONTINUOUS
 62
               4
100
AcDbLine
 10
53.950000000000003
 20
-76.0
 30
0.0
 11
59.049999999999997
 21
-76.0
 31
0.0
  0
LINE
  5
A0
100
AcDbEntity
  8
0
  6
CONTINUOUS
 62
               4
100
AcDbLine
 10
59.049999999999997
 20
-76.0
 30
0.0
 11
59.049999999999997
 21
-75.400000000000006
 31
0.0
  0
LINE
  5
A1
100
AcDbEntity
  8
0
  6
CONTINUOUS
 62
               4
100
AcDbLine
 10
58.75
 20
-76.689999999999998
 30
0.0
 11
58.75
 21
-76.0
 31
0.0
  0
LINE
  5
A2
100
AcDbEntity
  8
0
  6
CONTINUOUS
 62
               4
100
AcDbLine
 10
54.670000000000002
 20
-77.400000000000006
 30
0.0
 11
45.5
 21
-77.400000000000006
 31
0.0
  0
LINE
  5
A3
100
AcDbEntity
  8
0
  6
CONTINUOUS
 62
               4
100
AcDbLine
 10
53.950000000000003
 20
-76.0
 30
0.0
 11
53.950000000000003
 21
-75.400000000000006
 31
0.0
  0
LINE
  5
A4
100
AcDbEntity
  8
0
  6
CONTINUOUS
 62
               4
100
AcDbLine
 10
54.25
 20
-76.689999999999998
 30
0.0
 11
54.25
 21
-76.0
 31
0.0
  0
LINE
  5
A5
100
AcDbEntity
  8
0
  6
CONTINUOUS
 62
               4
100
AcDbLine
 10
53.5
 20
-77.400000000000006
 30
0.0
 11
53.5
 21
-75.400000000000006
 31
0.0
  0
LINE
  5
A6
100
AcDbEntity
  8
0
  6
CONTINUOUS
 62
               4
100
AcDbLine
 10
50.700000000000003
 20
-65.5
 30
0.0
 11
53.299999999999997
 21
-65.5
 31
0.0
  0
LINE
  5
A7
100
AcDbEntity
  8
0
  6
CONTINUOUS
 62
               4
100
AcDbLine
 10
50.700000000000003
 20
-68.900000000000006
 30
0.0
 11
53.299999999999997
 21
-68.900000000000006
 31
0.0
  0
LINE
  5
A8
100
AcDbEntity
  8
0
  6
CONTINUOUS
 62
               4
100
AcDbLine
 10
44.5
 20
55.399999999999999
 30
0.0
 11
44.5
 21
29.199999999999999
 31
0.0
  0
LINE
  5
A9
100
AcDbEntity
  8
0
  6
CONTINUOUS
 62
               4
100
AcDbLine
 10
44.5
 20
54.399999999999999
 30
0.0
 11
59.5
 21
54.399999999999999
 31
0.0
  0
LINE
  5
AA
100
AcDbEntity
  8
0
  6
CONTINUOUS
 62
               4
100
AcDbLine
 10
59.5
 20
55.399999999999999
 30
0.0
 11
59.5
 21
29.199999999999999
 31
0.0
  0
LINE
  5
AB
100
AcDbEntity
  8
0
  6
CONTINUOUS
 62
               4
100
AcDbLine
 10
44.5
 20
55.399999999999999
 30
0.0
 11
59.5
 21
55.399999999999999
 31
0.0
  0
LINE
  5
AC
100
AcDbEntity
  8
0
  6
CONTINUOUS
 62
               4
100
AcDbLine
 10
45.5
 20
57.399999999999999
 30
0.0
 11
45.619999999999997
 21
57.399999999999999
 31
0.0
  0
LINE
  5
AD
100
AcDbEntity
  8
0
  6
CONTINUOUS
 62
               4
100
AcDbLine
 10
59.5
 20
55.399999999999999
 30
0.0
 11
58.5
 21
57.399999999999999
 31
0.0
  0
LINE
  5
AE
100
AcDbEntity
  8
0
  6
CONTINUOUS
 62
               4
100
AcDbLine
 10
44.5
 20
55.399999999999999
 30
0.0
 11
45.25
 21
56.899999999999999
 31
0.0
  0
LINE
  5
AF
100
AcDbEntity
  8
0
  6
CONTINUOUS
 62
               4
100
AcDbLine
 10
50.049999999999997
 20
56.0
 30
0.0
 11
44.950000000000003
 21
56.0
 31
0.0
  0
LINE
  5
B0
100
AcDbEntity
  8
0
  6
CONTINUOUS
 62
               4
100
AcDbLine
 10
44.950000000000003
 20
56.0
 30
0.0
 11
44.950000000000003
 21
55.399999999999999
 31
0.0
  0
LINE
  5
B1
100
AcDbEntity
  8
0
  6
CONTINUOUS
 62
               4
100
AcDbLine
 10
45.25
 20
57.259999999999998
 30
0.0
 11
45.25
 21
56.0
 31
0.0
  0
LINE
  5
B2
100
AcDbEntity
  8
0
  6
CONTINUOUS
 62
               4
100
AcDbLine
 10
49.369999999999997
 20
57.399999999999999
 30
0.0
 11
58.5
 21
57.399999999999999
 31
0.0
  0
LINE
  5
B3
100
AcDbEntity
  8
0
  6
CONTINUOUS
 62
               4
100
AcDbLine
 10
50.049999999999997
 20
56.0
 30
0.0
 11
50.049999999999997
 21
55.399999999999999
 31
0.0
  0
LINE
  5
B4
100
AcDbEntity
  8
0
  6
CONTINUOUS
 62
               4
100
AcDbLine
 10
49.75
 20
57.259999999999998
 30
0.0
 11
49.75
 21
56.0
 31
0.0
  0
LINE
  5
B5
100
AcDbEntity
  8
0
  6
CONTINUOUS
 62
               4
100
AcDbLine
 10
50.5
 20
57.399999999999999
 30
0.0
 11
50.5
 21
55.399999999999999
 31
0.0
  0
LINE
  5
B6
100
AcDbEntity
  8
0
  6
CONTINUOUS
 62
               4
100
AcDbLine
 10
45.469999999999999
 20
57.340000000000003
 30
0.0
 11
45.5
 21
57.399999999999999
 31
0.0
  0
LINE
  5
B7
100
AcDbEntity
  8
0
  6
CONTINUOUS
 62
               4
100
AcDbLine
 10
50.700000000000003
 20
48.899999999999999
 30
0.0
 11
53.299999999999997
 21
48.899999999999999
 31
0.0
  0
LINE
  5
B8
100
AcDbEntity
  8
0
  6
CONTINUOUS
 62
               4
100
AcDbLine
 10
50.700000000000003
 20
45.5
 30
0.0
 11
53.299999999999997
 21
45.5
 31
0.0
  0
LINE
  5
B9
100
AcDbEntity
  8
0
  6
CONTINUOUS
 62
               7
100
AcDbLine
 10
57.43
 20
6.0599999999999996
 30
0.0
 11
59.560000000000002
 21
3.9300000000000002
 31
0.0
  0
LINE
  5
BA
100
AcDbEntity
  8
0
  6
CONTINUOUS
 62
               7
100
AcDbLine
 10
57.43
 20
3.9300000000000002
 30
0.0
 11
59.560000000000002
 21
6.0599999999999996
 31
0.0
  0
LINE
  5
BB
100
AcDbEntity
  8
0
  6
CONTINUOUS
 62
               7
100
AcDbLine
 10
44.43
 20
-23.93
 30
0.0
 11
46.560000000000002
 21
-26.059999999999999
 31
0.0
  0
LINE
  5
BC
100
AcDbEntity
  8
0
  6
CONTINUOUS
 62
               7
100
AcDbLine
 10
44.43
 20
-26.059999999999999
 30
0.0
 11
46.560000000000002
 21
-23.93
 31
0.0
  0
LINE
  5
BD
100
AcDbEntity
  8
0
  6
CONTINUOUS
 62
               7
100
AcDbLine
 10
43.0
 20
-26.260000000000002
 30
0.0
 11
43.0
 21
-48.200000000000003
 31
0.0
  0
LINE
  5
BE
100
AcDbEntity
  8
0
  6
CONTINUOUS
 62
               7
100
AcDbLine
 10
61.0
 20
3.73
 30
0.0
 11
61.0
 21
-48.200000000000003
 31
0.0
  0
LINE
  5
BF
100
AcDbEntity
  8
0
  6
CONTINUOUS
 62
               4
100
AcDbLine
 10
63.5
 20
58.200000000000003
 30
0.0
 11
63.5
 21
32.0
 31
0.0
  0
LINE
  5
C0
100
AcDbEntity
  8
0
  6
CONTINUOUS
 62
               4
100
AcDbLine
 10
63.5
 20
57.200000000000003
 30
0.0
 11
78.5
 21
57.200000000000003
 31
0.0
  0
LINE
  5
C1
100
AcDbEntity
  8
0
  6
CONTINUOUS
 62
               4
100
AcDbLine
 10
78.5
 20
58.200000000000003
 30
0.0
 11
78.5
 21
32.0
 31
0.0
  0
LINE
  5
C2
100
AcDbEntity
  8
0
  6
CONTINUOUS
 62
               4
100
AcDbLine
 10
63.5
 20
58.200000000000003
 30
0.0
 11
78.5
 21
58.200000000000003
 31
0.0
  0
LINE
  5
C3
100
AcDbEntity
  8
0
  6
CONTINUOUS
 62
               4
100
AcDbLine
 10
64.5
 20
60.200000000000003
 30
0.0
 11
64.620000000000005
 21
60.200000000000003
 31
0.0
  0
LINE
  5
C4
100
AcDbEntity
  8
0
  6
CONTINUOUS
 62
               4
100
AcDbLine
 10
78.5
 20
58.200000000000003
 30
0.0
 11
77.5
 21
60.200000000000003
 31
0.0
  0
LINE
  5
C5
100
AcDbEntity
  8
0
  6
CONTINUOUS
 62
               4
100
AcDbLine
 10
63.5
 20
58.200000000000003
 30
0.0
 11
64.25
 21
59.700000000000003
 31
0.0
  0
LINE
  5
C6
100
AcDbEntity
  8
0
  6
CONTINUOUS
 62
               4
100
AcDbLine
 10
69.049999999999997
 20
58.799999999999997
 30
0.0
 11
63.950000000000003
 21
58.799999999999997
 31
0.0
  0
LINE
  5
C7
100
AcDbEntity
  8
0
  6
CONTINUOUS
 62
               4
100
AcDbLine
 10
63.950000000000003
 20
58.799999999999997
 30
0.0
 11
63.950000000000003
 21
58.200000000000003
 31
0.0
  0
LINE
  5
C8
100
AcDbEntity
  8
0
  6
CONTINUOUS
 62
               4
100
AcDbLine
 10
64.25
 20
60.060000000000002
 30
0.0
 11
64.25
 21
58.799999999999997
 31
0.0
  0
LINE
  5
C9
100
AcDbEntity
  8
0
  6
CONTINUOUS
 62
               4
100
AcDbLine
 10
68.370000000000005
 20
60.200000000000003
 30
0.0
 11
77.5
 21
60.200000000000003
 31
0.0
  0
LINE
  5
CA
100
AcDbEntity
  8
0
  6
CONTINUOUS
 62
               4
100
AcDbLine
 10
69.049999999999997
 20
58.799999999999997
 30
0.0
 11
69.049999999999997
 21
58.200000000000003
 31
0.0
  0
LINE
  5
CB
100
AcDbEntity
  8
0
  6
CONTINUOUS
 62
               4
100
AcDbLine
 10
68.75
 20
60.060000000000002
 30
0.0
 11
68.75
 21
58.799999999999997
 31
0.0
  0
LINE
  5
CC
100
AcDbEntity
  8
0
  6
CONTINUOUS
 62
               4
100
AcDbLine
 10
69.5
 20
60.200000000000003
 30
0.0
 11
69.5
 21
58.200000000000003
 31
0.0
  0
LINE
  5
CD
100
AcDbEntity
  8
0
  6
CONTINUOUS
 62
               4
100
AcDbLine
 10
64.469999999999999
 20
60.140000000000001
 30
0.0
 11
64.5
 21
60.200000000000003
 31
0.0
  0
LINE
  5
CE
100
AcDbEntity
  8
0
  6
CONTINUOUS
 62
               4
100
AcDbLine
 10
69.700000000000003
 20
51.700000000000003
 30
0.0
 11
72.299999999999997
 21
51.700000000000003
 31
0.0
  0
LINE
  5
CF
100
AcDbEntity
  8
0
  6
CONTINUOUS
 62
               4
100
AcDbLine
 10
69.700000000000003
 20
48.299999999999997
 30
0.0
 11
72.299999999999997
 21
48.299999999999997
 31
0.0
  0
LINE
  5
D0
100
AcDbEntity
  8
0
  6
CENTER
 62
               2
100
AcDbLine
 10
71.0
 20
65.239999999999995
 30
0.0
 11
71.0
 21
-94.75
 31
0.0
  0
LINE
  5
D1
100
AcDbEntity
  8
0
  6
CONTINUOUS
 62
               7
100
AcDbLine
 10
80.0
 20
31.0
 30
0.0
 11
80.0
 21
6.2599999999999998
 31
0.0
  0
LINE
  5
D2
100
AcDbEntity
  8
0
  6
CONTINUOUS
 62
               7
100
AcDbLine
 10
62.0
 20
31.0
 30
0.0
 11
62.0
 21
-23.73
 31
0.0
  0
LINE
  5
D3
100
AcDbEntity
  8
0
  6
CONTINUOUS
 62
               7
100
AcDbLine
 10
62.0
 20
11.0
 30
0.0
 11
80.0
 21
11.0
 31
0.0
  0
LINE
  5
D4
100
AcDbEntity
  8
0
  6
CONTINUOUS
 62
               7
100
AcDbLine
 10
62.0
 20
-31.0
 30
0.0
 11
80.0
 21
-31.0
 31
0.0
  0
LINE
  5
D5
100
AcDbEntity
  8
0
  6
CONTINUOUS
 62
               7
100
AcDbLine
 10
63.0
 20
32.0
 30
0.0
 11
62.0
 21
31.0
 31
0.0
  0
LINE
  5
D6
100
AcDbEntity
  8
0
  6
CONTINUOUS
 62
               7
100
AcDbLine
 10
79.0
 20
32.0
 30
0.0
 11
80.0
 21
31.0
 31
0.0
  0
LINE
  5
D7
100
AcDbEntity
  8
0
  6
CENTER
 62
               2
100
AcDbLine
 10
68.069999999999993
 20
28.5
 30
0.0
 11
73.909999999999997
 21
28.5
 31
0.0
  0
LINE
  5
D8
100
AcDbEntity
  8
0
  6
CONTINUOUS
 62
               7
100
AcDbLine
 10
63.0
 20
32.0
 30
0.0
 11
79.0
 21
32.0
 31
0.0
  0
LINE
  5
D9
100
AcDbEntity
  8
0
  6
CONTINUOUS
 62
               7
100
AcDbLine
 10
62.0
 20
31.0
 30
0.0
 11
80.0
 21
31.0
 31
0.0
  0
LINE
  5
DA
100
AcDbEntity
  8
0
  6
CONTINUOUS
 62
               7
100
AcDbLine
 10
62.0
 20
-61.200000000000003
 30
0.0
 11
63.0
 21
-62.200000000000003
 31
0.0
  0
LINE
  5
DB
100
AcDbEntity
  8
0
  6
CONTINUOUS
 62
               7
100
AcDbLine
 10
80.0
 20
-61.200000000000003
 30
0.0
 11
79.0
 21
-62.200000000000003
 31
0.0
  0
LINE
  5
DC
100
AcDbEntity
  8
0
  6
CONTINUOUS
 62
               7
100
AcDbLine
 10
62.0
 20
-61.200000000000003
 30
0.0
 11
80.0
 21
-61.200000000000003
 31
0.0
  0
LINE
  5
DD
100
AcDbEntity
  8
0
  6
CONTINUOUS
 62
               7
100
AcDbLine
 10
79.0
 20
-62.200000000000003
 30
0.0
 11
63.0
 21
-62.200000000000003
 31
0.0
  0
LINE
  5
DE
100
AcDbEntity
  8
0
  6
CENTER
 62
               2
100
AcDbLine
 10
74.5
 20
-58.700000000000003
 30
0.0
 11
68.159999999999997
 21
-58.700000000000003
 31
0.0
  0
LINE
  5
DF
100
AcDbEntity
  8
0
  6
CONTINUOUS
 62
               4
100
AcDbLine
 10
78.5
 20
-88.400000000000006
 30
0.0
 11
78.5
 21
-62.200000000000003
 31
0.0
  0
LINE
  5
E0
100
AcDbEntity
  8
0
  6
CONTINUOUS
 62
               4
100
AcDbLine
 10
78.5
 20
-87.400000000000006
 30
0.0
 11
63.5
 21
-87.400000000000006
 31
0.0
  0
LINE
  5
E1
100
AcDbEntity
  8
0
  6
CONTINUOUS
 62
               4
100
AcDbLine
 10
63.5
 20
-88.400000000000006
 30
0.0
 11
63.5
 21
-62.200000000000003
 31
0.0
  0
LINE
  5
E2
100
AcDbEntity
  8
0
  6
CONTINUOUS
 62
               4
100
AcDbLine
 10
78.5
 20
-88.400000000000006
 30
0.0
 11
63.5
 21
-88.400000000000006
 31
0.0
  0
LINE
  5
E3
100
AcDbEntity
  8
0
  6
CONTINUOUS
 62
               4
100
AcDbLine
 10
77.5
 20
-90.400000000000006
 30
0.0
 11
77.319999999999993
 21
-90.400000000000006
 31
0.0
  0
LINE
  5
E4
100
AcDbEntity
  8
0
  6
CONTINUOUS
 62
               4
100
AcDbLine
 10
63.5
 20
-88.400000000000006
 30
0.0
 11
64.5
 21
-90.400000000000006
 31
0.0
  0
LINE
  5
E5
100
AcDbEntity
  8
0
  6
CONTINUOUS
 62
               4
100
AcDbLine
 10
78.5
 20
-88.400000000000006
 30
0.0
 11
77.5
 21
-90.400000000000006
 31
0.0
  0
LINE
  5
E6
100
AcDbEntity
  8
0
  6
CONTINUOUS
 62
               4
100
AcDbLine
 10
72.950000000000003
 20
-89.0
 30
0.0
 11
78.049999999999997
 21
-89.0
 31
0.0
  0
LINE
  5
E7
100
AcDbEntity
  8
0
  6
CONTINUOUS
 62
               4
100
AcDbLine
 10
78.049999999999997
 20
-89.0
 30
0.0
 11
78.049999999999997
 21
-88.400000000000006
 31
0.0
  0
LINE
  5
E8
100
AcDbEntity
  8
0
  6
CONTINUOUS
 62
               4
100
AcDbLine
 10
77.75
 20
-89.689999999999998
 30
0.0
 11
77.75
 21
-89.0
 31
0.0
  0
LINE
  5
E9
100
AcDbEntity
  8
0
  6
CONTINUOUS
 62
               4
100
AcDbLine
 10
73.670000000000002
 20
-90.400000000000006
 30
0.0
 11
64.5
 21
-90.400000000000006
 31
0.0
  0
LINE
  5
EA
100
AcDbEntity
  8
0
  6
CONTINUOUS
 62
               4
100
AcDbLine
 10
72.950000000000003
 20
-89.0
 30
0.0
 11
72.950000000000003
 21
-88.400000000000006
 31
0.0
  0
LINE
  5
EB
100
AcDbEntity
  8
0
  6
CONTINUOUS
 62
               4
100
AcDbLine
 10
73.25
 20
-89.689999999999998
 30
0.0
 11
73.25
 21
-89.0
 31
0.0
  0
LINE
  5
EC
100
AcDbEntity
  8
0
  6
CONTINUOUS
 62
               4
100
AcDbLine
 10
72.5
 20
-90.400000000000006
 30
0.0
 11
72.5
 21
-88.400000000000006
 31
0.0
  0
LINE
  5
ED
100
AcDbEntity
  8
0
  6
CONTINUOUS
 62
               4
100
AcDbLine
 10
69.700000000000003
 20
-78.5
 30
0.0
 11
72.299999999999997
 21
-78.5
 31
0.0
  0
LINE
  5
EE
100
AcDbEntity
  8
0
  6
CONTINUOUS
 62
               4
100
AcDbLine
 10
69.700000000000003
 20
-81.900000000000006
 30
0.0
 11
72.299999999999997
 21
-81.900000000000006
 31
0.0
  0
LINE
  5
EF
100
AcDbEntity
  8
0
  6
CONTINUOUS
 62
               7
100
AcDbLine
 10
63.43
 20
-23.93
 30
0.0
 11
65.560000000000002
 21
-26.059999999999999
 31
0.0
  0
LINE
  5
F0
100
AcDbEntity
  8
0
  6
CONTINUOUS
 62
               7
100
AcDbLine
 10
63.43
 20
-26.059999999999999
 30
0.0
 11
65.560000000000002
 21
-23.93
 31
0.0
  0
LINE
  5
F1
100
AcDbEntity
  8
0
  6
CONTINUOUS
 62
               7
100
AcDbLine
 10
76.430000000000007
 20
6.0599999999999996
 30
0.0
 11
78.560000000000002
 21
3.9300000000000002
 31
0.0
  0
LINE
  5
F2
100
AcDbEntity
  8
0
  6
CONTINUOUS
 62
               7
100
AcDbLine
 10
76.430000000000007
 20
3.9300000000000002
 30
0.0
 11
78.560000000000002
 21
6.0599999999999996
 31
0.0
  0
LINE
  5
F3
100
AcDbEntity
  8
0
  6
CONTINUOUS
 62
               7
100
AcDbLine
 10
80.0
 20
3.73
 30
0.0
 11
80.0
 21
-61.200000000000003
 31
0.0
  0
LINE
  5
F4
100
AcDbEntity
  8
0
  6
CONTINUOUS
 62
               7
100
AcDbLine
 10
62.0
 20
-26.260000000000002
 30
0.0
 11
62.0
 21
-61.200000000000003
 31
0.0
  0
LINE
  5
F5
100
AcDbEntity
  8
0
  6
CONTINUOUS
 62
               7
100
AcDbLine
 10
62.0
 20
-47.0
 30
0.0
 11
61.0
 21
-47.0
 31
0.0
  0
LINE
  5
F6
100
AcDbEntity
  8
0
  6
CENTER
 62
             200
100
AcDbLine
 10
27.0
 20
-3.0
 30
0.0
 11
39.0
 21
-3.0
 31
0.0
  0
LINE
  5
F7
100
AcDbEntity
  8
0
  6
CENTER
 62
             200
100
AcDbLine
 10
46.5
 20
-3.0
 30
0.0
 11
58.5
 21
-3.0
 31
0.0
  0
LINE
  5
F8
100
AcDbEntity
  8
0
  6
CENTER
 62
             200
100
AcDbLine
 10
45.5
 20
-17.0
 30
0.0
 11
57.5
 21
-17.0
 31
0.0
  0
LINE
  5
F9
100
AcDbEntity
  8
0
  6
CONTINUOUS
 62
               4
100
AcDbLine
 10
47.600000000000001
 20
-2.0
 30
0.0
 11
47.600000000000001
 21
-4.0
 31
0.0
  0
LINE
  5
FA
100
AcDbEntity
  8
0
  6
CONTINUOUS
 62
               4
100
AcDbLine
 10
57.399999999999999
 20
-2.0
 30
0.0
 11
57.399999999999999
 21
-4.0
 31
0.0
  0
LINE
  5
FB
100
AcDbEntity
  8
0
  6
CONTINUOUS
 62
               4
100
AcDbLine
 10
46.600000000000001
 20
-16.0
 30
0.0
 11
46.600000000000001
 21
-18.0
 31
0.0
  0
LINE
  5
FC
100
AcDbEntity
  8
0
  6
CONTINUOUS
 62
               4
100
AcDbLine
 10
56.399999999999999
 20
-16.0
 30
0.0
 11
56.399999999999999
 21
-18.0
 31
0.0
  0
LINE
  5
FD
100
AcDbEntity
  8
0
  6
CENTER
 62
             200
100
AcDbLine
 10
52.5
 20
4.5
 30
0.0
 11
52.5
 21
-10.5
 31
0.0
  0
LINE
  5
FE
100
AcDbEntity
  8
0
  6
CENTER
 62
             200
100
AcDbLine
 10
51.5
 20
-9.5
 30
0.0
 11
51.5
 21
-24.5
 31
0.0
  0
LINE
  5
FF
100
AcDbEntity
  8
0
  6
CONTINUOUS
 62
               4
100
AcDbLine
 10
28.100000000000001
 20
-2.0
 30
0.0
 11
28.100000000000001
 21
-4.0
 31
0.0
  0
LINE
  5
100
100
AcDbEntity
  8
0
  6
CONTINUOUS
 62
               4
100
AcDbLine
 10
37.899999999999999
 20
-2.0
 30
0.0
 11
37.899999999999999
 21
-4.0
 31
0.0
  0
CIRCLE
  5
101
100
AcDbEntity
  8
0
  6
CONTINUOUS
 62
               7
100
AcDbCircle
 10
0.0
 20
0.0
 30
0.0
 40
2.0999994277954102
  0
CIRCLE
  5
102
100
AcDbEntity
  8
0
  6
CONTINUOUS
 62
               7
100
AcDbCircle
 10
0.0
 20
-19.999984741210937
 30
0.0
 40
2.0999994277954102
  0
CIRCLE
  5
103
100
AcDbEntity
  8
0
  6
CONTINUOUS
 62
               7
100
AcDbCircle
 10
104.00003051757812
 20
0.0
 30
0.0
 40
2.0999994277954102
  0
CIRCLE
  5
104
100
AcDbEntity
  8
0
  6
CONTINUOUS
 62
               7
100
AcDbCircle
 10
104.00003051757812
 20
-19.999984741210937
 30
0.0
 40
2.0999994277954102
  0
CIRCLE
  5
105
100
AcDbEntity
  8
0
  6
CONTINUOUS
 62
               7
100
AcDbCircle
 10
71.000015258789063
 20
-3.0
 30
0.0
 40
4.2832489013671875
  0
CIRCLE
  5
106
100
AcDbEntity
  8
0
  6
CONTINUOUS
 62
               2
100
AcDbCircle
 10
71.000015258789063
 20
-3.0
 30
0.0
 40
4.8643484115600586
  0
CIRCLE
  5
107
100
AcDbEntity
  8
0
  6
CONTINUOUS
 62
               2
100
AcDbCircle
 10
13.499984741210937
 20
-17.999984741210937
 30
0.0
 40
4.8643484115600586
  0
CIRCLE
  5
108
100
AcDbEntity
  8
0
  6
CONTINUOUS
 62
               7
100
AcDbCircle
 10
13.499984741210937
 20
-17.999984741210937
 30
0.0
 40
4.2832489013671875
  0
CIRCLE
  5
109
100
AcDbEntity
  8
0
  6
CONTINUOUS
 62
               7
100
AcDbCircle
 10
14.499969482421875
 20
-2.0
 30
0.0
 40
4.2832489013671875
  0
CIRCLE
  5
10A
100
AcDbEntity
  8
0
  6
CONTINUOUS
 62
               2
100
AcDbCircle
 10
14.499969482421875
 20
-2.0
 30
0.0
 40
4.8643484115600586
  0
ARC
  5
10B
100
AcDbEntity
  8
0
  6
CONTINUOUS
 62
               7
100
AcDbCircle
 10
20.500030517578125
 20
4.9950000000000001
 30
0.0
 40
2.9981448285632748
100
AcDbArc
 50
33.504881105110869
 51
326.49511889488832
  0
ARC
  5
10C
100
AcDbEntity
  8
0
  6
CONTINUOUS
 62
               7
100
AcDbCircle
 10
7.5000638961825139
 20
-24.994999999999997
 30
0.0
 40
2.9982235548730003
100
AcDbArc
 50
213.50388515104839
 51
146.4961148489509
  0
CIRCLE
  5
10D
100
AcDbEntity
  8
0
  6
CONTINUOUS
 62
               7
100
AcDbCircle
 10
14.00006103515625
 20
25.700027465820313
 30
0.0
 40
1.649998664855957
  0
CIRCLE
  5
10E
100
AcDbEntity
  8
0
  6
CONTINUOUS
 62
               4
100
AcDbCircle
 10
15.300064086914063
 20
47.200042724609375
 30
0.0
 40
0.8499999642372131
  0
ARC
  5
10F
100
AcDbEntity
  8
0
  6
CONTINUOUS
 62
               4
100
AcDbCircle
 10
9.5
 20
51.699996948242188
 30
0.0
 40
5.9980108315637581
100
AcDbArc
 50
67.968000485783151
 51
112.03199951421645
  0
ARC
  5
110
100
AcDbEntity
  8
0
  6
CONTINUOUS
 62
               4
100
AcDbCircle
 10
18.495000000000001
 20
51.699996948240297
 30
0.0
 40
6.000471630636202
100
AcDbArc
 50
71.791524634916414
 51
108.2084753650832
  0
ARC
  5
111
100
AcDbEntity
  8
0
  6
CONTINUOUS
 62
               4
100
AcDbCircle
 10
12.699999999999999
 20
47.200000000000003
 30
0.0
 40
1.7000000000000099
100
AcDbArc
 50
89.999999999999801
 51
269.99999999999937
  0
ARC
  5
112
100
AcDbEntity
  8
0
  6
CONTINUOUS
 62
               4
100
AcDbCircle
 10
15.300000000000001
 20
47.200000000000003
 30
0.0
 40
1.7000000000001705
100
AcDbArc
 50
269.99999999999937
 51
89.999999999999801
  0
CIRCLE
  5
113
100
AcDbEntity
  8
0
  6
CONTINUOUS
 62
               4
100
AcDbCircle
 10
12.7000732421875
 20
47.200042724609375
 30
0.0
 40
0.8499999642372131
  0
CIRCLE
  5
114
100
AcDbEntity
  8
0
  6
CONTINUOUS
 62
               7
100
AcDbCircle
 10
20.500045776367188
 20
5.0000152587890625
 30
0.0
 40
2.7999982833862305
  0
CIRCLE
  5
115
100
AcDbEntity
  8
0
  6
CONTINUOUS
 62
               7
100
AcDbCircle
 10
7.50006103515625
 20
-24.999984741210937
 30
0.0
 40
2.7999982833862305
  0
CIRCLE
  5
116
100
AcDbEntity
  8
0
  6
CONTINUOUS
 62
               4
100
AcDbCircle
 10
96.500045776367188
 20
5.0000152587890625
 30
0.0
 40
3.0
  0
CIRCLE
  5
117
100
AcDbEntity
  8
0
  6
CONTINUOUS
 62
               4
100
AcDbCircle
 10
96.500045776367188
 20
5.0000152587890625
 30
0.0
 40
2.7999982833862305
  0
CIRCLE
  5
118
100
AcDbEntity
  8
0
  6
CONTINUOUS
 62
               4
100
AcDbCircle
 10
83.500015258789063
 20
-25.0
 30
0.0
 40
3.0
  0
CIRCLE
  5
119
100
AcDbEntity
  8
0
  6
CONTINUOUS
 62
               4
100
AcDbCircle
 10
83.500015258789063
 20
-25.0
 30
0.0
 40
2.7999982833862305
  0
ARC
  5
11A
100
AcDbEntity
  8
0
  6
CONTINUOUS
 62
               7
100
AcDbCircle
 10
39.500045776367188
 20
4.9950000000000001
 30
0.0
 40
2.998132105204764
100
AcDbArc
 50
33.505042072287566
 51
326.49495792771165
  0
ARC
  5
11B
100
AcDbEntity
  8
0
  6
CONTINUOUS
 62
               7
100
AcDbCircle
 10
26.500076293948627
 20
-24.994999999999997
 30
0.0
 40
2.998233892738174
100
AcDbArc
 50
213.5037543730914
 51
146.49624562690789
  0
CIRCLE
  5
11C
100
AcDbEntity
  8
0
  6
CONTINUOUS
 62
               7
100
AcDbCircle
 10
33.000076293945313
 20
25.700027465820313
 30
0.0
 40
1.649998664855957
  0
CIRCLE
  5
11D
100
AcDbEntity
  8
0
  6
CONTINUOUS
 62
               4
100
AcDbCircle
 10
34.300079345703125
 20
47.200042724609375
 30
0.0
 40
0.8499999642372131
  0
ARC
  5
11E
100
AcDbEntity
  8
0
  6
CONTINUOUS
 62
               4
100
AcDbCircle
 10
28.5
 20
51.699996948242188
 30
0.0
 40
5.9980108315637581
100
AcDbArc
 50
67.968000485783151
 51
112.03199951421645
  0
ARC
  5
11F
100
AcDbEntity
  8
0
  6
CONTINUOUS
 62
               4
100
AcDbCircle
 10
37.494999999999997
 20
51.699996948240297
 30
0.0
 40
6.000471630636202
100
AcDbArc
 50
71.791524634916414
 51
108.2084753650832
  0
ARC
  5
120
100
AcDbEntity
  8
0
  6
CONTINUOUS
 62
               4
100
AcDbCircle
 10
31.699999999999999
 20
47.200000000000003
 30
0.0
 40
1.7000000000027384
100
AcDbArc
 50
89.999999999999801
 51
269.99999999999937
  0
ARC
  5
121
100
AcDbEntity
  8
0
  6
CONTINUOUS
 62
               4
100
AcDbCircle
 10
34.299999999999997
 20
47.200000000000003
 30
0.0
 40
1.7000000000438262
100
AcDbArc
 50
269.99999999999937
 51
89.999999999999801
  0
CIRCLE
  5
122
100
AcDbEntity
  8
0
  6
CONTINUOUS
 62
               4
100
AcDbCircle
 10
31.700088500976562
 20
47.200042724609375
 30
0.0
 40
0.8499999642372131
  0
CIRCLE
  5
123
100
AcDbEntity
  8
0
  6
CONTINUOUS
 62
               7
100
AcDbCircle
 10
39.50006103515625
 20
5.0000152587890625
 30
0.0
 40
2.7999982833862305
  0
CIRCLE
  5
124
100
AcDbEntity
  8
0
  6
CONTINUOUS
 62
               7
100
AcDbCircle
 10
26.500076293945313
 20
-24.999984741210937
 30
0.0
 40
2.7999982833862305
  0
ARC
  5
125
100
AcDbEntity
  8
0
  6
CONTINUOUS
 62
               7
100
AcDbCircle
 10
58.500045776367188
 20
4.9950000000000001
 30
0.0
 40
2.998132105204764
100
AcDbArc
 50
33.505042072287566
 51
326.49495792771165
  0
ARC
  5
126
100
AcDbEntity
  8
0
  6
CONTINUOUS
 62
               7
100
AcDbCircle
 10
45.500076293948631
 20
-24.994999999999997
 30
0.0
 40
2.998233892738174
100
AcDbArc
 50
213.50375437309134
 51
146.49624562690789
  0
CIRCLE
  5
127
100
AcDbEntity
  8
0
  6
CONTINUOUS
 62
               7
100
AcDbCircle
 10
52.000076293945313
 20
25.700027465820313
 30
0.0
 40
1.6499996185302734
  0
CIRCLE
  5
128
100
AcDbEntity
  8
0
  6
CONTINUOUS
 62
               7
100
AcDbCircle
 10
52.000076293945313
 20
-45.699966430664063
 30
0.0
 40
1.6499996185302734
  0
ARC
  5
129
100
AcDbEntity
  8
0
  6
CONTINUOUS
 62
               4
100
AcDbCircle
 10
56.495000000000005
 20
-71.699890136716846
 30
0.0
 40
5.9987074138594103
100
AcDbArc
 50
253.78593561312144
 51
286.21406438687723
  0
ARC
  5
12A
100
AcDbEntity
  8
0
  6
CONTINUOUS
 62
               4
100
AcDbCircle
 10
55.050129454736513
 20
-76.693670403636588
 30
0.0
 40
0.800137873244237
100
AcDbArc
 50
179.73717107755854
 51
253.28494116143247
  0
ARC
  5
12B
100
AcDbEntity
  8
0
  6
CONTINUOUS
 62
               4
100
AcDbCircle
 10
57.951398478832417
 20
-76.691897555484147
 30
0.0
 40
0.7986037755533015
100
AcDbArc
 50
285.88632309431404
 51
0.1361401313967495
  0
ARC
  5
12C
100
AcDbEntity
  8
0
  6
CONTINUOUS
 62
               4
100
AcDbCircle
 10
47.495000000000005
 20
-71.699890136716846
 30
0.0
 40
5.9987074138594103
100
AcDbArc
 50
253.78593561312144
 51
286.21406438687723
  0
ARC
  5
12D
100
AcDbEntity
  8
0
  6
CONTINUOUS
 62
               4
100
AcDbCircle
 10
48.95040325293877
 20
-76.693508132346778
 30
0.0
 40
0.7973283605255794
100
AcDbArc
 50
285.98678858244705
 51
297.61603039024754
  0
ARC
  5
12E
100
AcDbEntity
  8
0
  6
CONTINUOUS
 62
               4
100
AcDbCircle
 10
46.041022359925883
 20
-76.689944100185173
 30
0.0
 40
0.8011472851023287
100
AcDbArc
 50
242.41178171980349
 51
253.98539930749828
  0
ARC
  5
12F
100
AcDbEntity
  8
0
  6
CONTINUOUS
 62
               4
100
AcDbCircle
 10
50.700000000000003
 20
-67.200000000000003
 30
0.0
 40
1.700000000002742
100
AcDbArc
 50
89.999999999999801
 51
269.99999999999937
  0
ARC
  5
130
100
AcDbEntity
  8
0
  6
CONTINUOUS
 62
               4
100
AcDbCircle
 10
53.299999999999997
 20
-67.200000000000003
 30
0.0
 40
1.7000000000438296
100
AcDbArc
 50
269.99999999999937
 51
89.999999999999801
  0
CIRCLE
  5
131
100
AcDbEntity
  8
0
  6
CONTINUOUS
 62
               4
100
AcDbCircle
 10
50.700088500976563
 20
-67.199920654296875
 30
0.0
 40
0.8500000238418579
  0
CIRCLE
  5
132
100
AcDbEntity
  8
0
  6
CONTINUOUS
 62
               4
100
AcDbCircle
 10
53.300094604492188
 20
-67.199920654296875
 30
0.0
 40
0.8500000238418579
  0
CIRCLE
  5
133
100
AcDbEntity
  8
0
  6
CONTINUOUS
 62
               4
100
AcDbCircle
 10
53.300094604492188
 20
47.200027465820312
 30
0.0
 40
0.8499999642372131
  0
ARC
  5
134
100
AcDbEntity
  8
0
  6
CONTINUOUS
 62
               4
100
AcDbCircle
 10
47.5
 20
51.699996948242188
 30
0.0
 40
5.9980108315637581
100
AcDbArc
 50
67.968000485783151
 51
112.03199951421645
  0
ARC
  5
135
100
AcDbEntity
  8
0
  6
CONTINUOUS
 62
               4
100
AcDbCircle
 10
56.494999999999997
 20
51.699996948240297
 30
0.0
 40
6.000471630636202
100
AcDbArc
 50
71.791524634916414
 51
108.2084753650832
  0
ARC
  5
136
100
AcDbEntity
  8
0
  6
CONTINUOUS
 62
               4
100
AcDbCircle
 10
50.700000000000003
 20
47.200000000000003
 30
0.0
 40
1.7000000000027384
100
AcDbArc
 50
89.999999999999801
 51
269.99999999999937
  0
ARC
  5
137
100
AcDbEntity
  8
0
  6
CONTINUOUS
 62
               4
100
AcDbCircle
 10
53.299999999999997
 20
47.200000000000003
 30
0.0
 40
1.7000000000438262
100
AcDbArc
 50
269.99999999999937
 51
89.999999999999801
  0
CIRCLE
  5
138
100
AcDbEntity
  8
0
  6
CONTINUOUS
 62
               4
100
AcDbCircle
 10
50.700088500976563
 20
47.200027465820312
 30
0.0
 40
0.8499999642372131
  0
CIRCLE
  5
139
100
AcDbEntity
  8
0
  6
CONTINUOUS
 62
               7
100
AcDbCircle
 10
58.50006103515625
 20
5.0000152587890625
 30
0.0
 40
2.7999982833862305
  0
CIRCLE
  5
13A
100
AcDbEntity
  8
0
  6
CONTINUOUS
 62
               7
100
AcDbCircle
 10
45.500076293945313
 20
-24.999984741210937
 30
0.0
 40
2.7999982833862305
  0
ARC
  5
13B
100
AcDbEntity
  8
0
  6
CONTINUOUS
 62
               4
100
AcDbCircle
 10
66.5
 20
54.499984741210938
 30
0.0
 40
5.9980221471721187
100
AcDbArc
 50
67.968044227910056
 51
112.03195577208955
  0
ARC
  5
13C
100
AcDbEntity
  8
0
  6
CONTINUOUS
 62
               4
100
AcDbCircle
 10
75.495000000000005
 20
54.499984741209047
 30
0.0
 40
6.0004832264118271
100
AcDbArc
 50
71.791561056795487
 51
108.20843894320411
  0
ARC
  5
13D
100
AcDbEntity
  8
0
  6
CONTINUOUS
 62
               4
100
AcDbCircle
 10
69.700000000000003
 20
50.0
 30
0.0
 40
1.700000000002742
100
AcDbArc
 50
89.999999999999801
 51
269.99999999999937
  0
ARC
  5
13E
100
AcDbEntity
  8
0
  6
CONTINUOUS
 62
               4
100
AcDbCircle
 10
72.299999999999997
 20
50.0
 30
0.0
 40
1.7000000000438298
100
AcDbArc
 50
269.99999999999937
 51
89.999999999999801
  0
CIRCLE
  5
13F
100
AcDbEntity
  8
0
  6
CONTINUOUS
 62
               4
100
AcDbCircle
 10
69.700057983398437
 20
50.000015258789062
 30
0.0
 40
0.8499999642372131
  0
CIRCLE
  5
140
100
AcDbEntity
  8
0
  6
CONTINUOUS
 62
               4
100
AcDbCircle
 10
72.300064086914062
 20
50.000015258789062
 30
0.0
 40
0.8499999642372131
  0
ARC
  5
141
100
AcDbEntity
  8
0
  6
CONTINUOUS
 62
               7
100
AcDbCircle
 10
77.500030517578125
 20
4.9950000000000001
 30
0.0
 40
2.9981448285632748
100
AcDbArc
 50
33.504881105110869
 51
326.49511889488832
  0
ARC
  5
142
100
AcDbEntity
  8
0
  6
CONTINUOUS
 62
               7
100
AcDbCircle
 10
64.500045776370499
 20
-24.994999999999997
 30
0.0
 40
2.9982084457135381
100
AcDbArc
 50
213.50407628968475
 51
146.49592371031457
  0
CIRCLE
  5
143
100
AcDbEntity
  8
0
  6
CONTINUOUS
 62
               7
100
AcDbCircle
 10
71.000045776367188
 20
28.500015258789063
 30
0.0
 40
1.6499996185302734
  0
CIRCLE
  5
144
100
AcDbEntity
  8
0
  6
CONTINUOUS
 62
               7
100
AcDbCircle
 10
71.000045776367188
 20
-58.699981689453125
 30
0.0
 40
1.6499996185302734
  0
ARC
  5
145
100
AcDbEntity
  8
0
  6
CONTINUOUS
 62
               4
100
AcDbCircle
 10
75.495000000000005
 20
-84.699981689451221
 30
0.0
 40
5.9986195026736944
100
AcDbArc
 50
253.78569143892415
 51
286.21430856107452
  0
ARC
  5
146
100
AcDbEntity
  8
0
  6
CONTINUOUS
 62
               4
100
AcDbCircle
 10
74.050068135283283
 20
-89.693715795959122
 30
0.0
 40
0.8000767639641024
100
AcDbArc
 50
179.73390029439332
 51
253.28821194459613
  0
ARC
  5
147
100
AcDbEntity
  8
0
  6
CONTINUOUS
 62
               4
100
AcDbCircle
 10
76.951432615307127
 20
-89.69192326867288
 30
0.0
 40
0.7985697006884402
100
AcDbArc
 50
285.88447241005593
 51
0.1379908156540953
  0
ARC
  5
148
100
AcDbEntity
  8
0
  6
CONTINUOUS
 62
               4
100
AcDbCircle
 10
66.495000000000005
 20
-84.699981689451221
 30
0.0
 40
5.9986195026736944
100
AcDbArc
 50
253.78569143892415
 51
286.21430856107452
  0
ARC
  5
149
100
AcDbEntity
  8
0
  6
CONTINUOUS
 62
               4
100
AcDbCircle
 10
67.95043587519865
 20
-89.693589687996507
 30
0.0
 40
0.7972409743892224
100
AcDbArc
 50
285.98614904038453
 51
297.61666993231114
  0
ARC
  5
14A
100
AcDbEntity
  8
0
  6
CONTINUOUS
 62
               4
100
AcDbCircle
 10
65.040986580684816
 20
-89.690033548287872
 30
0.0
 40
0.801051437552504
100
AcDbArc
 50
242.41108695109651
 51
253.98609407620313
  0
ARC
  5
14B
100
AcDbEntity
  8
0
  6
CONTINUOUS
 62
               4
100
AcDbCircle
 10
69.700000000000003
 20
-80.200000000000003
 30
0.0
 40
1.700000000002742
100
AcDbArc
 50
89.999999999999801
 51
269.99999999999937
  0
ARC
  5
14C
100
AcDbEntity
  8
0
  6
CONTINUOUS
 62
               4
100
AcDbCircle
 10
72.299999999999997
 20
-80.200000000000003
 30
0.0
 40
1.7000000000438296
100
AcDbArc
 50
269.99999999999937
 51
89.999999999999801
  0
CIRCLE
  5
14D
100
AcDbEntity
  8
0
  6
CONTINUOUS
 62
               4
100
AcDbCircle
 10
69.700057983398437
 20
-80.20001220703125
 30
0.0
 40
0.8500000238418579
  0
CIRCLE
  5
14E
100
AcDbEntity
  8
0
  6
CONTINUOUS
 62
               4
100
AcDbCircle
 10
72.300064086914062
 20
-80.20001220703125
 30
0.0
 40
0.8500000238418579
  0
CIRCLE
  5
14F
100
AcDbEntity
  8
0
  6
CONTINUOUS
 62
               7
100
AcDbCircle
 10
64.500045776367188
 20
-24.999984741210937
 30
0.0
 40
2.7999982833862305
  0
CIRCLE
  5
150
100
AcDbEntity
  8
0
  6
CONTINUOUS
 62
               7
100
AcDbCircle
 10
77.500045776367188
 20
5.0000152587890625
 30
0.0
 40
2.7999982833862305
  0
ARC
  5
151
100
AcDbEntity
  8
0
  6
CONTINUOUS
 62
               4
100
AcDbCircle
 10
89.995000000000005
 20
-40.999969482418955
 30
0.0
 40
3.501172390274089
100
AcDbArc
 50
238.96633714771929
 51
301.03366285227929
  0
ARC
  5
152
100
AcDbEntity
  8
0
  6
CONTINUOUS
 62
               4
100
AcDbCircle
 10
89.995000000000005
 20
20.999984741208021
 30
0.0
 40
3.5011593155674463
100
AcDbArc
 50
58.96620841334164
 51
121.03379158665817
  0
ARC
  5
153
100
AcDbEntity
  8
0
  6
CONTINUOUS
 62
               4
100
AcDbCircle
 10
52.5
 20
-2.0
 30
0.0
 40
4.8999999999999986
100
AcDbArc
 50
0.0
 51
179.9999999999996
  0
ARC
  5
154
100
AcDbEntity
  8
0
  6
CONTINUOUS
 62
               4
100
AcDbCircle
 10
52.5
 20
-4.0
 30
0.0
 40
4.8999999999999986
100
AcDbArc
 50
179.9999999999996
 51
0.0
  0
CIRCLE
  5
155
100
AcDbEntity
  8
0
  6
CONTINUOUS
 62
               4
100
AcDbCircle
 10
52.500076293945312
 20
-2.999969482421875
 30
0.0
 40
3.0
  0
ARC
  5
156
100
AcDbEntity
  8
0
  6
CONTINUOUS
 62
               4
100
AcDbCircle
 10
52.500076293945312
 20
-2.9950000000000001
 30
0.0
 40
5.0000772680514469
100
AcDbArc
 50
168.52169194038882
 51
191.47830805961036
  0
ARC
  5
157
100
AcDbEntity
  8
0
  6
CONTINUOUS
 62
               4
100
AcDbCircle
 10
52.50006103515625
 20
-2.9950000000000001
 30
0.0
 40
4.9999426855909093
100
AcDbArc
 50
348.5213787801967
 51
11.478621219802475
  0
ARC
  5
158
100
AcDbEntity
  8
0
  6
CONTINUOUS
 62
               4
100
AcDbCircle
 10
51.5
 20
-16.0
 30
0.0
 40
4.8999999999999986
100
AcDbArc
 50
0.0
 51
179.9999999999996
  0
ARC
  5
159
100
AcDbEntity
  8
0
  6
CONTINUOUS
 62
               4
100
AcDbCircle
 10
51.5
 20
-18.0
 30
0.0
 40
4.8999999999999986
100
AcDbArc
 50
179.9999999999996
 51
0.0
  0
CIRCLE
  5
15A
100
AcDbEntity
  8
0
  6
CONTINUOUS
 62
               4
100
AcDbCircle
 10
51.500076293945313
 20
-16.999969482421875
 30
0.0
 40
3.0
  0
ARC
  5
15B
100
AcDbEntity
  8
0
  6
CONTINUOUS
 62
               4
100
AcDbCircle
 10
51.50007629394765
 20
-16.994999999999997
 30
0.0
 40
5.0000772680537358
100
AcDbArc
 50
168.52169194039419
 51
191.47830805960504
  0
ARC
  5
15C
100
AcDbEntity
  8
0
  6
CONTINUOUS
 62
               4
100
AcDbCircle
 10
51.500061035153912
 20
-16.994999999999997
 30
0.0
 40
4.9999426855931981
100
AcDbArc
 50
348.52137878020204
 51
11.478621219797082
  0
ARC
  5
15D
100
AcDbEntity
  8
0
  6
CONTINUOUS
 62
               4
100
AcDbCircle
 10
33.0
 20
-2.0
 30
0.0
 40
4.8999999999999986
100
AcDbArc
 50
0.0
 51
179.9999999999996
  0
ARC
  5
15E
100
AcDbEntity
  8
0
  6
CONTINUOUS
 62
               4
100
AcDbCircle
 10
33.0
 20
-4.0
 30
0.0
 40
4.8999999999999986
100
AcDbArc
 50
179.9999999999996
 51
0.0
  0
CIRCLE
  5
15F
100
AcDbEntity
  8
0
  6
CONTINUOUS
 62
               4
100
AcDbCircle
 10
33.000076293945313
 20
-2.999969482421875
 30
0.0
 40
3.0
  0
ARC
  5
160
100
AcDbEntity
  8
0
  6
CONTINUOUS
 62
               4
100
AcDbCircle
 10
33.000076293945313
 20
-2.9950000000000001
 30
0.0
 40
5.0000772680514469
100
AcDbArc
 50
168.52169194038882
 51
191.47830805961036
  0
ARC
  5
161
100
AcDbEntity
  8
0
  6
CONTINUOUS
 62
               4
100
AcDbCircle
 10
33.00006103515625
 20
-2.9950000000000001
 30
0.0
 40
4.9999426855909093
100
AcDbArc
 50
348.5213787801967
 51
11.478621219802475
  0
ENDBLK
  5
162
100
AcDbEntity
  8
0
100
AcDbBlockEnd
  0
BLOCK
  5
163
100
AcDbEntity
  8
0
100
AcDbBlockBegin
  2
MS_2
 70
               0
 10
0.0
 20
0.0
 30
0.0
  3
MS_2
  1

  0
LINE
  5
164
100
AcDbEntity
  8
0
  6
CONTINUOUS
 62
               4
100
AcDbLine
 10
-31.199999999999999
 20
-28.0
 30
0.0
 11
-31.699999999999999
 21
-28.0
 31
0.0
  0
LINE
  5
165
100
AcDbEntity
  8
0
  6
CONTINUOUS
 62
               4
100
AcDbLine
 10
-31.699999999999999
 20
-28.0
 30
0.0
 11
-31.699999999999999
 21
-22.0
 31
0.0
  0
LINE
  5
166
100
AcDbEntity
  8
0
  6
CONTINUOUS
 62
               4
100
AcDbLine
 10
-31.199999999999999
 20
-22.0
 30
0.0
 11
-31.699999999999999
 21
-22.0
 31
0.0
  0
LINE
  5
167
100
AcDbEntity
  8
0
  6
CONTINUOUS
 62
               4
100
AcDbLine
 10
-33.240000000000002
 20
-22.199999999999999
 30
0.0
 11
-31.699999999999999
 21
-22.199999999999999
 31
0.0
  0
LINE
  5
168
100
AcDbEntity
  8
0
  6
CONTINUOUS
 62
               4
100
AcDbLine
 10
-33.240000000000002
 20
-27.800000000000001
 30
0.0
 11
-31.699999999999999
 21
-27.800000000000001
 31
0.0
  0
LINE
  5
169
100
AcDbEntity
  8
0
  6
CENTER
 62
               2
100
AcDbLine
 10
-5.0
 20
-10.0
 30
0.0
 11
-21.0
 21
-10.0
 31
0.0
  0
LINE
  5
16A
100
AcDbEntity
  8
0
  6
CONTINUOUS
 62
               7
100
AcDbLine
 10
-18.0
 20
-47.0
 30
0.0
 11
-27.0
 21
-47.0
 31
0.0
  0
LINE
  5
16B
100
AcDbEntity
  8
0
  6
CONTINUOUS
 62
               7
100
AcDbLine
 10
-18.0
 20
27.0
 30
0.0
 11
-27.0
 21
27.0
 31
0.0
  0
LINE
  5
16C
100
AcDbEntity
  8
0
  6
CONTINUOUS
 62
               7
100
AcDbLine
 10
0.0
 20
7.0
 30
0.0
 11
-4.0
 21
3.0
 31
0.0
  0
LINE
  5
16D
100
AcDbEntity
  8
0
  6
CONTINUOUS
 62
               7
100
AcDbLine
 10
0.0
 20
-27.0
 30
0.0
 11
-4.0
 21
-23.0
 31
0.0
  0
LINE
  5
16E
100
AcDbEntity
  8
0
  6
CONTINUOUS
 62
               7
100
AcDbLine
 10
-11.0
 20
20.0
 30
0.0
 11
-18.0
 21
27.0
 31
0.0
  0
LINE
  5
16F
100
AcDbEntity
  8
0
  6
CONTINUOUS
 62
               7
100
AcDbLine
 10
-11.0
 20
-40.0
 30
0.0
 11
-18.0
 21
-47.0
 31
0.0
  0
LINE
  5
170
100
AcDbEntity
  8
0
  6
CONTINUOUS
 62
               7
100
AcDbLine
 10
-4.0
 20
3.0
 30
0.0
 11
-4.0
 21
-23.0
 31
0.0
  0
LINE
  5
171
100
AcDbEntity
  8
0
  6
CONTINUOUS
 62
               7
100
AcDbLine
 10
0.0
 20
20.0
 30
0.0
 11
-11.0
 21
20.0
 31
0.0
  0
LINE
  5
172
100
AcDbEntity
  8
0
  6
CONTINUOUS
 62
               7
100
AcDbLine
 10
0.0
 20
-40.0
 30
0.0
 11
-11.0
 21
-40.0
 31
0.0
  0
LINE
  5
173
100
AcDbEntity
  8
0
  6
CONTINUOUS
 62
               7
100
AcDbLine
 10
0.0
 20
7.0
 30
0.0
 11
0.0
 21
20.0
 31
0.0
  0
LINE
  5
174
100
AcDbEntity
  8
0
  6
CENTER
 62
               2
100
AcDbLine
 10
-3.0
 20
10.0
 30
0.0
 11
-19.0
 21
10.0
 31
0.0
  0
LINE
  5
175
100
AcDbEntity
  8
0
  6
CENTER
 62
               2
100
AcDbLine
 10
-3.0
 20
-30.0
 30
0.0
 11
-19.0
 21
-30.0
 31
0.0
  0
LINE
  5
176
100
AcDbEntity
  8
0
  6
CENTER
 62
               2
100
AcDbLine
 10
-11.0
 20
18.0
 30
0.0
 11
-11.0
 21
2.0
 31
0.0
  0
LINE
  5
177
100
AcDbEntity
  8
0
  6
CENTER
 62
               2
100
AcDbLine
 10
-11.0
 20
-22.0
 30
0.0
 11
-11.0
 21
-38.0
 31
0.0
  0
LINE
  5
178
100
AcDbEntity
  8
0
  6
CENTER
 62
               2
100
AcDbLine
 10
-13.0
 20
-2.0
 30
0.0
 11
-13.0
 21
-18.0
 31
0.0
  0
LINE
  5
179
100
AcDbEntity
  8
0
  6
CONTINUOUS
 62
               7
100
AcDbLine
 10
-27.0
 20
-47.0
 30
0.0
 11
-27.0
 21
27.0
 31
0.0
  0
LINE
  5
17A
100
AcDbEntity
  8
0
  6
CONTINUOUS
 62
               7
100
AcDbLine
 10
-27.0
 20
-31.0
 30
0.0
 11
-28.0
 21
-31.0
 31
0.0
  0
LINE
  5
17B
100
AcDbEntity
  8
0
  6
CONTINUOUS
 62
               7
100
AcDbLine
 10
0.0
 20
-40.0
 30
0.0
 11
0.0
 21
-27.0
 31
0.0
  0
LINE
  5
17C
100
AcDbEntity
  8
0
  6
CONTINUOUS
 62
               7
100
AcDbLine
 10
-27.0
 20
24.5
 30
0.0
 11
-28.0
 21
24.5
 31
0.0
  0
LINE
  5
17D
100
AcDbEntity
  8
0
  6
CONTINUOUS
 62
               7
100
AcDbLine
 10
-27.0
 20
17.5
 30
0.0
 11
-28.0
 21
17.5
 31
0.0
  0
LINE
  5
17E
100
AcDbEntity
  8
0
  6
CONTINUOUS
 62
               7
100
AcDbLine
 10
-28.0
 20
11.0
 30
0.0
 11
-27.0
 21
11.0
 31
0.0
  0
LINE
  5
17F
100
AcDbEntity
  8
0
  6
CONTINUOUS
 62
               7
100
AcDbLine
 10
-27.0
 20
-31.0
 30
0.0
 11
-28.0
 21
-31.0
 31
0.0
  0
LINE
  5
180
100
AcDbEntity
  8
0
  6
CONTINUOUS
 62
               7
100
AcDbLine
 10
-27.0
 20
-37.5
 30
0.0
 11
-28.0
 21
-37.5
 31
0.0
  0
LINE
  5
181
100
AcDbEntity
  8
0
  6
CONTINUOUS
 62
               7
100
AcDbLine
 10
-27.0
 20
-44.5
 30
0.0
 11
-28.0
 21
-44.5
 31
0.0
  0
LINE
  5
182
100
AcDbEntity
  8
0
  6
CONTINUOUS
 62
               4
100
AcDbLine
 10
-31.199999999999999
 20
24.0
 30
0.0
 11
-28.0
 21
24.0
 31
0.0
  0
LINE
  5
183
100
AcDbEntity
  8
0
  6
CONTINUOUS
 62
               4
100
AcDbLine
 10
-31.199999999999999
 20
-44.0
 30
0.0
 11
-28.0
 21
-44.0
 31
0.0
  0
LINE
  5
184
100
AcDbEntity
  8
0
  6
CONTINUOUS
 62
               4
100
AcDbLine
 10
-31.199999999999999
 20
-44.0
 30
0.0
 11
-31.199999999999999
 21
24.0
 31
0.0
  0
LINE
  5
185
100
AcDbEntity
  8
0
  6
CONTINUOUS
 62
               4
100
AcDbLine
 10
-31.199999999999999
 20
2.0
 30
0.0
 11
-31.699999999999999
 21
2.0
 31
0.0
  0
LINE
  5
186
100
AcDbEntity
  8
0
  6
CONTINUOUS
 62
               4
100
AcDbLine
 10
-31.699999999999999
 20
2.0
 30
0.0
 11
-31.699999999999999
 21
8.0
 31
0.0
  0
LINE
  5
187
100
AcDbEntity
  8
0
  6
CONTINUOUS
 62
               4
100
AcDbLine
 10
-31.199999999999999
 20
8.0
 30
0.0
 11
-31.699999999999999
 21
8.0
 31
0.0
  0
LINE
  5
188
100
AcDbEntity
  8
0
  6
CONTINUOUS
 62
               4
100
AcDbLine
 10
-33.240000000000002
 20
7.7999999999999998
 30
0.0
 11
-31.699999999999999
 21
7.7999999999999998
 31
0.0
  0
LINE
  5
189
100
AcDbEntity
  8
0
  6
CONTINUOUS
 62
               4
100
AcDbLine
 10
-33.240000000000002
 20
2.2000000000000002
 30
0.0
 11
-31.699999999999999
 21
2.2000000000000002
 31
0.0
  0
LINE
  5
18A
100
AcDbEntity
  8
0
  6
CONTINUOUS
 62
               7
100
AcDbLine
 10
-55.0
 20
31.0
 30
0.0
 11
-55.0
 21
-61.200000000000003
 31
0.0
  0
LINE
  5
18B
100
AcDbEntity
  8
0
  6
CONTINUOUS
 62
               7
100
AcDbLine
 10
-31.199999999999999
 20
-31.0
 30
0.0
 11
-55.0
 21
-31.0
 31
0.0
  0
LINE
  5
18C
100
AcDbEntity
  8
0
  6
CONTINUOUS
 62
               7
100
AcDbLine
 10
-31.199999999999999
 20
11.0
 30
0.0
 11
-55.0
 21
11.0
 31
0.0
  0
LINE
  5
18D
100
AcDbEntity
  8
0
  6
CONTINUOUS
 62
               7
100
AcDbLine
 10
-29.0
 20
32.0
 30
0.0
 11
-28.0
 21
31.0
 31
0.0
  0
LINE
  5
18E
100
AcDbEntity
  8
0
  6
CONTINUOUS
 62
               7
100
AcDbLine
 10
-54.0
 20
32.0
 30
0.0
 11
-55.0
 21
31.0
 31
0.0
  0
LINE
  5
18F
100
AcDbEntity
  8
0
  6
CONTINUOUS
 62
               7
100
AcDbLine
 10
-52.0
 20
3.3399999999999999
 30
0.0
 11
-55.0
 21
3.3399999999999999
 31
0.0
  0
LINE
  5
190
100
AcDbEntity
  8
0
  6
CONTINUOUS
 62
               7
100
AcDbLine
 10
-52.0
 20
6.6500000000000004
 30
0.0
 11
-55.0
 21
6.6500000000000004
 31
0.0
  0
LINE
  5
191
100
AcDbEntity
  8
0
  6
CONTINUOUS
 62
               7
100
AcDbLine
 10
-52.0
 20
3.3399999999999999
 30
0.0
 11
-52.0
 21
6.6500000000000004
 31
0.0
  0
LINE
  5
192
100
AcDbEntity
  8
0
  6
CONTINUOUS
 62
               7
100
AcDbLine
 10
-29.0
 20
32.0
 30
0.0
 11
-54.0
 21
32.0
 31
0.0
  0
LINE
  5
193
100
AcDbEntity
  8
0
  6
CONTINUOUS
 62
               7
100
AcDbLine
 10
-28.0
 20
31.0
 30
0.0
 11
-55.0
 21
31.0
 31
0.0
  0
LINE
  5
194
100
AcDbEntity
  8
0
  6
CONTINUOUS
 62
               7
100
AcDbLine
 10
-28.0
 20
-61.200000000000003
 30
0.0
 11
-29.0
 21
-62.200000000000003
 31
0.0
  0
LINE
  5
195
100
AcDbEntity
  8
0
  6
CONTINUOUS
 62
               7
100
AcDbLine
 10
-55.0
 20
-61.200000000000003
 30
0.0
 11
-54.0
 21
-62.200000000000003
 31
0.0
  0
LINE
  5
196
100
AcDbEntity
  8
0
  6
CONTINUOUS
 62
               7
100
AcDbLine
 10
-28.0
 20
-61.200000000000003
 30
0.0
 11
-55.0
 21
-61.200000000000003
 31
0.0
  0
LINE
  5
197
100
AcDbEntity
  8
0
  6
CONTINUOUS
 62
               7
100
AcDbLine
 10
-29.0
 20
-62.200000000000003
 30
0.0
 11
-54.0
 21
-62.200000000000003
 31
0.0
  0
LINE
  5
198
100
AcDbEntity
  8
0
  6
CONTINUOUS
 62
               7
100
AcDbLine
 10
-28.0
 20
31.0
 30
0.0
 11
-28.0
 21
-61.200000000000003
 31
0.0
  0
LINE
  5
199
100
AcDbEntity
  8
0
  6
CONTINUOUS
 62
               4
100
AcDbLine
 10
-29.5
 20
-87.400000000000006
 30
0.0
 11
-53.5
 21
-87.400000000000006
 31
0.0
  0
LINE
  5
19A
100
AcDbEntity
  8
0
  6
CONTINUOUS
 62
               4
100
AcDbLine
 10
-29.5
 20
-88.400000000000006
 30
0.0
 11
-29.5
 21
-62.200000000000003
 31
0.0
  0
LINE
  5
19B
100
AcDbEntity
  8
0
  6
CONTINUOUS
 62
               4
100
AcDbLine
 10
-53.5
 20
-88.400000000000006
 30
0.0
 11
-53.5
 21
-62.200000000000003
 31
0.0
  0
LINE
  5
19C
100
AcDbEntity
  8
0
  6
CONTINUOUS
 62
               4
100
AcDbLine
 10
-30.5
 20
-90.400000000000006
 30
0.0
 11
-48.619999999999997
 21
-90.400000000000006
 31
0.0
  0
LINE
  5
19D
100
AcDbEntity
  8
0
  6
CONTINUOUS
 62
               4
100
AcDbLine
 10
-29.5
 20
-88.400000000000006
 30
0.0
 11
-53.5
 21
-88.400000000000006
 31
0.0
  0
LINE
  5
19E
100
AcDbEntity
  8
0
  6
CONTINUOUS
 62
               4
100
AcDbLine
 10
-29.5
 20
-88.400000000000006
 30
0.0
 11
-30.5
 21
-90.400000000000006
 31
0.0
  0
LINE
  5
19F
100
AcDbEntity
  8
0
  6
CONTINUOUS
 62
               4
100
AcDbLine
 10
-53.5
 20
-88.400000000000006
 30
0.0
 11
-52.75
 21
-89.900000000000006
 31
0.0
  0
LINE
  5
1A0
100
AcDbEntity
  8
0
  6
CONTINUOUS
 62
               4
100
AcDbLine
 10
-47.5
 20
-90.400000000000006
 30
0.0
 11
-47.5
 21
-88.400000000000006
 31
0.0
  0
LINE
  5
1A1
100
AcDbEntity
  8
0
  6
CONTINUOUS
 62
               4
100
AcDbLine
 10
-53.049999999999997
 20
-89.0
 30
0.0
 11
-47.950000000000003
 21
-89.0
 31
0.0
  0
LINE
  5
1A2
100
AcDbEntity
  8
0
  6
CONTINUOUS
 62
               4
100
AcDbLine
 10
-53.049999999999997
 20
-89.0
 30
0.0
 11
-53.049999999999997
 21
-88.400000000000006
 31
0.0
  0
LINE
  5
1A3
100
AcDbEntity
  8
0
  6
CONTINUOUS
 62
               4
100
AcDbLine
 10
-47.950000000000003
 20
-89.0
 30
0.0
 11
-47.950000000000003
 21
-88.400000000000006
 31
0.0
  0
LINE
  5
1A4
100
AcDbEntity
  8
0
  6
CONTINUOUS
 62
               4
100
AcDbLine
 10
-52.75
 20
-90.260000000000005
 30
0.0
 11
-52.75
 21
-89.0
 31
0.0
  0
LINE
  5
1A5
100
AcDbEntity
  8
0
  6
CONTINUOUS
 62
               4
100
AcDbLine
 10
-48.25
 20
-90.260000000000005
 30
0.0
 11
-48.25
 21
-89.0
 31
0.0
  0
LINE
  5
1A6
100
AcDbEntity
  8
0
  6
CONTINUOUS
 62
               4
100
AcDbLine
 10
-52.369999999999997
 20
-90.400000000000006
 30
0.0
 11
-52.5
 21
-90.400000000000006
 31
0.0
  0
LINE
  5
1A7
100
AcDbEntity
  8
0
  6
CONTINUOUS
 62
               4
100
AcDbLine
 10
-65.5
 20
-68.049999999999997
 30
0.0
 11
-61.5
 21
-68.049999999999997
 31
0.0
  0
LINE
  5
1A8
100
AcDbEntity
  8
0
  6
CONTINUOUS
 62
               4
100
AcDbLine
 10
-65.5
 20
-66.349999999999994
 30
0.0
 11
-61.039999999999999
 21
-66.349999999999994
 31
0.0
  0
LINE
  5
1A9
100
AcDbEntity
  8
0
  6
CONTINUOUS
 62
               4
100
AcDbLine
 10
-75.5
 20
-67.519999999999996
 30
0.0
 11
-65.5
 21
-67.519999999999996
 31
0.0
  0
LINE
  5
1AA
100
AcDbEntity
  8
0
  6
CONTINUOUS
 62
               4
100
AcDbLine
 10
-75.5
 20
-66.879999999999995
 30
0.0
 11
-65.5
 21
-66.879999999999995
 31
0.0
  0
LINE
  5
1AB
100
AcDbEntity
  8
0
  6
CONTINUOUS
 62
               4
100
AcDbLine
 10
-65.5
 20
-66.349999999999994
 30
0.0
 11
-65.5
 21
-68.049999999999997
 31
0.0
  0
LINE
  5
1AC
100
AcDbEntity
  8
0
  6
CONTINUOUS
 62
               4
100
AcDbLine
 10
-75.5
 20
-66.879999999999995
 30
0.0
 11
-75.5
 21
-67.519999999999996
 31
0.0
  0
LINE
  5
1AD
100
AcDbEntity
  8
0
  6
CONTINUOUS
 62
             200
100
AcDbLine
 10
-62.039999999999999
 20
-70.049999999999997
 30
0.0
 11
-60.509999999999998
 21
-64.349999999999994
 31
0.0
  0
LINE
  5
1AE
100
AcDbEntity
  8
0
  6
CONTINUOUS
 62
             200
100
AcDbLine
 10
-60.479999999999997
 20
-70.049999999999997
 30
0.0
 11
-58.960000000000001
 21
-64.349999999999994
 31
0.0
  0
LINE
  5
1AF
100
AcDbEntity
  8
0
  6
CONTINUOUS
 62
               4
100
AcDbLine
 10
-59.950000000000003
 20
-68.049999999999997
 30
0.0
 11
-55.5
 21
-68.049999999999997
 31
0.0
  0
LINE
  5
1B0
100
AcDbEntity
  8
0
  6
CONTINUOUS
 62
               4
100
AcDbLine
 10
-59.490000000000002
 20
-66.349999999999994
 30
0.0
 11
-55.5
 21
-66.349999999999994
 31
0.0
  0
LINE
  5
1B1
100
AcDbEntity
  8
0
  6
CONTINUOUS
 62
               4
100
AcDbLine
 10
-52.520000000000003
 20
-90.340000000000003
 30
0.0
 11
-52.5
 21
-90.400000000000006
 31
0.0
  0
LINE
  5
1B2
100
AcDbEntity
  8
0
  6
CONTINUOUS
 62
               4
100
AcDbLine
 10
-55.5
 20
-68.900000000000006
 30
0.0
 11
-53.5
 21
-68.900000000000006
 31
0.0
  0
LINE
  5
1B3
100
AcDbEntity
  8
0
  6
CONTINUOUS
 62
               4
100
AcDbLine
 10
-55.5
 20
-65.5
 30
0.0
 11
-55.5
 21
-68.900000000000006
 31
0.0
  0
LINE
  5
1B4
100
AcDbEntity
  8
0
  6
CONTINUOUS
 62
               4
100
AcDbLine
 10
-55.5
 20
-65.5
 30
0.0
 11
-53.5
 21
-65.5
 31
0.0
  0
LINE
  5
1B5
100
AcDbEntity
  8
0
  6
CONTINUOUS
 62
               4
100
AcDbLine
 10
-29.5
 20
57.200000000000003
 30
0.0
 11
-53.5
 21
57.200000000000003
 31
0.0
  0
LINE
  5
1B6
100
AcDbEntity
  8
0
  6
CONTINUOUS
 62
               4
100
AcDbLine
 10
-29.5
 20
58.200000000000003
 30
0.0
 11
-29.5
 21
32.0
 31
0.0
  0
LINE
  5
1B7
100
AcDbEntity
  8
0
  6
CONTINUOUS
 62
               4
100
AcDbLine
 10
-53.5
 20
58.200000000000003
 30
0.0
 11
-53.5
 21
32.0
 31
0.0
  0
LINE
  5
1B8
100
AcDbEntity
  8
0
  6
CONTINUOUS
 62
               4
100
AcDbLine
 10
-52.5
 20
60.200000000000003
 30
0.0
 11
-34.369999999999997
 21
60.200000000000003
 31
0.0
  0
LINE
  5
1B9
100
AcDbEntity
  8
0
  6
CONTINUOUS
 62
               4
100
AcDbLine
 10
-29.5
 20
58.200000000000003
 30
0.0
 11
-53.5
 21
58.200000000000003
 31
0.0
  0
LINE
  5
1BA
100
AcDbEntity
  8
0
  6
CONTINUOUS
 62
               4
100
AcDbLine
 10
-53.5
 20
58.200000000000003
 30
0.0
 11
-52.5
 21
60.200000000000003
 31
0.0
  0
LINE
  5
1BB
100
AcDbEntity
  8
0
  6
CONTINUOUS
 62
               4
100
AcDbLine
 10
-29.5
 20
58.189999999999998
 30
0.0
 11
-30.25
 21
59.689999999999998
 31
0.0
  0
LINE
  5
1BC
100
AcDbEntity
  8
0
  6
CONTINUOUS
 62
               4
100
AcDbLine
 10
-35.5
 20
60.200000000000003
 30
0.0
 11
-35.5
 21
58.200000000000003
 31
0.0
  0
LINE
  5
1BD
100
AcDbEntity
  8
0
  6
CONTINUOUS
 62
               4
100
AcDbLine
 10
-29.949999999999999
 20
58.799999999999997
 30
0.0
 11
-35.049999999999997
 21
58.799999999999997
 31
0.0
  0
LINE
  5
1BE
100
AcDbEntity
  8
0
  6
CONTINUOUS
 62
               4
100
AcDbLine
 10
-29.949999999999999
 20
58.799999999999997
 30
0.0
 11
-29.949999999999999
 21
58.200000000000003
 31
0.0
  0
LINE
  5
1BF
100
AcDbEntity
  8
0
  6
CONTINUOUS
 62
               4
100
AcDbLine
 10
-35.049999999999997
 20
58.799999999999997
 30
0.0
 11
-35.049999999999997
 21
58.200000000000003
 31
0.0
  0
LINE
  5
1C0
100
AcDbEntity
  8
0
  6
CONTINUOUS
 62
               4
100
AcDbLine
 10
-30.25
 20
60.060000000000002
 30
0.0
 11
-30.25
 21
58.799999999999997
 31
0.0
  0
LINE
  5
1C1
100
AcDbEntity
  8
0
  6
CONTINUOUS
 62
               4
100
AcDbLine
 10
-34.75
 20
60.060000000000002
 30
0.0
 11
-34.75
 21
58.799999999999997
 31
0.0
  0
LINE
  5
1C2
100
AcDbEntity
  8
0
  6
CONTINUOUS
 62
               4
100
AcDbLine
 10
-30.620000000000001
 20
60.200000000000003
 30
0.0
 11
-30.5
 21
60.200000000000003
 31
0.0
  0
LINE
  5
1C3
100
AcDbEntity
  8
0
  6
CONTINUOUS
 62
               4
100
AcDbLine
 10
-65.5
 20
46.350000000000001
 30
0.0
 11
-61.5
 21
46.350000000000001
 31
0.0
  0
LINE
  5
1C4
100
AcDbEntity
  8
0
  6
CONTINUOUS
 62
               4
100
AcDbLine
 10
-65.5
 20
48.049999999999997
 30
0.0
 11
-61.039999999999999
 21
48.049999999999997
 31
0.0
  0
LINE
  5
1C5
100
AcDbEntity
  8
0
  6
CONTINUOUS
 62
               4
100
AcDbLine
 10
-75.5
 20
46.880000000000003
 30
0.0
 11
-65.5
 21
46.880000000000003
 31
0.0
  0
LINE
  5
1C6
100
AcDbEntity
  8
0
  6
CONTINUOUS
 62
               4
100
AcDbLine
 10
-75.5
 20
47.520000000000003
 30
0.0
 11
-65.5
 21
47.520000000000003
 31
0.0
  0
LINE
  5
1C7
100
AcDbEntity
  8
0
  6
CONTINUOUS
 62
               4
100
AcDbLine
 10
-65.5
 20
48.049999999999997
 30
0.0
 11
-65.5
 21
46.350000000000001
 31
0.0
  0
LINE
  5
1C8
100
AcDbEntity
  8
0
  6
CONTINUOUS
 62
               4
100
AcDbLine
 10
-75.5
 20
47.520000000000003
 30
0.0
 11
-75.5
 21
46.880000000000003
 31
0.0
  0
LINE
  5
1C9
100
AcDbEntity
  8
0
  6
CONTINUOUS
 62
             200
100
AcDbLine
 10
-62.039999999999999
 20
44.350000000000001
 30
0.0
 11
-60.509999999999998
 21
50.049999999999997
 31
0.0
  0
LINE
  5
1CA
100
AcDbEntity
  8
0
  6
CONTINUOUS
 62
             200
100
AcDbLine
 10
-60.479999999999997
 20
44.350000000000001
 30
0.0
 11
-58.960000000000001
 21
50.049999999999997
 31
0.0
  0
LINE
  5
1CB
100
AcDbEntity
  8
0
  6
CONTINUOUS
 62
               4
100
AcDbLine
 10
-59.490000000000002
 20
48.049999999999997
 30
0.0
 11
-55.5
 21
48.049999999999997
 31
0.0
  0
LINE
  5
1CC
100
AcDbEntity
  8
0
  6
CONTINUOUS
 62
               4
100
AcDbLine
 10
-59.950000000000003
 20
46.350000000000001
 30
0.0
 11
-55.5
 21
46.350000000000001
 31
0.0
  0
LINE
  5
1CD
100
AcDbEntity
  8
0
  6
CONTINUOUS
 62
               4
100
AcDbLine
 10
-55.5
 20
45.5
 30
0.0
 11
-53.5
 21
45.5
 31
0.0
  0
LINE
  5
1CE
100
AcDbEntity
  8
0
  6
CONTINUOUS
 62
               4
100
AcDbLine
 10
-55.5
 20
48.299999999999997
 30
0.0
 11
-55.5
 21
45.5
 31
0.0
  0
LINE
  5
1CF
100
AcDbEntity
  8
0
  6
CONTINUOUS
 62
               4
100
AcDbLine
 10
-30.469999999999999
 20
60.140000000000001
 30
0.0
 11
-30.5
 21
60.189999999999998
 31
0.0
  0
LINE
  5
1D0
100
AcDbEntity
  8
0
  6
CONTINUOUS
 62
               4
100
AcDbLine
 10
-63.5
 20
-11.1
 30
0.0
 11
-63.5
 21
-22.899999999999999
 31
0.0
  0
LINE
  5
1D1
100
AcDbEntity
  8
0
  6
CONTINUOUS
 62
               4
100
AcDbLine
 10
-62.299999999999997
 20
-11.1
 30
0.0
 11
-62.299999999999997
 21
-22.899999999999999
 31
0.0
  0
LINE
  5
1D2
100
AcDbEntity
  8
0
  6
CONTINUOUS
 62
               4
100
AcDbLine
 10
-62.299999999999997
 20
-22.899999999999999
 30
0.0
 11
-63.5
 21
-22.899999999999999
 31
0.0
  0
LINE
  5
1D3
100
AcDbEntity
  8
0
  6
CONTINUOUS
 62
               4
100
AcDbLine
 10
-62.299999999999997
 20
-11.1
 30
0.0
 11
-63.5
 21
-11.1
 31
0.0
  0
LINE
  5
1D4
100
AcDbEntity
  8
0
  6
CONTINUOUS
 62
               4
100
AcDbLine
 10
-61.5
 20
-13.5
 30
0.0
 11
-62.299999999999997
 21
-13.5
 31
0.0
  0
LINE
  5
1D5
100
AcDbEntity
  8
0
  6
CONTINUOUS
 62
               4
100
AcDbLine
 10
-61.5
 20
-20.5
 30
0.0
 11
-62.299999999999997
 21
-20.5
 31
0.0
  0
LINE
  5
1D6
100
AcDbEntity
  8
0
  6
CONTINUOUS
 62
               4
100
AcDbLine
 10
-61.5
 20
-12.0
 30
0.0
 11
-61.5
 21
-22.0
 31
0.0
  0
LINE
  5
1D7
100
AcDbEntity
  8
0
  6
CONTINUOUS
 62
               4
100
AcDbLine
 10
-55.0
 20
-22.0
 30
0.0
 11
-61.5
 21
-22.0
 31
0.0
  0
LINE
  5
1D8
100
AcDbEntity
  8
0
  6
CONTINUOUS
 62
               4
100
AcDbLine
 10
-55.0
 20
-12.0
 30
0.0
 11
-61.5
 21
-12.0
 31
0.0
  0
LINE
  5
1D9
100
AcDbEntity
  8
0
  6
CENTER
 62
             200
100
AcDbLine
 10
-51.75
 20
-17.0
 30
0.0
 11
-66.75
 21
-17.0
 31
0.0
  0
LINE
  5
1DA
100
AcDbEntity
  8
0
  6
CONTINUOUS
 62
               4
100
AcDbLine
 10
-63.5
 20
2.8999999999999999
 30
0.0
 11
-63.5
 21
-8.9000000000000004
 31
0.0
  0
LINE
  5
1DB
100
AcDbEntity
  8
0
  6
CONTINUOUS
 62
               4
100
AcDbLine
 10
-62.299999999999997
 20
2.8999999999999999
 30
0.0
 11
-62.299999999999997
 21
-8.9000000000000004
 31
0.0
  0
LINE
  5
1DC
100
AcDbEntity
  8
0
  6
CONTINUOUS
 62
               4
100
AcDbLine
 10
-62.299999999999997
 20
-8.9000000000000004
 30
0.0
 11
-63.5
 21
-8.9000000000000004
 31
0.0
  0
LINE
  5
1DD
100
AcDbEntity
  8
0
  6
CONTINUOUS
 62
               4
100
AcDbLine
 10
-62.299999999999997
 20
2.8999999999999999
 30
0.0
 11
-63.5
 21
2.8999999999999999
 31
0.0
  0
LINE
  5
1DE
100
AcDbEntity
  8
0
  6
CONTINUOUS
 62
               4
100
AcDbLine
 10
-61.5
 20
0.5
 30
0.0
 11
-62.299999999999997
 21
0.5
 31
0.0
  0
LINE
  5
1DF
100
AcDbEntity
  8
0
  6
CONTINUOUS
 62
               4
100
AcDbLine
 10
-61.5
 20
-6.5
 30
0.0
 11
-62.299999999999997
 21
-6.5
 31
0.0
  0
LINE
  5
1E0
100
AcDbEntity
  8
0
  6
CONTINUOUS
 62
               4
100
AcDbLine
 10
-61.5
 20
2.0
 30
0.0
 11
-61.5
 21
-8.0
 31
0.0
  0
LINE
  5
1E1
100
AcDbEntity
  8
0
  6
CONTINUOUS
 62
               4
100
AcDbLine
 10
-55.0
 20
-8.0
 30
0.0
 11
-61.5
 21
-8.0
 31
0.0
  0
LINE
  5
1E2
100
AcDbEntity
  8
0
  6
CONTINUOUS
 62
               4
100
AcDbLine
 10
-55.0
 20
2.0
 30
0.0
 11
-61.5
 21
2.0
 31
0.0
  0
LINE
  5
1E3
100
AcDbEntity
  8
0
  6
CENTER
 62
             200
100
AcDbLine
 10
-51.75
 20
-3.0
 30
0.0
 11
-66.75
 21
-3.0
 31
0.0
  0
LINE
  5
1E4
100
AcDbEntity
  8
0
  6
CONTINUOUS
 62
               4
100
AcDbLine
 10
-65.5
 20
-81.049999999999997
 30
0.0
 11
-61.5
 21
-81.049999999999997
 31
0.0
  0
LINE
  5
1E5
100
AcDbEntity
  8
0
  6
CONTINUOUS
 62
               4
100
AcDbLine
 10
-65.5
 20
-79.349999999999994
 30
0.0
 11
-61.039999999999999
 21
-79.349999999999994
 31
0.0
  0
LINE
  5
1E6
100
AcDbEntity
  8
0
  6
CONTINUOUS
 62
               4
100
AcDbLine
 10
-75.5
 20
-80.519999999999996
 30
0.0
 11
-65.5
 21
-80.519999999999996
 31
0.0
  0
LINE
  5
1E7
100
AcDbEntity
  8
0
  6
CONTINUOUS
 62
               4
100
AcDbLine
 10
-75.5
 20
-79.879999999999995
 30
0.0
 11
-65.5
 21
-79.879999999999995
 31
0.0
  0
LINE
  5
1E8
100
AcDbEntity
  8
0
  6
CONTINUOUS
 62
               4
100
AcDbLine
 10
-65.5
 20
-79.349999999999994
 30
0.0
 11
-65.5
 21
-81.049999999999997
 31
0.0
  0
LINE
  5
1E9
100
AcDbEntity
  8
0
  6
CONTINUOUS
 62
               4
100
AcDbLine
 10
-75.5
 20
-79.879999999999995
 30
0.0
 11
-75.5
 21
-80.519999999999996
 31
0.0
  0
LINE
  5
1EA
100
AcDbEntity
  8
0
  6
CONTINUOUS
 62
             200
100
AcDbLine
 10
-62.039999999999999
 20
-83.049999999999997
 30
0.0
 11
-60.509999999999998
 21
-77.349999999999994
 31
0.0
  0
LINE
  5
1EB
100
AcDbEntity
  8
0
  6
CONTINUOUS
 62
             200
100
AcDbLine
 10
-60.479999999999997
 20
-83.049999999999997
 30
0.0
 11
-58.960000000000001
 21
-77.349999999999994
 31
0.0
  0
LINE
  5
1EC
100
AcDbEntity
  8
0
  6
CONTINUOUS
 62
               4
100
AcDbLine
 10
-59.950000000000003
 20
-81.049999999999997
 30
0.0
 11
-55.5
 21
-81.049999999999997
 31
0.0
  0
LINE
  5
1ED
100
AcDbEntity
  8
0
  6
CONTINUOUS
 62
               4
100
AcDbLine
 10
-59.490000000000002
 20
-79.349999999999994
 30
0.0
 11
-55.5
 21
-79.349999999999994
 31
0.0
  0
LINE
  5
1EE
100
AcDbEntity
  8
0
  6
CONTINUOUS
 62
               4
100
AcDbLine
 10
-55.5
 20
-81.900000000000006
 30
0.0
 11
-53.5
 21
-81.900000000000006
 31
0.0
  0
LINE
  5
1EF
100
AcDbEntity
  8
0
  6
CONTINUOUS
 62
               4
100
AcDbLine
 10
-55.5
 20
-78.5
 30
0.0
 11
-55.5
 21
-81.900000000000006
 31
0.0
  0
LINE
  5
1F0
100
AcDbEntity
  8
0
  6
CONTINUOUS
 62
               4
100
AcDbLine
 10
-55.5
 20
-78.5
 30
0.0
 11
-53.5
 21
-78.5
 31
0.0
  0
LINE
  5
1F1
100
AcDbEntity
  8
0
  6
CONTINUOUS
 62
               4
100
AcDbLine
 10
-65.5
 20
49.149999999999999
 30
0.0
 11
-61.5
 21
49.149999999999999
 31
0.0
  0
LINE
  5
1F2
100
AcDbEntity
  8
0
  6
CONTINUOUS
 62
               4
100
AcDbLine
 10
-65.5
 20
50.850000000000001
 30
0.0
 11
-61.039999999999999
 21
50.850000000000001
 31
0.0
  0
LINE
  5
1F3
100
AcDbEntity
  8
0
  6
CONTINUOUS
 62
               4
100
AcDbLine
 10
-75.5
 20
49.68
 30
0.0
 11
-65.5
 21
49.68
 31
0.0
  0
LINE
  5
1F4
100
AcDbEntity
  8
0
  6
CONTINUOUS
 62
               4
100
AcDbLine
 10
-75.5
 20
50.32
 30
0.0
 11
-65.5
 21
50.32
 31
0.0
  0
LINE
  5
1F5
100
AcDbEntity
  8
0
  6
CONTINUOUS
 62
               4
100
AcDbLine
 10
-65.5
 20
50.850000000000001
 30
0.0
 11
-65.5
 21
49.149999999999999
 31
0.0
  0
LINE
  5
1F6
100
AcDbEntity
  8
0
  6
CONTINUOUS
 62
               4
100
AcDbLine
 10
-75.5
 20
50.32
 30
0.0
 11
-75.5
 21
49.68
 31
0.0
  0
LINE
  5
1F7
100
AcDbEntity
  8
0
  6
CONTINUOUS
 62
             200
100
AcDbLine
 10
-62.039999999999999
 20
47.149999999999999
 30
0.0
 11
-60.509999999999998
 21
52.850000000000001
 31
0.0
  0
LINE
  5
1F8
100
AcDbEntity
  8
0
  6
CONTINUOUS
 62
             200
100
AcDbLine
 10
-60.479999999999997
 20
47.149999999999999
 30
0.0
 11
-58.960000000000001
 21
52.850000000000001
 31
0.0
  0
LINE
  5
1F9
100
AcDbEntity
  8
0
  6
CONTINUOUS
 62
               4
100
AcDbLine
 10
-59.490000000000002
 20
50.850000000000001
 30
0.0
 11
-55.5
 21
50.850000000000001
 31
0.0
  0
LINE
  5
1FA
100
AcDbEntity
  8
0
  6
CONTINUOUS
 62
               4
100
AcDbLine
 10
-59.950000000000003
 20
49.149999999999999
 30
0.0
 11
-55.5
 21
49.149999999999999
 31
0.0
  0
LINE
  5
1FB
100
AcDbEntity
  8
0
  6
CONTINUOUS
 62
               4
100
AcDbLine
 10
-55.5
 20
48.299999999999997
 30
0.0
 11
-53.5
 21
48.299999999999997
 31
0.0
  0
LINE
  5
1FC
100
AcDbEntity
  8
0
  6
CONTINUOUS
 62
               4
100
AcDbLine
 10
-55.5
 20
51.700000000000003
 30
0.0
 11
-55.5
 21
48.299999999999997
 31
0.0
  0
LINE
  5
1FD
100
AcDbEntity
  8
0
  6
CONTINUOUS
 62
               4
100
AcDbLine
 10
-55.5
 20
51.700000000000003
 30
0.0
 11
-53.5
 21
51.700000000000003
 31
0.0
  0
LINE
  5
1FE
100
AcDbEntity
  8
0
  6
CENTER
 62
               2
100
AcDbLine
 10
-25.0
 20
21.0
 30
0.0
 11
-17.0
 21
21.0
 31
0.0
  0
LINE
  5
1FF
100
AcDbEntity
  8
0
  6
CENTER
 62
               2
100
AcDbLine
 10
-25.0
 20
-41.0
 30
0.0
 11
-17.0
 21
-41.0
 31
0.0
  0
LINE
  5
200
100
AcDbEntity
  8
0
  6
CENTER
 62
               2
100
AcDbLine
 10
-21.0
 20
25.0
 30
0.0
 11
-21.0
 21
17.0
 31
0.0
  0
LINE
  5
201
100
AcDbEntity
  8
0
  6
CENTER
 62
               2
100
AcDbLine
 10
-21.0
 20
-37.0
 30
0.0
 11
-21.0
 21
-45.0
 31
0.0
  0
LINE
  5
202
100
AcDbEntity
  8
0
  6
CENTER
 62
               2
100
AcDbLine
 10
-10.0
 20
0.0
 30
0.0
 11
10.0
 21
0.0
 31
0.0
  0
LINE
  5
203
100
AcDbEntity
  8
0
  6
CENTER
 62
               2
100
AcDbLine
 10
-10.0
 20
-20.0
 30
0.0
 11
10.0
 21
-20.0
 31
0.0
  0
LINE
  5
204
100
AcDbEntity
  8
0
  6
CENTER
 62
               2
100
AcDbLine
 10
-41.5
 20
65.200000000000003
 30
0.0
 11
-41.5
 21
-95.400000000000006
 31
0.0
  0
ARC
  5
205
100
AcDbEntity
  8
0
  6
CONTINUOUS
 62
               4
100
AcDbCircle
 10
-29.0999755859375
 20
-25.0
 30
0.0
 40
4.9979798067852945
100
AcDbArc
 50
145.92854698806377
 51
214.07145301193543
  0
CIRCLE
  5
206
100
AcDbEntity
  8
0
  6
CONTINUOUS
 62
               2
100
AcDbCircle
 10
-11.0
 20
9.9999847412109375
 30
0.0
 40
6.8579998016357422
  0
CIRCLE
  5
207
100
AcDbEntity
  8
0
  6
CONTINUOUS
 62
               2
100
AcDbCircle
 10
-11.0
 20
-30.0
 30
0.0
 40
6.8579998016357422
  0
CIRCLE
  5
208
100
AcDbEntity
  8
0
  6
CONTINUOUS
 62
               2
100
AcDbCircle
 10
-13.0
 20
-10.0
 30
0.0
 40
6.8579998016357422
  0
CIRCLE
  5
209
100
AcDbEntity
  8
0
  6
CONTINUOUS
 62
               7
100
AcDbCircle
 10
-11.0
 20
9.9999847412109375
 30
0.0
 40
5.4979991912841797
  0
CIRCLE
  5
20A
100
AcDbEntity
  8
0
  6
CONTINUOUS
 62
               7
100
AcDbCircle
 10
-13.0
 20
-10.0
 30
0.0
 40
5.4979991912841797
  0
CIRCLE
  5
20B
100
AcDbEntity
  8
0
  6
CONTINUOUS
 62
               7
100
AcDbCircle
 10
-11.0
 20
-30.0
 30
0.0
 40
5.4979991912841797
  0
CIRCLE
  5
20C
100
AcDbEntity
  8
0
  6
CONTINUOUS
 62
               2
100
AcDbCircle
 10
-21.0
 20
21.0
 30
0.0
 40
2.4999990463256836
  0
CIRCLE
  5
20D
100
AcDbEntity
  8
0
  6
CONTINUOUS
 62
               2
100
AcDbCircle
 10
-21.0
 20
-40.999984741210938
 30
0.0
 40
2.4999990463256836
  0
CIRCLE
  5
20E
100
AcDbEntity
  8
0
  6
CONTINUOUS
 62
               7
100
AcDbCircle
 10
-21.0
 20
21.0
 30
0.0
 40
1.7499990463256836
  0
CIRCLE
  5
20F
100
AcDbEntity
  8
0
  6
CONTINUOUS
 62
               7
100
AcDbCircle
 10
-21.0
 20
-40.999984741210938
 30
0.0
 40
1.7499990463256836
  0
ARC
  5
210
100
AcDbEntity
  8
0
  6
CONTINUOUS
 62
               4
100
AcDbCircle
 10
-29.099990844726562
 20
5.0
 30
0.0
 40
4.9979671673339254
100
AcDbArc
 50
145.92844899105106
 51
214.07155100894815
  0
ARC
  5
211
100
AcDbEntity
  8
0
  6
CONTINUOUS
 62
               4
100
AcDbCircle
 10
-50.5
 20
-84.699996948242188
 30
0.0
 40
5.9980108315637652
100
AcDbArc
 50
247.96800048578274
 51
292.03199951421601
  0
ARC
  5
212
100
AcDbEntity
  8
0
  6
CONTINUOUS
 62
               4
100
AcDbCircle
 10
-32.494999999999997
 20
-84.699966430662172
 30
0.0
 40
6.0005006200798086
100
AcDbArc
 50
251.79161568934973
 51
288.20838431064902
  0
ARC
  5
213
100
AcDbEntity
  8
0
  6
CONTINUOUS
 62
               4
100
AcDbCircle
 10
-50.494999999999997
 20
54.49999999999811
 30
0.0
 40
6.0004687316926795
100
AcDbArc
 50
71.791515529424672
 51
108.20848447057494
  0
ARC
  5
214
100
AcDbEntity
  8
0
  6
CONTINUOUS
 62
               4
100
AcDbCircle
 10
-32.5
 20
54.500030517578125
 30
0.0
 40
5.9979797136588084
100
AcDbArc
 50
67.967880194083179
 51
112.03211980591642
  0
ARC
  5
215
100
AcDbEntity
  8
0
  6
CONTINUOUS
 62
               7
100
AcDbCircle
 10
-49.899948120117188
 20
4.9950000000000001
 30
0.0
 40
4.9923555273225109
100
AcDbArc
 50
160.63973997661785
 51
199.36026002338133
  0
ENDBLK
  5
216
100
AcDbEntity
  8
0
100
AcDbBlockEnd
  0
BLOCK
  5
217
100
AcDbEntity
  8
0
100
AcDbBlockBegin
  2
MS_3
 70
               0
 10
0.0
 20
0.0
 30
0.0
  3
MS_3
  1

  0
LINE
  5
218
100
AcDbEntity
  8
0
  6
CONTINUOUS
 62
               7
100
AcDbLine
 10
-5.0
 20
-27.0
 30
0.0
 11
-5.0
 21
0.0
 31
0.0
  0
LINE
  5
219
100
AcDbEntity
  8
0
  6
CONTINUOUS
 62
               7
100
AcDbLine
 10
-5.0
 20
-27.0
 30
0.0
 11
109.0
 21
-27.0
 31
0.0
  0
LINE
  5
21A
100
AcDbEntity
  8
0
  6
CONTINUOUS
 62
               7
100
AcDbLine
 10
109.0
 20
-27.0
 30
0.0
 11
109.0
 21
0.0
 31
0.0
  0
LINE
  5
21B
100
AcDbEntity
  8
0
  6
CONTINUOUS
 62
               7
100
AcDbLine
 10
-5.0
 20
0.0
 30
0.0
 11
109.0
 21
0.0
 31
0.0
  0
LINE
  5
21C
100
AcDbEntity
  8
0
  6
CONTINUOUS
 62
               7
100
AcDbLine
 10
-5.0
 20
-18.0
 30
0.0
 11
109.0
 21
-18.0
 31
0.0
  0
LINE
  5
21D
100
AcDbEntity
  8
0
  6
CONTINUOUS
 62
               7
100
AcDbLine
 10
-5.0
 20
-11.0
 30
0.0
 11
109.0
 21
-11.0
 31
0.0
  0
LINE
  5
21E
100
AcDbEntity
  8
0
  6
CONTINUOUS
 62
               7
100
AcDbLine
 10
22.5
 20
-28.0
 30
0.0
 11
22.5
 21
-27.0
 31
0.0
  0
LINE
  5
21F
100
AcDbEntity
  8
0
  6
CONTINUOUS
 62
               7
100
AcDbLine
 10
5.5
 20
-28.0
 30
0.0
 11
5.5
 21
-27.0
 31
0.0
  0
LINE
  5
220
100
AcDbEntity
  8
0
  6
CONTINUOUS
 62
               7
100
AcDbLine
 10
41.5
 20
-28.0
 30
0.0
 11
41.5
 21
-27.0
 31
0.0
  0
LINE
  5
221
100
AcDbEntity
  8
0
  6
CONTINUOUS
 62
               7
100
AcDbLine
 10
24.5
 20
-28.0
 30
0.0
 11
24.5
 21
-27.0
 31
0.0
  0
LINE
  5
222
100
AcDbEntity
  8
0
  6
CONTINUOUS
 62
               7
100
AcDbLine
 10
60.5
 20
-28.0
 30
0.0
 11
60.5
 21
-27.0
 31
0.0
  0
LINE
  5
223
100
AcDbEntity
  8
0
  6
CONTINUOUS
 62
               7
100
AcDbLine
 10
43.5
 20
-28.0
 30
0.0
 11
43.5
 21
-27.0
 31
0.0
  0
LINE
  5
224
100
AcDbEntity
  8
0
  6
CONTINUOUS
 62
               7
100
AcDbLine
 10
79.5
 20
-28.0
 30
0.0
 11
79.5
 21
-27.0
 31
0.0
  0
LINE
  5
225
100
AcDbEntity
  8
0
  6
CONTINUOUS
 62
               7
100
AcDbLine
 10
62.5
 20
-28.0
 30
0.0
 11
62.5
 21
-27.0
 31
0.0
  0
LINE
  5
226
100
AcDbEntity
  8
0
  6
CONTINUOUS
 62
               7
100
AcDbLine
 10
98.5
 20
-28.0
 30
0.0
 11
98.5
 21
-27.0
 31
0.0
  0
LINE
  5
227
100
AcDbEntity
  8
0
  6
CONTINUOUS
 62
               7
100
AcDbLine
 10
81.5
 20
-28.0
 30
0.0
 11
81.5
 21
-27.0
 31
0.0
  0
LINE
  5
228
100
AcDbEntity
  8
0
  6
CENTER
 62
               2
100
AcDbLine
 10
14.0
 20
-23.0
 30
0.0
 11
14.0
 21
-75.959999999999994
 31
0.0
  0
LINE
  5
229
100
AcDbEntity
  8
0
  6
CONTINUOUS
 62
               4
100
AcDbLine
 10
14.449999999999999
 20
-70.5
 30
0.0
 11
14.449999999999999
 21
-67.150000000000006
 31
0.0
  0
LINE
  5
22A
100
AcDbEntity
  8
0
  6
CONTINUOUS
 62
               4
100
AcDbLine
 10
16.149999999999999
 20
-70.5
 30
0.0
 11
16.149999999999999
 21
-66.700000000000003
 31
0.0
  0
LINE
  5
22B
100
AcDbEntity
  8
0
  6
CONTINUOUS
 62
               4
100
AcDbLine
 10
14.98
 20
-80.5
 30
0.0
 11
14.98
 21
-70.5
 31
0.0
  0
LINE
  5
22C
100
AcDbEntity
  8
0
  6
CONTINUOUS
 62
               4
100
AcDbLine
 10
15.619999999999999
 20
-80.5
 30
0.0
 11
15.619999999999999
 21
-70.5
 31
0.0
  0
LINE
  5
22D
100
AcDbEntity
  8
0
  6
CONTINUOUS
 62
               4
100
AcDbLine
 10
16.149999999999999
 20
-70.5
 30
0.0
 11
14.449999999999999
 21
-70.5
 31
0.0
  0
LINE
  5
22E
100
AcDbEntity
  8
0
  6
CONTINUOUS
 62
               4
100
AcDbLine
 10
15.619999999999999
 20
-80.5
 30
0.0
 11
14.98
 21
-80.5
 31
0.0
  0
LINE
  5
22F
100
AcDbEntity
  8
0
  6
CONTINUOUS
 62
               4
100
AcDbLine
 10
11.85
 20
-70.5
 30
0.0
 11
11.85
 21
-67.849999999999994
 31
0.0
  0
LINE
  5
230
100
AcDbEntity
  8
0
  6
CONTINUOUS
 62
               4
100
AcDbLine
 10
13.550000000000001
 20
-70.5
 30
0.0
 11
13.550000000000001
 21
-67.390000000000001
 31
0.0
  0
LINE
  5
231
100
AcDbEntity
  8
0
  6
CONTINUOUS
 62
               4
100
AcDbLine
 10
12.380000000000001
 20
-80.5
 30
0.0
 11
12.380000000000001
 21
-70.5
 31
0.0
  0
LINE
  5
232
100
AcDbEntity
  8
0
  6
CONTINUOUS
 62
               4
100
AcDbLine
 10
13.02
 20
-80.5
 30
0.0
 11
13.02
 21
-70.5
 31
0.0
  0
LINE
  5
233
100
AcDbEntity
  8
0
  6
CONTINUOUS
 62
               4
100
AcDbLine
 10
13.550000000000001
 20
-70.5
 30
0.0
 11
11.85
 21
-70.5
 31
0.0
  0
LINE
  5
234
100
AcDbEntity
  8
0
  6
CONTINUOUS
 62
               4
100
AcDbLine
 10
13.02
 20
-80.5
 30
0.0
 11
12.380000000000001
 21
-80.5
 31
0.0
  0
LINE
  5
235
100
AcDbEntity
  8
0
  6
CONTINUOUS
 62
             200
100
AcDbLine
 10
9.8499999999999996
 20
-66.829999999999998
 30
0.0
 11
18.149999999999999
 21
-64.609999999999999
 31
0.0
  0
LINE
  5
236
100
AcDbEntity
  8
0
  6
CONTINUOUS
 62
             200
100
AcDbLine
 10
9.8499999999999996
 20
-68.379999999999995
 30
0.0
 11
18.149999999999999
 21
-66.159999999999997
 31
0.0
  0
LINE
  5
237
100
AcDbEntity
  8
0
  6
CONTINUOUS
 62
               4
100
AcDbLine
 10
11.85
 20
-66.299999999999997
 30
0.0
 11
11.85
 21
-55.5
 31
0.0
  0
LINE
  5
238
100
AcDbEntity
  8
0
  6
CONTINUOUS
 62
               4
100
AcDbLine
 10
13.550000000000001
 20
-65.840000000000003
 30
0.0
 11
13.550000000000001
 21
-55.5
 31
0.0
  0
LINE
  5
239
100
AcDbEntity
  8
0
  6
CONTINUOUS
 62
               4
100
AcDbLine
 10
14.449999999999999
 20
-65.599999999999994
 30
0.0
 11
14.449999999999999
 21
-55.5
 31
0.0
  0
LINE
  5
23A
100
AcDbEntity
  8
0
  6
CONTINUOUS
 62
               4
100
AcDbLine
 10
16.149999999999999
 20
-65.140000000000001
 30
0.0
 11
16.149999999999999
 21
-55.5
 31
0.0
  0
LINE
  5
23B
100
AcDbEntity
  8
0
  6
CENTER
 62
               2
100
AcDbLine
 10
33.0
 20
-23.0
 30
0.0
 11
33.0
 21
-75.959999999999994
 31
0.0
  0
LINE
  5
23C
100
AcDbEntity
  8
0
  6
CONTINUOUS
 62
               4
100
AcDbLine
 10
33.450000000000003
 20
-70.5
 30
0.0
 11
33.450000000000003
 21
-67.150000000000006
 31
0.0
  0
LINE
  5
23D
100
AcDbEntity
  8
0
  6
CONTINUOUS
 62
               4
100
AcDbLine
 10
35.149999999999999
 20
-70.5
 30
0.0
 11
35.149999999999999
 21
-66.700000000000003
 31
0.0
  0
LINE
  5
23E
100
AcDbEntity
  8
0
  6
CONTINUOUS
 62
               4
100
AcDbLine
 10
33.979999999999997
 20
-80.5
 30
0.0
 11
33.979999999999997
 21
-70.5
 31
0.0
  0
LINE
  5
23F
100
AcDbEntity
  8
0
  6
CONTINUOUS
 62
               4
100
AcDbLine
 10
34.619999999999997
 20
-80.5
 30
0.0
 11
34.619999999999997
 21
-70.5
 31
0.0
  0
LINE
  5
240
100
AcDbEntity
  8
0
  6
CONTINUOUS
 62
               4
100
AcDbLine
 10
35.149999999999999
 20
-70.5
 30
0.0
 11
33.450000000000003
 21
-70.5
 31
0.0
  0
LINE
  5
241
100
AcDbEntity
  8
0
  6
CONTINUOUS
 62
               4
100
AcDbLine
 10
34.619999999999997
 20
-80.5
 30
0.0
 11
33.979999999999997
 21
-80.5
 31
0.0
  0
LINE
  5
242
100
AcDbEntity
  8
0
  6
CONTINUOUS
 62
               4
100
AcDbLine
 10
30.850000000000001
 20
-70.5
 30
0.0
 11
30.850000000000001
 21
-67.849999999999994
 31
0.0
  0
LINE
  5
243
100
AcDbEntity
  8
0
  6
CONTINUOUS
 62
               4
100
AcDbLine
 10
32.549999999999997
 20
-70.5
 30
0.0
 11
32.549999999999997
 21
-67.390000000000001
 31
0.0
  0
LINE
  5
244
100
AcDbEntity
  8
0
  6
CONTINUOUS
 62
               4
100
AcDbLine
 10
31.379999999999999
 20
-80.5
 30
0.0
 11
31.379999999999999
 21
-70.5
 31
0.0
  0
LINE
  5
245
100
AcDbEntity
  8
0
  6
CONTINUOUS
 62
               4
100
AcDbLine
 10
32.020000000000003
 20
-80.5
 30
0.0
 11
32.020000000000003
 21
-70.5
 31
0.0
  0
LINE
  5
246
100
AcDbEntity
  8
0
  6
CONTINUOUS
 62
               4
100
AcDbLine
 10
32.549999999999997
 20
-70.5
 30
0.0
 11
30.850000000000001
 21
-70.5
 31
0.0
  0
LINE
  5
247
100
AcDbEntity
  8
0
  6
CONTINUOUS
 62
               4
100
AcDbLine
 10
32.020000000000003
 20
-80.5
 30
0.0
 11
31.379999999999999
 21
-80.5
 31
0.0
  0
LINE
  5
248
100
AcDbEntity
  8
0
  6
CENTER
 62
               2
100
AcDbLine
 10
52.0
 20
-75.959999999999994
 30
0.0
 11
52.0
 21
-23.0
 31
0.0
  0
LINE
  5
249
100
AcDbEntity
  8
0
  6
CONTINUOUS
 62
               4
100
AcDbLine
 10
52.450000000000003
 20
-70.5
 30
0.0
 11
52.450000000000003
 21
-67.150000000000006
 31
0.0
  0
LINE
  5
24A
100
AcDbEntity
  8
0
  6
CONTINUOUS
 62
               4
100
AcDbLine
 10
54.149999999999999
 20
-70.5
 30
0.0
 11
54.149999999999999
 21
-66.700000000000003
 31
0.0
  0
LINE
  5
24B
100
AcDbEntity
  8
0
  6
CONTINUOUS
 62
               4
100
AcDbLine
 10
52.979999999999997
 20
-80.5
 30
0.0
 11
52.979999999999997
 21
-70.5
 31
0.0
  0
LINE
  5
24C
100
AcDbEntity
  8
0
  6
CONTINUOUS
 62
               4
100
AcDbLine
 10
53.619999999999997
 20
-80.5
 30
0.0
 11
53.619999999999997
 21
-70.5
 31
0.0
  0
LINE
  5
24D
100
AcDbEntity
  8
0
  6
CONTINUOUS
 62
               4
100
AcDbLine
 10
54.149999999999999
 20
-70.5
 30
0.0
 11
52.450000000000003
 21
-70.5
 31
0.0
  0
LINE
  5
24E
100
AcDbEntity
  8
0
  6
CONTINUOUS
 62
               4
100
AcDbLine
 10
53.619999999999997
 20
-80.5
 30
0.0
 11
52.979999999999997
 21
-80.5
 31
0.0
  0
LINE
  5
24F
100
AcDbEntity
  8
0
  6
CONTINUOUS
 62
               4
100
AcDbLine
 10
49.850000000000001
 20
-70.5
 30
0.0
 11
49.850000000000001
 21
-67.849999999999994
 31
0.0
  0
LINE
  5
250
100
AcDbEntity
  8
0
  6
CONTINUOUS
 62
               4
100
AcDbLine
 10
51.549999999999997
 20
-70.5
 30
0.0
 11
51.549999999999997
 21
-67.390000000000001
 31
0.0
  0
LINE
  5
251
100
AcDbEntity
  8
0
  6
CONTINUOUS
 62
               4
100
AcDbLine
 10
50.380000000000003
 20
-80.5
 30
0.0
 11
50.380000000000003
 21
-70.5
 31
0.0
  0
LINE
  5
252
100
AcDbEntity
  8
0
  6
CONTINUOUS
 62
               4
100
AcDbLine
 10
51.020000000000003
 20
-80.5
 30
0.0
 11
51.020000000000003
 21
-70.5
 31
0.0
  0
LINE
  5
253
100
AcDbEntity
  8
0
  6
CONTINUOUS
 62
               4
100
AcDbLine
 10
51.549999999999997
 20
-70.5
 30
0.0
 11
49.850000000000001
 21
-70.5
 31
0.0
  0
LINE
  5
254
100
AcDbEntity
  8
0
  6
CONTINUOUS
 62
               4
100
AcDbLine
 10
51.020000000000003
 20
-80.5
 30
0.0
 11
50.380000000000003
 21
-80.5
 31
0.0
  0
LINE
  5
255
100
AcDbEntity
  8
0
  6
CONTINUOUS
 62
             200
100
AcDbLine
 10
28.850000000000001
 20
-66.829999999999998
 30
0.0
 11
37.149999999999999
 21
-64.609999999999999
 31
0.0
  0
LINE
  5
256
100
AcDbEntity
  8
0
  6
CONTINUOUS
 62
             200
100
AcDbLine
 10
28.850000000000001
 20
-68.379999999999995
 30
0.0
 11
37.149999999999999
 21
-66.159999999999997
 31
0.0
  0
LINE
  5
257
100
AcDbEntity
  8
0
  6
CONTINUOUS
 62
               4
100
AcDbLine
 10
49.850000000000001
 20
-66.290000000000006
 30
0.0
 11
49.850000000000001
 21
-55.5
 31
0.0
  0
LINE
  5
258
100
AcDbEntity
  8
0
  6
CONTINUOUS
 62
               4
100
AcDbLine
 10
51.549999999999997
 20
-65.840000000000003
 30
0.0
 11
51.549999999999997
 21
-55.5
 31
0.0
  0
LINE
  5
259
100
AcDbEntity
  8
0
  6
CONTINUOUS
 62
               4
100
AcDbLine
 10
52.450000000000003
 20
-65.599999999999994
 30
0.0
 11
52.450000000000003
 21
-55.5
 31
0.0
  0
LINE
  5
25A
100
AcDbEntity
  8
0
  6
CONTINUOUS
 62
               4
100
AcDbLine
 10
54.149999999999999
 20
-65.140000000000001
 30
0.0
 11
54.149999999999999
 21
-55.5
 31
0.0
  0
LINE
  5
25B
100
AcDbEntity
  8
0
  6
CENTER
 62
               2
100
AcDbLine
 10
71.0
 20
-75.959999999999994
 30
0.0
 11
71.0
 21
-23.0
 31
0.0
  0
LINE
  5
25C
100
AcDbEntity
  8
0
  6
CONTINUOUS
 62
               4
100
AcDbLine
 10
71.450000000000003
 20
-70.5
 30
0.0
 11
71.450000000000003
 21
-67.150000000000006
 31
0.0
  0
LINE
  5
25D
100
AcDbEntity
  8
0
  6
CONTINUOUS
 62
               4
100
AcDbLine
 10
73.150000000000006
 20
-70.5
 30
0.0
 11
73.150000000000006
 21
-66.700000000000003
 31
0.0
  0
LINE
  5
25E
100
AcDbEntity
  8
0
  6
CONTINUOUS
 62
               4
100
AcDbLine
 10
71.980000000000004
 20
-80.5
 30
0.0
 11
71.980000000000004
 21
-70.5
 31
0.0
  0
LINE
  5
25F
100
AcDbEntity
  8
0
  6
CONTINUOUS
 62
               4
100
AcDbLine
 10
72.620000000000005
 20
-80.5
 30
0.0
 11
72.620000000000005
 21
-70.5
 31
0.0
  0
LINE
  5
260
100
AcDbEntity
  8
0
  6
CONTINUOUS
 62
               4
100
AcDbLine
 10
73.150000000000006
 20
-70.5
 30
0.0
 11
71.450000000000003
 21
-70.5
 31
0.0
  0
LINE
  5
261
100
AcDbEntity
  8
0
  6
CONTINUOUS
 62
               4
100
AcDbLine
 10
72.620000000000005
 20
-80.5
 30
0.0
 11
71.980000000000004
 21
-80.5
 31
0.0
  0
LINE
  5
262
100
AcDbEntity
  8
0
  6
CONTINUOUS
 62
               4
100
AcDbLine
 10
68.849999999999994
 20
-70.5
 30
0.0
 11
68.849999999999994
 21
-67.849999999999994
 31
0.0
  0
LINE
  5
263
100
AcDbEntity
  8
0
  6
CONTINUOUS
 62
               4
100
AcDbLine
 10
70.549999999999997
 20
-70.5
 30
0.0
 11
70.549999999999997
 21
-67.390000000000001
 31
0.0
  0
LINE
  5
264
100
AcDbEntity
  8
0
  6
CONTINUOUS
 62
               4
100
AcDbLine
 10
69.379999999999995
 20
-80.5
 30
0.0
 11
69.379999999999995
 21
-70.5
 31
0.0
  0
LINE
  5
265
100
AcDbEntity
  8
0
  6
CONTINUOUS
 62
               4
100
AcDbLine
 10
70.019999999999996
 20
-80.5
 30
0.0
 11
70.019999999999996
 21
-70.5
 31
0.0
  0
LINE
  5
266
100
AcDbEntity
  8
0
  6
CONTINUOUS
 62
               4
100
AcDbLine
 10
70.549999999999997
 20
-70.5
 30
0.0
 11
68.849999999999994
 21
-70.5
 31
0.0
  0
LINE
  5
267
100
AcDbEntity
  8
0
  6
CONTINUOUS
 62
               4
100
AcDbLine
 10
70.019999999999996
 20
-80.5
 30
0.0
 11
69.379999999999995
 21
-80.5
 31
0.0
  0
LINE
  5
268
100
AcDbEntity
  8
0
  6
CONTINUOUS
 62
             200
100
AcDbLine
 10
66.849999999999994
 20
-66.829999999999998
 30
0.0
 11
75.150000000000006
 21
-64.609999999999999
 31
0.0
  0
LINE
  5
269
100
AcDbEntity
  8
0
  6
CONTINUOUS
 62
             200
100
AcDbLine
 10
66.849999999999994
 20
-68.379999999999995
 30
0.0
 11
75.150000000000006
 21
-66.159999999999997
 31
0.0
  0
LINE
  5
26A
100
AcDbEntity
  8
0
  6
CONTINUOUS
 62
               4
100
AcDbLine
 10
68.849999999999994
 20
-66.290000000000006
 30
0.0
 11
68.849999999999994
 21
-55.5
 31
0.0
  0
LINE
  5
26B
100
AcDbEntity
  8
0
  6
CONTINUOUS
 62
               4
100
AcDbLine
 10
70.549999999999997
 20
-65.840000000000003
 30
0.0
 11
70.549999999999997
 21
-55.5
 31
0.0
  0
LINE
  5
26C
100
AcDbEntity
  8
0
  6
CONTINUOUS
 62
               4
100
AcDbLine
 10
71.450000000000003
 20
-65.599999999999994
 30
0.0
 11
71.450000000000003
 21
-55.5
 31
0.0
  0
LINE
  5
26D
100
AcDbEntity
  8
0
  6
CONTINUOUS
 62
               4
100
AcDbLine
 10
73.150000000000006
 20
-65.140000000000001
 30
0.0
 11
73.150000000000006
 21
-55.5
 31
0.0
  0
LINE
  5
26E
100
AcDbEntity
  8
0
  6
CONTINUOUS
 62
               4
100
AcDbLine
 10
81.0
 20
-31.199999999999999
 30
0.0
 11
99.0
 21
-31.199999999999999
 31
0.0
  0
LINE
  5
26F
100
AcDbEntity
  8
0
  6
CONTINUOUS
 62
               4
100
AcDbLine
 10
81.0
 20
-31.699999999999999
 30
0.0
 11
87.0
 21
-31.699999999999999
 31
0.0
  0
LINE
  5
270
100
AcDbEntity
  8
0
  6
CONTINUOUS
 62
               4
100
AcDbLine
 10
87.0
 20
-31.199999999999999
 30
0.0
 11
87.0
 21
-31.699999999999999
 31
0.0
  0
LINE
  5
271
100
AcDbEntity
  8
0
  6
CONTINUOUS
 62
               4
100
AcDbLine
 10
93.0
 20
-31.199999999999999
 30
0.0
 11
93.0
 21
-31.699999999999999
 31
0.0
  0
LINE
  5
272
100
AcDbEntity
  8
0
  6
CONTINUOUS
 62
               4
100
AcDbLine
 10
93.0
 20
-31.699999999999999
 30
0.0
 11
99.0
 21
-31.699999999999999
 31
0.0
  0
LINE
  5
273
100
AcDbEntity
  8
0
  6
CONTINUOUS
 62
               4
100
AcDbLine
 10
99.0
 20
-31.199999999999999
 30
0.0
 11
99.0
 21
-31.699999999999999
 31
0.0
  0
LINE
  5
274
100
AcDbEntity
  8
0
  6
CONTINUOUS
 62
               4
100
AcDbLine
 10
86.799999999999997
 20
-33.240000000000002
 30
0.0
 11
86.799999999999997
 21
-31.699999999999999
 31
0.0
  0
LINE
  5
275
100
AcDbEntity
  8
0
  6
CONTINUOUS
 62
               4
100
AcDbLine
 10
81.200000000000003
 20
-33.240000000000002
 30
0.0
 11
81.200000000000003
 21
-31.699999999999999
 31
0.0
  0
LINE
  5
276
100
AcDbEntity
  8
0
  6
CONTINUOUS
 62
               4
100
AcDbLine
 10
98.799999999999997
 20
-33.240000000000002
 30
0.0
 11
98.799999999999997
 21
-31.699999999999999
 31
0.0
  0
LINE
  5
277
100
AcDbEntity
  8
0
  6
CONTINUOUS
 62
               4
100
AcDbLine
 10
93.200000000000003
 20
-33.240000000000002
 30
0.0
 11
93.200000000000003
 21
-31.699999999999999
 31
0.0
  0
LINE
  5
278
100
AcDbEntity
  8
0
  6
CONTINUOUS
 62
               4
100
AcDbLine
 10
99.0
 20
-31.199999999999999
 30
0.0
 11
99.0
 21
-28.0
 31
0.0
  0
LINE
  5
279
100
AcDbEntity
  8
0
  6
CONTINUOUS
 62
               4
100
AcDbLine
 10
81.0
 20
-31.199999999999999
 30
0.0
 11
81.0
 21
-28.0
 31
0.0
  0
LINE
  5
27A
100
AcDbEntity
  8
0
  6
CENTER
 62
               2
100
AcDbLine
 10
90.0
 20
-38.0
 30
0.0
 11
90.0
 21
-23.0
 31
0.0
  0
LINE
  5
27B
100
AcDbEntity
  8
0
  6
CONTINUOUS
 62
               4
100
AcDbLine
 10
81.0
 20
-31.699999999999999
 30
0.0
 11
81.0
 21
-31.199999999999999
 31
0.0
  0
LINE
  5
27C
100
AcDbEntity
  8
0
  6
CONTINUOUS
 62
               4
100
AcDbLine
 10
81.0
 20
-28.0
 30
0.0
 11
99.0
 21
-28.0
 31
0.0
  0
LINE
  5
27D
100
AcDbEntity
  8
0
  6
CONTINUOUS
 62
               4
100
AcDbLine
 10
57.399999999999999
 20
-63.5
 30
0.0
 11
54.149999999999999
 21
-63.5
 31
0.0
  0
LINE
  5
27E
100
AcDbEntity
  8
0
  6
CONTINUOUS
 62
               4
100
AcDbLine
 10
57.399999999999999
 20
-62.299999999999997
 30
0.0
 11
54.149999999999999
 21
-62.299999999999997
 31
0.0
  0
LINE
  5
27F
100
AcDbEntity
  8
0
  6
CONTINUOUS
 62
               4
100
AcDbLine
 10
45.600000000000001
 20
-62.299999999999997
 30
0.0
 11
45.600000000000001
 21
-63.5
 31
0.0
  0
LINE
  5
280
100
AcDbEntity
  8
0
  6
CONTINUOUS
 62
               4
100
AcDbLine
 10
58.399999999999999
 20
-62.299999999999997
 30
0.0
 11
58.399999999999999
 21
-63.5
 31
0.0
  0
LINE
  5
281
100
AcDbEntity
  8
0
  6
CONTINUOUS
 62
               4
100
AcDbLine
 10
56.0
 20
-61.5
 30
0.0
 11
56.0
 21
-62.299999999999997
 31
0.0
  0
LINE
  5
282
100
AcDbEntity
  8
0
  6
CONTINUOUS
 62
               4
100
AcDbLine
 10
48.0
 20
-61.5
 30
0.0
 11
48.0
 21
-62.299999999999997
 31
0.0
  0
LINE
  5
283
100
AcDbEntity
  8
0
  6
CONTINUOUS
 62
               4
100
AcDbLine
 10
56.5
 20
-61.5
 30
0.0
 11
54.149999999999999
 21
-61.5
 31
0.0
  0
LINE
  5
284
100
AcDbEntity
  8
0
  6
CONTINUOUS
 62
               4
100
AcDbLine
 10
46.5
 20
-55.0
 30
0.0
 11
46.5
 21
-61.5
 31
0.0
  0
LINE
  5
285
100
AcDbEntity
  8
0
  6
CONTINUOUS
 62
               4
100
AcDbLine
 10
57.5
 20
-55.0
 30
0.0
 11
57.5
 21
-61.5
 31
0.0
  0
LINE
  5
286
100
AcDbEntity
  8
0
  6
CENTER
 62
             200
100
AcDbLine
 10
51.5
 20
-51.75
 30
0.0
 11
51.5
 21
-66.75
 31
0.0
  0
LINE
  5
287
100
AcDbEntity
  8
0
  6
CONTINUOUS
 62
               4
100
AcDbLine
 10
57.399999999999999
 20
-62.299999999999997
 30
0.0
 11
57.399999999999999
 21
-63.5
 31
0.0
  0
LINE
  5
288
100
AcDbEntity
  8
0
  6
CONTINUOUS
 62
               4
100
AcDbLine
 10
55.0
 20
-61.5
 30
0.0
 11
55.0
 21
-62.299999999999997
 31
0.0
  0
LINE
  5
289
100
AcDbEntity
  8
0
  6
CONTINUOUS
 62
               4
100
AcDbLine
 10
56.5
 20
-55.0
 30
0.0
 11
56.5
 21
-61.5
 31
0.0
  0
LINE
  5
28A
100
AcDbEntity
  8
0
  6
CONTINUOUS
 62
               4
100
AcDbLine
 10
57.5
 20
-61.5
 30
0.0
 11
56.5
 21
-61.5
 31
0.0
  0
LINE
  5
28B
100
AcDbEntity
  8
0
  6
CONTINUOUS
 62
               4
100
AcDbLine
 10
58.399999999999999
 20
-63.5
 30
0.0
 11
57.399999999999999
 21
-63.5
 31
0.0
  0
LINE
  5
28C
100
AcDbEntity
  8
0
  6
CONTINUOUS
 62
               4
100
AcDbLine
 10
58.399999999999999
 20
-62.299999999999997
 30
0.0
 11
57.399999999999999
 21
-62.299999999999997
 31
0.0
  0
LINE
  5
28D
100
AcDbEntity
  8
0
  6
CENTER
 62
             200
100
AcDbLine
 10
52.5
 20
-51.75
 30
0.0
 11
52.5
 21
-66.75
 31
0.0
  0
LINE
  5
28E
100
AcDbEntity
  8
0
  6
CONTINUOUS
 62
               4
100
AcDbLine
 10
38.899999999999999
 20
-63.5
 30
0.0
 11
35.149999999999999
 21
-63.5
 31
0.0
  0
LINE
  5
28F
100
AcDbEntity
  8
0
  6
CONTINUOUS
 62
               4
100
AcDbLine
 10
38.899999999999999
 20
-62.299999999999997
 30
0.0
 11
35.149999999999999
 21
-62.299999999999997
 31
0.0
  0
LINE
  5
290
100
AcDbEntity
  8
0
  6
CONTINUOUS
 62
               4
100
AcDbLine
 10
27.100000000000001
 20
-62.299999999999997
 30
0.0
 11
27.100000000000001
 21
-63.5
 31
0.0
  0
LINE
  5
291
100
AcDbEntity
  8
0
  6
CONTINUOUS
 62
               4
100
AcDbLine
 10
29.5
 20
-61.5
 30
0.0
 11
29.5
 21
-62.299999999999997
 31
0.0
  0
LINE
  5
292
100
AcDbEntity
  8
0
  6
CONTINUOUS
 62
               4
100
AcDbLine
 10
38.0
 20
-61.5
 30
0.0
 11
35.149999999999999
 21
-61.5
 31
0.0
  0
LINE
  5
293
100
AcDbEntity
  8
0
  6
CONTINUOUS
 62
               4
100
AcDbLine
 10
28.0
 20
-55.0
 30
0.0
 11
28.0
 21
-61.5
 31
0.0
  0
LINE
  5
294
100
AcDbEntity
  8
0
  6
CONTINUOUS
 62
               4
100
AcDbLine
 10
38.899999999999999
 20
-62.299999999999997
 30
0.0
 11
38.899999999999999
 21
-63.5
 31
0.0
  0
LINE
  5
295
100
AcDbEntity
  8
0
  6
CONTINUOUS
 62
               4
100
AcDbLine
 10
36.5
 20
-61.5
 30
0.0
 11
36.5
 21
-62.299999999999997
 31
0.0
  0
LINE
  5
296
100
AcDbEntity
  8
0
  6
CONTINUOUS
 62
               4
100
AcDbLine
 10
38.0
 20
-55.0
 30
0.0
 11
38.0
 21
-61.5
 31
0.0
  0
LINE
  5
297
100
AcDbEntity
  8
0
  6
CONTINUOUS
 62
               4
100
AcDbLine
 10
49.850000000000001
 20
-63.5
 30
0.0
 11
45.600000000000001
 21
-63.5
 31
0.0
  0
LINE
  5
298
100
AcDbEntity
  8
0
  6
CONTINUOUS
 62
               4
100
AcDbLine
 10
49.850000000000001
 20
-61.5
 30
0.0
 11
46.5
 21
-61.5
 31
0.0
  0
LINE
  5
299
100
AcDbEntity
  8
0
  6
CONTINUOUS
 62
               4
100
AcDbLine
 10
49.850000000000001
 20
-62.299999999999997
 30
0.0
 11
45.600000000000001
 21
-62.299999999999997
 31
0.0
  0
LINE
  5
29A
100
AcDbEntity
  8
0
  6
CONTINUOUS
 62
             200
100
AcDbLine
 10
47.850000000000001
 20
-68.379999999999995
 30
0.0
 11
56.149999999999999
 21
-66.159999999999997
 31
0.0
  0
LINE
  5
29B
100
AcDbEntity
  8
0
  6
CONTINUOUS
 62
             200
100
AcDbLine
 10
47.850000000000001
 20
-66.829999999999998
 30
0.0
 11
56.149999999999999
 21
-64.609999999999999
 31
0.0
  0
LINE
  5
29C
100
AcDbEntity
  8
0
  6
CONTINUOUS
 62
               4
100
AcDbLine
 10
35.149999999999999
 20
-65.140000000000001
 30
0.0
 11
35.149999999999999
 21
-55.5
 31
0.0
  0
LINE
  5
29D
100
AcDbEntity
  8
0
  6
CONTINUOUS
 62
               4
100
AcDbLine
 10
30.850000000000001
 20
-66.299999999999997
 30
0.0
 11
30.850000000000001
 21
-55.5
 31
0.0
  0
LINE
  5
29E
100
AcDbEntity
  8
0
  6
CONTINUOUS
 62
               4
100
AcDbLine
 10
33.450000000000003
 20
-65.599999999999994
 30
0.0
 11
33.450000000000003
 21
-55.5
 31
0.0
  0
LINE
  5
29F
100
AcDbEntity
  8
0
  6
CONTINUOUS
 62
               4
100
AcDbLine
 10
32.549999999999997
 20
-65.840000000000003
 30
0.0
 11
32.549999999999997
 21
-55.5
 31
0.0
  0
LINE
  5
2A0
100
AcDbEntity
  8
0
  6
CONTINUOUS
 62
               4
100
AcDbLine
 10
30.850000000000001
 20
-61.5
 30
0.0
 11
28.0
 21
-61.5
 31
0.0
  0
LINE
  5
2A1
100
AcDbEntity
  8
0
  6
CONTINUOUS
 62
               4
100
AcDbLine
 10
30.850000000000001
 20
-62.299999999999997
 30
0.0
 11
27.100000000000001
 21
-62.299999999999997
 31
0.0
  0
LINE
  5
2A2
100
AcDbEntity
  8
0
  6
CONTINUOUS
 62
               4
100
AcDbLine
 10
30.850000000000001
 20
-63.5
 30
0.0
 11
27.100000000000001
 21
-63.5
 31
0.0
  0
LINE
  5
2A3
100
AcDbEntity
  8
0
  6
CONTINUOUS
 62
               7
100
AcDbLine
 10
5.0
 20
-28.0
 30
0.0
 11
5.0
 21
-55.0
 31
0.0
  0
LINE
  5
2A4
100
AcDbEntity
  8
0
  6
CONTINUOUS
 62
               7
100
AcDbLine
 10
23.0
 20
-28.0
 30
0.0
 11
23.0
 21
-55.0
 31
0.0
  0
LINE
  5
2A5
100
AcDbEntity
  8
0
  6
CONTINUOUS
 62
               7
100
AcDbLine
 10
23.0
 20
-55.0
 30
0.0
 11
16.969999999999999
 21
-55.0
 31
0.0
  0
LINE
  5
2A6
100
AcDbEntity
  8
0
  6
CONTINUOUS
 62
               7
100
AcDbLine
 10
10.970000000000001
 20
-55.0
 30
0.0
 11
5.0
 21
-55.0
 31
0.0
  0
LINE
  5
2A7
100
AcDbEntity
  8
0
  6
CONTINUOUS
 62
               7
100
AcDbLine
 10
23.0
 20
-55.0
 30
0.0
 11
21.5
 21
-53.5
 31
0.0
  0
LINE
  5
2A8
100
AcDbEntity
  8
0
  6
CONTINUOUS
 62
               7
100
AcDbLine
 10
5.0
 20
-54.990000000000002
 30
0.0
 11
6.4900000000000002
 21
-53.490000000000002
 31
0.0
  0
LINE
  5
2A9
100
AcDbEntity
  8
0
  6
CONTINUOUS
 62
               7
100
AcDbLine
 10
5.0
 20
-28.0
 30
0.0
 11
6.5
 21
-29.5
 31
0.0
  0
LINE
  5
2AA
100
AcDbEntity
  8
0
  6
CONTINUOUS
 62
               7
100
AcDbLine
 10
23.0
 20
-28.0
 30
0.0
 11
21.5
 21
-29.5
 31
0.0
  0
LINE
  5
2AB
100
AcDbEntity
  8
0
  6
CONTINUOUS
 62
               7
100
AcDbLine
 10
23.0
 20
-28.0
 30
0.0
 11
5.0
 21
-28.0
 31
0.0
  0
LINE
  5
2AC
100
AcDbEntity
  8
0
  6
CONTINUOUS
 62
               4
100
AcDbLine
 10
16.969999999999999
 20
-53.5
 30
0.0
 11
16.969999999999999
 21
-55.5
 31
0.0
  0
LINE
  5
2AD
100
AcDbEntity
  8
0
  6
CONTINUOUS
 62
               4
100
AcDbLine
 10
16.969999999999999
 20
-55.5
 30
0.0
 11
10.970000000000001
 21
-55.5
 31
0.0
  0
LINE
  5
2AE
100
AcDbEntity
  8
0
  6
CONTINUOUS
 62
               4
100
AcDbLine
 10
10.970000000000001
 20
-53.5
 30
0.0
 11
10.970000000000001
 21
-55.5
 31
0.0
  0
LINE
  5
2AF
100
AcDbEntity
  8
0
  6
CONTINUOUS
 62
               4
100
AcDbLine
 10
12.5
 20
-50.5
 30
0.0
 11
12.5
 21
-53.5
 31
0.0
  0
LINE
  5
2B0
100
AcDbEntity
  8
0
  6
CONTINUOUS
 62
               4
100
AcDbLine
 10
15.5
 20
-32.5
 30
0.0
 11
15.5
 21
-29.5
 31
0.0
  0
LINE
  5
2B1
100
AcDbEntity
  8
0
  6
CONTINUOUS
 62
               4
100
AcDbLine
 10
18.5
 20
-35.5
 30
0.0
 11
21.5
 21
-35.5
 31
0.0
  0
LINE
  5
2B2
100
AcDbEntity
  8
0
  6
CONTINUOUS
 62
               4
100
AcDbLine
 10
9.5
 20
-47.5
 30
0.0
 11
6.5
 21
-47.5
 31
0.0
  0
LINE
  5
2B3
100
AcDbEntity
  8
0
  6
CONTINUOUS
 62
               4
100
AcDbLine
 10
15.5
 20
-30.5
 30
0.0
 11
7.5
 21
-30.5
 31
0.0
  0
LINE
  5
2B4
100
AcDbEntity
  8
0
  6
CONTINUOUS
 62
               4
100
AcDbLine
 10
20.5
 20
-52.5
 30
0.0
 11
12.5
 21
-52.5
 31
0.0
  0
LINE
  5
2B5
100
AcDbEntity
  8
0
  6
CONTINUOUS
 62
               4
100
AcDbLine
 10
20.5
 20
-35.5
 30
0.0
 11
20.5
 21
-52.5
 31
0.0
  0
LINE
  5
2B6
100
AcDbEntity
  8
0
  6
CONTINUOUS
 62
               4
100
AcDbLine
 10
7.5
 20
-30.5
 30
0.0
 11
7.5
 21
-47.5
 31
0.0
  0
LINE
  5
2B7
100
AcDbEntity
  8
0
  6
CONTINUOUS
 62
               4
100
AcDbLine
 10
21.5
 20
-29.5
 30
0.0
 11
6.5
 21
-29.5
 31
0.0
  0
LINE
  5
2B8
100
AcDbEntity
  8
0
  6
CONTINUOUS
 62
               4
100
AcDbLine
 10
21.5
 20
-29.5
 30
0.0
 11
21.5
 21
-53.5
 31
0.0
  0
LINE
  5
2B9
100
AcDbEntity
  8
0
  6
CONTINUOUS
 62
               4
100
AcDbLine
 10
6.5
 20
-29.5
 30
0.0
 11
6.5
 21
-53.5
 31
0.0
  0
LINE
  5
2BA
100
AcDbEntity
  8
0
  6
CONTINUOUS
 62
               4
100
AcDbLine
 10
21.5
 20
-53.5
 30
0.0
 11
6.5
 21
-53.5
 31
0.0
  0
LINE
  5
2BB
100
AcDbEntity
  8
0
  6
CONTINUOUS
 62
               4
100
AcDbLine
 10
17.579999999999998
 20
-33.409999999999997
 30
0.0
 11
19.41
 21
-31.579999999999998
 31
0.0
  0
LINE
  5
2BC
100
AcDbEntity
  8
0
  6
CONTINUOUS
 62
               4
100
AcDbLine
 10
17.579999999999998
 20
-31.579999999999998
 30
0.0
 11
19.41
 21
-33.409999999999997
 31
0.0
  0
LINE
  5
2BD
100
AcDbEntity
  8
0
  6
CONTINUOUS
 62
               4
100
AcDbLine
 10
8.5800000000000001
 20
-49.579999999999998
 30
0.0
 11
10.41
 21
-51.409999999999997
 31
0.0
  0
LINE
  5
2BE
100
AcDbEntity
  8
0
  6
CONTINUOUS
 62
               4
100
AcDbLine
 10
10.41
 20
-49.579999999999998
 30
0.0
 11
8.5800000000000001
 21
-51.409999999999997
 31
0.0
  0
LINE
  5
2BF
100
AcDbEntity
  8
0
  6
CONTINUOUS
 62
               7
100
AcDbLine
 10
24.0
 20
-28.0
 30
0.0
 11
24.0
 21
-55.0
 31
0.0
  0
LINE
  5
2C0
100
AcDbEntity
  8
0
  6
CONTINUOUS
 62
               7
100
AcDbLine
 10
42.0
 20
-28.0
 30
0.0
 11
42.0
 21
-55.0
 31
0.0
  0
LINE
  5
2C1
100
AcDbEntity
  8
0
  6
CONTINUOUS
 62
               7
100
AcDbLine
 10
42.0
 20
-55.0
 30
0.0
 11
35.969999999999999
 21
-55.0
 31
0.0
  0
LINE
  5
2C2
100
AcDbEntity
  8
0
  6
CONTINUOUS
 62
               7
100
AcDbLine
 10
29.969999999999999
 20
-55.0
 30
0.0
 11
24.0
 21
-55.0
 31
0.0
  0
LINE
  5
2C3
100
AcDbEntity
  8
0
  6
CONTINUOUS
 62
               7
100
AcDbLine
 10
42.0
 20
-55.0
 30
0.0
 11
40.5
 21
-53.5
 31
0.0
  0
LINE
  5
2C4
100
AcDbEntity
  8
0
  6
CONTINUOUS
 62
               7
100
AcDbLine
 10
24.0
 20
-54.990000000000002
 30
0.0
 11
25.5
 21
-53.490000000000002
 31
0.0
  0
LINE
  5
2C5
100
AcDbEntity
  8
0
  6
CONTINUOUS
 62
               7
100
AcDbLine
 10
24.0
 20
-28.0
 30
0.0
 11
25.5
 21
-29.5
 31
0.0
  0
LINE
  5
2C6
100
AcDbEntity
  8
0
  6
CONTINUOUS
 62
               7
100
AcDbLine
 10
42.0
 20
-28.0
 30
0.0
 11
40.5
 21
-29.5
 31
0.0
  0
LINE
  5
2C7
100
AcDbEntity
  8
0
  6
CONTINUOUS
 62
               7
100
AcDbLine
 10
42.0
 20
-28.0
 30
0.0
 11
24.0
 21
-28.0
 31
0.0
  0
LINE
  5
2C8
100
AcDbEntity
  8
0
  6
CONTINUOUS
 62
               4
100
AcDbLine
 10
35.969999999999999
 20
-53.5
 30
0.0
 11
35.969999999999999
 21
-55.5
 31
0.0
  0
LINE
  5
2C9
100
AcDbEntity
  8
0
  6
CONTINUOUS
 62
               4
100
AcDbLine
 10
35.969999999999999
 20
-55.5
 30
0.0
 11
29.969999999999999
 21
-55.5
 31
0.0
  0
LINE
  5
2CA
100
AcDbEntity
  8
0
  6
CONTINUOUS
 62
               4
100
AcDbLine
 10
29.969999999999999
 20
-53.5
 30
0.0
 11
29.969999999999999
 21
-55.5
 31
0.0
  0
LINE
  5
2CB
100
AcDbEntity
  8
0
  6
CONTINUOUS
 62
               4
100
AcDbLine
 10
31.5
 20
-50.5
 30
0.0
 11
31.5
 21
-53.5
 31
0.0
  0
LINE
  5
2CC
100
AcDbEntity
  8
0
  6
CONTINUOUS
 62
               4
100
AcDbLine
 10
34.5
 20
-32.5
 30
0.0
 11
34.5
 21
-29.5
 31
0.0
  0
LINE
  5
2CD
100
AcDbEntity
  8
0
  6
CONTINUOUS
 62
               4
100
AcDbLine
 10
37.5
 20
-35.5
 30
0.0
 11
40.5
 21
-35.5
 31
0.0
  0
LINE
  5
2CE
100
AcDbEntity
  8
0
  6
CONTINUOUS
 62
               4
100
AcDbLine
 10
28.5
 20
-47.5
 30
0.0
 11
25.5
 21
-47.5
 31
0.0
  0
LINE
  5
2CF
100
AcDbEntity
  8
0
  6
CONTINUOUS
 62
               4
100
AcDbLine
 10
34.5
 20
-30.5
 30
0.0
 11
26.5
 21
-30.5
 31
0.0
  0
LINE
  5
2D0
100
AcDbEntity
  8
0
  6
CONTINUOUS
 62
               4
100
AcDbLine
 10
39.5
 20
-52.5
 30
0.0
 11
31.5
 21
-52.5
 31
0.0
  0
LINE
  5
2D1
100
AcDbEntity
  8
0
  6
CONTINUOUS
 62
               4
100
AcDbLine
 10
39.5
 20
-35.5
 30
0.0
 11
39.5
 21
-52.5
 31
0.0
  0
LINE
  5
2D2
100
AcDbEntity
  8
0
  6
CONTINUOUS
 62
               4
100
AcDbLine
 10
26.5
 20
-30.5
 30
0.0
 11
26.5
 21
-47.5
 31
0.0
  0
LINE
  5
2D3
100
AcDbEntity
  8
0
  6
CONTINUOUS
 62
               4
100
AcDbLine
 10
40.5
 20
-29.5
 30
0.0
 11
25.5
 21
-29.5
 31
0.0
  0
LINE
  5
2D4
100
AcDbEntity
  8
0
  6
CONTINUOUS
 62
               4
100
AcDbLine
 10
40.5
 20
-29.5
 30
0.0
 11
40.5
 21
-53.5
 31
0.0
  0
LINE
  5
2D5
100
AcDbEntity
  8
0
  6
CONTINUOUS
 62
               4
100
AcDbLine
 10
25.5
 20
-29.5
 30
0.0
 11
25.5
 21
-53.5
 31
0.0
  0
LINE
  5
2D6
100
AcDbEntity
  8
0
  6
CONTINUOUS
 62
               4
100
AcDbLine
 10
40.5
 20
-53.5
 30
0.0
 11
25.5
 21
-53.5
 31
0.0
  0
LINE
  5
2D7
100
AcDbEntity
  8
0
  6
CONTINUOUS
 62
               4
100
AcDbLine
 10
36.579999999999998
 20
-33.409999999999997
 30
0.0
 11
38.409999999999997
 21
-31.579999999999998
 31
0.0
  0
LINE
  5
2D8
100
AcDbEntity
  8
0
  6
CONTINUOUS
 62
               4
100
AcDbLine
 10
36.579999999999998
 20
-31.579999999999998
 30
0.0
 11
38.409999999999997
 21
-33.409999999999997
 31
0.0
  0
LINE
  5
2D9
100
AcDbEntity
  8
0
  6
CONTINUOUS
 62
               4
100
AcDbLine
 10
27.579999999999998
 20
-49.579999999999998
 30
0.0
 11
29.41
 21
-51.409999999999997
 31
0.0
  0
LINE
  5
2DA
100
AcDbEntity
  8
0
  6
CONTINUOUS
 62
               4
100
AcDbLine
 10
29.41
 20
-49.579999999999998
 30
0.0
 11
27.579999999999998
 21
-51.409999999999997
 31
0.0
  0
LINE
  5
2DB
100
AcDbEntity
  8
0
  6
CONTINUOUS
 62
               7
100
AcDbLine
 10
43.0
 20
-28.0
 30
0.0
 11
43.0
 21
-55.0
 31
0.0
  0
LINE
  5
2DC
100
AcDbEntity
  8
0
  6
CONTINUOUS
 62
               7
100
AcDbLine
 10
61.0
 20
-28.0
 30
0.0
 11
61.0
 21
-55.0
 31
0.0
  0
LINE
  5
2DD
100
AcDbEntity
  8
0
  6
CONTINUOUS
 62
               7
100
AcDbLine
 10
61.0
 20
-55.0
 30
0.0
 11
54.969999999999999
 21
-55.0
 31
0.0
  0
LINE
  5
2DE
100
AcDbEntity
  8
0
  6
CONTINUOUS
 62
               7
100
AcDbLine
 10
48.969999999999999
 20
-55.0
 30
0.0
 11
43.0
 21
-55.0
 31
0.0
  0
LINE
  5
2DF
100
AcDbEntity
  8
0
  6
CONTINUOUS
 62
               7
100
AcDbLine
 10
61.0
 20
-54.990000000000002
 30
0.0
 11
59.5
 21
-53.490000000000002
 31
0.0
  0
LINE
  5
2E0
100
AcDbEntity
  8
0
  6
CONTINUOUS
 62
               7
100
AcDbLine
 10
43.0
 20
-54.990000000000002
 30
0.0
 11
44.490000000000002
 21
-53.490000000000002
 31
0.0
  0
LINE
  5
2E1
100
AcDbEntity
  8
0
  6
CONTINUOUS
 62
               7
100
AcDbLine
 10
43.0
 20
-27.989999999999998
 30
0.0
 11
44.5
 21
-29.489999999999998
 31
0.0
  0
LINE
  5
2E2
100
AcDbEntity
  8
0
  6
CONTINUOUS
 62
               7
100
AcDbLine
 10
61.0
 20
-27.989999999999998
 30
0.0
 11
59.5
 21
-29.5
 31
0.0
  0
LINE
  5
2E3
100
AcDbEntity
  8
0
  6
CONTINUOUS
 62
               7
100
AcDbLine
 10
61.0
 20
-28.0
 30
0.0
 11
43.0
 21
-28.0
 31
0.0
  0
LINE
  5
2E4
100
AcDbEntity
  8
0
  6
CONTINUOUS
 62
               4
100
AcDbLine
 10
54.969999999999999
 20
-53.5
 30
0.0
 11
54.969999999999999
 21
-55.5
 31
0.0
  0
LINE
  5
2E5
100
AcDbEntity
  8
0
  6
CONTINUOUS
 62
               4
100
AcDbLine
 10
54.969999999999999
 20
-55.5
 30
0.0
 11
48.969999999999999
 21
-55.5
 31
0.0
  0
LINE
  5
2E6
100
AcDbEntity
  8
0
  6
CONTINUOUS
 62
               4
100
AcDbLine
 10
48.969999999999999
 20
-53.5
 30
0.0
 11
48.969999999999999
 21
-55.5
 31
0.0
  0
LINE
  5
2E7
100
AcDbEntity
  8
0
  6
CONTINUOUS
 62
               4
100
AcDbLine
 10
50.5
 20
-50.5
 30
0.0
 11
50.5
 21
-53.5
 31
0.0
  0
LINE
  5
2E8
100
AcDbEntity
  8
0
  6
CONTINUOUS
 62
               4
100
AcDbLine
 10
53.5
 20
-32.5
 30
0.0
 11
53.5
 21
-29.5
 31
0.0
  0
LINE
  5
2E9
100
AcDbEntity
  8
0
  6
CONTINUOUS
 62
               4
100
AcDbLine
 10
56.5
 20
-35.5
 30
0.0
 11
59.5
 21
-35.5
 31
0.0
  0
LINE
  5
2EA
100
AcDbEntity
  8
0
  6
CONTINUOUS
 62
               4
100
AcDbLine
 10
47.5
 20
-47.5
 30
0.0
 11
44.5
 21
-47.5
 31
0.0
  0
LINE
  5
2EB
100
AcDbEntity
  8
0
  6
CONTINUOUS
 62
               4
100
AcDbLine
 10
53.5
 20
-30.5
 30
0.0
 11
45.5
 21
-30.5
 31
0.0
  0
LINE
  5
2EC
100
AcDbEntity
  8
0
  6
CONTINUOUS
 62
               4
100
AcDbLine
 10
58.5
 20
-52.5
 30
0.0
 11
50.5
 21
-52.5
 31
0.0
  0
LINE
  5
2ED
100
AcDbEntity
  8
0
  6
CONTINUOUS
 62
               4
100
AcDbLine
 10
58.5
 20
-35.5
 30
0.0
 11
58.5
 21
-52.5
 31
0.0
  0
LINE
  5
2EE
100
AcDbEntity
  8
0
  6
CONTINUOUS
 62
               4
100
AcDbLine
 10
45.5
 20
-30.5
 30
0.0
 11
45.5
 21
-47.5
 31
0.0
  0
LINE
  5
2EF
100
AcDbEntity
  8
0
  6
CONTINUOUS
 62
               4
100
AcDbLine
 10
59.5
 20
-29.5
 30
0.0
 11
44.5
 21
-29.5
 31
0.0
  0
LINE
  5
2F0
100
AcDbEntity
  8
0
  6
CONTINUOUS
 62
               4
100
AcDbLine
 10
59.5
 20
-29.5
 30
0.0
 11
59.5
 21
-53.5
 31
0.0
  0
LINE
  5
2F1
100
AcDbEntity
  8
0
  6
CONTINUOUS
 62
               4
100
AcDbLine
 10
44.5
 20
-29.5
 30
0.0
 11
44.5
 21
-53.5
 31
0.0
  0
LINE
  5
2F2
100
AcDbEntity
  8
0
  6
CONTINUOUS
 62
               4
100
AcDbLine
 10
59.5
 20
-53.5
 30
0.0
 11
44.5
 21
-53.5
 31
0.0
  0
LINE
  5
2F3
100
AcDbEntity
  8
0
  6
CONTINUOUS
 62
               4
100
AcDbLine
 10
55.579999999999998
 20
-33.409999999999997
 30
0.0
 11
57.409999999999997
 21
-31.579999999999998
 31
0.0
  0
LINE
  5
2F4
100
AcDbEntity
  8
0
  6
CONTINUOUS
 62
               4
100
AcDbLine
 10
55.579999999999998
 20
-31.579999999999998
 30
0.0
 11
57.409999999999997
 21
-33.409999999999997
 31
0.0
  0
LINE
  5
2F5
100
AcDbEntity
  8
0
  6
CONTINUOUS
 62
               4
100
AcDbLine
 10
46.579999999999998
 20
-49.579999999999998
 30
0.0
 11
48.409999999999997
 21
-51.409999999999997
 31
0.0
  0
LINE
  5
2F6
100
AcDbEntity
  8
0
  6
CONTINUOUS
 62
               4
100
AcDbLine
 10
48.409999999999997
 20
-49.579999999999998
 30
0.0
 11
46.579999999999998
 21
-51.409999999999997
 31
0.0
  0
LINE
  5
2F7
100
AcDbEntity
  8
0
  6
CONTINUOUS
 62
               7
100
AcDbLine
 10
62.0
 20
-28.0
 30
0.0
 11
62.0
 21
-55.0
 31
0.0
  0
LINE
  5
2F8
100
AcDbEntity
  8
0
  6
CONTINUOUS
 62
               7
100
AcDbLine
 10
80.0
 20
-28.0
 30
0.0
 11
80.0
 21
-55.0
 31
0.0
  0
LINE
  5
2F9
100
AcDbEntity
  8
0
  6
CONTINUOUS
 62
               7
100
AcDbLine
 10
80.0
 20
-55.0
 30
0.0
 11
73.969999999999999
 21
-55.0
 31
0.0
  0
LINE
  5
2FA
100
AcDbEntity
  8
0
  6
CONTINUOUS
 62
               7
100
AcDbLine
 10
67.969999999999999
 20
-55.0
 30
0.0
 11
62.0
 21
-55.0
 31
0.0
  0
LINE
  5
2FB
100
AcDbEntity
  8
0
  6
CONTINUOUS
 62
               7
100
AcDbLine
 10
80.0
 20
-54.990000000000002
 30
0.0
 11
78.5
 21
-53.5
 31
0.0
  0
LINE
  5
2FC
100
AcDbEntity
  8
0
  6
CONTINUOUS
 62
               7
100
AcDbLine
 10
62.0
 20
-55.0
 30
0.0
 11
63.5
 21
-53.5
 31
0.0
  0
LINE
  5
2FD
100
AcDbEntity
  8
0
  6
CONTINUOUS
 62
               7
100
AcDbLine
 10
62.0
 20
-27.989999999999998
 30
0.0
 11
63.5
 21
-29.5
 31
0.0
  0
LINE
  5
2FE
100
AcDbEntity
  8
0
  6
CONTINUOUS
 62
               7
100
AcDbLine
 10
80.0
 20
-28.0
 30
0.0
 11
78.5
 21
-29.5
 31
0.0
  0
LINE
  5
2FF
100
AcDbEntity
  8
0
  6
CONTINUOUS
 62
               7
100
AcDbLine
 10
80.0
 20
-28.0
 30
0.0
 11
62.0
 21
-28.0
 31
0.0
  0
LINE
  5
300
100
AcDbEntity
  8
0
  6
CONTINUOUS
 62
               4
100
AcDbLine
 10
73.969999999999999
 20
-53.5
 30
0.0
 11
73.969999999999999
 21
-55.5
 31
0.0
  0
LINE
  5
301
100
AcDbEntity
  8
0
  6
CONTINUOUS
 62
               4
100
AcDbLine
 10
73.969999999999999
 20
-55.5
 30
0.0
 11
67.969999999999999
 21
-55.5
 31
0.0
  0
LINE
  5
302
100
AcDbEntity
  8
0
  6
CONTINUOUS
 62
               4
100
AcDbLine
 10
67.969999999999999
 20
-53.5
 30
0.0
 11
67.969999999999999
 21
-55.5
 31
0.0
  0
LINE
  5
303
100
AcDbEntity
  8
0
  6
CONTINUOUS
 62
               4
100
AcDbLine
 10
69.5
 20
-50.5
 30
0.0
 11
69.5
 21
-53.5
 31
0.0
  0
LINE
  5
304
100
AcDbEntity
  8
0
  6
CONTINUOUS
 62
               4
100
AcDbLine
 10
72.5
 20
-32.5
 30
0.0
 11
72.5
 21
-29.5
 31
0.0
  0
LINE
  5
305
100
AcDbEntity
  8
0
  6
CONTINUOUS
 62
               4
100
AcDbLine
 10
75.5
 20
-35.5
 30
0.0
 11
78.5
 21
-35.5
 31
0.0
  0
LINE
  5
306
100
AcDbEntity
  8
0
  6
CONTINUOUS
 62
               4
100
AcDbLine
 10
66.5
 20
-47.5
 30
0.0
 11
63.5
 21
-47.5
 31
0.0
  0
LINE
  5
307
100
AcDbEntity
  8
0
  6
CONTINUOUS
 62
               4
100
AcDbLine
 10
72.5
 20
-30.5
 30
0.0
 11
64.5
 21
-30.5
 31
0.0
  0
LINE
  5
308
100
AcDbEntity
  8
0
  6
CONTINUOUS
 62
               4
100
AcDbLine
 10
77.5
 20
-52.5
 30
0.0
 11
69.5
 21
-52.5
 31
0.0
  0
LINE
  5
309
100
AcDbEntity
  8
0
  6
CONTINUOUS
 62
               4
100
AcDbLine
 10
77.5
 20
-35.5
 30
0.0
 11
77.5
 21
-52.5
 31
0.0
  0
LINE
  5
30A
100
AcDbEntity
  8
0
  6
CONTINUOUS
 62
               4
100
AcDbLine
 10
64.5
 20
-30.5
 30
0.0
 11
64.5
 21
-47.5
 31
0.0
  0
LINE
  5
30B
100
AcDbEntity
  8
0
  6
CONTINUOUS
 62
               4
100
AcDbLine
 10
78.5
 20
-29.5
 30
0.0
 11
63.5
 21
-29.5
 31
0.0
  0
LINE
  5
30C
100
AcDbEntity
  8
0
  6
CONTINUOUS
 62
               4
100
AcDbLine
 10
78.5
 20
-29.5
 30
0.0
 11
78.5
 21
-53.5
 31
0.0
  0
LINE
  5
30D
100
AcDbEntity
  8
0
  6
CONTINUOUS
 62
               4
100
AcDbLine
 10
63.5
 20
-29.5
 30
0.0
 11
63.5
 21
-53.5
 31
0.0
  0
LINE
  5
30E
100
AcDbEntity
  8
0
  6
CONTINUOUS
 62
               4
100
AcDbLine
 10
78.5
 20
-53.5
 30
0.0
 11
63.5
 21
-53.5
 31
0.0
  0
LINE
  5
30F
100
AcDbEntity
  8
0
  6
CONTINUOUS
 62
               4
100
AcDbLine
 10
74.579999999999998
 20
-33.409999999999997
 30
0.0
 11
76.409999999999997
 21
-31.579999999999998
 31
0.0
  0
LINE
  5
310
100
AcDbEntity
  8
0
  6
CONTINUOUS
 62
               4
100
AcDbLine
 10
74.579999999999998
 20
-31.579999999999998
 30
0.0
 11
76.409999999999997
 21
-33.409999999999997
 31
0.0
  0
LINE
  5
311
100
AcDbEntity
  8
0
  6
CONTINUOUS
 62
               4
100
AcDbLine
 10
65.579999999999998
 20
-49.579999999999998
 30
0.0
 11
67.409999999999997
 21
-51.409999999999997
 31
0.0
  0
LINE
  5
312
100
AcDbEntity
  8
0
  6
CONTINUOUS
 62
               4
100
AcDbLine
 10
67.409999999999997
 20
-49.579999999999998
 30
0.0
 11
65.579999999999998
 21
-51.409999999999997
 31
0.0
  0
LINE
  5
313
100
AcDbEntity
  8
0
  6
CENTER
 62
               2
100
AcDbLine
 10
0.0
 20
4.0
 30
0.0
 11
0.0
 21
-4.0
 31
0.0
  0
LINE
  5
314
100
AcDbEntity
  8
0
  6
CENTER
 62
               2
100
AcDbLine
 10
104.0
 20
4.0
 30
0.0
 11
104.0
 21
-4.0
 31
0.0
  0
ARC
  5
315
100
AcDbEntity
  8
0
  6
CONTINUOUS
 62
               4
100
AcDbCircle
 10
84.0
 20
-29.099960327148438
 30
0.0
 40
4.9979924462512821
100
AcDbArc
 50
235.9286449845807
 51
304.07135501541808
  0
ARC
  5
316
100
AcDbEntity
  8
0
  6
CONTINUOUS
 62
               4
100
AcDbCircle
 10
96.0
 20
-29.099960327148438
 30
0.0
 40
4.9979924462512821
100
AcDbArc
 50
235.9286449845807
 51
304.07135501541808
  0
CIRCLE
  5
317
100
AcDbEntity
  8
0
  6
CONTINUOUS
 62
               4
100
AcDbCircle
 10
18.499984741210938
 20
-32.499954223632812
 30
0.0
 40
2.25
  0
CIRCLE
  5
318
100
AcDbEntity
  8
0
  6
CONTINUOUS
 62
               4
100
AcDbCircle
 10
9.5
 20
-50.499969482421875
 30
0.0
 40
2.25
  0
ARC
  5
319
100
AcDbEntity
  8
0
  6
CONTINUOUS
 62
               4
100
AcDbCircle
 10
9.5000147819518652
 20
-50.499985218048131
 30
0.0
 40
2.9999852180845514
100
AcDbArc
 50
359.99971768412308
 51
90.000282315875793
  0
ARC
  5
31A
100
AcDbEntity
  8
0
  6
CONTINUOUS
 62
               4
100
AcDbCircle
 10
18.500022888193296
 20
-32.499977111806707
 30
0.0
 40
3.0000228882806059
100
AcDbArc
 50
180.00043712895666
 51
269.99956287104226
  0
CIRCLE
  5
31B
100
AcDbEntity
  8
0
  6
CONTINUOUS
 62
               4
100
AcDbCircle
 10
9.5
 20
-50.499969482421875
 30
0.0
 40
2.5500001907348633
  0
CIRCLE
  5
31C
100
AcDbEntity
  8
0
  6
CONTINUOUS
 62
               4
100
AcDbCircle
 10
18.499984741210938
 20
-32.499954223632812
 30
0.0
 40
2.5500001907348633
  0
CIRCLE
  5
31D
100
AcDbEntity
  8
0
  6
CONTINUOUS
 62
               4
100
AcDbCircle
 10
37.499984741210938
 20
-32.499954223632812
 30
0.0
 40
2.25
  0
CIRCLE
  5
31E
100
AcDbEntity
  8
0
  6
CONTINUOUS
 62
               4
100
AcDbCircle
 10
28.5
 20
-50.499969482421875
 30
0.0
 40
2.25
  0
ARC
  5
31F
100
AcDbEntity
  8
0
  6
CONTINUOUS
 62
               4
100
AcDbCircle
 10
28.500007629384829
 20
-50.499992370615168
 30
0.0
 40
2.999992370624871
100
AcDbArc
 50
359.99985428911162
 51
90.000145710887338
  0
ARC
  5
320
100
AcDbEntity
  8
0
  6
CONTINUOUS
 62
               4
100
AcDbCircle
 10
37.500022888193293
 20
-32.499977111806707
 30
0.0
 40
3.0000228882806059
100
AcDbArc
 50
180.00043712895666
 51
269.99956287104231
  0
CIRCLE
  5
321
100
AcDbEntity
  8
0
  6
CONTINUOUS
 62
               4
100
AcDbCircle
 10
28.5
 20
-50.499969482421875
 30
0.0
 40
2.5500001907348633
  0
CIRCLE
  5
322
100
AcDbEntity
  8
0
  6
CONTINUOUS
 62
               4
100
AcDbCircle
 10
37.499984741210938
 20
-32.499954223632812
 30
0.0
 40
2.5500001907348633
  0
CIRCLE
  5
323
100
AcDbEntity
  8
0
  6
CONTINUOUS
 62
               4
100
AcDbCircle
 10
56.5
 20
-32.499969482421875
 30
0.0
 40
2.25
  0
CIRCLE
  5
324
100
AcDbEntity
  8
0
  6
CONTINUOUS
 62
               4
100
AcDbCircle
 10
47.500030517578125
 20
-50.499969482421875
 30
0.0
 40
2.25
  0
ARC
  5
325
100
AcDbEntity
  8
0
  6
CONTINUOUS
 62
               4
100
AcDbCircle
 10
47.500030517578125
 20
-50.499969482421875
 30
0.0
 40
2.9999694825770971
100
AcDbArc
 50
359.99941715126101
 51
90.000582848738006
  0
ARC
  5
326
100
AcDbEntity
  8
0
  6
CONTINUOUS
 62
               4
100
AcDbCircle
 10
56.500022888193293
 20
-32.499977111806707
 30
0.0
 40
3.0000228882806059
100
AcDbArc
 50
180.00043712895666
 51
269.99956287104231
  0
CIRCLE
  5
327
100
AcDbEntity
  8
0
  6
CONTINUOUS
 62
               4
100
AcDbCircle
 10
47.500030517578125
 20
-50.499969482421875
 30
0.0
 40
2.5500001907348633
  0
CIRCLE
  5
328
100
AcDbEntity
  8
0
  6
CONTINUOUS
 62
               4
100
AcDbCircle
 10
56.5
 20
-32.499969482421875
 30
0.0
 40
2.5500001907348633
  0
CIRCLE
  5
329
100
AcDbEntity
  8
0
  6
CONTINUOUS
 62
               4
100
AcDbCircle
 10
75.5
 20
-32.499954223632812
 30
0.0
 40
2.25
  0
CIRCLE
  5
32A
100
AcDbEntity
  8
0
  6
CONTINUOUS
 62
               4
100
AcDbCircle
 10
66.500030517578125
 20
-50.499969482421875
 30
0.0
 40
2.25
  0
ARC
  5
32B
100
AcDbEntity
  8
0
  6
CONTINUOUS
 62
               4
100
AcDbCircle
 10
66.500030517578125
 20
-50.499969482421875
 30
0.0
 40
2.9999694825770971
100
AcDbArc
 50
359.99941715126101
 51
90.000582848738006
  0
ARC
  5
32C
100
AcDbEntity
  8
0
  6
CONTINUOUS
 62
               4
100
AcDbCircle
 10
75.5000228881933
 20
-32.499977111806707
 30
0.0
 40
3.0000228882806059
100
AcDbArc
 50
180.00043712895666
 51
269.9995628710422
  0
CIRCLE
  5
32D
100
AcDbEntity
  8
0
  6
CONTINUOUS
 62
               4
100
AcDbCircle
 10
66.500030517578125
 20
-50.499969482421875
 30
0.0
 40
2.5500001907348633
  0
CIRCLE
  5
32E
100
AcDbEntity
  8
0
  6
CONTINUOUS
 62
               4
100
AcDbCircle
 10
75.5
 20
-32.499954223632812
 30
0.0
 40
2.5500001907348633
  0
ENDBLK
  5
32F
100
AcDbEntity
  8
0
100
AcDbBlockEnd
  0
BLOCK
  5
330
100
AcDbEntity
  8
0
100
AcDbBlockBegin
  2
MS_4
 70
               0
 10
0.0
 20
0.0
 30
0.0
  3
MS_4
  1

  0
LINE
  5
331
100
AcDbEntity
  8
0
  6
CONTINUOUS
 62
               7
100
AcDbLine
 10
-5.0
 20
27.0
 30
0.0
 11
-5.0
 21
0.0
 31
0.0
  0
LINE
  5
332
100
AcDbEntity
  8
0
  6
CONTINUOUS
 62
               7
100
AcDbLine
 10
-5.0
 20
27.0
 30
0.0
 11
109.0
 21
27.0
 31
0.0
  0
LINE
  5
333
100
AcDbEntity
  8
0
  6
CONTINUOUS
 62
               7
100
AcDbLine
 10
109.0
 20
27.0
 30
0.0
 11
109.0
 21
0.0
 31
0.0
  0
LINE
  5
334
100
AcDbEntity
  8
0
  6
CONTINUOUS
 62
               7
100
AcDbLine
 10
-5.0
 20
0.0
 30
0.0
 11
109.0
 21
0.0
 31
0.0
  0
LINE
  5
335
100
AcDbEntity
  8
0
  6
CONTINUOUS
 62
               7
100
AcDbLine
 10
-5.0
 20
18.0
 30
0.0
 11
109.0
 21
18.0
 31
0.0
  0
LINE
  5
336
100
AcDbEntity
  8
0
  6
CONTINUOUS
 62
               7
100
AcDbLine
 10
-5.0
 20
11.0
 30
0.0
 11
109.0
 21
11.0
 31
0.0
  0
LINE
  5
337
100
AcDbEntity
  8
0
  6
CONTINUOUS
 62
               7
100
AcDbLine
 10
22.5
 20
28.0
 30
0.0
 11
22.5
 21
27.0
 31
0.0
  0
LINE
  5
338
100
AcDbEntity
  8
0
  6
CONTINUOUS
 62
               7
100
AcDbLine
 10
5.5
 20
28.0
 30
0.0
 11
5.5
 21
27.0
 31
0.0
  0
LINE
  5
339
100
AcDbEntity
  8
0
  6
CONTINUOUS
 62
               7
100
AcDbLine
 10
41.5
 20
28.0
 30
0.0
 11
41.5
 21
27.0
 31
0.0
  0
LINE
  5
33A
100
AcDbEntity
  8
0
  6
CONTINUOUS
 62
               7
100
AcDbLine
 10
24.5
 20
28.0
 30
0.0
 11
24.5
 21
27.0
 31
0.0
  0
LINE
  5
33B
100
AcDbEntity
  8
0
  6
CONTINUOUS
 62
               7
100
AcDbLine
 10
60.5
 20
28.0
 30
0.0
 11
60.5
 21
27.0
 31
0.0
  0
LINE
  5
33C
100
AcDbEntity
  8
0
  6
CONTINUOUS
 62
               7
100
AcDbLine
 10
43.5
 20
28.0
 30
0.0
 11
43.5
 21
27.0
 31
0.0
  0
LINE
  5
33D
100
AcDbEntity
  8
0
  6
CONTINUOUS
 62
               7
100
AcDbLine
 10
79.5
 20
28.0
 30
0.0
 11
79.5
 21
27.0
 31
0.0
  0
LINE
  5
33E
100
AcDbEntity
  8
0
  6
CONTINUOUS
 62
               7
100
AcDbLine
 10
62.5
 20
28.0
 30
0.0
 11
62.5
 21
27.0
 31
0.0
  0
LINE
  5
33F
100
AcDbEntity
  8
0
  6
CONTINUOUS
 62
               7
100
AcDbLine
 10
98.5
 20
28.0
 30
0.0
 11
98.5
 21
27.0
 31
0.0
  0
LINE
  5
340
100
AcDbEntity
  8
0
  6
CONTINUOUS
 62
               7
100
AcDbLine
 10
81.5
 20
28.0
 30
0.0
 11
81.5
 21
27.0
 31
0.0
  0
LINE
  5
341
100
AcDbEntity
  8
0
  6
CENTER
 62
               2
100
AcDbLine
 10
14.0
 20
23.0
 30
0.0
 11
14.0
 21
75.959999999999994
 31
0.0
  0
LINE
  5
342
100
AcDbEntity
  8
0
  6
CONTINUOUS
 62
               7
100
AcDbLine
 10
23.0
 20
28.0
 30
0.0
 11
23.0
 21
55.0
 31
0.0
  0
LINE
  5
343
100
AcDbEntity
  8
0
  6
CONTINUOUS
 62
               7
100
AcDbLine
 10
5.0
 20
28.0
 30
0.0
 11
5.0
 21
55.0
 31
0.0
  0
LINE
  5
344
100
AcDbEntity
  8
0
  6
CONTINUOUS
 62
               7
100
AcDbLine
 10
5.0
 20
55.0
 30
0.0
 11
23.0
 21
55.0
 31
0.0
  0
LINE
  5
345
100
AcDbEntity
  8
0
  6
CONTINUOUS
 62
               4
100
AcDbLine
 10
14.449999999999999
 20
70.5
 30
0.0
 11
14.449999999999999
 21
67.150000000000006
 31
0.0
  0
LINE
  5
346
100
AcDbEntity
  8
0
  6
CONTINUOUS
 62
               4
100
AcDbLine
 10
16.149999999999999
 20
70.5
 30
0.0
 11
16.149999999999999
 21
66.700000000000003
 31
0.0
  0
LINE
  5
347
100
AcDbEntity
  8
0
  6
CONTINUOUS
 62
               4
100
AcDbLine
 10
14.98
 20
80.5
 30
0.0
 11
14.98
 21
70.5
 31
0.0
  0
LINE
  5
348
100
AcDbEntity
  8
0
  6
CONTINUOUS
 62
               4
100
AcDbLine
 10
15.619999999999999
 20
80.5
 30
0.0
 11
15.619999999999999
 21
70.5
 31
0.0
  0
LINE
  5
349
100
AcDbEntity
  8
0
  6
CONTINUOUS
 62
               4
100
AcDbLine
 10
16.149999999999999
 20
70.5
 30
0.0
 11
14.449999999999999
 21
70.5
 31
0.0
  0
LINE
  5
34A
100
AcDbEntity
  8
0
  6
CONTINUOUS
 62
               4
100
AcDbLine
 10
15.619999999999999
 20
80.5
 30
0.0
 11
14.98
 21
80.5
 31
0.0
  0
LINE
  5
34B
100
AcDbEntity
  8
0
  6
CONTINUOUS
 62
               4
100
AcDbLine
 10
11.85
 20
70.5
 30
0.0
 11
11.85
 21
67.849999999999994
 31
0.0
  0
LINE
  5
34C
100
AcDbEntity
  8
0
  6
CONTINUOUS
 62
               4
100
AcDbLine
 10
13.550000000000001
 20
70.5
 30
0.0
 11
13.550000000000001
 21
67.390000000000001
 31
0.0
  0
LINE
  5
34D
100
AcDbEntity
  8
0
  6
CONTINUOUS
 62
               4
100
AcDbLine
 10
12.380000000000001
 20
80.5
 30
0.0
 11
12.380000000000001
 21
70.5
 31
0.0
  0
LINE
  5
34E
100
AcDbEntity
  8
0
  6
CONTINUOUS
 62
               4
100
AcDbLine
 10
13.02
 20
80.5
 30
0.0
 11
13.02
 21
70.5
 31
0.0
  0
LINE
  5
34F
100
AcDbEntity
  8
0
  6
CONTINUOUS
 62
               4
100
AcDbLine
 10
13.550000000000001
 20
70.5
 30
0.0
 11
11.85
 21
70.5
 31
0.0
  0
LINE
  5
350
100
AcDbEntity
  8
0
  6
CONTINUOUS
 62
               4
100
AcDbLine
 10
13.02
 20
80.5
 30
0.0
 11
12.380000000000001
 21
80.5
 31
0.0
  0
LINE
  5
351
100
AcDbEntity
  8
0
  6
CONTINUOUS
 62
             200
100
AcDbLine
 10
9.8499999999999996
 20
66.829999999999998
 30
0.0
 11
18.149999999999999
 21
64.609999999999999
 31
0.0
  0
LINE
  5
352
100
AcDbEntity
  8
0
  6
CONTINUOUS
 62
             200
100
AcDbLine
 10
9.8499999999999996
 20
68.379999999999995
 30
0.0
 11
18.149999999999999
 21
66.159999999999997
 31
0.0
  0
LINE
  5
353
100
AcDbEntity
  8
0
  6
CONTINUOUS
 62
               4
100
AcDbLine
 10
11.85
 20
66.299999999999997
 30
0.0
 11
11.85
 21
55.5
 31
0.0
  0
LINE
  5
354
100
AcDbEntity
  8
0
  6
CONTINUOUS
 62
               4
100
AcDbLine
 10
13.550000000000001
 20
65.840000000000003
 30
0.0
 11
13.550000000000001
 21
55.5
 31
0.0
  0
LINE
  5
355
100
AcDbEntity
  8
0
  6
CONTINUOUS
 62
               4
100
AcDbLine
 10
14.449999999999999
 20
65.599999999999994
 30
0.0
 11
14.449999999999999
 21
55.5
 31
0.0
  0
LINE
  5
356
100
AcDbEntity
  8
0
  6
CONTINUOUS
 62
               4
100
AcDbLine
 10
16.149999999999999
 20
65.140000000000001
 30
0.0
 11
16.149999999999999
 21
55.5
 31
0.0
  0
LINE
  5
357
100
AcDbEntity
  8
0
  6
CONTINUOUS
 62
               4
100
AcDbLine
 10
11.0
 20
55.5
 30
0.0
 11
17.0
 21
55.5
 31
0.0
  0
LINE
  5
358
100
AcDbEntity
  8
0
  6
CONTINUOUS
 62
               7
100
AcDbLine
 10
5.0
 20
28.0
 30
0.0
 11
23.0
 21
28.0
 31
0.0
  0
LINE
  5
359
100
AcDbEntity
  8
0
  6
CONTINUOUS
 62
               7
100
AcDbLine
 10
7.0800000000000001
 20
51.079999999999998
 30
0.0
 11
8.9100000000000001
 21
52.909999999999997
 31
0.0
  0
LINE
  5
35A
100
AcDbEntity
  8
0
  6
CONTINUOUS
 62
               7
100
AcDbLine
 10
7.0800000000000001
 20
52.909999999999997
 30
0.0
 11
8.9100000000000001
 21
51.079999999999998
 31
0.0
  0
LINE
  5
35B
100
AcDbEntity
  8
0
  6
CONTINUOUS
 62
               7
100
AcDbLine
 10
19.079999999999998
 20
31.91
 30
0.0
 11
20.91
 21
30.079999999999998
 31
0.0
  0
LINE
  5
35C
100
AcDbEntity
  8
0
  6
CONTINUOUS
 62
               7
100
AcDbLine
 10
19.079999999999998
 20
30.079999999999998
 30
0.0
 11
20.91
 21
31.91
 31
0.0
  0
LINE
  5
35D
100
AcDbEntity
  8
0
  6
CONTINUOUS
 62
               4
100
AcDbLine
 10
11.0
 20
55.0
 30
0.0
 11
11.0
 21
55.5
 31
0.0
  0
LINE
  5
35E
100
AcDbEntity
  8
0
  6
CONTINUOUS
 62
               4
100
AcDbLine
 10
17.0
 20
55.0
 30
0.0
 11
17.0
 21
55.5
 31
0.0
  0
LINE
  5
35F
100
AcDbEntity
  8
0
  6
CENTER
 62
               2
100
AcDbLine
 10
33.0
 20
23.0
 30
0.0
 11
33.0
 21
75.959999999999994
 31
0.0
  0
LINE
  5
360
100
AcDbEntity
  8
0
  6
CONTINUOUS
 62
               7
100
AcDbLine
 10
42.0
 20
28.0
 30
0.0
 11
42.0
 21
55.0
 31
0.0
  0
LINE
  5
361
100
AcDbEntity
  8
0
  6
CONTINUOUS
 62
               7
100
AcDbLine
 10
24.0
 20
28.0
 30
0.0
 11
24.0
 21
55.0
 31
0.0
  0
LINE
  5
362
100
AcDbEntity
  8
0
  6
CONTINUOUS
 62
               7
100
AcDbLine
 10
24.0
 20
55.0
 30
0.0
 11
42.0
 21
55.0
 31
0.0
  0
LINE
  5
363
100
AcDbEntity
  8
0
  6
CONTINUOUS
 62
               4
100
AcDbLine
 10
33.450000000000003
 20
70.5
 30
0.0
 11
33.450000000000003
 21
67.150000000000006
 31
0.0
  0
LINE
  5
364
100
AcDbEntity
  8
0
  6
CONTINUOUS
 62
               4
100
AcDbLine
 10
35.149999999999999
 20
70.5
 30
0.0
 11
35.149999999999999
 21
66.700000000000003
 31
0.0
  0
LINE
  5
365
100
AcDbEntity
  8
0
  6
CONTINUOUS
 62
               4
100
AcDbLine
 10
33.979999999999997
 20
80.5
 30
0.0
 11
33.979999999999997
 21
70.5
 31
0.0
  0
LINE
  5
366
100
AcDbEntity
  8
0
  6
CONTINUOUS
 62
               4
100
AcDbLine
 10
34.619999999999997
 20
80.5
 30
0.0
 11
34.619999999999997
 21
70.5
 31
0.0
  0
LINE
  5
367
100
AcDbEntity
  8
0
  6
CONTINUOUS
 62
               4
100
AcDbLine
 10
35.149999999999999
 20
70.5
 30
0.0
 11
33.450000000000003
 21
70.5
 31
0.0
  0
LINE
  5
368
100
AcDbEntity
  8
0
  6
CONTINUOUS
 62
               4
100
AcDbLine
 10
34.619999999999997
 20
80.5
 30
0.0
 11
33.979999999999997
 21
80.5
 31
0.0
  0
LINE
  5
369
100
AcDbEntity
  8
0
  6
CONTINUOUS
 62
               4
100
AcDbLine
 10
30.850000000000001
 20
70.5
 30
0.0
 11
30.850000000000001
 21
67.849999999999994
 31
0.0
  0
LINE
  5
36A
100
AcDbEntity
  8
0
  6
CONTINUOUS
 62
               4
100
AcDbLine
 10
32.549999999999997
 20
70.5
 30
0.0
 11
32.549999999999997
 21
67.390000000000001
 31
0.0
  0
LINE
  5
36B
100
AcDbEntity
  8
0
  6
CONTINUOUS
 62
               4
100
AcDbLine
 10
31.379999999999999
 20
80.5
 30
0.0
 11
31.379999999999999
 21
70.5
 31
0.0
  0
LINE
  5
36C
100
AcDbEntity
  8
0
  6
CONTINUOUS
 62
               4
100
AcDbLine
 10
32.020000000000003
 20
80.5
 30
0.0
 11
32.020000000000003
 21
70.5
 31
0.0
  0
LINE
  5
36D
100
AcDbEntity
  8
0
  6
CONTINUOUS
 62
               4
100
AcDbLine
 10
32.549999999999997
 20
70.5
 30
0.0
 11
30.850000000000001
 21
70.5
 31
0.0
  0
LINE
  5
36E
100
AcDbEntity
  8
0
  6
CONTINUOUS
 62
               4
100
AcDbLine
 10
32.020000000000003
 20
80.5
 30
0.0
 11
31.379999999999999
 21
80.5
 31
0.0
  0
LINE
  5
36F
100
AcDbEntity
  8
0
  6
CONTINUOUS
 62
               7
100
AcDbLine
 10
24.0
 20
28.0
 30
0.0
 11
42.0
 21
28.0
 31
0.0
  0
LINE
  5
370
100
AcDbEntity
  8
0
  6
CONTINUOUS
 62
               7
100
AcDbLine
 10
26.079999999999998
 20
51.079999999999998
 30
0.0
 11
27.91
 21
52.909999999999997
 31
0.0
  0
LINE
  5
371
100
AcDbEntity
  8
0
  6
CONTINUOUS
 62
               7
100
AcDbLine
 10
26.079999999999998
 20
52.909999999999997
 30
0.0
 11
27.91
 21
51.079999999999998
 31
0.0
  0
LINE
  5
372
100
AcDbEntity
  8
0
  6
CONTINUOUS
 62
               7
100
AcDbLine
 10
38.079999999999998
 20
31.91
 30
0.0
 11
39.909999999999997
 21
30.079999999999998
 31
0.0
  0
LINE
  5
373
100
AcDbEntity
  8
0
  6
CONTINUOUS
 62
               7
100
AcDbLine
 10
38.079999999999998
 20
30.079999999999998
 30
0.0
 11
39.909999999999997
 21
31.91
 31
0.0
  0
LINE
  5
374
100
AcDbEntity
  8
0
  6
CENTER
 62
               2
100
AcDbLine
 10
52.0
 20
75.959999999999994
 30
0.0
 11
52.0
 21
23.0
 31
0.0
  0
LINE
  5
375
100
AcDbEntity
  8
0
  6
CONTINUOUS
 62
               7
100
AcDbLine
 10
61.0
 20
28.0
 30
0.0
 11
61.0
 21
55.0
 31
0.0
  0
LINE
  5
376
100
AcDbEntity
  8
0
  6
CONTINUOUS
 62
               7
100
AcDbLine
 10
43.0
 20
28.0
 30
0.0
 11
43.0
 21
55.0
 31
0.0
  0
LINE
  5
377
100
AcDbEntity
  8
0
  6
CONTINUOUS
 62
               7
100
AcDbLine
 10
43.0
 20
55.0
 30
0.0
 11
49.020000000000003
 21
55.0
 31
0.0
  0
LINE
  5
378
100
AcDbEntity
  8
0
  6
CONTINUOUS
 62
               7
100
AcDbLine
 10
55.020000000000003
 20
55.0
 30
0.0
 11
61.0
 21
55.0
 31
0.0
  0
LINE
  5
379
100
AcDbEntity
  8
0
  6
CONTINUOUS
 62
               7
100
AcDbLine
 10
42.990000000000002
 20
55.0
 30
0.0
 11
44.490000000000002
 21
53.5
 31
0.0
  0
LINE
  5
37A
100
AcDbEntity
  8
0
  6
CONTINUOUS
 62
               7
100
AcDbLine
 10
61.0
 20
54.990000000000002
 30
0.0
 11
59.5
 21
53.490000000000002
 31
0.0
  0
LINE
  5
37B
100
AcDbEntity
  8
0
  6
CONTINUOUS
 62
               7
100
AcDbLine
 10
61.0
 20
27.989999999999998
 30
0.0
 11
59.490000000000002
 21
29.489999999999998
 31
0.0
  0
LINE
  5
37C
100
AcDbEntity
  8
0
  6
CONTINUOUS
 62
               7
100
AcDbLine
 10
43.0
 20
27.989999999999998
 30
0.0
 11
44.5
 21
29.5
 31
0.0
  0
LINE
  5
37D
100
AcDbEntity
  8
0
  6
CONTINUOUS
 62
               7
100
AcDbLine
 10
43.0
 20
28.0
 30
0.0
 11
61.0
 21
28.0
 31
0.0
  0
LINE
  5
37E
100
AcDbEntity
  8
0
  6
CONTINUOUS
 62
               4
100
AcDbLine
 10
52.450000000000003
 20
70.5
 30
0.0
 11
52.450000000000003
 21
67.150000000000006
 31
0.0
  0
LINE
  5
37F
100
AcDbEntity
  8
0
  6
CONTINUOUS
 62
               4
100
AcDbLine
 10
54.149999999999999
 20
70.5
 30
0.0
 11
54.149999999999999
 21
66.700000000000003
 31
0.0
  0
LINE
  5
380
100
AcDbEntity
  8
0
  6
CONTINUOUS
 62
               4
100
AcDbLine
 10
52.979999999999997
 20
80.5
 30
0.0
 11
52.979999999999997
 21
70.5
 31
0.0
  0
LINE
  5
381
100
AcDbEntity
  8
0
  6
CONTINUOUS
 62
               4
100
AcDbLine
 10
53.619999999999997
 20
80.5
 30
0.0
 11
53.619999999999997
 21
70.5
 31
0.0
  0
LINE
  5
382
100
AcDbEntity
  8
0
  6
CONTINUOUS
 62
               4
100
AcDbLine
 10
54.149999999999999
 20
70.5
 30
0.0
 11
52.450000000000003
 21
70.5
 31
0.0
  0
LINE
  5
383
100
AcDbEntity
  8
0
  6
CONTINUOUS
 62
               4
100
AcDbLine
 10
53.619999999999997
 20
80.5
 30
0.0
 11
52.979999999999997
 21
80.5
 31
0.0
  0
LINE
  5
384
100
AcDbEntity
  8
0
  6
CONTINUOUS
 62
               4
100
AcDbLine
 10
49.850000000000001
 20
70.5
 30
0.0
 11
49.850000000000001
 21
67.849999999999994
 31
0.0
  0
LINE
  5
385
100
AcDbEntity
  8
0
  6
CONTINUOUS
 62
               4
100
AcDbLine
 10
51.549999999999997
 20
70.5
 30
0.0
 11
51.549999999999997
 21
67.390000000000001
 31
0.0
  0
LINE
  5
386
100
AcDbEntity
  8
0
  6
CONTINUOUS
 62
               4
100
AcDbLine
 10
50.380000000000003
 20
80.5
 30
0.0
 11
50.380000000000003
 21
70.5
 31
0.0
  0
LINE
  5
387
100
AcDbEntity
  8
0
  6
CONTINUOUS
 62
               4
100
AcDbLine
 10
51.020000000000003
 20
80.5
 30
0.0
 11
51.020000000000003
 21
70.5
 31
0.0
  0
LINE
  5
388
100
AcDbEntity
  8
0
  6
CONTINUOUS
 62
               4
100
AcDbLine
 10
51.549999999999997
 20
70.5
 30
0.0
 11
49.850000000000001
 21
70.5
 31
0.0
  0
LINE
  5
389
100
AcDbEntity
  8
0
  6
CONTINUOUS
 62
               4
100
AcDbLine
 10
51.020000000000003
 20
80.5
 30
0.0
 11
50.380000000000003
 21
80.5
 31
0.0
  0
LINE
  5
38A
100
AcDbEntity
  8
0
  6
CONTINUOUS
 62
             200
100
AcDbLine
 10
28.850000000000001
 20
66.829999999999998
 30
0.0
 11
37.149999999999999
 21
64.609999999999999
 31
0.0
  0
LINE
  5
38B
100
AcDbEntity
  8
0
  6
CONTINUOUS
 62
             200
100
AcDbLine
 10
28.850000000000001
 20
68.379999999999995
 30
0.0
 11
37.149999999999999
 21
66.159999999999997
 31
0.0
  0
LINE
  5
38C
100
AcDbEntity
  8
0
  6
CONTINUOUS
 62
               4
100
AcDbLine
 10
49.850000000000001
 20
66.290000000000006
 30
0.0
 11
49.850000000000001
 21
55.5
 31
0.0
  0
LINE
  5
38D
100
AcDbEntity
  8
0
  6
CONTINUOUS
 62
               4
100
AcDbLine
 10
51.549999999999997
 20
65.840000000000003
 30
0.0
 11
51.549999999999997
 21
55.509999999999998
 31
0.0
  0
LINE
  5
38E
100
AcDbEntity
  8
0
  6
CONTINUOUS
 62
               4
100
AcDbLine
 10
52.450000000000003
 20
65.599999999999994
 30
0.0
 11
52.450000000000003
 21
55.5
 31
0.0
  0
LINE
  5
38F
100
AcDbEntity
  8
0
  6
CONTINUOUS
 62
               4
100
AcDbLine
 10
54.149999999999999
 20
65.140000000000001
 30
0.0
 11
54.149999999999999
 21
55.5
 31
0.0
  0
LINE
  5
390
100
AcDbEntity
  8
0
  6
CONTINUOUS
 62
               4
100
AcDbLine
 10
49.020000000000003
 20
53.5
 30
0.0
 11
49.020000000000003
 21
55.5
 31
0.0
  0
LINE
  5
391
100
AcDbEntity
  8
0
  6
CONTINUOUS
 62
               4
100
AcDbLine
 10
49.020000000000003
 20
55.5
 30
0.0
 11
55.020000000000003
 21
55.5
 31
0.0
  0
LINE
  5
392
100
AcDbEntity
  8
0
  6
CONTINUOUS
 62
               4
100
AcDbLine
 10
55.020000000000003
 20
53.5
 30
0.0
 11
55.020000000000003
 21
55.5
 31
0.0
  0
LINE
  5
393
100
AcDbEntity
  8
0
  6
CONTINUOUS
 62
               4
100
AcDbLine
 10
53.5
 20
50.5
 30
0.0
 11
53.5
 21
53.5
 31
0.0
  0
LINE
  5
394
100
AcDbEntity
  8
0
  6
CONTINUOUS
 62
               4
100
AcDbLine
 10
50.5
 20
32.5
 30
0.0
 11
50.5
 21
29.5
 31
0.0
  0
LINE
  5
395
100
AcDbEntity
  8
0
  6
CONTINUOUS
 62
               4
100
AcDbLine
 10
47.5
 20
35.5
 30
0.0
 11
44.5
 21
35.5
 31
0.0
  0
LINE
  5
396
100
AcDbEntity
  8
0
  6
CONTINUOUS
 62
               4
100
AcDbLine
 10
56.5
 20
47.5
 30
0.0
 11
59.5
 21
47.5
 31
0.0
  0
LINE
  5
397
100
AcDbEntity
  8
0
  6
CONTINUOUS
 62
               4
100
AcDbLine
 10
50.5
 20
30.5
 30
0.0
 11
58.5
 21
30.5
 31
0.0
  0
LINE
  5
398
100
AcDbEntity
  8
0
  6
CONTINUOUS
 62
               4
100
AcDbLine
 10
45.5
 20
52.5
 30
0.0
 11
53.5
 21
52.5
 31
0.0
  0
LINE
  5
399
100
AcDbEntity
  8
0
  6
CONTINUOUS
 62
               4
100
AcDbLine
 10
45.5
 20
35.5
 30
0.0
 11
45.5
 21
52.5
 31
0.0
  0
LINE
  5
39A
100
AcDbEntity
  8
0
  6
CONTINUOUS
 62
               4
100
AcDbLine
 10
58.5
 20
30.5
 30
0.0
 11
58.5
 21
47.5
 31
0.0
  0
LINE
  5
39B
100
AcDbEntity
  8
0
  6
CONTINUOUS
 62
               4
100
AcDbLine
 10
44.5
 20
29.5
 30
0.0
 11
59.5
 21
29.5
 31
0.0
  0
LINE
  5
39C
100
AcDbEntity
  8
0
  6
CONTINUOUS
 62
               4
100
AcDbLine
 10
44.5
 20
29.5
 30
0.0
 11
44.5
 21
53.5
 31
0.0
  0
LINE
  5
39D
100
AcDbEntity
  8
0
  6
CONTINUOUS
 62
               4
100
AcDbLine
 10
59.5
 20
29.5
 30
0.0
 11
59.5
 21
53.5
 31
0.0
  0
LINE
  5
39E
100
AcDbEntity
  8
0
  6
CONTINUOUS
 62
               4
100
AcDbLine
 10
44.5
 20
53.5
 30
0.0
 11
59.5
 21
53.5
 31
0.0
  0
LINE
  5
39F
100
AcDbEntity
  8
0
  6
CONTINUOUS
 62
               4
100
AcDbLine
 10
48.409999999999997
 20
33.409999999999997
 30
0.0
 11
46.579999999999998
 21
31.579999999999998
 31
0.0
  0
LINE
  5
3A0
100
AcDbEntity
  8
0
  6
CONTINUOUS
 62
               4
100
AcDbLine
 10
48.409999999999997
 20
31.579999999999998
 30
0.0
 11
46.579999999999998
 21
33.409999999999997
 31
0.0
  0
LINE
  5
3A1
100
AcDbEntity
  8
0
  6
CONTINUOUS
 62
               4
100
AcDbLine
 10
57.409999999999997
 20
49.579999999999998
 30
0.0
 11
55.579999999999998
 21
51.409999999999997
 31
0.0
  0
LINE
  5
3A2
100
AcDbEntity
  8
0
  6
CONTINUOUS
 62
               4
100
AcDbLine
 10
55.579999999999998
 20
49.579999999999998
 30
0.0
 11
57.409999999999997
 21
51.409999999999997
 31
0.0
  0
LINE
  5
3A3
100
AcDbEntity
  8
0
  6
CENTER
 62
               2
100
AcDbLine
 10
71.0
 20
75.959999999999994
 30
0.0
 11
71.0
 21
23.0
 31
0.0
  0
LINE
  5
3A4
100
AcDbEntity
  8
0
  6
CONTINUOUS
 62
               7
100
AcDbLine
 10
80.0
 20
28.0
 30
0.0
 11
80.0
 21
55.0
 31
0.0
  0
LINE
  5
3A5
100
AcDbEntity
  8
0
  6
CONTINUOUS
 62
               7
100
AcDbLine
 10
62.0
 20
28.0
 30
0.0
 11
62.0
 21
55.0
 31
0.0
  0
LINE
  5
3A6
100
AcDbEntity
  8
0
  6
CONTINUOUS
 62
               7
100
AcDbLine
 10
62.0
 20
55.0
 30
0.0
 11
68.019999999999996
 21
55.0
 31
0.0
  0
LINE
  5
3A7
100
AcDbEntity
  8
0
  6
CONTINUOUS
 62
               7
100
AcDbLine
 10
74.019999999999996
 20
55.0
 30
0.0
 11
80.0
 21
55.0
 31
0.0
  0
LINE
  5
3A8
100
AcDbEntity
  8
0
  6
CONTINUOUS
 62
               7
100
AcDbLine
 10
62.0
 20
55.0
 30
0.0
 11
63.5
 21
53.5
 31
0.0
  0
LINE
  5
3A9
100
AcDbEntity
  8
0
  6
CONTINUOUS
 62
               7
100
AcDbLine
 10
80.0
 20
55.0
 30
0.0
 11
78.5
 21
53.5
 31
0.0
  0
LINE
  5
3AA
100
AcDbEntity
  8
0
  6
CONTINUOUS
 62
               7
100
AcDbLine
 10
80.0
 20
28.0
 30
0.0
 11
78.5
 21
29.5
 31
0.0
  0
LINE
  5
3AB
100
AcDbEntity
  8
0
  6
CONTINUOUS
 62
               7
100
AcDbLine
 10
62.0
 20
28.0
 30
0.0
 11
63.5
 21
29.5
 31
0.0
  0
LINE
  5
3AC
100
AcDbEntity
  8
0
  6
CONTINUOUS
 62
               7
100
AcDbLine
 10
62.0
 20
28.0
 30
0.0
 11
80.0
 21
28.0
 31
0.0
  0
LINE
  5
3AD
100
AcDbEntity
  8
0
  6
CONTINUOUS
 62
               4
100
AcDbLine
 10
71.450000000000003
 20
70.5
 30
0.0
 11
71.450000000000003
 21
67.150000000000006
 31
0.0
  0
LINE
  5
3AE
100
AcDbEntity
  8
0
  6
CONTINUOUS
 62
               4
100
AcDbLine
 10
73.150000000000006
 20
70.5
 30
0.0
 11
73.150000000000006
 21
66.700000000000003
 31
0.0
  0
LINE
  5
3AF
100
AcDbEntity
  8
0
  6
CONTINUOUS
 62
               4
100
AcDbLine
 10
71.980000000000004
 20
80.5
 30
0.0
 11
71.980000000000004
 21
70.5
 31
0.0
  0
LINE
  5
3B0
100
AcDbEntity
  8
0
  6
CONTINUOUS
 62
               4
100
AcDbLine
 10
72.620000000000005
 20
80.5
 30
0.0
 11
72.620000000000005
 21
70.5
 31
0.0
  0
LINE
  5
3B1
100
AcDbEntity
  8
0
  6
CONTINUOUS
 62
               4
100
AcDbLine
 10
73.150000000000006
 20
70.5
 30
0.0
 11
71.450000000000003
 21
70.5
 31
0.0
  0
LINE
  5
3B2
100
AcDbEntity
  8
0
  6
CONTINUOUS
 62
               4
100
AcDbLine
 10
72.620000000000005
 20
80.5
 30
0.0
 11
71.980000000000004
 21
80.5
 31
0.0
  0
LINE
  5
3B3
100
AcDbEntity
  8
0
  6
CONTINUOUS
 62
               4
100
AcDbLine
 10
68.849999999999994
 20
70.5
 30
0.0
 11
68.849999999999994
 21
67.849999999999994
 31
0.0
  0
LINE
  5
3B4
100
AcDbEntity
  8
0
  6
CONTINUOUS
 62
               4
100
AcDbLine
 10
70.549999999999997
 20
70.5
 30
0.0
 11
70.549999999999997
 21
67.390000000000001
 31
0.0
  0
LINE
  5
3B5
100
AcDbEntity
  8
0
  6
CONTINUOUS
 62
               4
100
AcDbLine
 10
69.379999999999995
 20
80.5
 30
0.0
 11
69.379999999999995
 21
70.5
 31
0.0
  0
LINE
  5
3B6
100
AcDbEntity
  8
0
  6
CONTINUOUS
 62
               4
100
AcDbLine
 10
70.019999999999996
 20
80.5
 30
0.0
 11
70.019999999999996
 21
70.5
 31
0.0
  0
LINE
  5
3B7
100
AcDbEntity
  8
0
  6
CONTINUOUS
 62
               4
100
AcDbLine
 10
70.549999999999997
 20
70.5
 30
0.0
 11
68.849999999999994
 21
70.5
 31
0.0
  0
LINE
  5
3B8
100
AcDbEntity
  8
0
  6
CONTINUOUS
 62
               4
100
AcDbLine
 10
70.019999999999996
 20
80.5
 30
0.0
 11
69.379999999999995
 21
80.5
 31
0.0
  0
LINE
  5
3B9
100
AcDbEntity
  8
0
  6
CONTINUOUS
 62
             200
100
AcDbLine
 10
66.849999999999994
 20
66.829999999999998
 30
0.0
 11
75.150000000000006
 21
64.609999999999999
 31
0.0
  0
LINE
  5
3BA
100
AcDbEntity
  8
0
  6
CONTINUOUS
 62
             200
100
AcDbLine
 10
66.849999999999994
 20
68.379999999999995
 30
0.0
 11
75.150000000000006
 21
66.159999999999997
 31
0.0
  0
LINE
  5
3BB
100
AcDbEntity
  8
0
  6
CONTINUOUS
 62
               4
100
AcDbLine
 10
68.849999999999994
 20
66.290000000000006
 30
0.0
 11
68.849999999999994
 21
55.5
 31
0.0
  0
LINE
  5
3BC
100
AcDbEntity
  8
0
  6
CONTINUOUS
 62
               4
100
AcDbLine
 10
70.549999999999997
 20
65.840000000000003
 30
0.0
 11
70.549999999999997
 21
55.5
 31
0.0
  0
LINE
  5
3BD
100
AcDbEntity
  8
0
  6
CONTINUOUS
 62
               4
100
AcDbLine
 10
71.450000000000003
 20
65.599999999999994
 30
0.0
 11
71.450000000000003
 21
55.5
 31
0.0
  0
LINE
  5
3BE
100
AcDbEntity
  8
0
  6
CONTINUOUS
 62
               4
100
AcDbLine
 10
73.150000000000006
 20
65.140000000000001
 30
0.0
 11
73.150000000000006
 21
55.5
 31
0.0
  0
LINE
  5
3BF
100
AcDbEntity
  8
0
  6
CONTINUOUS
 62
               4
100
AcDbLine
 10
68.019999999999996
 20
53.5
 30
0.0
 11
68.019999999999996
 21
55.5
 31
0.0
  0
LINE
  5
3C0
100
AcDbEntity
  8
0
  6
CONTINUOUS
 62
               4
100
AcDbLine
 10
68.019999999999996
 20
55.5
 30
0.0
 11
74.019999999999996
 21
55.5
 31
0.0
  0
LINE
  5
3C1
100
AcDbEntity
  8
0
  6
CONTINUOUS
 62
               4
100
AcDbLine
 10
74.019999999999996
 20
53.5
 30
0.0
 11
74.019999999999996
 21
55.5
 31
0.0
  0
LINE
  5
3C2
100
AcDbEntity
  8
0
  6
CONTINUOUS
 62
               4
100
AcDbLine
 10
72.5
 20
50.5
 30
0.0
 11
72.5
 21
53.5
 31
0.0
  0
LINE
  5
3C3
100
AcDbEntity
  8
0
  6
CONTINUOUS
 62
               4
100
AcDbLine
 10
69.5
 20
32.5
 30
0.0
 11
69.5
 21
29.5
 31
0.0
  0
LINE
  5
3C4
100
AcDbEntity
  8
0
  6
CONTINUOUS
 62
               4
100
AcDbLine
 10
66.5
 20
35.5
 30
0.0
 11
63.5
 21
35.5
 31
0.0
  0
LINE
  5
3C5
100
AcDbEntity
  8
0
  6
CONTINUOUS
 62
               4
100
AcDbLine
 10
75.5
 20
47.5
 30
0.0
 11
78.5
 21
47.5
 31
0.0
  0
LINE
  5
3C6
100
AcDbEntity
  8
0
  6
CONTINUOUS
 62
               4
100
AcDbLine
 10
69.5
 20
30.5
 30
0.0
 11
77.5
 21
30.5
 31
0.0
  0
LINE
  5
3C7
100
AcDbEntity
  8
0
  6
CONTINUOUS
 62
               4
100
AcDbLine
 10
64.5
 20
52.5
 30
0.0
 11
72.5
 21
52.5
 31
0.0
  0
LINE
  5
3C8
100
AcDbEntity
  8
0
  6
CONTINUOUS
 62
               4
100
AcDbLine
 10
64.5
 20
35.5
 30
0.0
 11
64.5
 21
52.5
 31
0.0
  0
LINE
  5
3C9
100
AcDbEntity
  8
0
  6
CONTINUOUS
 62
               4
100
AcDbLine
 10
77.5
 20
30.5
 30
0.0
 11
77.5
 21
47.5
 31
0.0
  0
LINE
  5
3CA
100
AcDbEntity
  8
0
  6
CONTINUOUS
 62
               4
100
AcDbLine
 10
63.5
 20
29.5
 30
0.0
 11
78.5
 21
29.5
 31
0.0
  0
LINE
  5
3CB
100
AcDbEntity
  8
0
  6
CONTINUOUS
 62
               4
100
AcDbLine
 10
63.5
 20
29.5
 30
0.0
 11
63.5
 21
53.5
 31
0.0
  0
LINE
  5
3CC
100
AcDbEntity
  8
0
  6
CONTINUOUS
 62
               4
100
AcDbLine
 10
78.5
 20
29.5
 30
0.0
 11
78.5
 21
53.5
 31
0.0
  0
LINE
  5
3CD
100
AcDbEntity
  8
0
  6
CONTINUOUS
 62
               4
100
AcDbLine
 10
63.5
 20
53.5
 30
0.0
 11
78.5
 21
53.5
 31
0.0
  0
LINE
  5
3CE
100
AcDbEntity
  8
0
  6
CONTINUOUS
 62
               4
100
AcDbLine
 10
67.409999999999997
 20
33.409999999999997
 30
0.0
 11
65.579999999999998
 21
31.579999999999998
 31
0.0
  0
LINE
  5
3CF
100
AcDbEntity
  8
0
  6
CONTINUOUS
 62
               4
100
AcDbLine
 10
67.409999999999997
 20
31.579999999999998
 30
0.0
 11
65.579999999999998
 21
33.409999999999997
 31
0.0
  0
LINE
  5
3D0
100
AcDbEntity
  8
0
  6
CONTINUOUS
 62
               4
100
AcDbLine
 10
76.409999999999997
 20
49.579999999999998
 30
0.0
 11
74.579999999999998
 21
51.409999999999997
 31
0.0
  0
LINE
  5
3D1
100
AcDbEntity
  8
0
  6
CONTINUOUS
 62
               4
100
AcDbLine
 10
74.579999999999998
 20
49.579999999999998
 30
0.0
 11
76.409999999999997
 21
51.409999999999997
 31
0.0
  0
LINE
  5
3D2
100
AcDbEntity
  8
0
  6
CONTINUOUS
 62
               4
100
AcDbLine
 10
81.0
 20
31.199999999999999
 30
0.0
 11
99.0
 21
31.199999999999999
 31
0.0
  0
LINE
  5
3D3
100
AcDbEntity
  8
0
  6
CONTINUOUS
 62
               4
100
AcDbLine
 10
81.0
 20
31.699999999999999
 30
0.0
 11
87.0
 21
31.699999999999999
 31
0.0
  0
LINE
  5
3D4
100
AcDbEntity
  8
0
  6
CONTINUOUS
 62
               4
100
AcDbLine
 10
87.0
 20
31.199999999999999
 30
0.0
 11
87.0
 21
31.699999999999999
 31
0.0
  0
LINE
  5
3D5
100
AcDbEntity
  8
0
  6
CONTINUOUS
 62
               4
100
AcDbLine
 10
93.0
 20
31.199999999999999
 30
0.0
 11
93.0
 21
31.699999999999999
 31
0.0
  0
LINE
  5
3D6
100
AcDbEntity
  8
0
  6
CONTINUOUS
 62
               4
100
AcDbLine
 10
93.0
 20
31.699999999999999
 30
0.0
 11
99.0
 21
31.699999999999999
 31
0.0
  0
LINE
  5
3D7
100
AcDbEntity
  8
0
  6
CONTINUOUS
 62
               4
100
AcDbLine
 10
99.0
 20
31.199999999999999
 30
0.0
 11
99.0
 21
31.699999999999999
 31
0.0
  0
LINE
  5
3D8
100
AcDbEntity
  8
0
  6
CONTINUOUS
 62
               4
100
AcDbLine
 10
86.799999999999997
 20
33.240000000000002
 30
0.0
 11
86.799999999999997
 21
31.699999999999999
 31
0.0
  0
LINE
  5
3D9
100
AcDbEntity
  8
0
  6
CONTINUOUS
 62
               4
100
AcDbLine
 10
81.200000000000003
 20
33.240000000000002
 30
0.0
 11
81.200000000000003
 21
31.699999999999999
 31
0.0
  0
LINE
  5
3DA
100
AcDbEntity
  8
0
  6
CONTINUOUS
 62
               4
100
AcDbLine
 10
98.799999999999997
 20
33.240000000000002
 30
0.0
 11
98.799999999999997
 21
31.699999999999999
 31
0.0
  0
LINE
  5
3DB
100
AcDbEntity
  8
0
  6
CONTINUOUS
 62
               4
100
AcDbLine
 10
93.200000000000003
 20
33.240000000000002
 30
0.0
 11
93.200000000000003
 21
31.699999999999999
 31
0.0
  0
LINE
  5
3DC
100
AcDbEntity
  8
0
  6
CONTINUOUS
 62
               4
100
AcDbLine
 10
99.0
 20
31.199999999999999
 30
0.0
 11
99.0
 21
28.0
 31
0.0
  0
LINE
  5
3DD
100
AcDbEntity
  8
0
  6
CONTINUOUS
 62
               4
100
AcDbLine
 10
81.0
 20
31.199999999999999
 30
0.0
 11
81.0
 21
28.0
 31
0.0
  0
LINE
  5
3DE
100
AcDbEntity
  8
0
  6
CENTER
 62
               2
100
AcDbLine
 10
90.0
 20
38.0
 30
0.0
 11
90.0
 21
23.0
 31
0.0
  0
LINE
  5
3DF
100
AcDbEntity
  8
0
  6
CONTINUOUS
 62
               4
100
AcDbLine
 10
81.0
 20
31.699999999999999
 30
0.0
 11
81.0
 21
31.199999999999999
 31
0.0
  0
LINE
  5
3E0
100
AcDbEntity
  8
0
  6
CONTINUOUS
 62
               4
100
AcDbLine
 10
81.0
 20
28.0
 30
0.0
 11
99.0
 21
28.0
 31
0.0
  0
LINE
  5
3E1
100
AcDbEntity
  8
0
  6
CONTINUOUS
 62
               4
100
AcDbLine
 10
56.399999999999999
 20
63.5
 30
0.0
 11
54.149999999999999
 21
63.5
 31
0.0
  0
LINE
  5
3E2
100
AcDbEntity
  8
0
  6
CONTINUOUS
 62
               4
100
AcDbLine
 10
56.399999999999999
 20
62.299999999999997
 30
0.0
 11
54.149999999999999
 21
62.299999999999997
 31
0.0
  0
LINE
  5
3E3
100
AcDbEntity
  8
0
  6
CONTINUOUS
 62
               4
100
AcDbLine
 10
56.0
 20
61.5
 30
0.0
 11
56.0
 21
62.299999999999997
 31
0.0
  0
LINE
  5
3E4
100
AcDbEntity
  8
0
  6
CONTINUOUS
 62
               4
100
AcDbLine
 10
48.0
 20
61.5
 30
0.0
 11
48.0
 21
62.299999999999997
 31
0.0
  0
LINE
  5
3E5
100
AcDbEntity
  8
0
  6
CONTINUOUS
 62
               4
100
AcDbLine
 10
56.5
 20
61.5
 30
0.0
 11
54.149999999999999
 21
61.5
 31
0.0
  0
LINE
  5
3E6
100
AcDbEntity
  8
0
  6
CONTINUOUS
 62
               4
100
AcDbLine
 10
46.5
 20
55.0
 30
0.0
 11
46.5
 21
61.5
 31
0.0
  0
LINE
  5
3E7
100
AcDbEntity
  8
0
  6
CONTINUOUS
 62
               4
100
AcDbLine
 10
57.5
 20
55.0
 30
0.0
 11
57.5
 21
61.5
 31
0.0
  0
LINE
  5
3E8
100
AcDbEntity
  8
0
  6
CENTER
 62
             200
100
AcDbLine
 10
51.5
 20
51.75
 30
0.0
 11
51.5
 21
66.75
 31
0.0
  0
LINE
  5
3E9
100
AcDbEntity
  8
0
  6
CONTINUOUS
 62
               4
100
AcDbLine
 10
55.0
 20
61.5
 30
0.0
 11
55.0
 21
62.299999999999997
 31
0.0
  0
LINE
  5
3EA
100
AcDbEntity
  8
0
  6
CONTINUOUS
 62
               4
100
AcDbLine
 10
56.5
 20
55.0
 30
0.0
 11
56.5
 21
61.5
 31
0.0
  0
LINE
  5
3EB
100
AcDbEntity
  8
0
  6
CONTINUOUS
 62
               4
100
AcDbLine
 10
57.5
 20
61.5
 30
0.0
 11
56.5
 21
61.5
 31
0.0
  0
LINE
  5
3EC
100
AcDbEntity
  8
0
  6
CENTER
 62
             200
100
AcDbLine
 10
52.5
 20
51.75
 30
0.0
 11
52.5
 21
66.75
 31
0.0
  0
LINE
  5
3ED
100
AcDbEntity
  8
0
  6
CONTINUOUS
 62
               4
100
AcDbLine
 10
37.899999999999999
 20
63.5
 30
0.0
 11
28.100000000000001
 21
63.5
 31
0.0
  0
LINE
  5
3EE
100
AcDbEntity
  8
0
  6
CONTINUOUS
 62
               4
100
AcDbLine
 10
37.899999999999999
 20
62.299999999999997
 30
0.0
 11
28.100000000000001
 21
62.299999999999997
 31
0.0
  0
LINE
  5
3EF
100
AcDbEntity
  8
0
  6
CONTINUOUS
 62
               4
100
AcDbLine
 10
29.5
 20
61.5
 30
0.0
 11
29.5
 21
62.299999999999997
 31
0.0
  0
LINE
  5
3F0
100
AcDbEntity
  8
0
  6
CONTINUOUS
 62
               4
100
AcDbLine
 10
38.0
 20
61.5
 30
0.0
 11
28.0
 21
61.5
 31
0.0
  0
LINE
  5
3F1
100
AcDbEntity
  8
0
  6
CONTINUOUS
 62
               4
100
AcDbLine
 10
28.0
 20
55.0
 30
0.0
 11
28.0
 21
61.5
 31
0.0
  0
LINE
  5
3F2
100
AcDbEntity
  8
0
  6
CONTINUOUS
 62
               4
100
AcDbLine
 10
36.5
 20
61.5
 30
0.0
 11
36.5
 21
62.299999999999997
 31
0.0
  0
LINE
  5
3F3
100
AcDbEntity
  8
0
  6
CONTINUOUS
 62
               4
100
AcDbLine
 10
38.0
 20
55.0
 30
0.0
 11
38.0
 21
61.5
 31
0.0
  0
LINE
  5
3F4
100
AcDbEntity
  8
0
  6
CONTINUOUS
 62
               4
100
AcDbLine
 10
49.850000000000001
 20
63.5
 30
0.0
 11
46.600000000000001
 21
63.5
 31
0.0
  0
LINE
  5
3F5
100
AcDbEntity
  8
0
  6
CONTINUOUS
 62
               4
100
AcDbLine
 10
49.850000000000001
 20
61.5
 30
0.0
 11
46.5
 21
61.5
 31
0.0
  0
LINE
  5
3F6
100
AcDbEntity
  8
0
  6
CONTINUOUS
 62
               4
100
AcDbLine
 10
49.850000000000001
 20
62.299999999999997
 30
0.0
 11
46.600000000000001
 21
62.299999999999997
 31
0.0
  0
LINE
  5
3F7
100
AcDbEntity
  8
0
  6
CONTINUOUS
 62
             200
100
AcDbLine
 10
47.850000000000001
 20
68.379999999999995
 30
0.0
 11
56.149999999999999
 21
66.159999999999997
 31
0.0
  0
LINE
  5
3F8
100
AcDbEntity
  8
0
  6
CONTINUOUS
 62
             200
100
AcDbLine
 10
47.850000000000001
 20
66.829999999999998
 30
0.0
 11
56.149999999999999
 21
64.609999999999999
 31
0.0
  0
LINE
  5
3F9
100
AcDbEntity
  8
0
  6
CONTINUOUS
 62
               4
100
AcDbLine
 10
35.149999999999999
 20
65.140000000000001
 30
0.0
 11
35.149999999999999
 21
63.5
 31
0.0
  0
LINE
  5
3FA
100
AcDbEntity
  8
0
  6
CONTINUOUS
 62
               4
100
AcDbLine
 10
30.850000000000001
 20
66.299999999999997
 30
0.0
 11
30.850000000000001
 21
63.5
 31
0.0
  0
LINE
  5
3FB
100
AcDbEntity
  8
0
  6
CONTINUOUS
 62
               4
100
AcDbLine
 10
33.450000000000003
 20
65.599999999999994
 30
0.0
 11
33.450000000000003
 21
63.5
 31
0.0
  0
LINE
  5
3FC
100
AcDbEntity
  8
0
  6
CONTINUOUS
 62
               4
100
AcDbLine
 10
32.549999999999997
 20
65.840000000000003
 30
0.0
 11
32.549999999999997
 21
63.5
 31
0.0
  0
LINE
  5
3FD
100
AcDbEntity
  8
0
  6
CONTINUOUS
 62
               4
100
AcDbLine
 10
28.100000000000001
 20
62.299999999999997
 30
0.0
 11
28.100000000000001
 21
63.5
 31
0.0
  0
LINE
  5
3FE
100
AcDbEntity
  8
0
  6
CONTINUOUS
 62
               4
100
AcDbLine
 10
37.899999999999999
 20
62.299999999999997
 30
0.0
 11
37.899999999999999
 21
63.5
 31
0.0
  0
LINE
  5
3FF
100
AcDbEntity
  8
0
  6
CONTINUOUS
 62
               4
100
AcDbLine
 10
56.399999999999999
 20
62.299999999999997
 30
0.0
 11
56.399999999999999
 21
63.5
 31
0.0
  0
LINE
  5
400
100
AcDbEntity
  8
0
  6
CONTINUOUS
 62
               4
100
AcDbLine
 10
46.600000000000001
 20
62.299999999999997
 30
0.0
 11
46.600000000000001
 21
63.5
 31
0.0
  0
LINE
  5
401
100
AcDbEntity
  8
0
  6
CONTINUOUS
 62
               4
100
AcDbLine
 10
57.399999999999999
 20
62.299999999999997
 30
0.0
 11
57.399999999999999
 21
63.5
 31
0.0
  0
LINE
  5
402
100
AcDbEntity
  8
0
  6
CONTINUOUS
 62
               4
100
AcDbLine
 10
56.399999999999999
 20
63.5
 30
0.0
 11
57.399999999999999
 21
63.5
 31
0.0
  0
LINE
  5
403
100
AcDbEntity
  8
0
  6
CONTINUOUS
 62
               4
100
AcDbLine
 10
56.399999999999999
 20
62.299999999999997
 30
0.0
 11
57.399999999999999
 21
62.299999999999997
 31
0.0
  0
LINE
  5
404
100
AcDbEntity
  8
0
  6
CENTER
 62
               2
100
AcDbLine
 10
0.0
 20
4.0
 30
0.0
 11
0.0
 21
-4.0
 31
0.0
  0
LINE
  5
405
100
AcDbEntity
  8
0
  6
CENTER
 62
               2
100
AcDbLine
 10
104.0
 20
4.0
 30
0.0
 11
104.0
 21
-4.0
 31
0.0
  0
CIRCLE
  5
406
100
AcDbEntity
  8
0
  6
CONTINUOUS
 62
               7
100
AcDbCircle
 10
8.0
 20
51.999984741210937
 30
0.0
 40
2.2499990463256836
  0
CIRCLE
  5
407
100
AcDbEntity
  8
0
  6
CONTINUOUS
 62
               7
100
AcDbCircle
 10
19.999954223632813
 20
31.000015258789063
 30
0.0
 40
2.2499990463256836
  0
CIRCLE
  5
408
100
AcDbEntity
  8
0
  6
CONTINUOUS
 62
               7
100
AcDbCircle
 10
19.999954223632813
 20
31.000015258789063
 30
0.0
 40
2.4999990463256836
  0
CIRCLE
  5
409
100
AcDbEntity
  8
0
  6
CONTINUOUS
 62
               7
100
AcDbCircle
 10
8.0
 20
51.999984741210937
 30
0.0
 40
2.4999990463256836
  0
CIRCLE
  5
40A
100
AcDbEntity
  8
0
  6
CONTINUOUS
 62
               7
100
AcDbCircle
 10
27.0
 20
51.999984741210937
 30
0.0
 40
2.2499990463256836
  0
CIRCLE
  5
40B
100
AcDbEntity
  8
0
  6
CONTINUOUS
 62
               7
100
AcDbCircle
 10
38.999954223632812
 20
31.000015258789063
 30
0.0
 40
2.2499990463256836
  0
CIRCLE
  5
40C
100
AcDbEntity
  8
0
  6
CONTINUOUS
 62
               7
100
AcDbCircle
 10
38.999954223632812
 20
31.000015258789063
 30
0.0
 40
2.4999990463256836
  0
CIRCLE
  5
40D
100
AcDbEntity
  8
0
  6
CONTINUOUS
 62
               7
100
AcDbCircle
 10
27.0
 20
51.999984741210937
 30
0.0
 40
2.4999990463256836
  0
CIRCLE
  5
40E
100
AcDbEntity
  8
0
  6
CONTINUOUS
 62
               4
100
AcDbCircle
 10
47.5
 20
32.499984741210937
 30
0.0
 40
2.25
  0
CIRCLE
  5
40F
100
AcDbEntity
  8
0
  6
CONTINUOUS
 62
               4
100
AcDbCircle
 10
56.499969482421875
 20
50.499984741210938
 30
0.0
 40
2.25
  0
ARC
  5
410
100
AcDbEntity
  8
0
  6
CONTINUOUS
 62
               4
100
AcDbCircle
 10
56.499969482421875
 20
50.499969482421875
 30
0.0
 40
2.9999694825770971
100
AcDbArc
 50
179.99941715126138
 51
270.00058284873762
  0
ARC
  5
411
100
AcDbEntity
  8
0
  6
CONTINUOUS
 62
               4
100
AcDbCircle
 10
47.499984741210938
 20
32.499984741210937
 30
0.0
 40
3.0000152588278675
100
AcDbArc
 50
0.0002914199223463
 51
89.999708580077453
  0
CIRCLE
  5
412
100
AcDbEntity
  8
0
  6
CONTINUOUS
 62
               4
100
AcDbCircle
 10
56.499969482421875
 20
50.499984741210938
 30
0.0
 40
2.5500001907348633
  0
CIRCLE
  5
413
100
AcDbEntity
  8
0
  6
CONTINUOUS
 62
               4
100
AcDbCircle
 10
47.5
 20
32.499984741210937
 30
0.0
 40
2.5500001907348633
  0
CIRCLE
  5
414
100
AcDbEntity
  8
0
  6
CONTINUOUS
 62
               4
100
AcDbCircle
 10
66.5
 20
32.499969482421875
 30
0.0
 40
2.25
  0
CIRCLE
  5
415
100
AcDbEntity
  8
0
  6
CONTINUOUS
 62
               4
100
AcDbCircle
 10
75.499969482421875
 20
50.499984741210938
 30
0.0
 40
2.25
  0
ARC
  5
416
100
AcDbEntity
  8
0
  6
CONTINUOUS
 62
               4
100
AcDbCircle
 10
75.499969482421875
 20
50.499969482421875
 30
0.0
 40
2.9999694825770971
100
AcDbArc
 50
179.99941715126138
 51
270.00058284873762
  0
ARC
  5
417
100
AcDbEntity
  8
0
  6
CONTINUOUS
 62
               4
100
AcDbCircle
 10
66.499969482421875
 20
32.499969482421875
 30
0.0
 40
3.0000305177333439
100
AcDbArc
 50
0.000582836880231
 51
89.999417163119574
  0
CIRCLE
  5
418
100
AcDbEntity
  8
0
  6
CONTINUOUS
 62
               4
100
AcDbCircle
 10
75.499969482421875
 20
50.499984741210938
 30
0.0
 40
2.5500001907348633
  0
CIRCLE
  5
419
100
AcDbEntity
  8
0
  6
CONTINUOUS
 62
               4
100
AcDbCircle
 10
66.5
 20
32.499969482421875
 30
0.0
 40
2.5500001907348633
  0
ARC
  5
41A
100
AcDbEntity
  8
0
  6
CONTINUOUS
 62
               4
100
AcDbCircle
 10
84.0
 20
29.099960327148438
 30
0.0
 40
4.9979924462512821
100
AcDbArc
 50
55.928644984581091
 51
124.0713550154185
  0
ARC
  5
41B
100
AcDbEntity
  8
0
  6
CONTINUOUS
 62
               4
100
AcDbCircle
 10
96.0
 20
29.0999755859375
 30
0.0
 40
4.9979798067852919
100
AcDbArc
 50
55.928546988064014
 51
124.07145301193559
  0
ENDBLK
  5
41C
100
AcDbEntity
  8
0
100
AcDbBlockEnd
  0
BLOCK
  5
41F
100
AcDbEntity
  8
0
  6
ByBlock
 62
               0
100
AcDbBlockBegin
  2
_OPEN30
 70
               2
 10
0.0
 20
0.0
 30
0.0
  3
_OPEN30
  1

  0
LINE
  5
420
100
AcDbEntity
  8
0
  6
ByBlock
 62
               0
100
AcDbLine
 10
-1.0
 20
0.267949
 30
0.0
 11
0.0
 21
0.0
 31
0.0
  0
LINE
  5
421
100
AcDbEntity
  8
0
  6
ByBlock
 62
               0
100
AcDbLine
 10
0.0
 20
0.0
 30
0.0
 11
-1.0
 21
-0.267949
 31
0.0
  0
LINE
  5
422
100
AcDbEntity
  8
0
  6
ByBlock
 62
               0
100
AcDbLine
 10
0.0
 20
0.0
 30
0.0
 11
-1.0
 21
0.0
 31
0.0
  0
ENDBLK
  5
423
100
AcDbEntity
  8
0
  6
ByBlock
 62
               0
100
AcDbBlockEnd
  0
BLOCK
  5
496
100
AcDbEntity
  8
0
  6
ByBlock
 62
               0
100
AcDbBlockBegin
  2
*D5
 70
               1
 10
0.0
 20
0.0
 30
0.0
  3
*D5
  1

  0
LINE
  5
497
100
AcDbEntity
  8
0
  6
ByBlock
 62
               0
100
AcDbLine
 10
-33.181991577148438
 20
84.744110107421875
 30
0.0
 11
-28.181991577148437
 21
84.744110107421875
 31
0.0
  0
LINE
  5
498
100
AcDbEntity
  8
0
  6
ByBlock
 62
               0
100
AcDbLine
 10
-43.678207397460938
 20
84.744110107421875
 30
0.0
 11
-33.181991577148438
 21
84.744110107421875
 31
0.0
  0
LINE
  5
499
100
AcDbEntity
  8
0
  6
ByBlock
 62
               0
100
AcDbLine
 10
-28.181991577148437
 20
17.724288940429688
 30
0.0
 11
-28.181991577148437
 21
86.244110107421875
 31
0.0
  0
LINE
  5
49A
100
AcDbEntity
  8
0
  6
ByBlock
 62
               0
100
AcDbLine
 10
-33.181991577148438
 20
84.744110107421875
 30
0.0
 11
-36.737991571426392
 21
84.744110107421875
 31
0.0
  0
INSERT
  5
49B
100
AcDbEntity
  8
0
  6
ByBlock
 62
               0
100
AcDbBlockReference
  2
_OPEN30
 10
-33.181991577148438
 20
84.744110107421875
 30
0.0
 41
2.77
 42
2.77
 43
2.77
  0
MTEXT
  5
4A0
100
AcDbEntity
  8
0
  6
ByBlock
 62
               2
100
AcDbMText
 10
-41.428207397460938
 20
87.994110107421875
 30
0.0
 40
4.5
 41
0.0
 71
               5
 72
               1
  1
\A1;5
  7
MX_NOTE_STANDARD
  0
POINT
  5
4A1
100
AcDbEntity
  8
DEFPOINTS
  6
ByBlock
 62
               0
100
AcDbPoint
 10
-33.181991577148438
 20
41.22430419921875
 30
0.0
  0
POINT
  5
4A2
100
AcDbEntity
  8
DEFPOINTS
  6
ByBlock
 62
               0
100
AcDbPoint
 10
-28.181991577148437
 20
17.724288940429688
 30
0.0
  0
POINT
  5
4A3
100
AcDbEntity
  8
DEFPOINTS
  6
ByBlock
 62
               0
100
AcDbPoint
 10
-28.181991577148437
 20
84.744110107421875
 30
0.0
  0
ENDBLK
  5
4A4
100
AcDbEntity
  8
0
  6
ByBlock
 62
               0
100
AcDbBlockEnd
  0
BLOCK
  5
49D
100
AcDbEntity
  8
0
  6
ByBlock
 62
               0
100
AcDbBlockBegin
  2
_NONE
 70
               2
 10
0.0
 20
0.0
 30
0.0
  3
_NONE
  1

  0
CIRCLE
  5
49E
100
AcDbEntity
  8
0
  6
ByBlock
 62
               0
100
AcDbCircle
 10
0.0
 20
0.0
 30
0.0
 40
0.25
  0
ENDBLK
  5
49F
100
AcDbEntity
  8
0
  6
ByBlock
 62
               0
100
AcDbBlockEnd
  0
BLOCK
  5
4A7
100
AcDbEntity
  8
0
  6
ByBlock
 62
               0
100
AcDbBlockBegin
  2
*D7
 70
               1
 10
0.0
 20
0.0
 30
0.0
  3
*D7
  1

  0
LINE
  5
4A8
100
AcDbEntity
  8
0
  6
ByBlock
 62
               0
100
AcDbLine
 10
-28.181991577148437
 20
84.247055053710938
 30
0.0
 11
75.818038940429688
 21
84.247055053710938
 31
0.0
  0
LINE
  5
4A9
100
AcDbEntity
  8
0
  6
ByBlock
 62
               0
100
AcDbLine
 10
75.818038940429688
 20
17.724288940429688
 30
0.0
 11
75.818038940429688
 21
85.747055053710937
 31
0.0
  0
INSERT
  5
4AA
100
AcDbEntity
  8
0
  6
ByBlock
 62
               0
100
AcDbBlockReference
  2
_OPEN30
 10
-28.181991577148437
 20
84.247055053710938
 30
0.0
 41
2.77
 42
2.77
 43
2.77
 50
179.9999999999996
  0
MTEXT
  5
4AB
100
AcDbEntity
  8
0
  6
ByBlock
 62
               2
100
AcDbMText
 10
23.818023681640625
 20
87.497055053710937
 30
0.0
 40
4.5
 41
0.0
 71
               5
 72
               1
  1
\A1;P
  7
MX_NOTE_STANDARD
  0
POINT
  5
4AC
100
AcDbEntity
  8
DEFPOINTS
  6
ByBlock
 62
               0
100
AcDbPoint
 10
-28.181991577148437
 20
17.724288940429688
 30
0.0
  0
POINT
  5
4AD
100
AcDbEntity
  8
DEFPOINTS
  6
ByBlock
 62
               0
100
AcDbPoint
 10
75.818038940429688
 20
17.724288940429688
 30
0.0
  0
POINT
  5
4AE
100
AcDbEntity
  8
DEFPOINTS
  6
ByBlock
 62
               0
100
AcDbPoint
 10
75.818038940429688
 20
84.247055053710938
 30
0.0
  0
ENDBLK
  5
4AF
100
AcDbEntity
  8
0
  6
ByBlock
 62
               0
100
AcDbBlockEnd
  0
BLOCK
  5
4B2
100
AcDbEntity
  8
0
  6
ByBlock
 62
               0
100
AcDbBlockBegin
  2
*D8
 70
               1
 10
0.0
 20
0.0
 30
0.0
  3
*D8
  1

  0
LINE
  5
4B3
100
AcDbEntity
  8
0
  6
ByBlock
 62
               0
100
AcDbLine
 10
75.818038940429688
 20
84.992645263671875
 30
0.0
 11
80.818023681640625
 21
84.992645263671875
 31
0.0
  0
LINE
  5
4B4
100
AcDbEntity
  8
0
  6
ByBlock
 62
               0
100
AcDbLine
 10
80.818023681640625
 20
84.992645263671875
 30
0.0
 11
90.552993774414063
 21
84.992645263671875
 31
0.0
  0
LINE
  5
4B5
100
AcDbEntity
  8
0
  6
ByBlock
 62
               0
100
AcDbLine
 10
75.818038940429688
 20
84.992645263671875
 30
0.0
 11
72.262038946151733
 21
84.992645263671875
 31
0.0
  0
LINE
  5
4B6
100
AcDbEntity
  8
0
  6
ByBlock
 62
               0
100
AcDbLine
 10
80.818023681640625
 20
84.992645263671875
 30
0.0
 11
84.374023675918579
 21
84.992645263671875
 31
0.0
  0
INSERT
  5
4B7
100
AcDbEntity
  8
0
  6
ByBlock
 62
               0
100
AcDbBlockReference
  2
_OPEN30
 10
75.818038940429688
 20
84.992645263671875
 30
0.0
 41
2.77
 42
2.77
 43
2.77
  0
INSERT
  5
4B8
100
AcDbEntity
  8
0
  6
ByBlock
 62
               0
100
AcDbBlockReference
  2
_OPEN30
 10
80.818023681640625
 20
84.992645263671875
 30
0.0
 41
2.77
 42
2.77
 43
2.77
 50
179.9999999999996
  0
MTEXT
  5
4B9
100
AcDbEntity
  8
0
  6
ByBlock
 62
               2
100
AcDbMText
 10
88.302993774414063
 20
88.242645263671875
 30
0.0
 40
4.5
 41
0.0
 71
               5
 72
               1
  1
\A1;5
  7
MX_NOTE_STANDARD
  0
POINT
  5
4BA
100
AcDbEntity
  8
DEFPOINTS
  6
ByBlock
 62
               0
100
AcDbPoint
 10
75.818038940429688
 20
17.724288940429688
 30
0.0
  0
POINT
  5
4BB
100
AcDbEntity
  8
DEFPOINTS
  6
ByBlock
 62
               0
100
AcDbPoint
 10
80.818023681640625
 20
41.22430419921875
 30
0.0
  0
POINT
  5
4BC
100
AcDbEntity
  8
DEFPOINTS
  6
ByBlock
 62
               0
100
AcDbPoint
 10
80.818023681640625
 20
84.992645263671875
 30
0.0
  0
ENDBLK
  5
4BD
100
AcDbEntity
  8
0
  6
ByBlock
 62
               0
100
AcDbBlockEnd
  0
BLOCK
  5
4C0
100
AcDbEntity
  8
0
  6
ByBlock
 62
               0
100
AcDbBlockBegin
  2
*D9
 70
               1
 10
0.0
 20
0.0
 30
0.0
  3
*D9
  1

  0
LINE
  5
4C1
100
AcDbEntity
  8
0
  6
ByBlock
 62
               0
100
AcDbLine
 10
80.818023681640625
 20
96.145401000976563
 30
0.0
 11
-33.181991577148438
 21
96.145401000976563
 31
0.0
  0
LINE
  5
4C2
100
AcDbEntity
  8
0
  6
ByBlock
 62
               0
100
AcDbLine
 10
80.818023681640625
 20
42.72430419921875
 30
0.0
 11
80.818023681640625
 21
97.645401000976563
 31
0.0
  0
LINE
  5
4C3
100
AcDbEntity
  8
0
  6
ByBlock
 62
               0
100
AcDbLine
 10
-33.181991577148438
 20
42.72430419921875
 30
0.0
 11
-33.181991577148438
 21
97.645401000976563
 31
0.0
  0
INSERT
  5
4C4
100
AcDbEntity
  8
0
  6
ByBlock
 62
               0
100
AcDbBlockReference
  2
_OPEN30
 10
80.818023681640625
 20
96.145401000976563
 30
0.0
 41
2.77
 42
2.77
 43
2.77
  0
INSERT
  5
4C5
100
AcDbEntity
  8
0
  6
ByBlock
 62
               0
100
AcDbBlockReference
  2
_OPEN30
 10
-33.181991577148438
 20
96.145401000976563
 30
0.0
 41
2.77
 42
2.77
 43
2.77
 50
179.9999999999996
  0
MTEXT
  5
4C6
100
AcDbEntity
  8
0
  6
ByBlock
 62
               2
100
AcDbMText
 10
23.818008422851563
 20
99.395401000976563
 30
0.0
 40
4.5
 41
0.0
 71
               5
 72
               1
  1
\A1;L
  7
MX_NOTE_STANDARD
 11
1.0
 21
-0.0000000000000001
 31
0.0
  0
POINT
  5
4C7
100
AcDbEntity
  8
DEFPOINTS
  6
ByBlock
 62
               0
100
AcDbPoint
 10
80.818023681640625
 20
41.22430419921875
 30
0.0
  0
POINT
  5
4C8
100
AcDbEntity
  8
DEFPOINTS
  6
ByBlock
 62
               0
100
AcDbPoint
 10
-33.181991577148438
 20
41.22430419921875
 30
0.0
  0
POINT
  5
4C9
100
AcDbEntity
  8
DEFPOINTS
  6
ByBlock
 62
               0
100
AcDbPoint
 10
-33.181991577148438
 20
96.145401000976563
 30
0.0
  0
ENDBLK
  5
4CA
100
AcDbEntity
  8
0
  6
ByBlock
 62
               0
100
AcDbBlockEnd
  0
ENDSEC
  0
SECTION
  2
ENTITIES
  0
LEADER
  5
41D
100
AcDbEntity
  8
0
 62
               2
100
AcDbLeader
  3
MXDIMSTYLE
 73
               3
 74
               0
 75
               0
 40
0.0
 76
               3
 10
-0.0820039510726929
 20
-115.44467163085937
 30
0.0
 10
-15.081998586654663
 20
-89.463906407356262
 30
0.0
 10
-88.699578523635864
 20
-89.463906407356262
 30
0.0
 77
               2
1001
ACAD
1000
DSTYLE
1002
{
1070
               6
1000
_OPEN30
1070
               7
1000
_OPEN30
1070
              41
1040
2.77
1070
             173
1070
               1
1002
}
  0
MTEXT
  5
424
100
AcDbEntity
  8
0
 62
               2
100
AcDbMText
 10
-88.699578523635864
 20
-83.58890688419342
 30
0.0
 40
6.0
 41
0.0
 71
               4
 72
               1
  1
\W1.108;\A1;CS-180E1-J61
  7
MX_NOTE_STANDARD
  0
LEADER
  5
425
100
AcDbEntity
  8
0
 62
               2
100
AcDbLeader
  3
MXDIMSTYLE
 73
               3
 74
               0
 75
               0
 40
0.0
 76
               3
 10
-17.181976318359375
 20
-123.444580078125
 30
0.0
 10
-27.181975603097271
 20
-106.12405433043477
 30
0.0
 10
-76.710670232766461
 20
-106.12405433043477
 30
0.0
 77
               2
1001
ACAD
1000
DSTYLE
1002
{
1070
               6
1000
_OPEN30
1070
               7
1000
_OPEN30
1070
              41
1040
2.77
1070
             173
1070
               1
1002
}
  0
MTEXT
  5
426
100
AcDbEntity
  8
0
 62
               2
100
AcDbMText
 10
-76.710670232766461
 20
-100.24905480727193
 30
0.0
 40
6.0
 41
0.0
 71
               4
 72
               1
  1
\W1.116;\A1;CS-180E1
  7
MX_NOTE_STANDARD
  0
LEADER
  5
427
100
AcDbEntity
  8
0
 62
               2
100
AcDbLeader
  3
MXDIMSTYLE
 73
               3
 74
               0
 75
               0
 40
0.0
 76
               3
 10
61.818038940429687
 20
-147.74467468261719
 30
0.0
 10
71.818029403686523
 20
-130.42416095733643
 30
0.0
 10
103.09763038158417
 20
-130.42416095733643
 30
0.0
 77
               2
1001
ACAD
1000
DSTYLE
1002
{
1070
               6
1000
_OPEN30
1070
               7
1000
_OPEN30
1070
              41
1040
2.77
1070
             173
1070
               1
1002
}
  0
MTEXT
  5
428
100
AcDbEntity
  8
0
 62
               2
100
AcDbMText
 10
73.097630381584167
 20
-124.54916143417358
 30
0.0
 40
6.0
 41
0.0
 71
               4
 72
               1
  1
\A1;CS-BP
  7
MX_NOTE_STANDARD
  0
LEADER
  5
429
100
AcDbEntity
  8
0
 62
               2
100
AcDbLeader
  3
MXDIMSTYLE
 73
               3
 74
               0
 75
               0
 40
0.0
 76
               3
 10
45.841995239257813
 20
-123.42874145507812
 30
0.0
 10
55.841994523995709
 20
-106.1082157073879
 30
0.0
 10
117.65479826926548
 20
-106.1082157073879
 30
0.0
 77
               2
1001
ACAD
1000
DSTYLE
1002
{
1070
               6
1000
_OPEN30
1070
               7
1000
_OPEN30
1070
              41
1040
2.77
1070
             173
1070
               1
1002
}
  0
MTEXT
  5
42A
100
AcDbEntity
  8
0
 62
               2
100
AcDbMText
 10
57.654798269265484
 20
-100.23321618422506
 30
0.0
 40
6.0
 41
0.0
 71
               4
 72
               1
  1
\W1.034;\A1;CS-183-4E2
  7
MX_NOTE_STANDARD
  0
LEADER
  5
42B
100
AcDbEntity
  8
0
 62
               2
100
AcDbLeader
  3
MXDIMSTYLE
 73
               3
 74
               0
 75
               0
 40
0.0
 76
               3
 10
29.218017578125
 20
-115.44464111328125
 30
0.0
 10
44.218011260023559
 20
-89.463909471329316
 30
0.0
 10
129.64370656012579
 20
-89.463909471329316
 30
0.0
 77
               2
1001
ACAD
1000
DSTYLE
1002
{
1070
               6
1000
_OPEN30
1070
               7
1000
_OPEN30
1070
              41
1040
2.77
1070
             173
1070
               1
1002
}
  0
MTEXT
  5
42C
100
AcDbEntity
  8
0
 62
               2
100
AcDbMText
 10
45.643706560125793
 20
-83.588909948166474
 30
0.0
 40
6.0
 41
0.0
 71
               4
 72
               1
  1
\W1.037;\A1;CS-180-4E2-J62
  7
MX_NOTE_STANDARD
  0
INSERT
  5
42D
100
AcDbEntity
  8
0
100
AcDbBlockReference
  2
MS_1
 10
-28.181991577148437
 20
14.22430419921875
 30
0.0
  0
INSERT
  5
42E
100
AcDbEntity
  8
0
100
AcDbBlockReference
  2
MS_2
 10
221.308349609375
 20
14.22430419921875
 30
0.0
  0
INSERT
  5
42F
100
AcDbEntity
  8
0
100
AcDbBlockReference
  2
MS_3
 10
-28.181991577148437
 20
186.39321899414062
 30
0.0
  0
INSERT
  5
430
100
AcDbEntity
  8
0
100
AcDbBlockReference
  2
MS_4
 10
-28.181991577148437
 20
-178.94461059570312
 30
0.0
  0
LINE
  5
431
100
AcDbEntity
  8
0
  6
CONTINUOUS
 62
               7
100
AcDbLine
 10
-281.25
 20
195.5
 30
0.0
 11
282.10000000000002
 21
195.5
 31
0.0
  0
LINE
  5
432
100
AcDbEntity
  8
0
  6
CONTINUOUS
 62
               7
100
AcDbLine
 10
-281.25
 20
195.5
 30
0.0
 11
-281.25
 21
-195.0
 31
0.0
  0
LINE
  5
433
100
AcDbEntity
  8
0
  6
CONTINUOUS
 62
               7
100
AcDbLine
 10
282.10000000000002
 20
195.5
 30
0.0
 11
282.10000000000002
 21
-195.0
 31
0.0
  0
LINE
  5
434
100
AcDbEntity
  8
0
  6
CONTINUOUS
 62
               7
100
AcDbLine
 10
-281.25
 20
-195.0
 30
0.0
 11
282.10000000000002
 21
-195.0
 31
0.0
  0
LINE
  5
435
100
AcDbEntity
  8
0
  6
CONTINUOUS
 62
               7
100
AcDbLine
 10
162.09999999999999
 20
-175.0
 30
0.0
 11
162.09999999999999
 21
-195.0
 31
0.0
  0
LINE
  5
436
100
AcDbEntity
  8
0
  6
CONTINUOUS
 62
               7
100
AcDbLine
 10
162.09999999999999
 20
-175.0
 30
0.0
 11
282.10000000000002
 21
-175.0
 31
0.0
  0
LINE
  5
437
100
AcDbEntity
  8
0
  6
CONTINUOUS
 62
               7
100
AcDbLine
 10
162.09999999999999
 20
175.5
 30
0.0
 11
282.10000000000002
 21
175.5
 31
0.0
  0
LINE
  5
438
100
AcDbEntity
  8
0
  6
CONTINUOUS
 62
               7
100
AcDbLine
 10
-281.25
 20
175.5
 30
0.0
 11
-161.25
 21
175.5
 31
0.0
  0
LINE
  5
439
100
AcDbEntity
  8
0
  6
CONTINUOUS
 62
               7
100
AcDbLine
 10
162.09999999999999
 20
195.5
 30
0.0
 11
162.09999999999999
 21
175.5
 31
0.0
  0
LINE
  5
43A
100
AcDbEntity
  8
0
  6
CONTINUOUS
 62
               7
100
AcDbLine
 10
-161.25
 20
195.5
 30
0.0
 11
-161.25
 21
175.5
 31
0.0
  0
LINE
  5
43B
100
AcDbEntity
  8
0
  6
CONTINUOUS
 62
               7
100
AcDbLine
 10
-261.25
 20
25.0
 30
0.0
 11
-261.25
 21
-175.0
 31
0.0
  0
LINE
  5
43C
100
AcDbEntity
  8
0
  6
CONTINUOUS
 62
               7
100
AcDbLine
 10
-261.25
 20
-175.0
 30
0.0
 11
-141.25
 21
-175.0
 31
0.0
  0
LINE
  5
43D
100
AcDbEntity
  8
0
  6
CONTINUOUS
 62
               7
100
AcDbLine
 10
-261.25
 20
-165.0
 30
0.0
 11
-141.25
 21
-165.0
 31
0.0
  0
LINE
  5
43E
100
AcDbEntity
  8
0
  6
CONTINUOUS
 62
               7
100
AcDbLine
 10
-261.25
 20
-155.0
 30
0.0
 11
-141.25
 21
-155.0
 31
0.0
  0
LINE
  5
43F
100
AcDbEntity
  8
0
  6
CONTINUOUS
 62
               7
100
AcDbLine
 10
-261.25
 20
-145.0
 30
0.0
 11
-141.25
 21
-145.0
 31
0.0
  0
LINE
  5
440
100
AcDbEntity
  8
0
  6
CONTINUOUS
 62
               7
100
AcDbLine
 10
-261.25
 20
-135.0
 30
0.0
 11
-141.25
 21
-135.0
 31
0.0
  0
LINE
  5
441
100
AcDbEntity
  8
0
  6
CONTINUOUS
 62
               7
100
AcDbLine
 10
-261.25
 20
-125.0
 30
0.0
 11
-141.25
 21
-125.0
 31
0.0
  0
LINE
  5
442
100
AcDbEntity
  8
0
  6
CONTINUOUS
 62
               7
100
AcDbLine
 10
-261.25
 20
-115.0
 30
0.0
 11
-141.25
 21
-115.0
 31
0.0
  0
LINE
  5
443
100
AcDbEntity
  8
0
  6
CONTINUOUS
 62
               7
100
AcDbLine
 10
-261.25
 20
-105.0
 30
0.0
 11
-141.25
 21
-105.0
 31
0.0
  0
LINE
  5
444
100
AcDbEntity
  8
0
  6
CONTINUOUS
 62
               7
100
AcDbLine
 10
-261.25
 20
-95.0
 30
0.0
 11
-141.25
 21
-95.0
 31
0.0
  0
LINE
  5
445
100
AcDbEntity
  8
0
  6
CONTINUOUS
 62
               7
100
AcDbLine
 10
-261.25
 20
-85.0
 30
0.0
 11
-141.25
 21
-85.0
 31
0.0
  0
LINE
  5
446
100
AcDbEntity
  8
0
  6
CONTINUOUS
 62
               7
100
AcDbLine
 10
-261.25
 20
-75.0
 30
0.0
 11
-141.25
 21
-75.0
 31
0.0
  0
LINE
  5
447
100
AcDbEntity
  8
0
  6
CONTINUOUS
 62
               7
100
AcDbLine
 10
-261.25
 20
-65.0
 30
0.0
 11
-141.25
 21
-65.0
 31
0.0
  0
LINE
  5
448
100
AcDbEntity
  8
0
  6
CONTINUOUS
 62
               7
100
AcDbLine
 10
-261.25
 20
-55.0
 30
0.0
 11
-141.25
 21
-55.0
 31
0.0
  0
LINE
  5
449
100
AcDbEntity
  8
0
  6
CONTINUOUS
 62
               7
100
AcDbLine
 10
-261.25
 20
-45.0
 30
0.0
 11
-141.25
 21
-45.0
 31
0.0
  0
LINE
  5
44A
100
AcDbEntity
  8
0
  6
CONTINUOUS
 62
               7
100
AcDbLine
 10
-261.25
 20
-35.0
 30
0.0
 11
-141.25
 21
-35.0
 31
0.0
  0
LINE
  5
44B
100
AcDbEntity
  8
0
  6
CONTINUOUS
 62
               7
100
AcDbLine
 10
-261.25
 20
-25.0
 30
0.0
 11
-141.25
 21
-25.0
 31
0.0
  0
LINE
  5
44C
100
AcDbEntity
  8
0
  6
CONTINUOUS
 62
               7
100
AcDbLine
 10
-261.25
 20
-15.0
 30
0.0
 11
-141.25
 21
-15.0
 31
0.0
  0
LINE
  5
44D
100
AcDbEntity
  8
0
  6
CONTINUOUS
 62
               7
100
AcDbLine
 10
-261.25
 20
-5.0
 30
0.0
 11
-141.25
 21
-5.0
 31
0.0
  0
LINE
  5
44E
100
AcDbEntity
  8
0
  6
CONTINUOUS
 62
               7
100
AcDbLine
 10
-261.25
 20
5.0
 30
0.0
 11
-141.25
 21
5.0
 31
0.0
  0
LINE
  5
44F
100
AcDbEntity
  8
0
  6
CONTINUOUS
 62
               7
100
AcDbLine
 10
-261.25
 20
15.0
 30
0.0
 11
-141.25
 21
15.0
 31
0.0
  0
LINE
  5
450
100
AcDbEntity
  8
0
  6
CONTINUOUS
 62
               7
100
AcDbLine
 10
-261.25
 20
25.0
 30
0.0
 11
-141.25
 21
25.0
 31
0.0
  0
LINE
  5
451
100
AcDbEntity
  8
0
  6
CONTINUOUS
 62
               7
100
AcDbLine
 10
-201.25
 20
25.0
 30
0.0
 11
-201.25
 21
-175.0
 31
0.0
  0
LINE
  5
452
100
AcDbEntity
  8
0
  6
CONTINUOUS
 62
               7
100
AcDbLine
 10
-171.25
 20
25.0
 30
0.0
 11
-171.25
 21
-175.0
 31
0.0
  0
LINE
  5
453
100
AcDbEntity
  8
0
  6
CONTINUOUS
 62
               7
100
AcDbLine
 10
-141.25
 20
25.0
 30
0.0
 11
-141.25
 21
-175.0
 31
0.0
  0
MTEXT
  5
454
100
AcDbEntity
  8
0
  6
CONTINUOUS
 62
               7
100
AcDbMText
 10
201.38633858070557
 20
185.5
 30
0.0
 40
6.3000001907348633
 41
0.0
 71
               4
 72
               1
  1
\W1.273;\A1;Ver.1.0
  7
MX_NOTE_STANDARD
  0
MTEXT
  5
455
100
AcDbEntity
  8
0
  6
CONTINUOUS
 62
               7
100
AcDbMText
 10
170.2809980228688
 20
-185.0
 30
0.0
 40
9.0
 41
0.0
 71
               4
 72
               1
  1
\W1.121;\A1;KOGANEI CORP.
  7
MX_NOTE_STANDARD
  0
MTEXT
  5
456
100
AcDbEntity
  8
0
  6
CONTINUOUS
 62
               7
100
AcDbMText
 10
-261.03994454939044
 20
185.5
 30
0.0
 40
6.3000001907348633
 41
0.0
 71
               4
 72
               1
  1
\W1.105;\A1;CS-180 SERIES
  7
MX_NOTE_STANDARD
  0
MTEXT
  5
457
100
AcDbEntity
  8
0
  6
CONTINUOUS
 62
               7
100
AcDbMText
 10
-265.11741569680618
 20
160.5
 30
0.0
 40
6.3000001907348633
 41
0.0
 71
               4
 72
               1
  1
\W1.079;\A1;MODEL:CS-180M5FE
  7
MX_NOTE_STANDARD
  0
MTEXT
  5
458
100
AcDbEntity
  8
0
  6
CONTINUOUS
 62
               7
100
AcDbMText
 10
-239.5
 20
20.0
 30
0.0
 40
4.5
 41
0.0
 71
               4
 72
               1
  1
\A1;TYPE
  7
MX_NOTE_STANDARD
  0
MTEXT
  5
459
100
AcDbEntity
  8
0
  6
CONTINUOUS
 62
               7
100
AcDbMText
 10
-251.96052631578948
 20
10.0
 30
0.0
 40
4.5
 41
0.0
 71
               4
 72
               1
  1
\W1.053;\A1;CS-180M2FE
  7
MX_NOTE_STANDARD
  0
MTEXT
  5
45A
100
AcDbEntity
  8
0
  6
CONTINUOUS
 62
               7
100
AcDbMText
 10
-251.96052631578948
 20
0.0
 30
0.0
 40
4.5
 41
0.0
 71
               4
 72
               1
  1
\W1.053;\A1;CS-180M3FE
  7
MX_NOTE_STANDARD
  0
MTEXT
  5
45B
100
AcDbEntity
  8
0
  6
CONTINUOUS
 62
               7
100
AcDbMText
 10
-251.96052631578948
 20
-10.0
 30
0.0
 40
4.5
 41
0.0
 71
               4
 72
               1
  1
\W1.053;\A1;CS-180M4FE
  7
MX_NOTE_STANDARD
  0
MTEXT
  5
45C
100
AcDbEntity
  8
0
  6
CONTINUOUS
 62
               7
100
AcDbMText
 10
-251.96052631578948
 20
-20.0
 30
0.0
 40
4.5
 41
0.0
 71
               4
 72
               1
  1
\W1.053;\A1;CS-180M5FE
  7
MX_NOTE_STANDARD
  0
MTEXT
  5
45D
100
AcDbEntity
  8
0
  6
CONTINUOUS
 62
               7
100
AcDbMText
 10
-251.96052631578948
 20
-30.0
 30
0.0
 40
4.5
 41
0.0
 71
               4
 72
               1
  1
\W1.053;\A1;CS-180M6FE
  7
MX_NOTE_STANDARD
  0
MTEXT
  5
45E
100
AcDbEntity
  8
0
  6
CONTINUOUS
 62
               7
100
AcDbMText
 10
-251.96052631578948
 20
-40.0
 30
0.0
 40
4.5
 41
0.0
 71
               4
 72
               1
  1
\W1.053;\A1;CS-180M7FE
  7
MX_NOTE_STANDARD
  0
MTEXT
  5
45F
100
AcDbEntity
  8
0
  6
CONTINUOUS
 62
               7
100
AcDbMText
 10
-251.96052631578948
 20
-50.0
 30
0.0
 40
4.5
 41
0.0
 71
               4
 72
               1
  1
\W1.053;\A1;CS-180M8FE
  7
MX_NOTE_STANDARD
  0
MTEXT
  5
460
100
AcDbEntity
  8
0
  6
CONTINUOUS
 62
               7
100
AcDbMText
 10
-251.96052631578948
 20
-60.0
 30
0.0
 40
4.5
 41
0.0
 71
               4
 72
               1
  1
\W1.053;\A1;CS-180M9FE
  7
MX_NOTE_STANDARD
  0
MTEXT
  5
461
100
AcDbEntity
  8
0
  6
CONTINUOUS
 62
               7
100
AcDbMText
 10
-251.92500000000001
 20
-70.0
 30
0.0
 40
4.5
 41
0.0
 71
               4
 72
               1
  1
\W1.100;\A1;CS-180M10FE
  7
MX_NOTE_STANDARD
  0
MTEXT
  5
462
100
AcDbEntity
  8
0
  6
CONTINUOUS
 62
               7
100
AcDbMText
 10
-251.91101695254287
 20
-80.0
 30
0.0
 40
4.5
 41
0.0
 71
               4
 72
               1
  1
\W1.119;\A1;CS-180M11FE
  7
MX_NOTE_STANDARD
  0
MTEXT
  5
463
100
AcDbEntity
  8
0
  6
CONTINUOUS
 62
               7
100
AcDbMText
 10
-251.93852459174977
 20
-90.0
 30
0.0
 40
4.5
 41
0.0
 71
               4
 72
               1
  1
\W1.082;\A1;CS-180M12FE
  7
MX_NOTE_STANDARD
  0
MTEXT
  5
464
100
AcDbEntity
  8
0
  6
CONTINUOUS
 62
               7
100
AcDbMText
 10
-251.93852459174977
 20
-100.0
 30
0.0
 40
4.5
 41
0.0
 71
               4
 72
               1
  1
\W1.082;\A1;CS-180M13FE
  7
MX_NOTE_STANDARD
  0
MTEXT
  5
465
100
AcDbEntity
  8
0
  6
CONTINUOUS
 62
               7
100
AcDbMText
 10
-251.93852459174977
 20
-110.0
 30
0.0
 40
4.5
 41
0.0
 71
               4
 72
               1
  1
\W1.082;\A1;CS-180M14FE
  7
MX_NOTE_STANDARD
  0
MTEXT
  5
466
100
AcDbEntity
  8
0
  6
CONTINUOUS
 62
               7
100
AcDbMText
 10
-251.93852459174977
 20
-120.0
 30
0.0
 40
4.5
 41
0.0
 71
               4
 72
               1
  1
\W1.082;\A1;CS-180M15FE
  7
MX_NOTE_STANDARD
  0
MTEXT
  5
467
100
AcDbEntity
  8
0
  6
CONTINUOUS
 62
               7
100
AcDbMText
 10
-251.93852459174977
 20
-130.0
 30
0.0
 40
4.5
 41
0.0
 71
               4
 72
               1
  1
\W1.082;\A1;CS-180M16FE
  7
MX_NOTE_STANDARD
  0
MTEXT
  5
468
100
AcDbEntity
  8
0
  6
CONTINUOUS
 62
               7
100
AcDbMText
 10
-251.93852459174977
 20
-140.0
 30
0.0
 40
4.5
 41
0.0
 71
               4
 72
               1
  1
\W1.082;\A1;CS-180M17FE
  7
MX_NOTE_STANDARD
  0
MTEXT
  5
469
100
AcDbEntity
  8
0
  6
CONTINUOUS
 62
               7
100
AcDbMText
 10
-251.93852459174977
 20
-150.0
 30
0.0
 40
4.5
 41
0.0
 71
               4
 72
               1
  1
\W1.082;\A1;CS-180M18FE
  7
MX_NOTE_STANDARD
  0
MTEXT
  5
46A
100
AcDbEntity
  8
0
  6
CONTINUOUS
 62
               7
100
AcDbMText
 10
-251.93852459174977
 20
-160.0
 30
0.0
 40
4.5
 41
0.0
 71
               4
 72
               1
  1
\W1.082;\A1;CS-180M19FE
  7
MX_NOTE_STANDARD
  0
MTEXT
  5
46B
100
AcDbEntity
  8
0
  6
CONTINUOUS
 62
               7
100
AcDbMText
 10
-251.95161290169074
 20
-170.0
 30
0.0
 40
4.5
 41
0.0
 71
               4
 72
               1
  1
\W1.065;\A1;CS-180M20FE
  7
MX_NOTE_STANDARD
  0
MTEXT
  5
46C
100
AcDbEntity
  8
0
  6
CONTINUOUS
 62
               7
100
AcDbMText
 10
-187.75
 20
20.0
 30
0.0
 40
4.5
 41
0.0
 71
               4
 72
               1
  1
\A1;P
  7
MX_NOTE_STANDARD
  0
MTEXT
  5
46D
100
AcDbEntity
  8
0
  6
CONTINUOUS
 62
               7
100
AcDbMText
 10
-157.75
 20
20.0
 30
0.0
 40
4.5
 41
0.0
 71
               4
 72
               1
  1
\A1;L
  7
MX_NOTE_STANDARD
  0
MTEXT
  5
46E
100
AcDbEntity
  8
0
  6
CONTINUOUS
 62
               7
100
AcDbMText
 10
-190.0
 20
10.0
 30
0.0
 40
4.5
 41
0.0
 71
               4
 72
               1
  1
\A1;47
  7
MX_NOTE_STANDARD
  0
MTEXT
  5
46F
100
AcDbEntity
  8
0
  6
CONTINUOUS
 62
               7
100
AcDbMText
 10
-190.0
 20
0.0
 30
0.0
 40
4.5
 41
0.0
 71
               4
 72
               1
  1
\A1;66
  7
MX_NOTE_STANDARD
  0
MTEXT
  5
470
100
AcDbEntity
  8
0
  6
CONTINUOUS
 62
               7
100
AcDbMText
 10
-190.0
 20
-10.0
 30
0.0
 40
4.5
 41
0.0
 71
               4
 72
               1
  1
\A1;85
  7
MX_NOTE_STANDARD
  0
MTEXT
  5
471
100
AcDbEntity
  8
0
  6
CONTINUOUS
 62
               7
100
AcDbMText
 10
-192.09999999999999
 20
-20.0
 30
0.0
 40
4.5
 41
0.0
 71
               4
 72
               1
  1
\W1.200;\A1;104
  7
MX_NOTE_STANDARD
  0
MTEXT
  5
472
100
AcDbEntity
  8
0
  6
CONTINUOUS
 62
               7
100
AcDbMText
 10
-192.15625000628643
 20
-30.0
 30
0.0
 40
4.5
 41
0.0
 71
               4
 72
               1
  1
\W1.125;\A1;123
  7
MX_NOTE_STANDARD
  0
MTEXT
  5
473
100
AcDbEntity
  8
0
  6
CONTINUOUS
 62
               7
100
AcDbMText
 10
-192.15625000628643
 20
-40.0
 30
0.0
 40
4.5
 41
0.0
 71
               4
 72
               1
  1
\W1.125;\A1;142
  7
MX_NOTE_STANDARD
  0
MTEXT
  5
474
100
AcDbEntity
  8
0
  6
CONTINUOUS
 62
               7
100
AcDbMText
 10
-192.03571430213597
 20
-50.0
 30
0.0
 40
4.5
 41
0.0
 71
               4
 72
               1
  1
\W1.286;\A1;161
  7
MX_NOTE_STANDARD
  0
MTEXT
  5
475
100
AcDbEntity
  8
0
  6
CONTINUOUS
 62
               7
100
AcDbMText
 10
-192.09999999999999
 20
-60.0
 30
0.0
 40
4.5
 41
0.0
 71
               4
 72
               1
  1
\W1.200;\A1;180
  7
MX_NOTE_STANDARD
  0
MTEXT
  5
476
100
AcDbEntity
  8
0
  6
CONTINUOUS
 62
               7
100
AcDbMText
 10
-192.15625000628643
 20
-70.0
 30
0.0
 40
4.5
 41
0.0
 71
               4
 72
               1
  1
\W1.125;\A1;199
  7
MX_NOTE_STANDARD
  0
MTEXT
  5
477
100
AcDbEntity
  8
0
  6
CONTINUOUS
 62
               7
100
AcDbMText
 10
-192.15625000628643
 20
-80.0
 30
0.0
 40
4.5
 41
0.0
 71
               4
 72
               1
  1
\W1.125;\A1;218
  7
MX_NOTE_STANDARD
  0
MTEXT
  5
478
100
AcDbEntity
  8
0
  6
CONTINUOUS
 62
               7
100
AcDbMText
 10
-192.25
 20
-90.0
 30
0.0
 40
4.5
 41
0.0
 71
               4
 72
               1
  1
\A1;237
  7
MX_NOTE_STANDARD
  0
MTEXT
  5
479
100
AcDbEntity
  8
0
  6
CONTINUOUS
 62
               7
100
AcDbMText
 10
-192.25
 20
-100.0
 30
0.0
 40
4.5
 41
0.0
 71
               4
 72
               1
  1
\A1;256
  7
MX_NOTE_STANDARD
  0
MTEXT
  5
47A
100
AcDbEntity
  8
0
  6
CONTINUOUS
 62
               7
100
AcDbMText
 10
-192.25
 20
-110.0
 30
0.0
 40
4.5
 41
0.0
 71
               4
 72
               1
  1
\A1;275
  7
MX_NOTE_STANDARD
  0
MTEXT
  5
47B
100
AcDbEntity
  8
0
  6
CONTINUOUS
 62
               7
100
AcDbMText
 10
-192.25
 20
-120.0
 30
0.0
 40
4.5
 41
0.0
 71
               4
 72
               1
  1
\A1;294
  7
MX_NOTE_STANDARD
  0
MTEXT
  5
47C
100
AcDbEntity
  8
0
  6
CONTINUOUS
 62
               7
100
AcDbMText
 10
-192.15625000628643
 20
-130.0
 30
0.0
 40
4.5
 41
0.0
 71
               4
 72
               1
  1
\W1.125;\A1;313
  7
MX_NOTE_STANDARD
  0
MTEXT
  5
47D
100
AcDbEntity
  8
0
  6
CONTINUOUS
 62
               7
100
AcDbMText
 10
-192.25
 20
-140.0
 30
0.0
 40
4.5
 41
0.0
 71
               4
 72
               1
  1
\A1;332
  7
MX_NOTE_STANDARD
  0
MTEXT
  5
47E
100
AcDbEntity
  8
0
  6
CONTINUOUS
 62
               7
100
AcDbMText
 10
-192.15625000628643
 20
-150.0
 30
0.0
 40
4.5
 41
0.0
 71
               4
 72
               1
  1
\W1.125;\A1;351
  7
MX_NOTE_STANDARD
  0
MTEXT
  5
47F
100
AcDbEntity
  8
0
  6
CONTINUOUS
 62
               7
100
AcDbMText
 10
-192.20588234737258
 20
-160.0
 30
0.0
 40
4.5
 41
0.0
 71
               4
 72
               1
  1
\W1.059;\A1;370
  7
MX_NOTE_STANDARD
  0
MTEXT
  5
480
100
AcDbEntity
  8
0
  6
CONTINUOUS
 62
               7
100
AcDbMText
 10
-192.25
 20
-170.0
 30
0.0
 40
4.5
 41
0.0
 71
               4
 72
               1
  1
\A1;389
  7
MX_NOTE_STANDARD
  0
MTEXT
  5
481
100
AcDbEntity
  8
0
  6
CONTINUOUS
 62
               7
100
AcDbMText
 10
-160.0
 20
10.0
 30
0.0
 40
4.5
 41
0.0
 71
               4
 72
               1
  1
\A1;57
  7
MX_NOTE_STANDARD
  0
MTEXT
  5
482
100
AcDbEntity
  8
0
  6
CONTINUOUS
 62
               7
100
AcDbMText
 10
-160.0
 20
0.0
 30
0.0
 40
4.5
 41
0.0
 71
               4
 72
               1
  1
\A1;76
  7
MX_NOTE_STANDARD
  0
MTEXT
  5
483
100
AcDbEntity
  8
0
  6
CONTINUOUS
 62
               7
100
AcDbMText
 10
-160.0
 20
-10.0
 30
0.0
 40
4.5
 41
0.0
 71
               4
 72
               1
  1
\A1;95
  7
MX_NOTE_STANDARD
  0
MTEXT
  5
484
100
AcDbEntity
  8
0
  6
CONTINUOUS
 62
               7
100
AcDbMText
 10
-162.03571430213597
 20
-20.0
 30
0.0
 40
4.5
 41
0.0
 71
               4
 72
               1
  1
\W1.286;\A1;114
  7
MX_NOTE_STANDARD
  0
MTEXT
  5
485
100
AcDbEntity
  8
0
  6
CONTINUOUS
 62
               7
100
AcDbMText
 10
-162.15625000628643
 20
-30.0
 30
0.0
 40
4.5
 41
0.0
 71
               4
 72
               1
  1
\W1.125;\A1;133
  7
MX_NOTE_STANDARD
  0
MTEXT
  5
486
100
AcDbEntity
  8
0
  6
CONTINUOUS
 62
               7
100
AcDbMText
 10
-162.15625000628643
 20
-40.0
 30
0.0
 40
4.5
 41
0.0
 71
               4
 72
               1
  1
\W1.125;\A1;152
  7
MX_NOTE_STANDARD
  0
MTEXT
  5
487
100
AcDbEntity
  8
0
  6
CONTINUOUS
 62
               7
100
AcDbMText
 10
-162.03571430213597
 20
-50.0
 30
0.0
 40
4.5
 41
0.0
 71
               4
 72
               1
  1
\W1.286;\A1;171
  7
MX_NOTE_STANDARD
  0
MTEXT
  5
488
100
AcDbEntity
  8
0
  6
CONTINUOUS
 62
               7
100
AcDbMText
 10
-162.09999999999999
 20
-60.0
 30
0.0
 40
4.5
 41
0.0
 71
               4
 72
               1
  1
\W1.200;\A1;190
  7
MX_NOTE_STANDARD
  0
MTEXT
  5
489
100
AcDbEntity
  8
0
  6
CONTINUOUS
 62
               7
100
AcDbMText
 10
-162.20588234737258
 20
-70.0
 30
0.0
 40
4.5
 41
0.0
 71
               4
 72
               1
  1
\W1.059;\A1;209
  7
MX_NOTE_STANDARD
  0
MTEXT
  5
48A
100
AcDbEntity
  8
0
  6
CONTINUOUS
 62
               7
100
AcDbMText
 10
-162.25
 20
-80.0
 30
0.0
 40
4.5
 41
0.0
 71
               4
 72
               1
  1
\A1;228
  7
MX_NOTE_STANDARD
  0
MTEXT
  5
48B
100
AcDbEntity
  8
0
  6
CONTINUOUS
 62
               7
100
AcDbMText
 10
-162.25
 20
-90.0
 30
0.0
 40
4.5
 41
0.0
 71
               4
 72
               1
  1
\A1;247
  7
MX_NOTE_STANDARD
  0
MTEXT
  5
48C
100
AcDbEntity
  8
0
  6
CONTINUOUS
 62
               7
100
AcDbMText
 10
-162.25
 20
-100.0
 30
0.0
 40
4.5
 41
0.0
 71
               4
 72
               1
  1
\A1;266
  7
MX_NOTE_STANDARD
  0
MTEXT
  5
48D
100
AcDbEntity
  8
0
  6
CONTINUOUS
 62
               7
100
AcDbMText
 10
-162.25
 20
-110.0
 30
0.0
 40
4.5
 41
0.0
 71
               4
 72
               1
  1
\A1;285
  7
MX_NOTE_STANDARD
  0
MTEXT
  5
48E
100
AcDbEntity
  8
0
  6
CONTINUOUS
 62
               7
100
AcDbMText
 10
-162.20588234737258
 20
-120.0
 30
0.0
 40
4.5
 41
0.0
 71
               4
 72
               1
  1
\W1.059;\A1;304
  7
MX_NOTE_STANDARD
  0
MTEXT
  5
48F
100
AcDbEntity
  8
0
  6
CONTINUOUS
 62
               7
100
AcDbMText
 10
-162.25
 20
-130.0
 30
0.0
 40
4.5
 41
0.0
 71
               4
 72
               1
  1
\A1;323
  7
MX_NOTE_STANDARD
  0
MTEXT
  5
490
100
AcDbEntity
  8
0
  6
CONTINUOUS
 62
               7
100
AcDbMText
 10
-162.25
 20
-140.0
 30
0.0
 40
4.5
 41
0.0
 71
               4
 72
               1
  1
\A1;342
  7
MX_NOTE_STANDARD
  0
MTEXT
  5
491
100
AcDbEntity
  8
0
  6
CONTINUOUS
 62
               7
100
AcDbMText
 10
-162.15625000628643
 20
-150.0
 30
0.0
 40
4.5
 41
0.0
 71
               4
 72
               1
  1
\W1.125;\A1;361
  7
MX_NOTE_STANDARD
  0
MTEXT
  5
492
100
AcDbEntity
  8
0
  6
CONTINUOUS
 62
               7
100
AcDbMText
 10
-162.20588234737258
 20
-160.0
 30
0.0
 40
4.5
 41
0.0
 71
               4
 72
               1
  1
\W1.059;\A1;380
  7
MX_NOTE_STANDARD
  0
MTEXT
  5
493
100
AcDbEntity
  8
0
  6
CONTINUOUS
 62
               7
100
AcDbMText
 10
-162.25
 20
-170.0
 30
0.0
 40
4.5
 41
0.0
 71
               4
 72
               1
  1
\A1;399
  7
MX_NOTE_STANDARD
  0
MTEXT
  5
494
100
AcDbEntity
  8
0
  6
CONTINUOUS
 62
               7
100
AcDbMText
 10
-231.91666667060878
 20
32.5
 30
0.0
 40
4.5
 41
0.0
 71
               4
 72
               1
  1
\W1.111;\A1;DIMENSION LIST
  7
MX_NOTE_STANDARD
  0
DIMENSION
  5
4A5
100
AcDbEntity
  8
0
  6
CONTINUOUS
 62
               2
100
AcDbDimension
  2
*D5
 10
-28.181991577148437
 20
84.744110107421875
 30
0.0
 11
-41.428207397460938
 21
84.744110107421875
 31
0.0
 70
             128
  1
<>
  3
MXDIMSTYLE
100
AcDbAlignedDimension
 13
-33.181991577148438
 23
41.22430419921875
 33
0.0
 14
-28.181991577148437
 24
17.724288940429688
 34
0.0
100
AcDbRotatedDimension
1001
ACAD
1000
DSTYLE
1002
{
1070
               6
1000
_OPEN30
1070
               7
1000
_NONE
1070
              41
1040
2.77
1070
              42
1040
0.0
1070
              75
1070
               1
1070
              78
1070
               0
1070
             140
1040
4.5
1070
             173
1070
               1
1070
             271
1070
               0
1002
}
  0
DIMENSION
  5
4B0
100
AcDbEntity
  8
0
  6
CONTINUOUS
 62
               2
100
AcDbDimension
  2
*D7
 10
75.818038940429688
 20
84.247055053710938
 30
0.0
 11
23.818023681640625
 21
84.247055053710938
 31
0.0
 70
             128
  1
P
  3
MXDIMSTYLE
100
AcDbAlignedDimension
 13
-28.181991577148437
 23
17.724288940429688
 33
0.0
 14
75.818038940429688
 24
17.724288940429688
 34
0.0
100
AcDbRotatedDimension
1001
ACAD
1000
DSTYLE
1002
{
1070
               6
1000
_OPEN30
1070
               7
1000
_NONE
1070
              41
1040
2.77
1070
              42
1040
0.0
1070
              75
1070
               1
1070
              78
1070
               0
1070
             140
1040
4.5
1070
             173
1070
               1
1070
             271
1070
               0
1002
}
  0
DIMENSION
  5
4BE
100
AcDbEntity
  8
0
  6
CONTINUOUS
 62
               2
100
AcDbDimension
  2
*D8
 10
80.818023681640625
 20
84.992645263671875
 30
0.0
 11
88.302993774414063
 21
84.992645263671875
 31
0.0
 70
             128
  1
<>
  3
MXDIMSTYLE
100
AcDbAlignedDimension
 13
75.818038940429688
 23
17.724288940429688
 33
0.0
 14
80.818023681640625
 24
41.22430419921875
 34
0.0
100
AcDbRotatedDimension
1001
ACAD
1000
DSTYLE
1002
{
1070
               6
1000
_OPEN30
1070
               7
1000
_OPEN30
1070
              41
1040
2.77
1070
              75
1070
               1
1070
              76
1070
               1
1070
              78
1070
               0
1070
             140
1040
4.5
1070
             173
1070
               1
1070
             271
1070
               0
1002
}
  0
DIMENSION
  5
4CB
100
AcDbEntity
  8
0
  6
CONTINUOUS
 62
               2
100
AcDbDimension
  2
*D9
 10
-33.181991577148438
 20
96.145401000976563
 30
0.0
 11
23.818008422851563
 21
96.145401000976563
 31
0.0
 70
             128
  1
L
  3
MXDIMSTYLE
100
AcDbAlignedDimension
 13
80.818023681640625
 23
41.22430419921875
 33
0.0
 14
-33.181991577148438
 24
41.22430419921875
 34
0.0
100
AcDbRotatedDimension
1001
ACAD
1000
DSTYLE
1002
{
1070
               6
1000
_OPEN30
1070
               7
1000
_OPEN30
1070
              41
1040
2.77
1070
              78
1070
               0
1070
             140
1040
4.5
1070
             173
1070
               1
1070
             271
1070
               0
1002
}
  0
ENDSEC
  0
SECTION
  2
OBJECTS
  0
DICTIONARY
  5
19
100
AcDbDictionary
  3
ACAD_GROUP
350
1A
  3
ACAD_MLINESTYLE
350
1B
  0
DICTIONARY
  5
1A
102
{ACAD_REACTORS
330
19
102
}
100
AcDbDictionary
  0
DICTIONARY
  5
1B
102
{ACAD_REACTORS
330
19
102
}
100
AcDbDictionary
  3
STANDARD
350
1C
  0
MLINESTYLE
  5
1C
102
{ACAD_REACTORS
330
1B
102
}
100
AcDbMlineStyle
  2
Standard
 70
               0
  3

 62
               0
 51
90.0
 52
90.0
 71
               2
 49
0.5
 62
             256
  6
ByLayer
 49
-0.5
 62
             256
  6
ByLayer
  0
ENDSEC
  0
EOF
