  0
SECTION
  2
HEADER
  9
$ACADVER
  1
AC1012
  9
$DWGCODEPAGE
  3
dos932
  9
$INSBASE
 10
0.0
 20
0.0
 30
0.0
  9
$EXTMIN
 10
-399.25
 20
-276.75
 30
0.0
  9
$EXTMAX
 10
406.04981708526611
 20
276.25
 30
0.0
  9
$LIMMIN
 10
-399.25
 20
-276.75
  9
$LIMMAX
 10
406.04981708526611
 20
276.25
  9
$ORTHOMODE
 70
               0
  9
$REGENMODE
 70
               1
  9
$FILLMODE
 70
               1
  9
$QTEXTMODE
 70
               0
  9
$MIRRTEXT
 70
               1
  9
$DRAGMODE
 70
               2
  9
$LTSCALE
 40
1.0
  9
$OSMODE
 70
               0
  9
$ATTMODE
 70
               1
  9
$TEXTSIZE
 40
3.2000000476837158
  9
$TRACEWID
 40
0.05
  9
$TEXTSTYLE
  7
MX_NOTE_STANDARD
  9
$CLAYER
  8
0
  9
$CELTYPE
  6
CONTINUOUS
  9
$CECOLOR
 62
             256
  9
$CELTSCALE
 40
1.0
  9
$DELOBJ
 70
               1
  9
$DISPSILH
 70
               0
  9
$DIMSCALE
 40
1.0
  9
$DIMASZ
 40
2.5
  9
$DIMEXO
 40
1.5
  9
$DIMDLI
 40
3.75
  9
$DIMRND
 40
0.0
  9
$DIMDLE
 40
0.0
  9
$DIMEXE
 40
1.5
  9
$DIMTP
 40
0.0
  9
$DIMTM
 40
0.0
  9
$DIMTXT
 40
3.2000000476837158
  9
$DIMCEN
 40
2.5
  9
$DIMTSZ
 40
0.0
  9
$DIMTOL
 70
               0
  9
$DIMLIM
 70
               0
  9
$DIMTIH
 70
               0
  9
$DIMTOH
 70
               0
  9
$DIMSE1
 70
               0
  9
$DIMSE2
 70
               0
  9
$DIMTAD
 70
               1
  9
$DIMZIN
 70
               8
  9
$DIMBLK
  1

  9
$DIMASO
 70
               1
  9
$DIMSHO
 70
               1
  9
$DIMPOST
  1

  9
$DIMAPOST
  1

  9
$DIMALT
 70
               0
  9
$DIMALTD
 70
               4
  9
$DIMALTF
 40
0.0394
  9
$DIMLFAC
 40
1.0
  9
$DIMTOFL
 70
               1
  9
$DIMTVP
 40
0.0
  9
$DIMTIX
 70
               0
  9
$DIMSOXD
 70
               0
  9
$DIMSAH
 70
               0
  9
$DIMBLK1
  1

  9
$DIMBLK2
  1

  9
$DIMSTYLE
  2
MXDIMSTYLE
  9
$DIMCLRD
 70
               0
  9
$DIMCLRE
 70
               0
  9
$DIMCLRT
 70
               0
  9
$DIMTFAC
 40
1.0
  9
$DIMGAP
 40
1.0
  9
$DIMJUST
 70
               0
  9
$DIMSD1
 70
               0
  9
$DIMSD2
 70
               0
  9
$DIMTOLJ
 70
               1
  9
$DIMTZIN
 70
               0
  9
$DIMALTZ
 70
               0
  9
$DIMALTTZ
 70
               0
  9
$DIMFIT
 70
               3
  9
$DIMUPT
 70
               1
  9
$DIMUNIT
 70
               2
  9
$DIMDEC
 70
               4
  9
$DIMTDEC
 70
               4
  9
$DIMALTU
 70
               8
  9
$DIMALTTD
 70
               4
  9
$DIMTXSTY
  7
MX_NOTE_STANDARD
  9
$DIMAUNIT
 70
               0
  9
$LUNITS
 70
               2
  9
$LUPREC
 70
               4
  9
$SKETCHINC
 40
0.1
  9
$FILLETRAD
 40
0.0
  9
$AUNITS
 70
               0
  9
$AUPREC
 70
               0
  9
$MENU
  1
acad
  9
$ELEVATION
 40
0.0
  9
$PELEVATION
 40
0.0
  9
$THICKNESS
 40
0.0
  9
$LIMCHECK
 70
               0
  9
$BLIPMODE
 70
               1
  9
$CHAMFERA
 40
0.0
  9
$CHAMFERB
 40
0.0
  9
$CHAMFERC
 40
0.0
  9
$CHAMFERD
 40
0.0
  9
$SKPOLY
 70
               0
  9
$TDCREATE
 40
2452220.696620370
  9
$TDUPDATE
 40
2452220.696620370
  9
$TDINDWG
 40
0.0000000000
  9
$TDUSRTIMER
 40
0.0000000000
  9
$USRTIMER
 70
               1
  9
$ANGBASE
 50
0.0
  9
$ANGDIR
 70
               0
  9
$PDMODE
 70
               0
  9
$PDSIZE
 40
0.0
  9
$PLINEWID
 40
0.0
  9
$COORDS
 70
               1
  9
$SPLFRAME
 70
               0
  9
$SPLINETYPE
 70
               6
  9
$SPLINESEGS
 70
               8
  9
$ATTDIA
 70
               0
  9
$ATTREQ
 70
               1
  9
$HANDLING
 70
               1
  9
$HANDSEED
  5
6B1
  9
$SURFTAB1
 70
               6
  9
$SURFTAB2
 70
               6
  9
$SURFTYPE
 70
               6
  9
$SURFU
 70
               6
  9
$SURFV
 70
               6
  9
$UCSNAME
  2

  9
$UCSORG
 10
0.0
 20
0.0
 30
0.0
  9
$UCSXDIR
 10
1.0
 20
0.0
 30
0.0
  9
$UCSYDIR
 10
0.0
 20
1.0
 30
0.0
  9
$PUCSNAME
  2

  9
$PUCSORG
 10
0.0
 20
0.0
 30
0.0
  9
$PUCSXDIR
 10
1.0
 20
0.0
 30
0.0
  9
$PUCSYDIR
 10
0.0
 20
1.0
 30
0.0
  9
$USERI1
 70
               0
  9
$USERI2
 70
               0
  9
$USERI3
 70
               0
  9
$USERI4
 70
               0
  9
$USERI5
 70
               0
  9
$USERR1
 40
0.0
  9
$USERR2
 40
0.0
  9
$USERR3
 40
0.0
  9
$USERR4
 40
0.0
  9
$USERR5
 40
0.0
  9
$WORLDVIEW
 70
               1
  9
$SHADEDGE
 70
               3
  9
$SHADEDIF
 70
              70
  9
$TILEMODE
 70
               1
  9
$MAXACTVP
 70
              16
  9
$PINSBASE
 10
0.0
 20
0.0
 30
0.0
  9
$PLIMCHECK
 70
               0
  9
$PEXTMIN
 10
1.0000000000000000E+20
 20
1.0000000000000000E+20
 30
1.0000000000000000E+20
  9
$PEXTMAX
 10
-1.0000000000000000E+20
 20
-1.0000000000000000E+20
 30
-1.0000000000000000E+20
  9
$PLIMMIN
 10
0.0
 20
0.0
  9
$PLIMMAX
 10
12.0
 20
9.0
  9
$UNITMODE
 70
               0
  9
$VISRETAIN
 70
               0
  9
$PLINEGEN
 70
               1
  9
$PSLTSCALE
 70
               0
  9
$TREEDEPTH
 70
            3020
  9
$PICKSTYLE
 70
               1
  9
$CMLSTYLE
  2
Standard
  9
$CMLJUST
 70
               0
  9
$CMLSCALE
 40
1.0
  9
$SAVEIMAGES
 70
               0
  0
ENDSEC
  0
SECTION
  2
CLASSES
  0
CLASS
  1
LWPOLYLINE
  2
AcDbPolyline
  3
"AutoCAD"
 90
        0
280
               0
281
               1
  0
CLASS
  1
IMAGE
  2
AcDbRasterImage
  3
ISM
 90
      127
280
               0
281
               1
  0
CLASS
  1
OLE2FRAME
  2
AcDbOle2Frame
  3
""
 90
        0
280
               0
281
               1
  0
CLASS
  1
HATCH
  2
AcDbHatch
  3
"ACAD_SEDONA"
 90
        0
280
               0
281
               1
  0
CLASS
  1
DICTIONARYVAR
  2
AcDbDictionaryVar
  3
"AutoCAD"
 90
        0
280
               0
281
               0
  0
CLASS
  1
RASTERVARIABLES
  2
AcDbRasterVariables
  3
ISM
 90
        0
280
               0
281
               0
  0
CLASS
  1
IMAGEDEF
  2
AcDbRasterImageDef
  3
ISM
 90
        0
280
               0
281
               0
  0
CLASS
  1
IMAGEDEF_REACTOR
  2
AcDbRasterImageDefReactor
  3
ISM
 90
        1
280
               0
281
               0
  0
CLASS
  1
IDBUFFER
  2
AcDbIdBuffer
  3
"Acad"
 90
        0
280
               0
281
               0
  0
CLASS
  1
SPATIAL_FILTER
  2
AcDbSpatialFilter
  3
"Acad"
 90
        0
280
               0
281
               0
  0
CLASS
  1
XRECORD
  2
AcDbXrecord
  3
"<Built In>"
 90
        0
280
               0
281
               0
  0
CLASS
  1
SORTENTSTABLE
  2
AcDbSortentsTable
  3
"AutoCAD"
 90
        0
280
               0
281
               0
  0
CLASS
  1
LAYER_INDEX
  2
AcDbLayerIndex
  3
"Acad"
 90
        0
280
               0
281
               0
  0
CLASS
  1
SPATIAL_INDEX
  2
AcDbSpatialIndex
  3
"Acad"
 90
        0
280
               0
281
               0
  0
CLASS
  1
OBJECT_PTR
  2
CAseDLPNTableRecord
  3
"ASE-LPNTableRecord"
 90
        1
280
               0
281
               0
  0
CLASS
  1
LAYOUT
  2
AcDbLayout
  3
"AutoCAD 2000"
 90
        1
280
               0
281
               0
  0
CLASS
  1
PLOTSETTINGS
  2
AcDbPlotSettings
  3
"AutoCAD 2000"
 90
        1
280
               0
281
               0
  0
CLASS
  1
ACDBDICTIONARYWDFLT
  2
AcDbDictionaryWithDefault
  3
"AutoCAD 2000"
 90
        1
280
               0
281
               0
  0
CLASS
  1
ACDBPLACEHOLDER
  2
AcDbPlaceHolder
  3
"AutoCAD 2000"
 90
        1
280
               0
281
               0
  0
CLASS
  1
VBA_PROJECT
  2
AcDbVbaProject
  3
"acadvba"
 90
        1
280
               0
281
               0
  0
CLASS
  1
WIPEOUT
  2
AcDbWipeout
  3
WipeOut|AutoCAD Express Tool|expresstools@autodesk.com
 90
      127
280
               0
281
               1
  0
CLASS
  1
WIPEOUTVARIABLES
  2
AcDbWipeoutVariables
  3
WipeOut|AutoCAD Express Tool|expresstools@autodesk.com
 90
        0
280
               0
281
               0
  0
CLASS
  1
RTEXT
  2
RText
  3
RText|AutoCAD Express Tool|expresstools@autodesk.com
 90
        0
280
               0
281
               1
  0
CLASS
  1
ARCALIGNEDTEXT
  2
AcDbArcAlignedText
  3
ATEXT|AutoCAD Express Tool|expresstools@autodesk.com
 90
        0
280
               0
281
               1
  0
ENDSEC
  0
SECTION
  2
TABLES
  0
TABLE
  2
VPORT
  5
7
100
AcDbSymbolTable
 70
               1
  0
VPORT
  5
15
100
AcDbSymbolTableRecord
100
AcDbViewportTableRecord
  2
*ACTIVE
 70
               0
 10
0.0
 20
0.0
 11
1.0
 21
1.0
 12
3.3999085426330566
 22
-0.25
 13
0.0
 23
0.0
 14
1.0
 24
1.0
 15
0.0
 25
0.0
 16
0.0
 26
0.0
 36
1.0
 17
0.0
 27
0.0
 37
0.0
 40
558.52999999999997
 41
1.7320508075688772
 42
50.0
 43
0.0
 44
0.0
 50
0.0
 51
0.0
 71
               0
 72
             100
 73
               1
 74
               1
 75
               0
 76
               0
 77
               0
 78
               0
  0
ENDTAB
  0
TABLE
  2
LTYPE
  5
4
100
AcDbSymbolTable
 70
               4
  0
LTYPE
  5
11
100
AcDbSymbolTableRecord
100
AcDbLinetypeTableRecord
  2
BYBLOCK
 70
              64
  3

 72
              65
 73
               0
 40
0.0
  0
LTYPE
  5
12
100
AcDbSymbolTableRecord
100
AcDbLinetypeTableRecord
  2
BYLAYER
 70
              64
  3

 72
              65
 73
               0
 40
0.0
  0
LTYPE
  5
13
100
AcDbSymbolTableRecord
100
AcDbLinetypeTableRecord
  2
CONTINUOUS
 70
              64
  3
Solid line
 72
              65
 73
               0
 40
0.0
  0
LTYPE
  5
A2
100
AcDbSymbolTableRecord
100
AcDbLinetypeTableRecord
  2
CENTER
 70
              64
  3
Center ____ _ ____ _ ____ _ ____ _ ____ _ ____
 72
              65
 73
               4
 40
50.800000000000004
 49
31.75
 74
               0
 49
-6.3499999999999996
 74
               0
 49
6.3499999999999996
 74
               0
 49
-6.3499999999999996
 74
               0
  0
ENDTAB
  0
TABLE
  2
LAYER
  5
2
100
AcDbSymbolTable
 70
               2
  0
LAYER
  5
14
100
AcDbSymbolTableRecord
100
AcDbLayerTableRecord
  2
0
 70
               0
 62
               7
  6
CONTINUOUS
  0
LAYER
  5
1D
100
AcDbSymbolTableRecord
100
AcDbLayerTableRecord
  2
DEFPOINTS
 70
               0
 62
               7
  6
CONTINUOUS
  0
ENDTAB
  0
TABLE
  2
STYLE
  5
3
100
AcDbSymbolTable
 70
               1
  0
STYLE
  5
17
100
AcDbSymbolTableRecord
100
AcDbTextStyleTableRecord
  2
MX_NOTE_STANDARD
 70
               0
 40
3.2000000476837158
 41
1.0
 50
0.0
 71
               0
 42
3.2000000476837158
  3
txt.shx
  4
extfont.shx
  0
ENDTAB
  0
TABLE
  2
VIEW
  5
5
100
AcDbSymbolTable
 70
               0
  0
ENDTAB
  0
TABLE
  2
UCS
  5
6
100
AcDbSymbolTable
 70
               0
  0
ENDTAB
  0
TABLE
  2
APPID
  5
8
100
AcDbSymbolTable
 70
               1
  0
APPID
  5
16
100
AcDbSymbolTableRecord
100
AcDbRegAppTableRecord
  2
ACAD
 70
               0
  0
ENDTAB
  0
TABLE
  2
DIMSTYLE
  5
9
100
AcDbSymbolTable
 70
               1
  0
DIMSTYLE
105
18
100
AcDbSymbolTableRecord
100
AcDbDimStyleTableRecord
  2
MXDIMSTYLE
 70
               0
  3

  4

  5

  6

  7

 40
1.0
 41
2.5
 42
1.5
 43
3.75
 44
1.5
 45
0.0
 46
0.0
 47
0.0
 48
0.0
 71
               0
 72
               0
 73
               0
 74
               0
 75
               0
 76
               0
 77
               1
 78
               8
140
3.2000000476837158
141
2.5
142
0.0
143
0.0394
144
1.0
145
0.0
146
1.0
147
1.0
170
               0
171
               4
172
               1
173
               0
174
               0
175
               0
176
               0
177
               0
178
               0
270
               2
271
               4
272
               4
273
               8
274
               4
275
               0
280
               0
281
               0
282
               0
283
               1
284
               0
285
               0
286
               0
287
               3
288
               1
340
17
  0
ENDTAB
  0
TABLE
  2
BLOCK_RECORD
  5
1
100
AcDbSymbolTable
 70
              10
  0
BLOCK_RECORD
  5
A
100
AcDbSymbolTableRecord
100
AcDbBlockTableRecord
  2
*MODEL_SPACE
  0
BLOCK_RECORD
  5
B
100
AcDbSymbolTableRecord
100
AcDbBlockTableRecord
  2
*PAPER_SPACE
  0
BLOCK_RECORD
  5
1E
100
AcDbSymbolTableRecord
100
AcDbBlockTableRecord
  2
MS_1
  0
BLOCK_RECORD
  5
1F
100
AcDbSymbolTableRecord
100
AcDbBlockTableRecord
  2
MS_2
  0
BLOCK_RECORD
  5
20
100
AcDbSymbolTableRecord
100
AcDbBlockTableRecord
  2
MS_3
  0
BLOCK_RECORD
  5
21
100
AcDbSymbolTableRecord
100
AcDbBlockTableRecord
  2
MS_4
  0
BLOCK_RECORD
  5
628
100
AcDbSymbolTableRecord
100
AcDbBlockTableRecord
  2
_OPEN30
  0
BLOCK_RECORD
  5
637
100
AcDbSymbolTableRecord
100
AcDbBlockTableRecord
  2
*D5
  0
BLOCK_RECORD
  5
63C
100
AcDbSymbolTableRecord
100
AcDbBlockTableRecord
  2
_NONE
  0
BLOCK_RECORD
  5
647
100
AcDbSymbolTableRecord
100
AcDbBlockTableRecord
  2
*D7
  0
BLOCK_RECORD
  5
653
100
AcDbSymbolTableRecord
100
AcDbBlockTableRecord
  2
*D8
  0
BLOCK_RECORD
  5
660
100
AcDbSymbolTableRecord
100
AcDbBlockTableRecord
  2
*D9
  0
ENDTAB
  0
ENDSEC
  0
SECTION
  2
BLOCKS
  0
BLOCK
  5
D
100
AcDbEntity
  8
0
100
AcDbBlockBegin
  2
*MODEL_SPACE
 70
               0
 10
0.0
 20
0.0
 30
0.0
  3
*MODEL_SPACE
  1

  0
ENDBLK
  5
E
100
AcDbEntity
  8
0
100
AcDbBlockEnd
  0
BLOCK
  5
F
100
AcDbEntity
 67
               1
  8
0
100
AcDbBlockBegin
  2
*PAPER_SPACE
 70
               0
 10
0.0
 20
0.0
 30
0.0
  3
*PAPER_SPACE
  1

  0
ENDBLK
  5
10
100
AcDbEntity
 67
               1
  8
0
100
AcDbBlockEnd
  0
BLOCK
  5
22
100
AcDbEntity
  8
0
100
AcDbBlockBegin
  2
MS_1
 70
               0
 10
0.0
 20
0.0
 30
0.0
  3
MS_1
  1

  0
ARC
  5
23
100
AcDbEntity
  8
0
  6
CONTINUOUS
 62
               7
100
AcDbCircle
 10
182.4999847401632
 20
52.9999847401632
 30
0.0
 40
1.0000152599532299
100
AcDbArc
 50
0.0008743109028116
 51
89.999125689096999
  0
ARC
  5
24
100
AcDbEntity
  8
0
  6
CONTINUOUS
 62
               4
100
AcDbCircle
 10
88.250073981288693
 20
-96.699874930798316
 30
0.0
 40
2.0001250705698999
100
AcDbArc
 50
269.99788072472586
 51
319.45674804865325
  0
ARC
  5
25
100
AcDbEntity
  8
0
  6
CONTINUOUS
 62
               4
100
AcDbCircle
 10
104.24992980945622
 20
-96.699929809456222
 30
0.0
 40
2.0000701917754107
100
AcDbArc
 50
270.00201074039126
 51
359.99798925960732
  0
ARC
  5
26
100
AcDbEntity
  8
0
  6
CONTINUOUS
 62
               4
100
AcDbCircle
 10
102.74997100981476
 20
-96.700028990185245
 30
0.0
 40
1.9999710100248747
100
AcDbArc
 50
179.99916948033035
 51
270.00083051966863
  0
ARC
  5
27
100
AcDbEntity
  8
0
  6
CONTINUOUS
 62
               4
100
AcDbCircle
 10
86.749893976700719
 20
-96.699944507735594
 30
0.0
 40
2.0000554950745535
100
AcDbArc
 50
220.54233396710464
 51
270.0030372595138
  0
ARC
  5
28
100
AcDbEntity
  8
0
  6
CONTINUOUS
 62
               4
100
AcDbCircle
 10
58.749986267090428
 20
34.700013732909575
 30
0.0
 40
1.9999862671375757
100
AcDbArc
 50
89.999606578418934
 51
180.00039342158047
  0
ARC
  5
29
100
AcDbEntity
  8
0
  6
CONTINUOUS
 62
               4
100
AcDbCircle
 10
60.250006103506308
 20
34.700006103506311
 30
0.0
 40
1.9999938965030029
100
AcDbArc
 50
359.99982514688975
 51
90.000174853109272
  0
ARC
  5
2A
100
AcDbEntity
  8
0
  6
CONTINUOUS
 62
               4
100
AcDbCircle
 10
76.250110522201751
 20
34.699954276780986
 30
0.0
 40
2.0000457262727345
100
AcDbArc
 50
40.542205071154051
 51
90.003166155464598
  0
ARC
  5
2B
100
AcDbEntity
  8
0
  6
CONTINUOUS
 62
               4
100
AcDbCircle
 10
74.749884137328692
 20
34.699965873229146
 30
0.0
 40
2.0000341301268372
100
AcDbArc
 50
89.996680835605176
 51
139.45794793777497
  0
ARC
  5
2C
100
AcDbEntity
  8
0
  6
CONTINUOUS
 62
               7
100
AcDbCircle
 10
132.2707745134083
 20
34.701058758651619
 30
0.0
 40
1.9990491906831021
100
AcDbArc
 50
90.595439757627304
 51
95.764220482104108
  0
ARC
  5
2D
100
AcDbEntity
  8
0
  6
CONTINUOUS
 62
               4
100
AcDbCircle
 10
130.74989573209882
 20
49.699940696014004
 30
0.0
 40
2.0000593067038688
100
AcDbArc
 50
89.997013033233912
 51
139.45761574014637
  0
ARC
  5
2E
100
AcDbEntity
  8
0
  6
CONTINUOUS
 62
               4
100
AcDbCircle
 10
116.24999084470561
 20
49.69999084470561
 30
0.0
 40
2.0000091553153485
100
AcDbArc
 50
0.0002622786638333
 51
89.999737721335961
  0
ARC
  5
2F
100
AcDbEntity
  8
0
  6
CONTINUOUS
 62
               4
100
AcDbCircle
 10
114.75000152594934
 20
49.699998474050666
 30
0.0
 40
2.0000015259499211
100
AcDbArc
 50
90.000043715195034
 51
179.9999562848046
  0
ARC
  5
30
100
AcDbEntity
  8
0
  6
CONTINUOUS
 62
               7
100
AcDbCircle
 10
8.4999847413273528
 20
53.000015258672647
 30
0.0
 40
0.9999847414437681
100
AcDbArc
 50
89.999125729116003
 51
180.0008742708834
  0
ARC
  5
31
100
AcDbEntity
  8
0
  6
CONTINUOUS
 62
               4
100
AcDbCircle
 10
116.25008824625634
 20
-111.69990590615666
 30
0.0
 40
2.000094095790101
100
AcDbArc
 50
269.99747204991024
 51
319.45715672346938
  0
ARC
  5
32
100
AcDbEntity
  8
0
  6
CONTINUOUS
 62
               4
100
AcDbCircle
 10
132.24995269754376
 20
-111.69995269754378
 30
0.0
 40
2.0000473030155921
100
AcDbArc
 50
270.00135508350127
 51
359.99864491649771
  0
ARC
  5
33
100
AcDbEntity
  8
0
  6
CONTINUOUS
 62
               4
100
AcDbCircle
 10
130.74996337966061
 20
-111.70003662033938
 30
0.0
 40
1.9999633799958914
100
AcDbArc
 50
179.99895088534507
 51
270.00104911465434
  0
ARC
  5
34
100
AcDbEntity
  8
0
  6
CONTINUOUS
 62
               4
100
AcDbCircle
 10
132.25009892749884
 20
49.699929099711817
 30
0.0
 40
2.0000709027347652
100
AcDbArc
 50
40.542537263004434
 51
90.002833963613725
  0
ARC
  5
35
100
AcDbEntity
  8
0
  6
CONTINUOUS
 62
               4
100
AcDbCircle
 10
114.74988505173205
 20
-111.69996388766758
 30
0.0
 40
2.0000361156356368
100
AcDbArc
 50
220.54207826077268
 51
270.00329296584533
  0
ARC
  5
36
100
AcDbEntity
  8
0
  6
CONTINUOUS
 62
               4
100
AcDbCircle
 10
48.250110522201773
 20
34.699954276780986
 30
0.0
 40
2.0000457262727371
100
AcDbArc
 50
40.542205071154321
 51
90.003166155465209
  0
ARC
  5
37
100
AcDbEntity
  8
0
  6
CONTINUOUS
 62
               4
100
AcDbCircle
 10
86.749986267090421
 20
34.700013732909575
 30
0.0
 40
1.9999862671375757
100
AcDbArc
 50
89.999606578418735
 51
180.00039342158047
  0
ARC
  5
38
100
AcDbEntity
  8
0
  6
CONTINUOUS
 62
               4
100
AcDbCircle
 10
88.250006103506308
 20
34.700006103506311
 30
0.0
 40
1.9999938965030029
100
AcDbArc
 50
359.99982514688975
 51
90.000174853109272
  0
ARC
  5
39
100
AcDbEntity
  8
0
  6
CONTINUOUS
 62
               4
100
AcDbCircle
 10
32.250006103506308
 20
34.700006103506311
 30
0.0
 40
1.9999938965030029
100
AcDbArc
 50
359.99982514688975
 51
90.000174853109272
  0
ARC
  5
3A
100
AcDbEntity
  8
0
  6
CONTINUOUS
 62
               4
100
AcDbCircle
 10
46.749884137328678
 20
34.699965873229146
 30
0.0
 40
2.0000341301268398
100
AcDbArc
 50
89.996680835604764
 51
139.45794793777483
  0
ARC
  5
3B
100
AcDbEntity
  8
0
  6
CONTINUOUS
 62
               4
100
AcDbCircle
 10
104.25011052220175
 20
34.699954276780986
 30
0.0
 40
2.0000457262727345
100
AcDbArc
 50
40.542205071154051
 51
90.003166155464598
  0
ARC
  5
3C
100
AcDbEntity
  8
0
  6
CONTINUOUS
 62
               4
100
AcDbCircle
 10
30.749986267090428
 20
34.700013732909575
 30
0.0
 40
1.9999862671375757
100
AcDbArc
 50
89.999606578418934
 51
180.00039342158047
  0
ARC
  5
3D
100
AcDbEntity
  8
0
  6
CONTINUOUS
 62
               4
100
AcDbCircle
 10
102.74988413732869
 20
34.699965873229146
 30
0.0
 40
2.0000341301268372
100
AcDbArc
 50
89.996680835605176
 51
139.45794793777497
  0
CIRCLE
  5
3E
100
AcDbEntity
  8
0
  6
CONTINUOUS
 62
               7
100
AcDbCircle
 10
131.99996948242187
 20
-51.0
 30
0.0
 40
2.25
  0
CIRCLE
  5
3F
100
AcDbEntity
  8
0
  6
CONTINUOUS
 62
               7
100
AcDbCircle
 10
132.49996948242187
 20
-26.0
 30
0.0
 40
2.5
  0
CIRCLE
  5
40
100
AcDbEntity
  8
0
  6
CONTINUOUS
 62
               7
100
AcDbCircle
 10
114.49996948242187
 20
-18.0
 30
0.0
 40
2.5
  0
CIRCLE
  5
41
100
AcDbEntity
  8
0
  6
CONTINUOUS
 62
               7
100
AcDbCircle
 10
114.49996948242187
 20
-44.0
 30
0.0
 40
2.5
  0
ARC
  5
42
100
AcDbEntity
  8
0
  6
CONTINUOUS
 62
               7
100
AcDbCircle
 10
132.5
 20
-26.0
 30
0.0
 40
3.0000000001552203
100
AcDbArc
 50
89.999999999999801
 51
269.99999999999937
  0
ARC
  5
43
100
AcDbEntity
  8
0
  6
CONTINUOUS
 62
               7
100
AcDbCircle
 10
114.5
 20
-18.0
 30
0.0
 40
3.0000000001552203
100
AcDbArc
 50
269.99999999999937
 51
89.999999999999801
  0
ARC
  5
44
100
AcDbEntity
  8
0
  6
CONTINUOUS
 62
               7
100
AcDbCircle
 10
114.5
 20
-44.0
 30
0.0
 40
3.0000000001552203
100
AcDbArc
 50
269.99999999999937
 51
89.999999999999801
  0
ARC
  5
45
100
AcDbEntity
  8
0
  6
CONTINUOUS
 62
               7
100
AcDbCircle
 10
115.0
 20
-11.0
 30
0.0
 40
2.5000000001862643
100
AcDbArc
 50
269.99999999999937
 51
89.999999999999801
  0
ARC
  5
46
100
AcDbEntity
  8
0
  6
CONTINUOUS
 62
               7
100
AcDbCircle
 10
132.0
 20
-51.0
 30
0.0
 40
2.5000000001862643
100
AcDbArc
 50
89.999999999999801
 51
269.99999999999937
  0
CIRCLE
  5
47
100
AcDbEntity
  8
0
  6
CONTINUOUS
 62
               7
100
AcDbCircle
 10
114.99996948242187
 20
-11.000015258789063
 30
0.0
 40
2.25
  0
ARC
  5
48
100
AcDbEntity
  8
0
  6
CONTINUOUS
 62
               7
100
AcDbCircle
 10
132.50809035546666
 20
-26.164762280348516
 30
0.0
 40
2.9964428794951696
100
AcDbArc
 50
3.1520529995972812
 51
5.645357710386004
  0
ARC
  5
49
100
AcDbEntity
  8
0
  6
CONTINUOUS
 62
               7
100
AcDbCircle
 10
132.50676680429416
 20
-26.143445228264508
 30
0.0
 40
2.9966683996377164
100
AcDbArc
 50
2.7436963431880783
 51
5.4275372167542022
  0
ARC
  5
4A
100
AcDbEntity
  8
0
  6
CONTINUOUS
 62
               7
100
AcDbCircle
 10
132.49993198397513
 20
-26.484999999999999
 30
0.0
 40
3.0001055149403442
100
AcDbArc
 50
359.71352998446446
 51
0.2864700155347632
  0
CIRCLE
  5
4B
100
AcDbEntity
  8
0
  6
CONTINUOUS
 62
               7
100
AcDbCircle
 10
123.49996948242187
 20
24.5
 30
0.0
 40
1.5
  0
CIRCLE
  5
4C
100
AcDbEntity
  8
0
  6
CONTINUOUS
 62
               7
100
AcDbCircle
 10
123.49996948242187
 20
24.5
 30
0.0
 40
2.2999992370605469
  0
CIRCLE
  5
4D
100
AcDbEntity
  8
0
  6
CONTINUOUS
 62
               7
100
AcDbCircle
 10
123.49995422363281
 20
-86.5
 30
0.0
 40
1.5
  0
CIRCLE
  5
4E
100
AcDbEntity
  8
0
  6
CONTINUOUS
 62
               7
100
AcDbCircle
 10
123.49995422363281
 20
-86.5
 30
0.0
 40
2.2999992370605469
  0
ARC
  5
4F
100
AcDbEntity
  8
0
  6
CONTINUOUS
 62
               7
100
AcDbCircle
 10
132.50676680429416
 20
-25.143445228264508
 30
0.0
 40
2.9966683996377164
100
AcDbArc
 50
2.7436963431880783
 51
5.4275372167542022
  0
ARC
  5
50
100
AcDbEntity
  8
0
  6
CONTINUOUS
 62
               7
100
AcDbCircle
 10
132.49993198397513
 20
-25.484999999999999
 30
0.0
 40
3.0001055149403442
100
AcDbArc
 50
359.71352998446446
 51
0.2864700155347632
  0
CIRCLE
  5
51
100
AcDbEntity
  8
0
  6
CONTINUOUS
 62
               7
100
AcDbCircle
 10
95.499954223632813
 20
9.5000152587890625
 30
0.0
 40
2.2999992370605469
  0
CIRCLE
  5
52
100
AcDbEntity
  8
0
  6
CONTINUOUS
 62
               7
100
AcDbCircle
 10
95.499954223632813
 20
9.5000152587890625
 30
0.0
 40
1.5
  0
CIRCLE
  5
53
100
AcDbEntity
  8
0
  6
CONTINUOUS
 62
               7
100
AcDbCircle
 10
86.999954223632813
 20
-10.999984741210938
 30
0.0
 40
2.25
  0
CIRCLE
  5
54
100
AcDbEntity
  8
0
  6
CONTINUOUS
 62
               7
100
AcDbCircle
 10
103.99995422363281
 20
-50.999969482421875
 30
0.0
 40
2.25
  0
CIRCLE
  5
55
100
AcDbEntity
  8
0
  6
CONTINUOUS
 62
               7
100
AcDbCircle
 10
104.49995422363281
 20
-25.999969482421875
 30
0.0
 40
2.5
  0
CIRCLE
  5
56
100
AcDbEntity
  8
0
  6
CONTINUOUS
 62
               7
100
AcDbCircle
 10
86.499954223632813
 20
-17.999969482421875
 30
0.0
 40
2.5
  0
CIRCLE
  5
57
100
AcDbEntity
  8
0
  6
CONTINUOUS
 62
               7
100
AcDbCircle
 10
86.499954223632813
 20
-43.999969482421875
 30
0.0
 40
2.5
  0
ARC
  5
58
100
AcDbEntity
  8
0
  6
CONTINUOUS
 62
               7
100
AcDbCircle
 10
87.0
 20
-11.0
 30
0.0
 40
2.500000000419095
100
AcDbArc
 50
269.99999999999937
 51
89.999999999999801
  0
ARC
  5
59
100
AcDbEntity
  8
0
  6
CONTINUOUS
 62
               7
100
AcDbCircle
 10
104.5
 20
-26.0
 30
0.0
 40
3.000000000349246
100
AcDbArc
 50
89.999999999999801
 51
269.99999999999937
  0
ARC
  5
5A
100
AcDbEntity
  8
0
  6
CONTINUOUS
 62
               7
100
AcDbCircle
 10
86.5
 20
-18.0
 30
0.0
 40
3.000000000349246
100
AcDbArc
 50
269.99999999999937
 51
89.999999999999801
  0
ARC
  5
5B
100
AcDbEntity
  8
0
  6
CONTINUOUS
 62
               7
100
AcDbCircle
 10
86.5
 20
-44.0
 30
0.0
 40
3.000000000349246
100
AcDbArc
 50
269.99999999999937
 51
89.999999999999801
  0
ARC
  5
5C
100
AcDbEntity
  8
0
  6
CONTINUOUS
 62
               7
100
AcDbCircle
 10
104.0
 20
-51.0
 30
0.0
 40
2.500000000419095
100
AcDbArc
 50
89.999999999999801
 51
269.99999999999937
  0
ARC
  5
5D
100
AcDbEntity
  8
0
  6
CONTINUOUS
 62
               7
100
AcDbCircle
 10
104.50807547565995
 20
-26.164763424949356
 30
0.0
 40
2.9964577997276254
100
AcDbArc
 50
3.1520592080268672
 51
5.6453515019688094
  0
ARC
  5
5E
100
AcDbEntity
  8
0
  6
CONTINUOUS
 62
               7
100
AcDbCircle
 10
104.50675194442219
 20
-26.143446289684238
 30
0.0
 40
2.9966832932835139
100
AcDbArc
 50
2.7437030138163321
 51
5.4275305461375849
  0
ARC
  5
5F
100
AcDbEntity
  8
0
  6
CONTINUOUS
 62
               7
100
AcDbCircle
 10
104.49991680162789
 20
-26.484999999999999
 30
0.0
 40
3.00012069709781
100
AcDbArc
 50
359.71353143416246
 51
0.286468565836718
  0
CIRCLE
  5
60
100
AcDbEntity
  8
0
  6
CONTINUOUS
 62
               7
100
AcDbCircle
 10
95.49993896484375
 20
-71.499969482421875
 30
0.0
 40
1.5
  0
CIRCLE
  5
61
100
AcDbEntity
  8
0
  6
CONTINUOUS
 62
               7
100
AcDbCircle
 10
95.49993896484375
 20
-71.499969482421875
 30
0.0
 40
2.2999992370605469
  0
ARC
  5
62
100
AcDbEntity
  8
0
  6
CONTINUOUS
 62
               7
100
AcDbCircle
 10
104.50675230032964
 20
-25.143446264262277
 30
0.0
 40
2.9966829365671526
100
AcDbArc
 50
2.7437028540496153
 51
5.4275307059042639
  0
ARC
  5
63
100
AcDbEntity
  8
0
  6
CONTINUOUS
 62
               7
100
AcDbCircle
 10
104.49991680162789
 20
-25.484999999999999
 30
0.0
 40
3.00012069709781
100
AcDbArc
 50
359.71353143416246
 51
0.286468565836718
  0
CIRCLE
  5
64
100
AcDbEntity
  8
0
  6
CONTINUOUS
 62
               7
100
AcDbCircle
 10
58.99993896484375
 20
-11.0
 30
0.0
 40
2.25
  0
CIRCLE
  5
65
100
AcDbEntity
  8
0
  6
CONTINUOUS
 62
               7
100
AcDbCircle
 10
75.99993896484375
 20
-50.999984741210938
 30
0.0
 40
2.25
  0
CIRCLE
  5
66
100
AcDbEntity
  8
0
  6
CONTINUOUS
 62
               7
100
AcDbCircle
 10
76.49993896484375
 20
-25.999984741210937
 30
0.0
 40
2.5
  0
CIRCLE
  5
67
100
AcDbEntity
  8
0
  6
CONTINUOUS
 62
               7
100
AcDbCircle
 10
58.49993896484375
 20
-17.999984741210937
 30
0.0
 40
2.5
  0
CIRCLE
  5
68
100
AcDbEntity
  8
0
  6
CONTINUOUS
 62
               7
100
AcDbCircle
 10
58.49993896484375
 20
-43.999984741210938
 30
0.0
 40
2.5
  0
ARC
  5
69
100
AcDbEntity
  8
0
  6
CONTINUOUS
 62
               7
100
AcDbCircle
 10
59.0
 20
-11.0
 30
0.0
 40
2.5000000007450582
100
AcDbArc
 50
269.99999999999937
 51
89.999999999999801
  0
ARC
  5
6A
100
AcDbEntity
  8
0
  6
CONTINUOUS
 62
               7
100
AcDbCircle
 10
76.5
 20
-26.0
 30
0.0
 40
3.0000000006208816
100
AcDbArc
 50
89.999999999999801
 51
269.99999999999937
  0
ARC
  5
6B
100
AcDbEntity
  8
0
  6
CONTINUOUS
 62
               7
100
AcDbCircle
 10
58.5
 20
-18.0
 30
0.0
 40
3.0000000006208816
100
AcDbArc
 50
269.99999999999937
 51
89.999999999999801
  0
ARC
  5
6C
100
AcDbEntity
  8
0
  6
CONTINUOUS
 62
               7
100
AcDbCircle
 10
58.5
 20
-44.0
 30
0.0
 40
3.0000000006208816
100
AcDbArc
 50
269.99999999999937
 51
89.999999999999801
  0
ARC
  5
6D
100
AcDbEntity
  8
0
  6
CONTINUOUS
 62
               7
100
AcDbCircle
 10
76.0
 20
-51.0
 30
0.0
 40
2.5000000007450582
100
AcDbArc
 50
89.999999999999801
 51
269.99999999999937
  0
ARC
  5
6E
100
AcDbEntity
  8
0
  6
CONTINUOUS
 62
               7
100
AcDbCircle
 10
76.50805993493708
 20
-26.164764620389576
 30
0.0
 40
2.9964733826718475
100
AcDbArc
 50
3.1520656921436836
 51
5.6453450178519526
  0
ARC
  5
6F
100
AcDbEntity
  8
0
  6
CONTINUOUS
 62
               7
100
AcDbCircle
 10
76.506736372580392
 20
-26.143447401958653
 30
0.0
 40
2.9966989005173481
100
AcDbArc
 50
2.743710003972132
 51
5.4275235559818045
  0
ARC
  5
70
100
AcDbEntity
  8
0
  6
CONTINUOUS
 62
               7
100
AcDbCircle
 10
76.499901466778411
 20
-26.484999999999999
 30
0.0
 40
3.0001360317556101
100
AcDbArc
 50
359.71353289840744
 51
0.2864671015917827
  0
CIRCLE
  5
71
100
AcDbEntity
  8
0
  6
CONTINUOUS
 62
               7
100
AcDbCircle
 10
67.49993896484375
 20
9.5
 30
0.0
 40
1.5
  0
CIRCLE
  5
72
100
AcDbEntity
  8
0
  6
CONTINUOUS
 62
               7
100
AcDbCircle
 10
67.49993896484375
 20
9.5
 30
0.0
 40
2.2999992370605469
  0
ARC
  5
73
100
AcDbEntity
  8
0
  6
CONTINUOUS
 62
               7
100
AcDbCircle
 10
76.506736728563467
 20
-25.143447376531288
 30
0.0
 40
2.9966985437251927
100
AcDbArc
 50
2.7437098441730998
 51
5.4275237157807403
  0
ARC
  5
74
100
AcDbEntity
  8
0
  6
CONTINUOUS
 62
               7
100
AcDbCircle
 10
76.499901466778411
 20
-25.484999999999999
 30
0.0
 40
3.0001360317556101
100
AcDbArc
 50
359.71353289840744
 51
0.2864671015917827
  0
CIRCLE
  5
75
100
AcDbEntity
  8
0
  6
CONTINUOUS
 62
               7
100
AcDbCircle
 10
30.99993896484375
 20
-11.0
 30
0.0
 40
2.25
  0
CIRCLE
  5
76
100
AcDbEntity
  8
0
  6
CONTINUOUS
 62
               7
100
AcDbCircle
 10
47.99993896484375
 20
-50.999984741210938
 30
0.0
 40
2.25
  0
CIRCLE
  5
77
100
AcDbEntity
  8
0
  6
CONTINUOUS
 62
               7
100
AcDbCircle
 10
48.49993896484375
 20
-25.999984741210937
 30
0.0
 40
2.5
  0
CIRCLE
  5
78
100
AcDbEntity
  8
0
  6
CONTINUOUS
 62
               7
100
AcDbCircle
 10
30.49993896484375
 20
-17.999984741210937
 30
0.0
 40
2.5
  0
CIRCLE
  5
79
100
AcDbEntity
  8
0
  6
CONTINUOUS
 62
               7
100
AcDbCircle
 10
30.49993896484375
 20
-43.999984741210938
 30
0.0
 40
2.5
  0
ARC
  5
7A
100
AcDbEntity
  8
0
  6
CONTINUOUS
 62
               7
100
AcDbCircle
 10
31.0
 20
-11.0
 30
0.0
 40
2.5000000007450582
100
AcDbArc
 50
269.99999999999937
 51
89.999999999999801
  0
ARC
  5
7B
100
AcDbEntity
  8
0
  6
CONTINUOUS
 62
               7
100
AcDbCircle
 10
48.5
 20
-26.0
 30
0.0
 40
3.0000000006208816
100
AcDbArc
 50
89.999999999999801
 51
269.99999999999937
  0
ARC
  5
7C
100
AcDbEntity
  8
0
  6
CONTINUOUS
 62
               7
100
AcDbCircle
 10
30.5
 20
-18.0
 30
0.0
 40
3.0000000006208816
100
AcDbArc
 50
269.99999999999937
 51
89.999999999999801
  0
ARC
  5
7D
100
AcDbEntity
  8
0
  6
CONTINUOUS
 62
               7
100
AcDbCircle
 10
30.5
 20
-44.0
 30
0.0
 40
3.0000000006208816
100
AcDbArc
 50
269.99999999999937
 51
89.999999999999801
  0
ARC
  5
7E
100
AcDbEntity
  8
0
  6
CONTINUOUS
 62
               7
100
AcDbCircle
 10
48.0
 20
-51.0
 30
0.0
 40
2.5000000007450582
100
AcDbArc
 50
89.999999999999801
 51
269.99999999999937
  0
ARC
  5
7F
100
AcDbEntity
  8
0
  6
CONTINUOUS
 62
               7
100
AcDbCircle
 10
48.508059934937066
 20
-26.164764620389416
 30
0.0
 40
2.996473382671851
100
AcDbArc
 50
3.1520656921406163
 51
5.6453450178488707
  0
ARC
  5
80
100
AcDbEntity
  8
0
  6
CONTINUOUS
 62
               7
100
AcDbCircle
 10
48.506736372580384
 20
-26.1434474019585
 30
0.0
 40
2.9966989005173517
100
AcDbArc
 50
2.7437100039692086
 51
5.4275235559788717
  0
ARC
  5
81
100
AcDbEntity
  8
0
  6
CONTINUOUS
 62
               7
100
AcDbCircle
 10
48.499901466778418
 20
-26.484999999999999
 30
0.0
 40
3.0001360317556101
100
AcDbArc
 50
359.71353289840744
 51
0.2864671015917827
  0
CIRCLE
  5
82
100
AcDbEntity
  8
0
  6
CONTINUOUS
 62
               7
100
AcDbCircle
 10
39.49993896484375
 20
9.5
 30
0.0
 40
1.5
  0
CIRCLE
  5
83
100
AcDbEntity
  8
0
  6
CONTINUOUS
 62
               7
100
AcDbCircle
 10
39.49993896484375
 20
9.5
 30
0.0
 40
2.2999992370605469
  0
ARC
  5
84
100
AcDbEntity
  8
0
  6
CONTINUOUS
 62
               7
100
AcDbCircle
 10
48.506736728563453
 20
-25.143447376531139
 30
0.0
 40
2.9966985437251963
100
AcDbArc
 50
2.7437098441702377
 51
5.4275237157778609
  0
ARC
  5
85
100
AcDbEntity
  8
0
  6
CONTINUOUS
 62
               7
100
AcDbCircle
 10
48.499901466778418
 20
-25.484999999999999
 30
0.0
 40
3.0001360317556101
100
AcDbArc
 50
359.71353289840744
 51
0.2864671015917827
  0
CIRCLE
  5
86
100
AcDbEntity
  8
0
  6
CONTINUOUS
 62
               4
100
AcDbCircle
 10
160.49998474121094
 20
-26.0
 30
0.0
 40
2.5
  0
CIRCLE
  5
87
100
AcDbEntity
  8
0
  6
CONTINUOUS
 62
               4
100
AcDbCircle
 10
142.49998474121094
 20
-18.0
 30
0.0
 40
2.5
  0
CIRCLE
  5
88
100
AcDbEntity
  8
0
  6
CONTINUOUS
 62
               4
100
AcDbCircle
 10
142.49998474121094
 20
-44.0
 30
0.0
 40
2.5
  0
ARC
  5
89
100
AcDbEntity
  8
0
  6
CONTINUOUS
 62
               4
100
AcDbCircle
 10
160.5081055657314
 20
-26.164761110328151
 30
0.0
 40
2.9964276279069373
100
AcDbArc
 50
3.1520466532302684
 51
5.6453640567529861
  0
ARC
  5
8A
100
AcDbEntity
  8
0
  6
CONTINUOUS
 62
               4
100
AcDbCircle
 10
160.50678202015098
 20
-26.143444141417593
 30
0.0
 40
2.9966531491980248
100
AcDbArc
 50
2.74368951269473
 51
5.4275440472475891
  0
ARC
  5
8B
100
AcDbEntity
  8
0
  6
CONTINUOUS
 62
               4
100
AcDbCircle
 10
160.49994724257346
 20
-26.484999999999999
 30
0.0
 40
3.000090256532717
100
AcDbArc
 50
359.71352852747071
 51
0.2864714725284919
  0
ARC
  5
8C
100
AcDbEntity
  8
0
  6
CONTINUOUS
 62
               4
100
AcDbCircle
 10
160.50678202015098
 20
-25.143444141417593
 30
0.0
 40
2.9966531491980248
100
AcDbArc
 50
2.74368951269473
 51
5.4275440472475891
  0
ARC
  5
8D
100
AcDbEntity
  8
0
  6
CONTINUOUS
 62
               4
100
AcDbCircle
 10
160.49994724257346
 20
-25.484999999999999
 30
0.0
 40
3.000090256532717
100
AcDbArc
 50
359.71352852747071
 51
0.2864714725284919
  0
ARC
  5
8E
100
AcDbEntity
  8
0
  6
CONTINUOUS
 62
               7
100
AcDbCircle
 10
185.49998855599915
 20
-9.4999885559991526
 30
0.0
 40
1.999988556031894
100
AcDbArc
 50
89.999672151649207
 51
180.0003278483502
  0
ARC
  5
8F
100
AcDbEntity
  8
0
  6
CONTINUOUS
 62
               7
100
AcDbCircle
 10
193.99997329682446
 20
-5.4999732968244643
 30
0.0
 40
2.0000267033537984
100
AcDbArc
 50
270.00076497941456
 51
359.99923502058408
  0
ARC
  5
90
100
AcDbEntity
  8
0
  6
CONTINUOUS
 62
               7
100
AcDbCircle
 10
193.99996185289638
 20
5.4999618528963765
 30
0.0
 40
2.0000381474674169
100
AcDbArc
 50
0.0010928131751758
 51
89.998907186824624
  0
ARC
  5
91
100
AcDbEntity
  8
0
  6
CONTINUOUS
 62
               7
100
AcDbCircle
 10
185.49997711183096
 20
-54.500022888169042
 30
0.0
 40
1.9999771119619267
100
AcDbArc
 50
179.99934429475223
 51
270.00065570524674
  0
ARC
  5
92
100
AcDbEntity
  8
0
  6
CONTINUOUS
 62
               7
100
AcDbCircle
 10
193.99996948218904
 20
-69.499969482189044
 30
0.0
 40
2.0000305180437863
100
AcDbArc
 50
270.00087425754293
 51
359.99912574245559
  0
ARC
  5
93
100
AcDbEntity
  8
0
  6
CONTINUOUS
 62
               7
100
AcDbCircle
 10
190.99996948260815
 20
-64.000030517391863
 30
0.0
 40
2.4999694827944041
100
AcDbArc
 50
179.9993005843597
 51
270.00069941563902
  0
ARC
  5
94
100
AcDbEntity
  8
0
  6
CONTINUOUS
 62
               7
100
AcDbCircle
 10
190.99996948260815
 20
-63.999969482608137
 30
0.0
 40
2.4999694827944041
100
AcDbArc
 50
89.999300584360213
 51
180.00069941563947
  0
ARC
  5
95
100
AcDbEntity
  8
0
  6
CONTINUOUS
 62
               7
100
AcDbCircle
 10
193.99996948218904
 20
-58.500030517810956
 30
0.0
 40
2.0000305180437863
100
AcDbArc
 50
0.0008742575435872
 51
89.999125742456215
  0
ARC
  5
96
100
AcDbEntity
  8
0
  6
CONTINUOUS
 62
               7
100
AcDbCircle
 10
190.99996948260815
 20
-0.0000305173918604
 30
0.0
 40
2.4999694827944041
100
AcDbArc
 50
179.99930058435976
 51
270.00069941563902
  0
ARC
  5
97
100
AcDbEntity
  8
0
  6
CONTINUOUS
 62
               7
100
AcDbCircle
 10
190.99996948260815
 20
0.0000305173918604
 30
0.0
 40
2.4999694827944041
100
AcDbArc
 50
89.999300584360213
 51
180.00069941563945
  0
ARC
  5
98
100
AcDbEntity
  8
0
  6
CONTINUOUS
 62
               7
100
AcDbCircle
 10
5.4999961852990964
 20
-9.5000038147009036
 30
0.0
 40
2.0000038147045416
100
AcDbArc
 50
0.0001092829224997
 51
89.999890717077292
  0
ARC
  5
99
100
AcDbEntity
  8
0
  6
CONTINUOUS
 62
               7
100
AcDbCircle
 10
-2.9999885558172537
 20
-5.4999885558172537
 30
0.0
 40
2.0000114442154886
100
AcDbArc
 50
180.00032784980928
 51
269.99967215018967
  0
ARC
  5
9A
100
AcDbEntity
  8
0
  6
CONTINUOUS
 62
               7
100
AcDbCircle
 10
-2.9999771118018543
 20
5.4999771118018543
 30
0.0
 40
2.0000228883291116
100
AcDbArc
 50
90.000655691073177
 51
179.99934430892623
  0
ARC
  5
9B
100
AcDbEntity
  8
0
  6
CONTINUOUS
 62
               7
100
AcDbCircle
 10
5.5000076293799793
 20
-54.500007629379979
 30
0.0
 40
1.9999923706345726
100
AcDbArc
 50
269.99978143352905
 51
0.0002185664703221
  0
ARC
  5
9C
100
AcDbEntity
  8
0
  6
CONTINUOUS
 62
               7
100
AcDbCircle
 10
-2.9999847411527298
 20
-69.49998474115273
 30
0.0
 40
2.0000152589054778
100
AcDbArc
 50
180.00043713043894
 51
269.99956286956007
  0
ARC
  5
9D
100
AcDbEntity
  8
0
  6
CONTINUOUS
 62
               7
100
AcDbCircle
 10
0.0000000000000002
 20
-64.0
 30
0.0
 40
2.5
100
AcDbArc
 50
269.99999999999937
 51
0.0
  0
ARC
  5
9E
100
AcDbEntity
  8
0
  6
CONTINUOUS
 62
               7
100
AcDbCircle
 10
0.0000000000000002
 20
-64.0
 30
0.0
 40
2.5
100
AcDbArc
 50
0.0
 51
89.999999999999815
  0
ARC
  5
9F
100
AcDbEntity
  8
0
  6
CONTINUOUS
 62
               7
100
AcDbCircle
 10
-2.9999847411527298
 20
-58.50001525884727
 30
0.0
 40
2.0000152589054778
100
AcDbArc
 50
90.000437130439153
 51
179.99956286956026
  0
ARC
  5
A0
100
AcDbEntity
  8
0
  6
CONTINUOUS
 62
               7
100
AcDbCircle
 10
0.0000000000000002
 20
-0.0000000000000002
 30
0.0
 40
2.5
100
AcDbArc
 50
269.99999999999937
 51
0.0
  0
ARC
  5
A1
100
AcDbEntity
  8
0
  6
CONTINUOUS
 62
               7
100
AcDbCircle
 10
0.0000000000000002
 20
0.0000000000000002
 30
0.0
 40
2.5
100
AcDbArc
 50
0.0
 51
89.999999999999801
  0
LINE
  5
A3
100
AcDbEntity
  8
0
  6
CENTER
 62
               2
100
AcDbLine
 10
195.99000000000001
 20
0.0
 30
0.0
 11
185.21000000000001
 21
0.0
 31
0.0
  0
LINE
  5
A4
100
AcDbEntity
  8
0
  6
CENTER
 62
               2
100
AcDbLine
 10
195.99000000000001
 20
-64.0
 30
0.0
 11
185.21000000000001
 21
-64.0
 31
0.0
  0
LINE
  5
A5
100
AcDbEntity
  8
0
  6
CONTINUOUS
 62
               4
100
AcDbLine
 10
135.0
 20
49.0
 30
0.0
 11
135.0
 21
28.0
 31
0.0
  0
LINE
  5
A6
100
AcDbEntity
  8
0
  6
CONTINUOUS
 62
               4
100
AcDbLine
 10
112.0
 20
49.0
 30
0.0
 11
112.0
 21
28.0
 31
0.0
  0
LINE
  5
A7
100
AcDbEntity
  8
0
  6
CONTINUOUS
 62
               7
100
AcDbLine
 10
135.0
 20
28.0
 30
0.0
 11
135.0
 21
13.0
 31
0.0
  0
LINE
  5
A8
100
AcDbEntity
  8
0
  6
CONTINUOUS
 62
               7
100
AcDbLine
 10
112.0
 20
28.0
 30
0.0
 11
112.0
 21
13.0
 31
0.0
  0
LINE
  5
A9
100
AcDbEntity
  8
0
  6
CONTINUOUS
 62
               4
100
AcDbLine
 10
107.0
 20
34.0
 30
0.0
 11
107.0
 21
13.0
 31
0.0
  0
LINE
  5
AA
100
AcDbEntity
  8
0
  6
CONTINUOUS
 62
               4
100
AcDbLine
 10
84.0
 20
34.0
 30
0.0
 11
84.0
 21
13.0
 31
0.0
  0
LINE
  5
AB
100
AcDbEntity
  8
0
  6
CONTINUOUS
 62
               4
100
AcDbLine
 10
79.0
 20
34.0
 30
0.0
 11
79.0
 21
13.0
 31
0.0
  0
LINE
  5
AC
100
AcDbEntity
  8
0
  6
CONTINUOUS
 62
               4
100
AcDbLine
 10
56.0
 20
34.0
 30
0.0
 11
56.0
 21
13.0
 31
0.0
  0
LINE
  5
AD
100
AcDbEntity
  8
0
  6
CONTINUOUS
 62
               4
100
AcDbLine
 10
51.0
 20
34.0
 30
0.0
 11
51.0
 21
13.0
 31
0.0
  0
LINE
  5
AE
100
AcDbEntity
  8
0
  6
CONTINUOUS
 62
               4
100
AcDbLine
 10
28.0
 20
34.0
 30
0.0
 11
28.0
 21
13.0
 31
0.0
  0
LINE
  5
AF
100
AcDbEntity
  8
0
  6
CONTINUOUS
 62
               4
100
AcDbLine
 10
84.0
 20
-75.0
 30
0.0
 11
84.0
 21
-96.0
 31
0.0
  0
LINE
  5
B0
100
AcDbEntity
  8
0
  6
CONTINUOUS
 62
               4
100
AcDbLine
 10
107.0
 20
-75.0
 30
0.0
 11
107.0
 21
-96.0
 31
0.0
  0
LINE
  5
B1
100
AcDbEntity
  8
0
  6
CONTINUOUS
 62
               4
100
AcDbLine
 10
112.0
 20
-90.0
 30
0.0
 11
112.0
 21
-111.0
 31
0.0
  0
LINE
  5
B2
100
AcDbEntity
  8
0
  6
CONTINUOUS
 62
               4
100
AcDbLine
 10
135.0
 20
-90.0
 30
0.0
 11
135.0
 21
-111.0
 31
0.0
  0
LINE
  5
B3
100
AcDbEntity
  8
0
  6
CONTINUOUS
 62
               4
100
AcDbLine
 10
106.0
 20
-98.0
 30
0.0
 11
107.0
 21
-96.0
 31
0.0
  0
LINE
  5
B4
100
AcDbEntity
  8
0
  6
CONTINUOUS
 62
               4
100
AcDbLine
 10
101.23
 20
-98.0
 30
0.0
 11
85.0
 21
-98.0
 31
0.0
  0
LINE
  5
B5
100
AcDbEntity
  8
0
  6
CONTINUOUS
 62
               4
100
AcDbLine
 10
88.25
 20
-98.700000000000003
 30
0.0
 11
86.75
 21
-98.700000000000003
 31
0.0
  0
LINE
  5
B6
100
AcDbEntity
  8
0
  6
CONTINUOUS
 62
               4
100
AcDbLine
 10
104.25
 20
-98.700000000000003
 30
0.0
 11
102.75
 21
-98.700000000000003
 31
0.0
  0
LINE
  5
B7
100
AcDbEntity
  8
0
  6
CONTINUOUS
 62
               4
100
AcDbLine
 10
106.0
 20
-98.0
 30
0.0
 11
105.77
 21
-98.0
 31
0.0
  0
LINE
  5
B8
100
AcDbEntity
  8
0
  6
CONTINUOUS
 62
               4
100
AcDbLine
 10
106.25
 20
-96.700000000000003
 30
0.0
 11
106.25
 21
-96.0
 31
0.0
  0
LINE
  5
B9
100
AcDbEntity
  8
0
  6
CONTINUOUS
 62
               4
100
AcDbLine
 10
100.75
 20
-96.700000000000003
 30
0.0
 11
100.75
 21
-96.0
 31
0.0
  0
LINE
  5
BA
100
AcDbEntity
  8
0
  6
CONTINUOUS
 62
               4
100
AcDbLine
 10
106.25
 20
-96.700000000000003
 30
0.0
 11
100.75
 21
-96.700000000000003
 31
0.0
  0
LINE
  5
BB
100
AcDbEntity
  8
0
  6
CONTINUOUS
 62
               4
100
AcDbLine
 10
99.5
 20
-98.0
 30
0.0
 11
99.5
 21
-96.0
 31
0.0
  0
LINE
  5
BC
100
AcDbEntity
  8
0
  6
CONTINUOUS
 62
               4
100
AcDbLine
 10
85.0
 20
-98.0
 30
0.0
 11
84.0
 21
-96.0
 31
0.0
  0
LINE
  5
BD
100
AcDbEntity
  8
0
  6
CONTINUOUS
 62
               4
100
AcDbLine
 10
107.0
 20
-96.0
 30
0.0
 11
84.0
 21
-96.0
 31
0.0
  0
LINE
  5
BE
100
AcDbEntity
  8
0
  6
CONTINUOUS
 62
               4
100
AcDbLine
 10
88.5
 20
-87.0
 30
0.0
 11
88.5
 21
-83.0
 31
0.0
  0
LINE
  5
BF
100
AcDbEntity
  8
0
  6
CONTINUOUS
 62
               4
100
AcDbLine
 10
103.5
 20
-87.0
 30
0.0
 11
103.5
 21
-83.0
 31
0.0
  0
LINE
  5
C0
100
AcDbEntity
  8
0
  6
CONTINUOUS
 62
               4
100
AcDbLine
 10
103.5
 20
-83.0
 30
0.0
 11
88.5
 21
-83.0
 31
0.0
  0
LINE
  5
C1
100
AcDbEntity
  8
0
  6
CONTINUOUS
 62
               4
100
AcDbLine
 10
103.5
 20
-87.0
 30
0.0
 11
88.5
 21
-87.0
 31
0.0
  0
LINE
  5
C2
100
AcDbEntity
  8
0
  6
CONTINUOUS
 62
               4
100
AcDbLine
 10
107.0
 20
-95.0
 30
0.0
 11
84.0
 21
-95.0
 31
0.0
  0
LINE
  5
C3
100
AcDbEntity
  8
0
  6
CONTINUOUS
 62
               4
100
AcDbLine
 10
57.0
 20
36.0
 30
0.0
 11
56.0
 21
34.0
 31
0.0
  0
LINE
  5
C4
100
AcDbEntity
  8
0
  6
CONTINUOUS
 62
               4
100
AcDbLine
 10
61.770000000000003
 20
36.0
 30
0.0
 11
78.0
 21
36.0
 31
0.0
  0
LINE
  5
C5
100
AcDbEntity
  8
0
  6
CONTINUOUS
 62
               4
100
AcDbLine
 10
74.75
 20
36.700000000000003
 30
0.0
 11
76.25
 21
36.700000000000003
 31
0.0
  0
LINE
  5
C6
100
AcDbEntity
  8
0
  6
CONTINUOUS
 62
               4
100
AcDbLine
 10
58.75
 20
36.700000000000003
 30
0.0
 11
60.25
 21
36.700000000000003
 31
0.0
  0
LINE
  5
C7
100
AcDbEntity
  8
0
  6
CONTINUOUS
 62
               4
100
AcDbLine
 10
57.0
 20
36.0
 30
0.0
 11
57.229999999999997
 21
36.0
 31
0.0
  0
LINE
  5
C8
100
AcDbEntity
  8
0
  6
CONTINUOUS
 62
               4
100
AcDbLine
 10
56.75
 20
34.700000000000003
 30
0.0
 11
56.75
 21
34.0
 31
0.0
  0
LINE
  5
C9
100
AcDbEntity
  8
0
  6
CONTINUOUS
 62
               4
100
AcDbLine
 10
62.25
 20
34.700000000000003
 30
0.0
 11
62.25
 21
34.0
 31
0.0
  0
LINE
  5
CA
100
AcDbEntity
  8
0
  6
CONTINUOUS
 62
               4
100
AcDbLine
 10
56.75
 20
34.700000000000003
 30
0.0
 11
62.25
 21
34.700000000000003
 31
0.0
  0
LINE
  5
CB
100
AcDbEntity
  8
0
  6
CONTINUOUS
 62
               4
100
AcDbLine
 10
63.5
 20
36.0
 30
0.0
 11
63.5
 21
34.0
 31
0.0
  0
LINE
  5
CC
100
AcDbEntity
  8
0
  6
CONTINUOUS
 62
               4
100
AcDbLine
 10
78.0
 20
36.0
 30
0.0
 11
79.0
 21
34.0
 31
0.0
  0
LINE
  5
CD
100
AcDbEntity
  8
0
  6
CONTINUOUS
 62
               4
100
AcDbLine
 10
56.0
 20
34.0
 30
0.0
 11
79.0
 21
34.0
 31
0.0
  0
LINE
  5
CE
100
AcDbEntity
  8
0
  6
CONTINUOUS
 62
               4
100
AcDbLine
 10
74.5
 20
25.0
 30
0.0
 11
74.5
 21
21.0
 31
0.0
  0
LINE
  5
CF
100
AcDbEntity
  8
0
  6
CONTINUOUS
 62
               4
100
AcDbLine
 10
59.5
 20
25.0
 30
0.0
 11
59.5
 21
21.0
 31
0.0
  0
LINE
  5
D0
100
AcDbEntity
  8
0
  6
CONTINUOUS
 62
               4
100
AcDbLine
 10
59.5
 20
21.0
 30
0.0
 11
74.5
 21
21.0
 31
0.0
  0
LINE
  5
D1
100
AcDbEntity
  8
0
  6
CONTINUOUS
 62
               4
100
AcDbLine
 10
59.5
 20
25.0
 30
0.0
 11
74.5
 21
25.0
 31
0.0
  0
LINE
  5
D2
100
AcDbEntity
  8
0
  6
CONTINUOUS
 62
               4
100
AcDbLine
 10
56.0
 20
33.0
 30
0.0
 11
79.0
 21
33.0
 31
0.0
  0
LINE
  5
D3
100
AcDbEntity
  8
0
  6
CONTINUOUS
 62
               7
100
AcDbLine
 10
134.25
 20
50.5
 30
0.0
 11
135.0
 21
50.5
 31
0.0
  0
LINE
  5
D4
100
AcDbEntity
  8
0
  6
CONTINUOUS
 62
               4
100
AcDbLine
 10
117.77
 20
51.0
 30
0.0
 11
134.0
 21
51.0
 31
0.0
  0
LINE
  5
D5
100
AcDbEntity
  8
0
  6
CONTINUOUS
 62
               4
100
AcDbLine
 10
118.25
 20
49.700000000000003
 30
0.0
 11
118.25
 21
49.0
 31
0.0
  0
LINE
  5
D6
100
AcDbEntity
  8
0
  6
CONTINUOUS
 62
               4
100
AcDbLine
 10
113.0
 20
51.0
 30
0.0
 11
112.0
 21
49.0
 31
0.0
  0
LINE
  5
D7
100
AcDbEntity
  8
0
  6
CONTINUOUS
 62
               4
100
AcDbLine
 10
85.0
 20
36.0
 30
0.0
 11
84.0
 21
34.0
 31
0.0
  0
LINE
  5
D8
100
AcDbEntity
  8
0
  6
CONTINUOUS
 62
               4
100
AcDbLine
 10
134.0
 20
-113.0
 30
0.0
 11
135.0
 21
-111.0
 31
0.0
  0
LINE
  5
D9
100
AcDbEntity
  8
0
  6
CONTINUOUS
 62
               4
100
AcDbLine
 10
29.0
 20
36.0
 30
0.0
 11
28.0
 21
34.0
 31
0.0
  0
LINE
  5
DA
100
AcDbEntity
  8
0
  6
CONTINUOUS
 62
               7
100
AcDbLine
 10
81.5
 20
7.5
 30
0.0
 11
84.0
 21
7.5
 31
0.0
  0
LINE
  5
DB
100
AcDbEntity
  8
0
  6
CONTINUOUS
 62
               7
100
AcDbLine
 10
109.5
 20
7.5
 30
0.0
 11
112.0
 21
7.5
 31
0.0
  0
LINE
  5
DC
100
AcDbEntity
  8
0
  6
CONTINUOUS
 62
               7
100
AcDbLine
 10
137.5
 20
7.5
 30
0.0
 11
165.5
 21
7.5
 31
0.0
  0
LINE
  5
DD
100
AcDbEntity
  8
0
  6
CONTINUOUS
 62
               7
100
AcDbLine
 10
84.0
 20
54.0
 30
0.0
 11
84.0
 21
34.0
 31
0.0
  0
LINE
  5
DE
100
AcDbEntity
  8
0
  6
CONTINUOUS
 62
               7
100
AcDbLine
 10
109.0
 20
55.0
 30
0.0
 11
109.0
 21
54.0
 31
0.0
  0
LINE
  5
DF
100
AcDbEntity
  8
0
  6
CONTINUOUS
 62
               7
100
AcDbLine
 10
110.0
 20
55.0
 30
0.0
 11
109.0
 21
55.0
 31
0.0
  0
LINE
  5
E0
100
AcDbEntity
  8
0
  6
CONTINUOUS
 62
               7
100
AcDbLine
 10
107.0
 20
7.5
 30
0.0
 11
109.5
 21
7.5
 31
0.0
  0
LINE
  5
E1
100
AcDbEntity
  8
0
  6
CONTINUOUS
 62
               4
100
AcDbLine
 10
89.769999999999996
 20
36.0
 30
0.0
 11
106.0
 21
36.0
 31
0.0
  0
LINE
  5
E2
100
AcDbEntity
  8
0
  6
CONTINUOUS
 62
               4
100
AcDbLine
 10
102.75
 20
36.700000000000003
 30
0.0
 11
104.25
 21
36.700000000000003
 31
0.0
  0
LINE
  5
E3
100
AcDbEntity
  8
0
  6
CONTINUOUS
 62
               4
100
AcDbLine
 10
86.75
 20
36.700000000000003
 30
0.0
 11
88.25
 21
36.700000000000003
 31
0.0
  0
LINE
  5
E4
100
AcDbEntity
  8
0
  6
CONTINUOUS
 62
               4
100
AcDbLine
 10
85.0
 20
36.0
 30
0.0
 11
85.230000000000004
 21
36.0
 31
0.0
  0
LINE
  5
E5
100
AcDbEntity
  8
0
  6
CONTINUOUS
 62
               4
100
AcDbLine
 10
90.25
 20
34.700000000000003
 30
0.0
 11
90.25
 21
34.0
 31
0.0
  0
LINE
  5
E6
100
AcDbEntity
  8
0
  6
CONTINUOUS
 62
               4
100
AcDbLine
 10
84.75
 20
34.700000000000003
 30
0.0
 11
90.25
 21
34.700000000000003
 31
0.0
  0
LINE
  5
E7
100
AcDbEntity
  8
0
  6
CONTINUOUS
 62
               4
100
AcDbLine
 10
91.5
 20
36.0
 30
0.0
 11
91.5
 21
34.0
 31
0.0
  0
LINE
  5
E8
100
AcDbEntity
  8
0
  6
CONTINUOUS
 62
               4
100
AcDbLine
 10
106.0
 20
36.0
 30
0.0
 11
107.0
 21
34.0
 31
0.0
  0
LINE
  5
E9
100
AcDbEntity
  8
0
  6
CONTINUOUS
 62
               4
100
AcDbLine
 10
84.0
 20
34.0
 30
0.0
 11
107.0
 21
34.0
 31
0.0
  0
LINE
  5
EA
100
AcDbEntity
  8
0
  6
CONTINUOUS
 62
               4
100
AcDbLine
 10
102.5
 20
25.0
 30
0.0
 11
102.5
 21
21.0
 31
0.0
  0
LINE
  5
EB
100
AcDbEntity
  8
0
  6
CONTINUOUS
 62
               4
100
AcDbLine
 10
87.5
 20
25.0
 30
0.0
 11
87.5
 21
21.0
 31
0.0
  0
LINE
  5
EC
100
AcDbEntity
  8
0
  6
CONTINUOUS
 62
               4
100
AcDbLine
 10
87.5
 20
21.0
 30
0.0
 11
102.5
 21
21.0
 31
0.0
  0
LINE
  5
ED
100
AcDbEntity
  8
0
  6
CONTINUOUS
 62
               4
100
AcDbLine
 10
87.5
 20
25.0
 30
0.0
 11
102.5
 21
25.0
 31
0.0
  0
LINE
  5
EE
100
AcDbEntity
  8
0
  6
CONTINUOUS
 62
               4
100
AcDbLine
 10
84.0
 20
33.0
 30
0.0
 11
107.0
 21
33.0
 31
0.0
  0
LINE
  5
EF
100
AcDbEntity
  8
0
  6
CONTINUOUS
 62
               4
100
AcDbLine
 10
84.0
 20
13.0
 30
0.0
 11
107.0
 21
13.0
 31
0.0
  0
LINE
  5
F0
100
AcDbEntity
  8
0
  6
CONTINUOUS
 62
               7
100
AcDbLine
 10
107.0
 20
54.0
 30
0.0
 11
107.0
 21
34.0
 31
0.0
  0
LINE
  5
F1
100
AcDbEntity
  8
0
  6
CONTINUOUS
 62
               7
100
AcDbLine
 10
84.0
 20
50.5
 30
0.0
 11
107.0
 21
50.5
 31
0.0
  0
LINE
  5
F2
100
AcDbEntity
  8
0
  6
CONTINUOUS
 62
               7
100
AcDbLine
 10
84.0
 20
54.0
 30
0.0
 11
107.0
 21
54.0
 31
0.0
  0
LINE
  5
F3
100
AcDbEntity
  8
0
  6
CONTINUOUS
 62
               7
100
AcDbLine
 10
111.0
 20
15.0
 30
0.0
 11
111.0
 21
7.5
 31
0.0
  0
LINE
  5
F4
100
AcDbEntity
  8
0
  6
CONTINUOUS
 62
               7
100
AcDbLine
 10
111.0
 20
15.0
 30
0.0
 11
111.8
 21
15.0
 31
0.0
  0
LINE
  5
F5
100
AcDbEntity
  8
0
  6
CONTINUOUS
 62
               7
100
AcDbLine
 10
108.0
 20
15.0
 30
0.0
 11
107.2
 21
15.0
 31
0.0
  0
LINE
  5
F6
100
AcDbEntity
  8
0
  6
CONTINUOUS
 62
               7
100
AcDbLine
 10
108.0
 20
15.0
 30
0.0
 11
108.0
 21
7.5
 31
0.0
  0
LINE
  5
F7
100
AcDbEntity
  8
0
  6
CONTINUOUS
 62
               7
100
AcDbLine
 10
109.0
 20
50.5
 30
0.0
 11
109.0
 21
7.5
 31
0.0
  0
LINE
  5
F8
100
AcDbEntity
  8
0
  6
CONTINUOUS
 62
               7
100
AcDbLine
 10
110.0
 20
50.5
 30
0.0
 11
110.0
 21
7.5
 31
0.0
  0
LINE
  5
F9
100
AcDbEntity
  8
0
  6
CONTINUOUS
 62
               7
100
AcDbLine
 10
109.0
 20
50.5
 30
0.0
 11
107.2
 21
50.5
 31
0.0
  0
LINE
  5
FA
100
AcDbEntity
  8
0
  6
CONTINUOUS
 62
               7
100
AcDbLine
 10
110.0
 20
50.5
 30
0.0
 11
111.8
 21
50.5
 31
0.0
  0
LINE
  5
FB
100
AcDbEntity
  8
0
  6
CONTINUOUS
 62
               7
100
AcDbLine
 10
107.2
 20
54.0
 30
0.0
 11
107.2
 21
15.0
 31
0.0
  0
LINE
  5
FC
100
AcDbEntity
  8
0
  6
CONTINUOUS
 62
               7
100
AcDbLine
 10
109.0
 20
54.0
 30
0.0
 11
107.2
 21
54.0
 31
0.0
  0
LINE
  5
FD
100
AcDbEntity
  8
0
  6
CONTINUOUS
 62
               7
100
AcDbLine
 10
111.8
 20
54.0
 30
0.0
 11
111.8
 21
15.0
 31
0.0
  0
LINE
  5
FE
100
AcDbEntity
  8
0
  6
CONTINUOUS
 62
               7
100
AcDbLine
 10
110.0
 20
54.0
 30
0.0
 11
111.8
 21
54.0
 31
0.0
  0
LINE
  5
FF
100
AcDbEntity
  8
0
  6
CONTINUOUS
 62
               7
100
AcDbLine
 10
110.0
 20
55.0
 30
0.0
 11
110.0
 21
54.0
 31
0.0
  0
LINE
  5
100
100
AcDbEntity
  8
0
  6
CONTINUOUS
 62
               7
100
AcDbLine
 10
137.0
 20
55.0
 30
0.0
 11
137.0
 21
54.0
 31
0.0
  0
LINE
  5
101
100
AcDbEntity
  8
0
  6
CONTINUOUS
 62
               7
100
AcDbLine
 10
138.0
 20
55.0
 30
0.0
 11
137.0
 21
55.0
 31
0.0
  0
LINE
  5
102
100
AcDbEntity
  8
0
  6
CONTINUOUS
 62
               7
100
AcDbLine
 10
135.0
 20
7.5
 30
0.0
 11
137.5
 21
7.5
 31
0.0
  0
LINE
  5
103
100
AcDbEntity
  8
0
  6
CONTINUOUS
 62
               7
100
AcDbLine
 10
56.0
 20
54.0
 30
0.0
 11
56.0
 21
34.0
 31
0.0
  0
LINE
  5
104
100
AcDbEntity
  8
0
  6
CONTINUOUS
 62
               4
100
AcDbLine
 10
129.22999999999999
 20
-113.0
 30
0.0
 11
113.0
 21
-113.0
 31
0.0
  0
LINE
  5
105
100
AcDbEntity
  8
0
  6
CONTINUOUS
 62
               4
100
AcDbLine
 10
116.25
 20
-113.7
 30
0.0
 11
114.75
 21
-113.7
 31
0.0
  0
LINE
  5
106
100
AcDbEntity
  8
0
  6
CONTINUOUS
 62
               4
100
AcDbLine
 10
132.25
 20
-113.7
 30
0.0
 11
130.75
 21
-113.7
 31
0.0
  0
LINE
  5
107
100
AcDbEntity
  8
0
  6
CONTINUOUS
 62
               4
100
AcDbLine
 10
134.0
 20
-113.0
 30
0.0
 11
133.77000000000001
 21
-113.0
 31
0.0
  0
LINE
  5
108
100
AcDbEntity
  8
0
  6
CONTINUOUS
 62
               4
100
AcDbLine
 10
134.25
 20
-111.7
 30
0.0
 11
134.25
 21
-111.0
 31
0.0
  0
LINE
  5
109
100
AcDbEntity
  8
0
  6
CONTINUOUS
 62
               4
100
AcDbLine
 10
128.75
 20
-111.7
 30
0.0
 11
128.75
 21
-111.0
 31
0.0
  0
LINE
  5
10A
100
AcDbEntity
  8
0
  6
CONTINUOUS
 62
               4
100
AcDbLine
 10
134.25
 20
-111.7
 30
0.0
 11
128.75
 21
-111.7
 31
0.0
  0
LINE
  5
10B
100
AcDbEntity
  8
0
  6
CONTINUOUS
 62
               4
100
AcDbLine
 10
127.5
 20
-113.0
 30
0.0
 11
127.5
 21
-111.0
 31
0.0
  0
LINE
  5
10C
100
AcDbEntity
  8
0
  6
CONTINUOUS
 62
               4
100
AcDbLine
 10
113.0
 20
-113.0
 30
0.0
 11
112.0
 21
-111.0
 31
0.0
  0
LINE
  5
10D
100
AcDbEntity
  8
0
  6
CONTINUOUS
 62
               4
100
AcDbLine
 10
135.0
 20
-111.0
 30
0.0
 11
112.0
 21
-111.0
 31
0.0
  0
LINE
  5
10E
100
AcDbEntity
  8
0
  6
CONTINUOUS
 62
               4
100
AcDbLine
 10
116.5
 20
-102.0
 30
0.0
 11
116.5
 21
-98.0
 31
0.0
  0
LINE
  5
10F
100
AcDbEntity
  8
0
  6
CONTINUOUS
 62
               4
100
AcDbLine
 10
131.5
 20
-102.0
 30
0.0
 11
131.5
 21
-98.0
 31
0.0
  0
LINE
  5
110
100
AcDbEntity
  8
0
  6
CONTINUOUS
 62
               4
100
AcDbLine
 10
131.5
 20
-98.0
 30
0.0
 11
116.5
 21
-98.0
 31
0.0
  0
LINE
  5
111
100
AcDbEntity
  8
0
  6
CONTINUOUS
 62
               4
100
AcDbLine
 10
131.5
 20
-102.0
 30
0.0
 11
116.5
 21
-102.0
 31
0.0
  0
LINE
  5
112
100
AcDbEntity
  8
0
  6
CONTINUOUS
 62
               4
100
AcDbLine
 10
135.0
 20
-110.0
 30
0.0
 11
112.0
 21
-110.0
 31
0.0
  0
LINE
  5
113
100
AcDbEntity
  8
0
  6
CONTINUOUS
 62
               4
100
AcDbLine
 10
56.0
 20
13.0
 30
0.0
 11
79.0
 21
13.0
 31
0.0
  0
LINE
  5
114
100
AcDbEntity
  8
0
  6
CONTINUOUS
 62
               7
100
AcDbLine
 10
79.0
 20
54.0
 30
0.0
 11
79.0
 21
34.0
 31
0.0
  0
LINE
  5
115
100
AcDbEntity
  8
0
  6
CONTINUOUS
 62
               7
100
AcDbLine
 10
56.0
 20
50.5
 30
0.0
 11
79.0
 21
50.5
 31
0.0
  0
LINE
  5
116
100
AcDbEntity
  8
0
  6
CONTINUOUS
 62
               7
100
AcDbLine
 10
56.0
 20
54.0
 30
0.0
 11
79.0
 21
54.0
 31
0.0
  0
LINE
  5
117
100
AcDbEntity
  8
0
  6
CONTINUOUS
 62
               7
100
AcDbLine
 10
83.0
 20
15.0
 30
0.0
 11
83.0
 21
7.5
 31
0.0
  0
LINE
  5
118
100
AcDbEntity
  8
0
  6
CONTINUOUS
 62
               7
100
AcDbLine
 10
83.0
 20
15.0
 30
0.0
 11
83.799999999999997
 21
15.0
 31
0.0
  0
LINE
  5
119
100
AcDbEntity
  8
0
  6
CONTINUOUS
 62
               7
100
AcDbLine
 10
80.0
 20
15.0
 30
0.0
 11
79.200000000000003
 21
15.0
 31
0.0
  0
LINE
  5
11A
100
AcDbEntity
  8
0
  6
CONTINUOUS
 62
               7
100
AcDbLine
 10
80.0
 20
15.0
 30
0.0
 11
80.0
 21
7.5
 31
0.0
  0
LINE
  5
11B
100
AcDbEntity
  8
0
  6
CONTINUOUS
 62
               7
100
AcDbLine
 10
81.0
 20
50.5
 30
0.0
 11
81.0
 21
7.5
 31
0.0
  0
LINE
  5
11C
100
AcDbEntity
  8
0
  6
CONTINUOUS
 62
               7
100
AcDbLine
 10
82.0
 20
50.5
 30
0.0
 11
82.0
 21
7.5
 31
0.0
  0
LINE
  5
11D
100
AcDbEntity
  8
0
  6
CONTINUOUS
 62
               7
100
AcDbLine
 10
81.0
 20
50.5
 30
0.0
 11
79.200000000000003
 21
50.5
 31
0.0
  0
LINE
  5
11E
100
AcDbEntity
  8
0
  6
CONTINUOUS
 62
               7
100
AcDbLine
 10
82.0
 20
50.5
 30
0.0
 11
83.799999999999997
 21
50.5
 31
0.0
  0
LINE
  5
11F
100
AcDbEntity
  8
0
  6
CONTINUOUS
 62
               7
100
AcDbLine
 10
79.200000000000003
 20
54.0
 30
0.0
 11
79.200000000000003
 21
15.0
 31
0.0
  0
LINE
  5
120
100
AcDbEntity
  8
0
  6
CONTINUOUS
 62
               7
100
AcDbLine
 10
81.0
 20
54.0
 30
0.0
 11
79.200000000000003
 21
54.0
 31
0.0
  0
LINE
  5
121
100
AcDbEntity
  8
0
  6
CONTINUOUS
 62
               7
100
AcDbLine
 10
83.799999999999997
 20
54.0
 30
0.0
 11
83.799999999999997
 21
15.0
 31
0.0
  0
LINE
  5
122
100
AcDbEntity
  8
0
  6
CONTINUOUS
 62
               7
100
AcDbLine
 10
82.0
 20
54.0
 30
0.0
 11
83.799999999999997
 21
54.0
 31
0.0
  0
LINE
  5
123
100
AcDbEntity
  8
0
  6
CONTINUOUS
 62
               7
100
AcDbLine
 10
82.0
 20
55.0
 30
0.0
 11
82.0
 21
54.0
 31
0.0
  0
LINE
  5
124
100
AcDbEntity
  8
0
  6
CONTINUOUS
 62
               7
100
AcDbLine
 10
81.0
 20
55.0
 30
0.0
 11
81.0
 21
54.0
 31
0.0
  0
LINE
  5
125
100
AcDbEntity
  8
0
  6
CONTINUOUS
 62
               7
100
AcDbLine
 10
82.0
 20
55.0
 30
0.0
 11
81.0
 21
55.0
 31
0.0
  0
LINE
  5
126
100
AcDbEntity
  8
0
  6
CONTINUOUS
 62
               7
100
AcDbLine
 10
79.0
 20
7.5
 30
0.0
 11
81.5
 21
7.5
 31
0.0
  0
LINE
  5
127
100
AcDbEntity
  8
0
  6
CONTINUOUS
 62
               4
100
AcDbLine
 10
130.75
 20
51.700000000000003
 30
0.0
 11
132.25
 21
51.700000000000003
 31
0.0
  0
LINE
  5
128
100
AcDbEntity
  8
0
  6
CONTINUOUS
 62
               4
100
AcDbLine
 10
114.75
 20
51.700000000000003
 30
0.0
 11
116.25
 21
51.700000000000003
 31
0.0
  0
LINE
  5
129
100
AcDbEntity
  8
0
  6
CONTINUOUS
 62
               4
100
AcDbLine
 10
113.0
 20
51.0
 30
0.0
 11
113.23
 21
51.0
 31
0.0
  0
LINE
  5
12A
100
AcDbEntity
  8
0
  6
CONTINUOUS
 62
               4
100
AcDbLine
 10
84.75
 20
34.700000000000003
 30
0.0
 11
84.75
 21
34.0
 31
0.0
  0
LINE
  5
12B
100
AcDbEntity
  8
0
  6
CONTINUOUS
 62
               4
100
AcDbLine
 10
112.75
 20
49.700000000000003
 30
0.0
 11
112.75
 21
49.0
 31
0.0
  0
LINE
  5
12C
100
AcDbEntity
  8
0
  6
CONTINUOUS
 62
               4
100
AcDbLine
 10
112.75
 20
49.700000000000003
 30
0.0
 11
118.25
 21
49.700000000000003
 31
0.0
  0
LINE
  5
12D
100
AcDbEntity
  8
0
  6
CONTINUOUS
 62
               4
100
AcDbLine
 10
119.5
 20
51.0
 30
0.0
 11
119.5
 21
49.0
 31
0.0
  0
LINE
  5
12E
100
AcDbEntity
  8
0
  6
CONTINUOUS
 62
               4
100
AcDbLine
 10
134.0
 20
51.0
 30
0.0
 11
135.0
 21
49.0
 31
0.0
  0
LINE
  5
12F
100
AcDbEntity
  8
0
  6
CONTINUOUS
 62
               4
100
AcDbLine
 10
112.0
 20
49.0
 30
0.0
 11
135.0
 21
49.0
 31
0.0
  0
LINE
  5
130
100
AcDbEntity
  8
0
  6
CONTINUOUS
 62
               4
100
AcDbLine
 10
130.5
 20
40.0
 30
0.0
 11
130.5
 21
36.0
 31
0.0
  0
LINE
  5
131
100
AcDbEntity
  8
0
  6
CONTINUOUS
 62
               4
100
AcDbLine
 10
115.5
 20
40.0
 30
0.0
 11
115.5
 21
36.0
 31
0.0
  0
LINE
  5
132
100
AcDbEntity
  8
0
  6
CONTINUOUS
 62
               4
100
AcDbLine
 10
115.5
 20
36.0
 30
0.0
 11
130.5
 21
36.0
 31
0.0
  0
LINE
  5
133
100
AcDbEntity
  8
0
  6
CONTINUOUS
 62
               4
100
AcDbLine
 10
115.5
 20
40.0
 30
0.0
 11
130.5
 21
40.0
 31
0.0
  0
LINE
  5
134
100
AcDbEntity
  8
0
  6
CONTINUOUS
 62
               4
100
AcDbLine
 10
112.0
 20
48.0
 30
0.0
 11
135.0
 21
48.0
 31
0.0
  0
LINE
  5
135
100
AcDbEntity
  8
0
  6
CONTINUOUS
 62
               4
100
AcDbLine
 10
112.0
 20
28.0
 30
0.0
 11
135.0
 21
28.0
 31
0.0
  0
LINE
  5
136
100
AcDbEntity
  8
0
  6
CONTINUOUS
 62
               7
100
AcDbLine
 10
135.0
 20
54.0
 30
0.0
 11
135.0
 21
49.0
 31
0.0
  0
LINE
  5
137
100
AcDbEntity
  8
0
  6
CONTINUOUS
 62
               7
100
AcDbLine
 10
112.0
 20
50.5
 30
0.0
 11
112.75
 21
50.5
 31
0.0
  0
LINE
  5
138
100
AcDbEntity
  8
0
  6
CONTINUOUS
 62
               7
100
AcDbLine
 10
112.0
 20
54.0
 30
0.0
 11
135.0
 21
54.0
 31
0.0
  0
LINE
  5
139
100
AcDbEntity
  8
0
  6
CONTINUOUS
 62
               7
100
AcDbLine
 10
139.0
 20
15.0
 30
0.0
 11
139.0
 21
7.5
 31
0.0
  0
LINE
  5
13A
100
AcDbEntity
  8
0
  6
CONTINUOUS
 62
               7
100
AcDbLine
 10
139.0
 20
15.0
 30
0.0
 11
164.0
 21
15.0
 31
0.0
  0
LINE
  5
13B
100
AcDbEntity
  8
0
  6
CONTINUOUS
 62
               7
100
AcDbLine
 10
136.0
 20
15.0
 30
0.0
 11
135.19999999999999
 21
15.0
 31
0.0
  0
LINE
  5
13C
100
AcDbEntity
  8
0
  6
CONTINUOUS
 62
               7
100
AcDbLine
 10
136.0
 20
15.0
 30
0.0
 11
136.0
 21
7.5
 31
0.0
  0
LINE
  5
13D
100
AcDbEntity
  8
0
  6
CONTINUOUS
 62
               7
100
AcDbLine
 10
137.0
 20
50.5
 30
0.0
 11
137.0
 21
7.5
 31
0.0
  0
LINE
  5
13E
100
AcDbEntity
  8
0
  6
CONTINUOUS
 62
               7
100
AcDbLine
 10
138.0
 20
50.5
 30
0.0
 11
138.0
 21
7.5
 31
0.0
  0
LINE
  5
13F
100
AcDbEntity
  8
0
  6
CONTINUOUS
 62
               7
100
AcDbLine
 10
137.0
 20
50.5
 30
0.0
 11
135.19999999999999
 21
50.5
 31
0.0
  0
LINE
  5
140
100
AcDbEntity
  8
0
  6
CONTINUOUS
 62
               7
100
AcDbLine
 10
138.0
 20
50.5
 30
0.0
 11
139.80000000000001
 21
50.5
 31
0.0
  0
LINE
  5
141
100
AcDbEntity
  8
0
  6
CONTINUOUS
 62
               7
100
AcDbLine
 10
135.19999999999999
 20
54.0
 30
0.0
 11
135.19999999999999
 21
15.0
 31
0.0
  0
LINE
  5
142
100
AcDbEntity
  8
0
  6
CONTINUOUS
 62
               7
100
AcDbLine
 10
137.0
 20
54.0
 30
0.0
 11
135.19999999999999
 21
54.0
 31
0.0
  0
LINE
  5
143
100
AcDbEntity
  8
0
  6
CONTINUOUS
 62
               7
100
AcDbLine
 10
139.80000000000001
 20
54.0
 30
0.0
 11
139.80000000000001
 21
15.0
 31
0.0
  0
LINE
  5
144
100
AcDbEntity
  8
0
  6
CONTINUOUS
 62
               7
100
AcDbLine
 10
138.0
 20
54.0
 30
0.0
 11
139.80000000000001
 21
54.0
 31
0.0
  0
LINE
  5
145
100
AcDbEntity
  8
0
  6
CONTINUOUS
 62
               7
100
AcDbLine
 10
138.0
 20
55.0
 30
0.0
 11
138.0
 21
54.0
 31
0.0
  0
LINE
  5
146
100
AcDbEntity
  8
0
  6
CONTINUOUS
 62
               7
100
AcDbLine
 10
28.0
 20
54.0
 30
0.0
 11
28.0
 21
34.0
 31
0.0
  0
LINE
  5
147
100
AcDbEntity
  8
0
  6
CONTINUOUS
 62
               4
100
AcDbLine
 10
33.770000000000003
 20
36.0
 30
0.0
 11
50.0
 21
36.0
 31
0.0
  0
LINE
  5
148
100
AcDbEntity
  8
0
  6
CONTINUOUS
 62
               4
100
AcDbLine
 10
46.75
 20
36.700000000000003
 30
0.0
 11
48.25
 21
36.700000000000003
 31
0.0
  0
LINE
  5
149
100
AcDbEntity
  8
0
  6
CONTINUOUS
 62
               4
100
AcDbLine
 10
30.75
 20
36.700000000000003
 30
0.0
 11
32.25
 21
36.700000000000003
 31
0.0
  0
LINE
  5
14A
100
AcDbEntity
  8
0
  6
CONTINUOUS
 62
               4
100
AcDbLine
 10
29.0
 20
36.0
 30
0.0
 11
29.23
 21
36.0
 31
0.0
  0
LINE
  5
14B
100
AcDbEntity
  8
0
  6
CONTINUOUS
 62
               4
100
AcDbLine
 10
28.75
 20
34.700000000000003
 30
0.0
 11
28.75
 21
34.0
 31
0.0
  0
LINE
  5
14C
100
AcDbEntity
  8
0
  6
CONTINUOUS
 62
               4
100
AcDbLine
 10
34.25
 20
34.700000000000003
 30
0.0
 11
34.25
 21
34.0
 31
0.0
  0
LINE
  5
14D
100
AcDbEntity
  8
0
  6
CONTINUOUS
 62
               4
100
AcDbLine
 10
28.75
 20
34.700000000000003
 30
0.0
 11
34.25
 21
34.700000000000003
 31
0.0
  0
LINE
  5
14E
100
AcDbEntity
  8
0
  6
CONTINUOUS
 62
               4
100
AcDbLine
 10
35.5
 20
36.0
 30
0.0
 11
35.5
 21
34.0
 31
0.0
  0
LINE
  5
14F
100
AcDbEntity
  8
0
  6
CONTINUOUS
 62
               4
100
AcDbLine
 10
50.0
 20
36.0
 30
0.0
 11
51.0
 21
34.0
 31
0.0
  0
LINE
  5
150
100
AcDbEntity
  8
0
  6
CONTINUOUS
 62
               4
100
AcDbLine
 10
28.0
 20
34.0
 30
0.0
 11
51.0
 21
34.0
 31
0.0
  0
LINE
  5
151
100
AcDbEntity
  8
0
  6
CONTINUOUS
 62
               4
100
AcDbLine
 10
46.5
 20
25.0
 30
0.0
 11
46.5
 21
21.0
 31
0.0
  0
LINE
  5
152
100
AcDbEntity
  8
0
  6
CONTINUOUS
 62
               4
100
AcDbLine
 10
31.5
 20
25.0
 30
0.0
 11
31.5
 21
21.0
 31
0.0
  0
LINE
  5
153
100
AcDbEntity
  8
0
  6
CONTINUOUS
 62
               4
100
AcDbLine
 10
31.5
 20
21.0
 30
0.0
 11
46.5
 21
21.0
 31
0.0
  0
LINE
  5
154
100
AcDbEntity
  8
0
  6
CONTINUOUS
 62
               4
100
AcDbLine
 10
31.5
 20
25.0
 30
0.0
 11
46.5
 21
25.0
 31
0.0
  0
LINE
  5
155
100
AcDbEntity
  8
0
  6
CONTINUOUS
 62
               4
100
AcDbLine
 10
28.0
 20
33.0
 30
0.0
 11
51.0
 21
33.0
 31
0.0
  0
LINE
  5
156
100
AcDbEntity
  8
0
  6
CONTINUOUS
 62
               4
100
AcDbLine
 10
28.0
 20
13.0
 30
0.0
 11
51.0
 21
13.0
 31
0.0
  0
LINE
  5
157
100
AcDbEntity
  8
0
  6
CONTINUOUS
 62
               7
100
AcDbLine
 10
51.0
 20
54.0
 30
0.0
 11
51.0
 21
34.0
 31
0.0
  0
LINE
  5
158
100
AcDbEntity
  8
0
  6
CONTINUOUS
 62
               7
100
AcDbLine
 10
28.0
 20
50.5
 30
0.0
 11
51.0
 21
50.5
 31
0.0
  0
LINE
  5
159
100
AcDbEntity
  8
0
  6
CONTINUOUS
 62
               7
100
AcDbLine
 10
28.0
 20
54.0
 30
0.0
 11
51.0
 21
54.0
 31
0.0
  0
LINE
  5
15A
100
AcDbEntity
  8
0
  6
CONTINUOUS
 62
               7
100
AcDbLine
 10
55.0
 20
15.0
 30
0.0
 11
55.0
 21
7.5
 31
0.0
  0
LINE
  5
15B
100
AcDbEntity
  8
0
  6
CONTINUOUS
 62
               7
100
AcDbLine
 10
55.0
 20
15.0
 30
0.0
 11
55.799999999999997
 21
15.0
 31
0.0
  0
LINE
  5
15C
100
AcDbEntity
  8
0
  6
CONTINUOUS
 62
               7
100
AcDbLine
 10
52.0
 20
15.0
 30
0.0
 11
51.200000000000003
 21
15.0
 31
0.0
  0
LINE
  5
15D
100
AcDbEntity
  8
0
  6
CONTINUOUS
 62
               7
100
AcDbLine
 10
52.0
 20
15.0
 30
0.0
 11
52.0
 21
7.5
 31
0.0
  0
LINE
  5
15E
100
AcDbEntity
  8
0
  6
CONTINUOUS
 62
               7
100
AcDbLine
 10
53.0
 20
50.5
 30
0.0
 11
53.0
 21
7.5
 31
0.0
  0
LINE
  5
15F
100
AcDbEntity
  8
0
  6
CONTINUOUS
 62
               7
100
AcDbLine
 10
54.0
 20
50.5
 30
0.0
 11
54.0
 21
7.5
 31
0.0
  0
LINE
  5
160
100
AcDbEntity
  8
0
  6
CONTINUOUS
 62
               7
100
AcDbLine
 10
53.0
 20
50.5
 30
0.0
 11
51.200000000000003
 21
50.5
 31
0.0
  0
LINE
  5
161
100
AcDbEntity
  8
0
  6
CONTINUOUS
 62
               7
100
AcDbLine
 10
54.0
 20
50.5
 30
0.0
 11
55.799999999999997
 21
50.5
 31
0.0
  0
LINE
  5
162
100
AcDbEntity
  8
0
  6
CONTINUOUS
 62
               7
100
AcDbLine
 10
51.200000000000003
 20
54.0
 30
0.0
 11
51.200000000000003
 21
15.0
 31
0.0
  0
LINE
  5
163
100
AcDbEntity
  8
0
  6
CONTINUOUS
 62
               7
100
AcDbLine
 10
53.0
 20
54.0
 30
0.0
 11
51.200000000000003
 21
54.0
 31
0.0
  0
LINE
  5
164
100
AcDbEntity
  8
0
  6
CONTINUOUS
 62
               7
100
AcDbLine
 10
55.799999999999997
 20
54.0
 30
0.0
 11
55.799999999999997
 21
15.0
 31
0.0
  0
LINE
  5
165
100
AcDbEntity
  8
0
  6
CONTINUOUS
 62
               7
100
AcDbLine
 10
54.0
 20
54.0
 30
0.0
 11
55.799999999999997
 21
54.0
 31
0.0
  0
LINE
  5
166
100
AcDbEntity
  8
0
  6
CONTINUOUS
 62
               7
100
AcDbLine
 10
54.0
 20
55.0
 30
0.0
 11
54.0
 21
54.0
 31
0.0
  0
LINE
  5
167
100
AcDbEntity
  8
0
  6
CONTINUOUS
 62
               7
100
AcDbLine
 10
53.0
 20
55.0
 30
0.0
 11
53.0
 21
54.0
 31
0.0
  0
LINE
  5
168
100
AcDbEntity
  8
0
  6
CONTINUOUS
 62
               7
100
AcDbLine
 10
54.0
 20
55.0
 30
0.0
 11
53.0
 21
55.0
 31
0.0
  0
LINE
  5
169
100
AcDbEntity
  8
0
  6
CONTINUOUS
 62
               7
100
AcDbLine
 10
51.0
 20
7.5
 30
0.0
 11
56.0
 21
7.5
 31
0.0
  0
LINE
  5
16A
100
AcDbEntity
  8
0
  6
CONTINUOUS
 62
               7
100
AcDbLine
 10
27.0
 20
15.0
 30
0.0
 11
27.0
 21
7.5
 31
0.0
  0
LINE
  5
16B
100
AcDbEntity
  8
0
  6
CONTINUOUS
 62
               7
100
AcDbLine
 10
26.0
 20
50.5
 30
0.0
 11
27.800000000000001
 21
50.5
 31
0.0
  0
LINE
  5
16C
100
AcDbEntity
  8
0
  6
CONTINUOUS
 62
               7
100
AcDbLine
 10
27.0
 20
15.0
 30
0.0
 11
27.800000000000001
 21
15.0
 31
0.0
  0
LINE
  5
16D
100
AcDbEntity
  8
0
  6
CONTINUOUS
 62
               7
100
AcDbLine
 10
27.800000000000001
 20
54.0
 30
0.0
 11
27.800000000000001
 21
15.0
 31
0.0
  0
LINE
  5
16E
100
AcDbEntity
  8
0
  6
CONTINUOUS
 62
               7
100
AcDbLine
 10
26.0
 20
54.0
 30
0.0
 11
27.800000000000001
 21
54.0
 31
0.0
  0
LINE
  5
16F
100
AcDbEntity
  8
0
  6
CONTINUOUS
 62
               7
100
AcDbLine
 10
112.0
 20
54.0
 30
0.0
 11
112.0
 21
49.0
 31
0.0
  0
LINE
  5
170
100
AcDbEntity
  8
0
  6
CONTINUOUS
 62
               7
100
AcDbLine
 10
182.5
 20
54.0
 30
0.0
 11
166.5
 21
54.0
 31
0.0
  0
LINE
  5
171
100
AcDbEntity
  8
0
  6
CONTINUOUS
 62
               7
100
AcDbLine
 10
8.5
 20
54.0
 30
0.0
 11
24.5
 21
54.0
 31
0.0
  0
LINE
  5
172
100
AcDbEntity
  8
0
  6
CONTINUOUS
 62
               7
100
AcDbLine
 10
168.19999999999999
 20
54.0
 30
0.0
 11
168.19999999999999
 21
7.5
 31
0.0
  0
LINE
  5
173
100
AcDbEntity
  8
0
  6
CONTINUOUS
 62
               7
100
AcDbLine
 10
164.0
 20
15.0
 30
0.0
 11
164.0
 21
7.5
 31
0.0
  0
LINE
  5
174
100
AcDbEntity
  8
0
  6
CONTINUOUS
 62
               7
100
AcDbLine
 10
165.0
 20
50.5
 30
0.0
 11
165.0
 21
7.5
 31
0.0
  0
LINE
  5
175
100
AcDbEntity
  8
0
  6
CONTINUOUS
 62
               7
100
AcDbLine
 10
165.0
 20
50.5
 30
0.0
 11
163.19999999999999
 21
50.5
 31
0.0
  0
LINE
  5
176
100
AcDbEntity
  8
0
  6
CONTINUOUS
 62
               7
100
AcDbLine
 10
163.19999999999999
 20
54.0
 30
0.0
 11
163.19999999999999
 21
15.0
 31
0.0
  0
LINE
  5
177
100
AcDbEntity
  8
0
  6
CONTINUOUS
 62
               7
100
AcDbLine
 10
165.0
 20
54.0
 30
0.0
 11
163.19999999999999
 21
54.0
 31
0.0
  0
LINE
  5
178
100
AcDbEntity
  8
0
  6
CONTINUOUS
 62
               7
100
AcDbLine
 10
168.19999999999999
 20
54.0
 30
0.0
 11
166.0
 21
54.0
 31
0.0
  0
LINE
  5
179
100
AcDbEntity
  8
0
  6
CONTINUOUS
 62
               7
100
AcDbLine
 10
165.0
 20
55.0
 30
0.0
 11
165.0
 21
54.0
 31
0.0
  0
LINE
  5
17A
100
AcDbEntity
  8
0
  6
CONTINUOUS
 62
               7
100
AcDbLine
 10
166.0
 20
55.0
 30
0.0
 11
166.0
 21
7.5
 31
0.0
  0
LINE
  5
17B
100
AcDbEntity
  8
0
  6
CONTINUOUS
 62
               7
100
AcDbLine
 10
166.0
 20
55.0
 30
0.0
 11
165.0
 21
55.0
 31
0.0
  0
LINE
  5
17C
100
AcDbEntity
  8
0
  6
CONTINUOUS
 62
               7
100
AcDbLine
 10
22.800000000000001
 20
54.0
 30
0.0
 11
22.800000000000001
 21
7.5
 31
0.0
  0
LINE
  5
17D
100
AcDbEntity
  8
0
  6
CONTINUOUS
 62
               7
100
AcDbLine
 10
26.0
 20
50.5
 30
0.0
 11
26.0
 21
7.5
 31
0.0
  0
LINE
  5
17E
100
AcDbEntity
  8
0
  6
CONTINUOUS
 62
               7
100
AcDbLine
 10
-3.0
 20
7.5
 30
0.0
 11
25.5
 21
7.5
 31
0.0
  0
LINE
  5
17F
100
AcDbEntity
  8
0
  6
CONTINUOUS
 62
               7
100
AcDbLine
 10
22.800000000000001
 20
54.0
 30
0.0
 11
25.0
 21
54.0
 31
0.0
  0
LINE
  5
180
100
AcDbEntity
  8
0
  6
CONTINUOUS
 62
               7
100
AcDbLine
 10
26.0
 20
55.0
 30
0.0
 11
26.0
 21
54.0
 31
0.0
  0
LINE
  5
181
100
AcDbEntity
  8
0
  6
CONTINUOUS
 62
               7
100
AcDbLine
 10
25.0
 20
55.0
 30
0.0
 11
25.0
 21
7.5
 31
0.0
  0
LINE
  5
182
100
AcDbEntity
  8
0
  6
CONTINUOUS
 62
               7
100
AcDbLine
 10
25.0
 20
55.0
 30
0.0
 11
26.0
 21
55.0
 31
0.0
  0
LINE
  5
183
100
AcDbEntity
  8
0
  6
CONTINUOUS
 62
               7
100
AcDbLine
 10
163.0
 20
54.0
 30
0.0
 11
163.0
 21
15.0
 31
0.0
  0
LINE
  5
184
100
AcDbEntity
  8
0
  6
CONTINUOUS
 62
               7
100
AcDbLine
 10
140.0
 20
50.5
 30
0.0
 11
163.0
 21
50.5
 31
0.0
  0
LINE
  5
185
100
AcDbEntity
  8
0
  6
CONTINUOUS
 62
               7
100
AcDbLine
 10
140.0
 20
54.0
 30
0.0
 11
140.0
 21
15.0
 31
0.0
  0
LINE
  5
186
100
AcDbEntity
  8
0
  6
CONTINUOUS
 62
               7
100
AcDbLine
 10
140.0
 20
54.0
 30
0.0
 11
163.0
 21
54.0
 31
0.0
  0
LINE
  5
187
100
AcDbEntity
  8
0
  6
CONTINUOUS
 62
               7
100
AcDbLine
 10
46.0
 20
-73.5
 30
0.0
 11
44.0
 21
-71.5
 31
0.0
  0
LINE
  5
188
100
AcDbEntity
  8
0
  6
CONTINUOUS
 62
               7
100
AcDbLine
 10
51.0
 20
-73.5
 30
0.0
 11
53.0
 21
-71.5
 31
0.0
  0
LINE
  5
189
100
AcDbEntity
  8
0
  6
CONTINUOUS
 62
               7
100
AcDbLine
 10
46.0
 20
-73.5
 30
0.0
 11
51.0
 21
-73.5
 31
0.0
  0
LINE
  5
18A
100
AcDbEntity
  8
0
  6
CONTINUOUS
 62
               7
100
AcDbLine
 10
52.0
 20
-74.5
 30
0.0
 11
52.0
 21
-72.5
 31
0.0
  0
LINE
  5
18B
100
AcDbEntity
  8
0
  6
CONTINUOUS
 62
               7
100
AcDbLine
 10
45.0
 20
-74.5
 30
0.0
 11
52.0
 21
-74.5
 31
0.0
  0
LINE
  5
18C
100
AcDbEntity
  8
0
  6
CONTINUOUS
 62
               7
100
AcDbLine
 10
45.0
 20
-74.5
 30
0.0
 11
45.0
 21
-72.5
 31
0.0
  0
LINE
  5
18D
100
AcDbEntity
  8
0
  6
CONTINUOUS
 62
               7
100
AcDbLine
 10
18.0
 20
-73.5
 30
0.0
 11
16.0
 21
-71.5
 31
0.0
  0
LINE
  5
18E
100
AcDbEntity
  8
0
  6
CONTINUOUS
 62
               7
100
AcDbLine
 10
23.0
 20
-73.5
 30
0.0
 11
25.0
 21
-71.5
 31
0.0
  0
LINE
  5
18F
100
AcDbEntity
  8
0
  6
CONTINUOUS
 62
               7
100
AcDbLine
 10
18.0
 20
-73.5
 30
0.0
 11
23.0
 21
-73.5
 31
0.0
  0
LINE
  5
190
100
AcDbEntity
  8
0
  6
CONTINUOUS
 62
               7
100
AcDbLine
 10
24.0
 20
-74.5
 30
0.0
 11
24.0
 21
-72.5
 31
0.0
  0
LINE
  5
191
100
AcDbEntity
  8
0
  6
CONTINUOUS
 62
               7
100
AcDbLine
 10
17.0
 20
-74.5
 30
0.0
 11
24.0
 21
-74.5
 31
0.0
  0
LINE
  5
192
100
AcDbEntity
  8
0
  6
CONTINUOUS
 62
               7
100
AcDbLine
 10
17.0
 20
-74.5
 30
0.0
 11
17.0
 21
-72.5
 31
0.0
  0
LINE
  5
193
100
AcDbEntity
  8
0
  6
CENTER
 62
               2
100
AcDbLine
 10
151.5
 20
-75.0
 30
0.0
 11
151.5
 21
13.0
 31
0.0
  0
LINE
  5
194
100
AcDbEntity
  8
0
  6
CONTINUOUS
 62
               7
100
AcDbLine
 10
113.44
 20
-42.93
 30
0.0
 11
115.56
 21
-45.060000000000002
 31
0.0
  0
LINE
  5
195
100
AcDbEntity
  8
0
  6
CONTINUOUS
 62
               7
100
AcDbLine
 10
113.44
 20
-45.060000000000002
 30
0.0
 11
115.56
 21
-42.93
 31
0.0
  0
LINE
  5
196
100
AcDbEntity
  8
0
  6
CONTINUOUS
 62
               7
100
AcDbLine
 10
131.44
 20
-24.93
 30
0.0
 11
133.56
 21
-27.059999999999999
 31
0.0
  0
LINE
  5
197
100
AcDbEntity
  8
0
  6
CONTINUOUS
 62
               7
100
AcDbLine
 10
131.44
 20
-27.059999999999999
 30
0.0
 11
133.56
 21
-24.93
 31
0.0
  0
LINE
  5
198
100
AcDbEntity
  8
0
  6
CONTINUOUS
 62
               7
100
AcDbLine
 10
113.44
 20
-16.93
 30
0.0
 11
115.56
 21
-19.059999999999999
 31
0.0
  0
LINE
  5
199
100
AcDbEntity
  8
0
  6
CONTINUOUS
 62
               7
100
AcDbLine
 10
113.44
 20
-19.059999999999999
 30
0.0
 11
115.56
 21
-16.93
 31
0.0
  0
LINE
  5
19A
100
AcDbEntity
  8
0
  6
CONTINUOUS
 62
               7
100
AcDbLine
 10
130.94
 20
-49.93
 30
0.0
 11
133.06
 21
-52.060000000000002
 31
0.0
  0
LINE
  5
19B
100
AcDbEntity
  8
0
  6
CONTINUOUS
 62
               7
100
AcDbLine
 10
113.94
 20
-9.9299999999999997
 30
0.0
 11
116.06
 21
-12.06
 31
0.0
  0
LINE
  5
19C
100
AcDbEntity
  8
0
  6
CONTINUOUS
 62
               7
100
AcDbLine
 10
113.94
 20
-12.06
 30
0.0
 11
116.06
 21
-9.9299999999999997
 31
0.0
  0
LINE
  5
19D
100
AcDbEntity
  8
0
  6
CONTINUOUS
 62
               7
100
AcDbLine
 10
130.94
 20
-52.060000000000002
 30
0.0
 11
133.06
 21
-49.93
 31
0.0
  0
LINE
  5
19E
100
AcDbEntity
  8
0
  6
CONTINUOUS
 62
               7
100
AcDbLine
 10
112.0
 20
-4.5
 30
0.0
 11
113.5
 21
-6.0
 31
0.0
  0
LINE
  5
19F
100
AcDbEntity
  8
0
  6
CONTINUOUS
 62
               7
100
AcDbLine
 10
135.0
 20
-4.5
 30
0.0
 11
133.5
 21
-6.0
 31
0.0
  0
LINE
  5
1A0
100
AcDbEntity
  8
0
  6
CONTINUOUS
 62
               7
100
AcDbLine
 10
133.5
 20
-56.0
 30
0.0
 11
135.0
 21
-57.5
 31
0.0
  0
LINE
  5
1A1
100
AcDbEntity
  8
0
  6
CONTINUOUS
 62
               7
100
AcDbLine
 10
112.0
 20
-57.5
 30
0.0
 11
113.5
 21
-56.0
 31
0.0
  0
LINE
  5
1A2
100
AcDbEntity
  8
0
  6
CONTINUOUS
 62
               7
100
AcDbLine
 10
133.5
 20
-53.5
 30
0.0
 11
133.5
 21
-56.0
 31
0.0
  0
LINE
  5
1A3
100
AcDbEntity
  8
0
  6
CONTINUOUS
 62
               7
100
AcDbLine
 10
133.5
 20
-29.0
 30
0.0
 11
133.5
 21
-48.5
 31
0.0
  0
LINE
  5
1A4
100
AcDbEntity
  8
0
  6
CONTINUOUS
 62
               7
100
AcDbLine
 10
113.5
 20
-13.5
 30
0.0
 11
113.5
 21
-15.0
 31
0.0
  0
LINE
  5
1A5
100
AcDbEntity
  8
0
  6
CONTINUOUS
 62
               7
100
AcDbLine
 10
113.5
 20
-21.0
 30
0.0
 11
113.5
 21
-41.0
 31
0.0
  0
LINE
  5
1A6
100
AcDbEntity
  8
0
  6
CONTINUOUS
 62
               7
100
AcDbLine
 10
113.5
 20
-47.0
 30
0.0
 11
113.5
 21
-56.0
 31
0.0
  0
LINE
  5
1A7
100
AcDbEntity
  8
0
  6
CONTINUOUS
 62
               7
100
AcDbLine
 10
113.5
 20
-56.0
 30
0.0
 11
133.5
 21
-56.0
 31
0.0
  0
LINE
  5
1A8
100
AcDbEntity
  8
0
  6
CONTINUOUS
 62
               7
100
AcDbLine
 10
113.5
 20
-6.0
 30
0.0
 11
133.5
 21
-6.0
 31
0.0
  0
LINE
  5
1A9
100
AcDbEntity
  8
0
  6
CONTINUOUS
 62
               7
100
AcDbLine
 10
112.0
 20
-4.5
 30
0.0
 11
135.0
 21
-4.5
 31
0.0
  0
LINE
  5
1AA
100
AcDbEntity
  8
0
  6
CONTINUOUS
 62
               7
100
AcDbLine
 10
112.0
 20
-57.5
 30
0.0
 11
135.0
 21
-57.5
 31
0.0
  0
LINE
  5
1AB
100
AcDbEntity
  8
0
  6
CONTINUOUS
 62
               7
100
AcDbLine
 10
133.5
 20
-6.0
 30
0.0
 11
133.5
 21
-23.0
 31
0.0
  0
LINE
  5
1AC
100
AcDbEntity
  8
0
  6
CONTINUOUS
 62
               7
100
AcDbLine
 10
113.5
 20
-6.0
 30
0.0
 11
113.5
 21
-8.5
 31
0.0
  0
LINE
  5
1AD
100
AcDbEntity
  8
0
  6
CONTINUOUS
 62
               7
100
AcDbLine
 10
114.5
 20
-21.0
 30
0.0
 11
112.0
 21
-21.0
 31
0.0
  0
LINE
  5
1AE
100
AcDbEntity
  8
0
  6
CONTINUOUS
 62
               7
100
AcDbLine
 10
114.5
 20
-15.0
 30
0.0
 11
112.0
 21
-15.0
 31
0.0
  0
LINE
  5
1AF
100
AcDbEntity
  8
0
  6
CONTINUOUS
 62
               7
100
AcDbLine
 10
115.0
 20
-13.5
 30
0.0
 11
112.0
 21
-13.5
 31
0.0
  0
LINE
  5
1B0
100
AcDbEntity
  8
0
  6
CONTINUOUS
 62
               7
100
AcDbLine
 10
115.0
 20
-8.5
 30
0.0
 11
112.0
 21
-8.5
 31
0.0
  0
LINE
  5
1B1
100
AcDbEntity
  8
0
  6
CONTINUOUS
 62
               7
100
AcDbLine
 10
132.5
 20
-23.0
 30
0.0
 11
135.0
 21
-23.0
 31
0.0
  0
LINE
  5
1B2
100
AcDbEntity
  8
0
  6
CONTINUOUS
 62
               7
100
AcDbLine
 10
132.5
 20
-29.0
 30
0.0
 11
135.0
 21
-29.0
 31
0.0
  0
LINE
  5
1B3
100
AcDbEntity
  8
0
  6
CONTINUOUS
 62
               7
100
AcDbLine
 10
132.0
 20
-48.5
 30
0.0
 11
135.0
 21
-48.5
 31
0.0
  0
LINE
  5
1B4
100
AcDbEntity
  8
0
  6
CONTINUOUS
 62
               7
100
AcDbLine
 10
132.0
 20
-53.5
 30
0.0
 11
135.0
 21
-53.5
 31
0.0
  0
LINE
  5
1B5
100
AcDbEntity
  8
0
  6
CONTINUOUS
 62
               7
100
AcDbLine
 10
114.5
 20
-47.0
 30
0.0
 11
112.0
 21
-47.0
 31
0.0
  0
LINE
  5
1B6
100
AcDbEntity
  8
0
  6
CONTINUOUS
 62
               7
100
AcDbLine
 10
114.5
 20
-41.0
 30
0.0
 11
112.0
 21
-41.0
 31
0.0
  0
LINE
  5
1B7
100
AcDbEntity
  8
0
  6
CONTINUOUS
 62
               7
100
AcDbLine
 10
135.0
 20
-73.5
 30
0.0
 11
137.0
 21
-71.5
 31
0.0
  0
LINE
  5
1B8
100
AcDbEntity
  8
0
  6
CONTINUOUS
 62
               7
100
AcDbLine
 10
136.0
 20
-74.5
 30
0.0
 11
136.0
 21
-72.5
 31
0.0
  0
LINE
  5
1B9
100
AcDbEntity
  8
0
  6
CONTINUOUS
 62
               7
100
AcDbLine
 10
135.0
 20
-74.5
 30
0.0
 11
136.0
 21
-74.5
 31
0.0
  0
LINE
  5
1BA
100
AcDbEntity
  8
0
  6
CONTINUOUS
 62
               7
100
AcDbLine
 10
135.0
 20
-71.5
 30
0.0
 11
137.5
 21
-71.5
 31
0.0
  0
LINE
  5
1BB
100
AcDbEntity
  8
0
  6
CONTINUOUS
 62
               7
100
AcDbLine
 10
112.0
 20
-70.5
 30
0.0
 11
109.5
 21
-70.5
 31
0.0
  0
LINE
  5
1BC
100
AcDbEntity
  8
0
  6
CONTINUOUS
 62
               7
100
AcDbLine
 10
137.5
 20
-71.5
 30
0.0
 11
137.5
 21
7.5
 31
0.0
  0
LINE
  5
1BD
100
AcDbEntity
  8
0
  6
CONTINUOUS
 62
               7
100
AcDbLine
 10
137.5
 20
-70.5
 30
0.0
 11
135.0
 21
-70.5
 31
0.0
  0
LINE
  5
1BE
100
AcDbEntity
  8
0
  6
CONTINUOUS
 62
               7
100
AcDbLine
 10
109.5
 20
-71.5
 30
0.0
 11
109.5
 21
7.5
 31
0.0
  0
LINE
  5
1BF
100
AcDbEntity
  8
0
  6
CONTINUOUS
 62
               7
100
AcDbLine
 10
109.5
 20
-71.5
 30
0.0
 11
112.0
 21
-71.5
 31
0.0
  0
LINE
  5
1C0
100
AcDbEntity
  8
0
  6
CONTINUOUS
 62
               4
100
AcDbLine
 10
135.0
 20
-90.0
 30
0.0
 11
112.0
 21
-90.0
 31
0.0
  0
LINE
  5
1C1
100
AcDbEntity
  8
0
  6
CENTER
 62
               2
100
AcDbLine
 10
123.5
 20
52.359999999999999
 30
0.0
 11
123.5
 21
-115.0
 31
0.0
  0
LINE
  5
1C2
100
AcDbEntity
  8
0
  6
CONTINUOUS
 62
               7
100
AcDbLine
 10
135.0
 20
28.0
 30
0.0
 11
135.0
 21
-90.0
 31
0.0
  0
LINE
  5
1C3
100
AcDbEntity
  8
0
  6
CONTINUOUS
 62
               7
100
AcDbLine
 10
112.0
 20
28.0
 30
0.0
 11
112.0
 21
-90.0
 31
0.0
  0
LINE
  5
1C4
100
AcDbEntity
  8
0
  6
CONTINUOUS
 62
               7
100
AcDbLine
 10
107.0
 20
-71.5
 30
0.0
 11
109.5
 21
-71.5
 31
0.0
  0
LINE
  5
1C5
100
AcDbEntity
  8
0
  6
CONTINUOUS
 62
               7
100
AcDbLine
 10
84.0
 20
-70.5
 30
0.0
 11
81.5
 21
-70.5
 31
0.0
  0
LINE
  5
1C6
100
AcDbEntity
  8
0
  6
CONTINUOUS
 62
               7
100
AcDbLine
 10
85.430000000000007
 20
-42.93
 30
0.0
 11
87.560000000000002
 21
-45.060000000000002
 31
0.0
  0
LINE
  5
1C7
100
AcDbEntity
  8
0
  6
CONTINUOUS
 62
               7
100
AcDbLine
 10
85.430000000000007
 20
-45.060000000000002
 30
0.0
 11
87.560000000000002
 21
-42.93
 31
0.0
  0
LINE
  5
1C8
100
AcDbEntity
  8
0
  6
CONTINUOUS
 62
               7
100
AcDbLine
 10
103.44
 20
-24.93
 30
0.0
 11
105.56
 21
-27.059999999999999
 31
0.0
  0
LINE
  5
1C9
100
AcDbEntity
  8
0
  6
CONTINUOUS
 62
               7
100
AcDbLine
 10
103.44
 20
-27.059999999999999
 30
0.0
 11
105.56
 21
-24.93
 31
0.0
  0
LINE
  5
1CA
100
AcDbEntity
  8
0
  6
CONTINUOUS
 62
               7
100
AcDbLine
 10
85.430000000000007
 20
-16.93
 30
0.0
 11
87.560000000000002
 21
-19.059999999999999
 31
0.0
  0
LINE
  5
1CB
100
AcDbEntity
  8
0
  6
CONTINUOUS
 62
               7
100
AcDbLine
 10
85.430000000000007
 20
-19.059999999999999
 30
0.0
 11
87.560000000000002
 21
-16.93
 31
0.0
  0
LINE
  5
1CC
100
AcDbEntity
  8
0
  6
CONTINUOUS
 62
               7
100
AcDbLine
 10
102.94
 20
-49.93
 30
0.0
 11
105.06
 21
-52.060000000000002
 31
0.0
  0
LINE
  5
1CD
100
AcDbEntity
  8
0
  6
CONTINUOUS
 62
               7
100
AcDbLine
 10
85.930000000000007
 20
-9.9299999999999997
 30
0.0
 11
88.060000000000002
 21
-12.06
 31
0.0
  0
LINE
  5
1CE
100
AcDbEntity
  8
0
  6
CONTINUOUS
 62
               7
100
AcDbLine
 10
85.930000000000007
 20
-12.06
 30
0.0
 11
88.060000000000002
 21
-9.9299999999999997
 31
0.0
  0
LINE
  5
1CF
100
AcDbEntity
  8
0
  6
CONTINUOUS
 62
               7
100
AcDbLine
 10
102.94
 20
-52.060000000000002
 30
0.0
 11
105.06
 21
-49.93
 31
0.0
  0
LINE
  5
1D0
100
AcDbEntity
  8
0
  6
CONTINUOUS
 62
               7
100
AcDbLine
 10
84.0
 20
-4.5
 30
0.0
 11
85.5
 21
-6.0
 31
0.0
  0
LINE
  5
1D1
100
AcDbEntity
  8
0
  6
CONTINUOUS
 62
               7
100
AcDbLine
 10
107.0
 20
-4.5
 30
0.0
 11
105.5
 21
-6.0
 31
0.0
  0
LINE
  5
1D2
100
AcDbEntity
  8
0
  6
CONTINUOUS
 62
               7
100
AcDbLine
 10
105.5
 20
-56.0
 30
0.0
 11
107.0
 21
-57.5
 31
0.0
  0
LINE
  5
1D3
100
AcDbEntity
  8
0
  6
CONTINUOUS
 62
               7
100
AcDbLine
 10
84.0
 20
-57.5
 30
0.0
 11
85.5
 21
-56.0
 31
0.0
  0
LINE
  5
1D4
100
AcDbEntity
  8
0
  6
CONTINUOUS
 62
               7
100
AcDbLine
 10
105.5
 20
-53.5
 30
0.0
 11
105.5
 21
-56.0
 31
0.0
  0
LINE
  5
1D5
100
AcDbEntity
  8
0
  6
CONTINUOUS
 62
               7
100
AcDbLine
 10
105.5
 20
-29.0
 30
0.0
 11
105.5
 21
-48.5
 31
0.0
  0
LINE
  5
1D6
100
AcDbEntity
  8
0
  6
CONTINUOUS
 62
               7
100
AcDbLine
 10
85.5
 20
-13.5
 30
0.0
 11
85.5
 21
-15.0
 31
0.0
  0
LINE
  5
1D7
100
AcDbEntity
  8
0
  6
CONTINUOUS
 62
               7
100
AcDbLine
 10
85.5
 20
-21.0
 30
0.0
 11
85.5
 21
-41.0
 31
0.0
  0
LINE
  5
1D8
100
AcDbEntity
  8
0
  6
CONTINUOUS
 62
               7
100
AcDbLine
 10
85.5
 20
-47.0
 30
0.0
 11
85.5
 21
-56.0
 31
0.0
  0
LINE
  5
1D9
100
AcDbEntity
  8
0
  6
CONTINUOUS
 62
               7
100
AcDbLine
 10
85.5
 20
-56.0
 30
0.0
 11
105.5
 21
-56.0
 31
0.0
  0
LINE
  5
1DA
100
AcDbEntity
  8
0
  6
CONTINUOUS
 62
               7
100
AcDbLine
 10
85.5
 20
-6.0
 30
0.0
 11
105.5
 21
-6.0
 31
0.0
  0
LINE
  5
1DB
100
AcDbEntity
  8
0
  6
CONTINUOUS
 62
               7
100
AcDbLine
 10
84.0
 20
-4.5
 30
0.0
 11
107.0
 21
-4.5
 31
0.0
  0
LINE
  5
1DC
100
AcDbEntity
  8
0
  6
CONTINUOUS
 62
               7
100
AcDbLine
 10
84.0
 20
-57.5
 30
0.0
 11
107.0
 21
-57.5
 31
0.0
  0
LINE
  5
1DD
100
AcDbEntity
  8
0
  6
CONTINUOUS
 62
               7
100
AcDbLine
 10
105.5
 20
-6.0
 30
0.0
 11
105.5
 21
-23.0
 31
0.0
  0
LINE
  5
1DE
100
AcDbEntity
  8
0
  6
CONTINUOUS
 62
               7
100
AcDbLine
 10
85.5
 20
-6.0
 30
0.0
 11
85.5
 21
-8.5
 31
0.0
  0
LINE
  5
1DF
100
AcDbEntity
  8
0
  6
CONTINUOUS
 62
               7
100
AcDbLine
 10
86.5
 20
-21.0
 30
0.0
 11
84.0
 21
-21.0
 31
0.0
  0
LINE
  5
1E0
100
AcDbEntity
  8
0
  6
CONTINUOUS
 62
               7
100
AcDbLine
 10
86.5
 20
-15.0
 30
0.0
 11
84.0
 21
-15.0
 31
0.0
  0
LINE
  5
1E1
100
AcDbEntity
  8
0
  6
CONTINUOUS
 62
               7
100
AcDbLine
 10
87.0
 20
-13.5
 30
0.0
 11
84.0
 21
-13.5
 31
0.0
  0
LINE
  5
1E2
100
AcDbEntity
  8
0
  6
CONTINUOUS
 62
               7
100
AcDbLine
 10
87.0
 20
-8.5
 30
0.0
 11
84.0
 21
-8.5
 31
0.0
  0
LINE
  5
1E3
100
AcDbEntity
  8
0
  6
CONTINUOUS
 62
               7
100
AcDbLine
 10
104.5
 20
-23.0
 30
0.0
 11
107.0
 21
-23.0
 31
0.0
  0
LINE
  5
1E4
100
AcDbEntity
  8
0
  6
CONTINUOUS
 62
               7
100
AcDbLine
 10
104.5
 20
-29.0
 30
0.0
 11
107.0
 21
-29.0
 31
0.0
  0
LINE
  5
1E5
100
AcDbEntity
  8
0
  6
CONTINUOUS
 62
               7
100
AcDbLine
 10
104.0
 20
-48.5
 30
0.0
 11
107.0
 21
-48.5
 31
0.0
  0
LINE
  5
1E6
100
AcDbEntity
  8
0
  6
CONTINUOUS
 62
               7
100
AcDbLine
 10
104.0
 20
-53.5
 30
0.0
 11
107.0
 21
-53.5
 31
0.0
  0
LINE
  5
1E7
100
AcDbEntity
  8
0
  6
CONTINUOUS
 62
               7
100
AcDbLine
 10
86.5
 20
-47.0
 30
0.0
 11
84.0
 21
-47.0
 31
0.0
  0
LINE
  5
1E8
100
AcDbEntity
  8
0
  6
CONTINUOUS
 62
               7
100
AcDbLine
 10
86.5
 20
-41.0
 30
0.0
 11
84.0
 21
-41.0
 31
0.0
  0
LINE
  5
1E9
100
AcDbEntity
  8
0
  6
CONTINUOUS
 62
               7
100
AcDbLine
 10
81.5
 20
-71.5
 30
0.0
 11
84.0
 21
-71.5
 31
0.0
  0
LINE
  5
1EA
100
AcDbEntity
  8
0
  6
CONTINUOUS
 62
               4
100
AcDbLine
 10
107.0
 20
-75.0
 30
0.0
 11
84.0
 21
-75.0
 31
0.0
  0
LINE
  5
1EB
100
AcDbEntity
  8
0
  6
CONTINUOUS
 62
               7
100
AcDbLine
 10
107.0
 20
-73.5
 30
0.0
 11
109.0
 21
-71.5
 31
0.0
  0
LINE
  5
1EC
100
AcDbEntity
  8
0
  6
CONTINUOUS
 62
               7
100
AcDbLine
 10
108.0
 20
-74.5
 30
0.0
 11
108.0
 21
-72.5
 31
0.0
  0
LINE
  5
1ED
100
AcDbEntity
  8
0
  6
CONTINUOUS
 62
               7
100
AcDbLine
 10
107.0
 20
-74.5
 30
0.0
 11
108.0
 21
-74.5
 31
0.0
  0
LINE
  5
1EE
100
AcDbEntity
  8
0
  6
CONTINUOUS
 62
               7
100
AcDbLine
 10
109.5
 20
-71.5
 30
0.0
 11
109.5
 21
7.5
 31
0.0
  0
LINE
  5
1EF
100
AcDbEntity
  8
0
  6
CONTINUOUS
 62
               7
100
AcDbLine
 10
109.5
 20
-70.5
 30
0.0
 11
107.0
 21
-70.5
 31
0.0
  0
LINE
  5
1F0
100
AcDbEntity
  8
0
  6
CONTINUOUS
 62
               7
100
AcDbLine
 10
81.5
 20
-71.5
 30
0.0
 11
81.5
 21
7.5
 31
0.0
  0
LINE
  5
1F1
100
AcDbEntity
  8
0
  6
CENTER
 62
               2
100
AcDbLine
 10
95.5
 20
38.829999999999998
 30
0.0
 11
95.5
 21
-100.5
 31
0.0
  0
LINE
  5
1F2
100
AcDbEntity
  8
0
  6
CONTINUOUS
 62
               7
100
AcDbLine
 10
107.0
 20
13.0
 30
0.0
 11
107.0
 21
-75.0
 31
0.0
  0
LINE
  5
1F3
100
AcDbEntity
  8
0
  6
CONTINUOUS
 62
               7
100
AcDbLine
 10
84.0
 20
13.0
 30
0.0
 11
84.0
 21
-75.0
 31
0.0
  0
LINE
  5
1F4
100
AcDbEntity
  8
0
  6
CONTINUOUS
 62
               7
100
AcDbLine
 10
57.43
 20
-42.93
 30
0.0
 11
59.560000000000002
 21
-45.060000000000002
 31
0.0
  0
LINE
  5
1F5
100
AcDbEntity
  8
0
  6
CONTINUOUS
 62
               7
100
AcDbLine
 10
57.43
 20
-45.060000000000002
 30
0.0
 11
59.560000000000002
 21
-42.93
 31
0.0
  0
LINE
  5
1F6
100
AcDbEntity
  8
0
  6
CONTINUOUS
 62
               7
100
AcDbLine
 10
75.430000000000007
 20
-24.93
 30
0.0
 11
77.560000000000002
 21
-27.059999999999999
 31
0.0
  0
LINE
  5
1F7
100
AcDbEntity
  8
0
  6
CONTINUOUS
 62
               7
100
AcDbLine
 10
75.430000000000007
 20
-27.059999999999999
 30
0.0
 11
77.560000000000002
 21
-24.93
 31
0.0
  0
LINE
  5
1F8
100
AcDbEntity
  8
0
  6
CONTINUOUS
 62
               7
100
AcDbLine
 10
57.43
 20
-16.93
 30
0.0
 11
59.560000000000002
 21
-19.059999999999999
 31
0.0
  0
LINE
  5
1F9
100
AcDbEntity
  8
0
  6
CONTINUOUS
 62
               7
100
AcDbLine
 10
57.43
 20
-19.059999999999999
 30
0.0
 11
59.560000000000002
 21
-16.93
 31
0.0
  0
LINE
  5
1FA
100
AcDbEntity
  8
0
  6
CONTINUOUS
 62
               7
100
AcDbLine
 10
74.930000000000007
 20
-49.93
 30
0.0
 11
77.060000000000002
 21
-52.060000000000002
 31
0.0
  0
LINE
  5
1FB
100
AcDbEntity
  8
0
  6
CONTINUOUS
 62
               7
100
AcDbLine
 10
57.93
 20
-9.9299999999999997
 30
0.0
 11
60.060000000000002
 21
-12.06
 31
0.0
  0
LINE
  5
1FC
100
AcDbEntity
  8
0
  6
CONTINUOUS
 62
               7
100
AcDbLine
 10
57.93
 20
-12.06
 30
0.0
 11
60.060000000000002
 21
-9.9299999999999997
 31
0.0
  0
LINE
  5
1FD
100
AcDbEntity
  8
0
  6
CONTINUOUS
 62
               7
100
AcDbLine
 10
74.930000000000007
 20
-52.060000000000002
 30
0.0
 11
77.060000000000002
 21
-49.93
 31
0.0
  0
LINE
  5
1FE
100
AcDbEntity
  8
0
  6
CONTINUOUS
 62
               7
100
AcDbLine
 10
56.0
 20
-4.5
 30
0.0
 11
57.5
 21
-6.0
 31
0.0
  0
LINE
  5
1FF
100
AcDbEntity
  8
0
  6
CONTINUOUS
 62
               7
100
AcDbLine
 10
79.0
 20
-4.5
 30
0.0
 11
77.5
 21
-6.0
 31
0.0
  0
LINE
  5
200
100
AcDbEntity
  8
0
  6
CONTINUOUS
 62
               7
100
AcDbLine
 10
77.5
 20
-56.0
 30
0.0
 11
79.0
 21
-57.5
 31
0.0
  0
LINE
  5
201
100
AcDbEntity
  8
0
  6
CONTINUOUS
 62
               7
100
AcDbLine
 10
56.0
 20
-57.5
 30
0.0
 11
57.5
 21
-56.0
 31
0.0
  0
LINE
  5
202
100
AcDbEntity
  8
0
  6
CONTINUOUS
 62
               7
100
AcDbLine
 10
77.5
 20
-53.5
 30
0.0
 11
77.5
 21
-56.0
 31
0.0
  0
LINE
  5
203
100
AcDbEntity
  8
0
  6
CONTINUOUS
 62
               7
100
AcDbLine
 10
77.5
 20
-29.0
 30
0.0
 11
77.5
 21
-48.5
 31
0.0
  0
LINE
  5
204
100
AcDbEntity
  8
0
  6
CONTINUOUS
 62
               7
100
AcDbLine
 10
57.5
 20
-13.5
 30
0.0
 11
57.5
 21
-15.0
 31
0.0
  0
LINE
  5
205
100
AcDbEntity
  8
0
  6
CONTINUOUS
 62
               7
100
AcDbLine
 10
57.5
 20
-21.0
 30
0.0
 11
57.5
 21
-41.0
 31
0.0
  0
LINE
  5
206
100
AcDbEntity
  8
0
  6
CONTINUOUS
 62
               7
100
AcDbLine
 10
57.5
 20
-47.0
 30
0.0
 11
57.5
 21
-56.0
 31
0.0
  0
LINE
  5
207
100
AcDbEntity
  8
0
  6
CONTINUOUS
 62
               7
100
AcDbLine
 10
57.5
 20
-56.0
 30
0.0
 11
77.5
 21
-56.0
 31
0.0
  0
LINE
  5
208
100
AcDbEntity
  8
0
  6
CONTINUOUS
 62
               7
100
AcDbLine
 10
57.5
 20
-6.0
 30
0.0
 11
77.5
 21
-6.0
 31
0.0
  0
LINE
  5
209
100
AcDbEntity
  8
0
  6
CONTINUOUS
 62
               7
100
AcDbLine
 10
56.0
 20
-4.5
 30
0.0
 11
79.0
 21
-4.5
 31
0.0
  0
LINE
  5
20A
100
AcDbEntity
  8
0
  6
CONTINUOUS
 62
               7
100
AcDbLine
 10
56.0
 20
-57.5
 30
0.0
 11
79.0
 21
-57.5
 31
0.0
  0
LINE
  5
20B
100
AcDbEntity
  8
0
  6
CONTINUOUS
 62
               7
100
AcDbLine
 10
77.5
 20
-6.0
 30
0.0
 11
77.5
 21
-23.0
 31
0.0
  0
LINE
  5
20C
100
AcDbEntity
  8
0
  6
CONTINUOUS
 62
               7
100
AcDbLine
 10
57.5
 20
-6.0
 30
0.0
 11
57.5
 21
-8.5
 31
0.0
  0
LINE
  5
20D
100
AcDbEntity
  8
0
  6
CONTINUOUS
 62
               7
100
AcDbLine
 10
58.5
 20
-21.0
 30
0.0
 11
56.0
 21
-21.0
 31
0.0
  0
LINE
  5
20E
100
AcDbEntity
  8
0
  6
CONTINUOUS
 62
               7
100
AcDbLine
 10
58.5
 20
-15.0
 30
0.0
 11
56.0
 21
-15.0
 31
0.0
  0
LINE
  5
20F
100
AcDbEntity
  8
0
  6
CONTINUOUS
 62
               7
100
AcDbLine
 10
59.0
 20
-13.5
 30
0.0
 11
56.0
 21
-13.5
 31
0.0
  0
LINE
  5
210
100
AcDbEntity
  8
0
  6
CONTINUOUS
 62
               7
100
AcDbLine
 10
59.0
 20
-8.5
 30
0.0
 11
56.0
 21
-8.5
 31
0.0
  0
LINE
  5
211
100
AcDbEntity
  8
0
  6
CONTINUOUS
 62
               7
100
AcDbLine
 10
76.5
 20
-23.0
 30
0.0
 11
79.0
 21
-23.0
 31
0.0
  0
LINE
  5
212
100
AcDbEntity
  8
0
  6
CONTINUOUS
 62
               7
100
AcDbLine
 10
76.5
 20
-29.0
 30
0.0
 11
79.0
 21
-29.0
 31
0.0
  0
LINE
  5
213
100
AcDbEntity
  8
0
  6
CONTINUOUS
 62
               7
100
AcDbLine
 10
76.0
 20
-48.5
 30
0.0
 11
79.0
 21
-48.5
 31
0.0
  0
LINE
  5
214
100
AcDbEntity
  8
0
  6
CONTINUOUS
 62
               7
100
AcDbLine
 10
76.0
 20
-53.5
 30
0.0
 11
79.0
 21
-53.5
 31
0.0
  0
LINE
  5
215
100
AcDbEntity
  8
0
  6
CONTINUOUS
 62
               7
100
AcDbLine
 10
58.5
 20
-47.0
 30
0.0
 11
56.0
 21
-47.0
 31
0.0
  0
LINE
  5
216
100
AcDbEntity
  8
0
  6
CONTINUOUS
 62
               7
100
AcDbLine
 10
58.5
 20
-41.0
 30
0.0
 11
56.0
 21
-41.0
 31
0.0
  0
LINE
  5
217
100
AcDbEntity
  8
0
  6
CONTINUOUS
 62
               7
100
AcDbLine
 10
53.5
 20
-71.5
 30
0.0
 11
81.5
 21
-71.5
 31
0.0
  0
LINE
  5
218
100
AcDbEntity
  8
0
  6
CONTINUOUS
 62
               7
100
AcDbLine
 10
81.5
 20
-71.5
 30
0.0
 11
81.5
 21
7.5
 31
0.0
  0
LINE
  5
219
100
AcDbEntity
  8
0
  6
CONTINUOUS
 62
               7
100
AcDbLine
 10
81.5
 20
-70.5
 30
0.0
 11
53.5
 21
-70.5
 31
0.0
  0
LINE
  5
21A
100
AcDbEntity
  8
0
  6
CONTINUOUS
 62
               7
100
AcDbLine
 10
53.5
 20
-71.5
 30
0.0
 11
53.5
 21
7.5
 31
0.0
  0
LINE
  5
21B
100
AcDbEntity
  8
0
  6
CONTINUOUS
 62
               7
100
AcDbLine
 10
56.0
 20
-66.5
 30
0.0
 11
79.0
 21
-66.5
 31
0.0
  0
LINE
  5
21C
100
AcDbEntity
  8
0
  6
CENTER
 62
               2
100
AcDbLine
 10
67.5
 20
37.359999999999999
 30
0.0
 11
67.5
 21
-74.069999999999993
 31
0.0
  0
LINE
  5
21D
100
AcDbEntity
  8
0
  6
CONTINUOUS
 62
               7
100
AcDbLine
 10
79.0
 20
13.0
 30
0.0
 11
79.0
 21
-66.5
 31
0.0
  0
LINE
  5
21E
100
AcDbEntity
  8
0
  6
CONTINUOUS
 62
               7
100
AcDbLine
 10
56.0
 20
13.0
 30
0.0
 11
56.0
 21
-66.5
 31
0.0
  0
LINE
  5
21F
100
AcDbEntity
  8
0
  6
CONTINUOUS
 62
               7
100
AcDbLine
 10
29.43
 20
-42.93
 30
0.0
 11
31.559999999999999
 21
-45.060000000000002
 31
0.0
  0
LINE
  5
220
100
AcDbEntity
  8
0
  6
CONTINUOUS
 62
               7
100
AcDbLine
 10
29.43
 20
-45.060000000000002
 30
0.0
 11
31.559999999999999
 21
-42.93
 31
0.0
  0
LINE
  5
221
100
AcDbEntity
  8
0
  6
CONTINUOUS
 62
               7
100
AcDbLine
 10
47.43
 20
-24.93
 30
0.0
 11
49.560000000000002
 21
-27.059999999999999
 31
0.0
  0
LINE
  5
222
100
AcDbEntity
  8
0
  6
CONTINUOUS
 62
               7
100
AcDbLine
 10
47.43
 20
-27.059999999999999
 30
0.0
 11
49.560000000000002
 21
-24.93
 31
0.0
  0
LINE
  5
223
100
AcDbEntity
  8
0
  6
CONTINUOUS
 62
               7
100
AcDbLine
 10
29.43
 20
-16.93
 30
0.0
 11
31.559999999999999
 21
-19.059999999999999
 31
0.0
  0
LINE
  5
224
100
AcDbEntity
  8
0
  6
CONTINUOUS
 62
               7
100
AcDbLine
 10
29.43
 20
-19.059999999999999
 30
0.0
 11
31.559999999999999
 21
-16.93
 31
0.0
  0
LINE
  5
225
100
AcDbEntity
  8
0
  6
CONTINUOUS
 62
               7
100
AcDbLine
 10
46.93
 20
-49.93
 30
0.0
 11
49.060000000000002
 21
-52.060000000000002
 31
0.0
  0
LINE
  5
226
100
AcDbEntity
  8
0
  6
CONTINUOUS
 62
               7
100
AcDbLine
 10
29.93
 20
-9.9299999999999997
 30
0.0
 11
32.060000000000002
 21
-12.06
 31
0.0
  0
LINE
  5
227
100
AcDbEntity
  8
0
  6
CONTINUOUS
 62
               7
100
AcDbLine
 10
29.93
 20
-12.06
 30
0.0
 11
32.060000000000002
 21
-9.9299999999999997
 31
0.0
  0
LINE
  5
228
100
AcDbEntity
  8
0
  6
CONTINUOUS
 62
               7
100
AcDbLine
 10
46.93
 20
-52.060000000000002
 30
0.0
 11
49.060000000000002
 21
-49.93
 31
0.0
  0
LINE
  5
229
100
AcDbEntity
  8
0
  6
CONTINUOUS
 62
               7
100
AcDbLine
 10
28.0
 20
-4.5
 30
0.0
 11
29.5
 21
-6.0
 31
0.0
  0
LINE
  5
22A
100
AcDbEntity
  8
0
  6
CONTINUOUS
 62
               7
100
AcDbLine
 10
51.0
 20
-4.5
 30
0.0
 11
49.5
 21
-6.0
 31
0.0
  0
LINE
  5
22B
100
AcDbEntity
  8
0
  6
CONTINUOUS
 62
               7
100
AcDbLine
 10
49.5
 20
-56.0
 30
0.0
 11
51.0
 21
-57.5
 31
0.0
  0
LINE
  5
22C
100
AcDbEntity
  8
0
  6
CONTINUOUS
 62
               7
100
AcDbLine
 10
28.0
 20
-57.5
 30
0.0
 11
29.5
 21
-56.0
 31
0.0
  0
LINE
  5
22D
100
AcDbEntity
  8
0
  6
CONTINUOUS
 62
               7
100
AcDbLine
 10
49.5
 20
-53.5
 30
0.0
 11
49.5
 21
-56.0
 31
0.0
  0
LINE
  5
22E
100
AcDbEntity
  8
0
  6
CONTINUOUS
 62
               7
100
AcDbLine
 10
49.5
 20
-29.0
 30
0.0
 11
49.5
 21
-48.5
 31
0.0
  0
LINE
  5
22F
100
AcDbEntity
  8
0
  6
CONTINUOUS
 62
               7
100
AcDbLine
 10
29.5
 20
-13.5
 30
0.0
 11
29.5
 21
-15.0
 31
0.0
  0
LINE
  5
230
100
AcDbEntity
  8
0
  6
CONTINUOUS
 62
               7
100
AcDbLine
 10
29.5
 20
-21.0
 30
0.0
 11
29.5
 21
-41.0
 31
0.0
  0
LINE
  5
231
100
AcDbEntity
  8
0
  6
CONTINUOUS
 62
               7
100
AcDbLine
 10
29.5
 20
-47.0
 30
0.0
 11
29.5
 21
-56.0
 31
0.0
  0
LINE
  5
232
100
AcDbEntity
  8
0
  6
CONTINUOUS
 62
               7
100
AcDbLine
 10
29.5
 20
-56.0
 30
0.0
 11
49.5
 21
-56.0
 31
0.0
  0
LINE
  5
233
100
AcDbEntity
  8
0
  6
CONTINUOUS
 62
               7
100
AcDbLine
 10
29.5
 20
-6.0
 30
0.0
 11
49.5
 21
-6.0
 31
0.0
  0
LINE
  5
234
100
AcDbEntity
  8
0
  6
CONTINUOUS
 62
               7
100
AcDbLine
 10
28.0
 20
-4.5
 30
0.0
 11
51.0
 21
-4.5
 31
0.0
  0
LINE
  5
235
100
AcDbEntity
  8
0
  6
CONTINUOUS
 62
               7
100
AcDbLine
 10
28.0
 20
-57.5
 30
0.0
 11
51.0
 21
-57.5
 31
0.0
  0
LINE
  5
236
100
AcDbEntity
  8
0
  6
CONTINUOUS
 62
               7
100
AcDbLine
 10
49.5
 20
-6.0
 30
0.0
 11
49.5
 21
-23.0
 31
0.0
  0
LINE
  5
237
100
AcDbEntity
  8
0
  6
CONTINUOUS
 62
               7
100
AcDbLine
 10
29.5
 20
-6.0
 30
0.0
 11
29.5
 21
-8.5
 31
0.0
  0
LINE
  5
238
100
AcDbEntity
  8
0
  6
CONTINUOUS
 62
               7
100
AcDbLine
 10
30.5
 20
-21.0
 30
0.0
 11
28.0
 21
-21.0
 31
0.0
  0
LINE
  5
239
100
AcDbEntity
  8
0
  6
CONTINUOUS
 62
               7
100
AcDbLine
 10
30.5
 20
-15.0
 30
0.0
 11
28.0
 21
-15.0
 31
0.0
  0
LINE
  5
23A
100
AcDbEntity
  8
0
  6
CONTINUOUS
 62
               7
100
AcDbLine
 10
31.0
 20
-13.5
 30
0.0
 11
28.0
 21
-13.5
 31
0.0
  0
LINE
  5
23B
100
AcDbEntity
  8
0
  6
CONTINUOUS
 62
               7
100
AcDbLine
 10
31.0
 20
-8.5
 30
0.0
 11
28.0
 21
-8.5
 31
0.0
  0
LINE
  5
23C
100
AcDbEntity
  8
0
  6
CONTINUOUS
 62
               7
100
AcDbLine
 10
48.5
 20
-23.0
 30
0.0
 11
51.0
 21
-23.0
 31
0.0
  0
LINE
  5
23D
100
AcDbEntity
  8
0
  6
CONTINUOUS
 62
               7
100
AcDbLine
 10
48.5
 20
-29.0
 30
0.0
 11
51.0
 21
-29.0
 31
0.0
  0
LINE
  5
23E
100
AcDbEntity
  8
0
  6
CONTINUOUS
 62
               7
100
AcDbLine
 10
48.0
 20
-48.5
 30
0.0
 11
51.0
 21
-48.5
 31
0.0
  0
LINE
  5
23F
100
AcDbEntity
  8
0
  6
CONTINUOUS
 62
               7
100
AcDbLine
 10
48.0
 20
-53.5
 30
0.0
 11
51.0
 21
-53.5
 31
0.0
  0
LINE
  5
240
100
AcDbEntity
  8
0
  6
CONTINUOUS
 62
               7
100
AcDbLine
 10
30.5
 20
-47.0
 30
0.0
 11
28.0
 21
-47.0
 31
0.0
  0
LINE
  5
241
100
AcDbEntity
  8
0
  6
CONTINUOUS
 62
               7
100
AcDbLine
 10
30.5
 20
-41.0
 30
0.0
 11
28.0
 21
-41.0
 31
0.0
  0
LINE
  5
242
100
AcDbEntity
  8
0
  6
CONTINUOUS
 62
               7
100
AcDbLine
 10
25.5
 20
-71.5
 30
0.0
 11
53.5
 21
-71.5
 31
0.0
  0
LINE
  5
243
100
AcDbEntity
  8
0
  6
CONTINUOUS
 62
               7
100
AcDbLine
 10
53.5
 20
-71.5
 30
0.0
 11
53.5
 21
7.5
 31
0.0
  0
LINE
  5
244
100
AcDbEntity
  8
0
  6
CONTINUOUS
 62
               7
100
AcDbLine
 10
53.5
 20
-70.5
 30
0.0
 11
25.5
 21
-70.5
 31
0.0
  0
LINE
  5
245
100
AcDbEntity
  8
0
  6
CONTINUOUS
 62
               7
100
AcDbLine
 10
25.5
 20
-71.5
 30
0.0
 11
25.5
 21
7.5
 31
0.0
  0
LINE
  5
246
100
AcDbEntity
  8
0
  6
CONTINUOUS
 62
               7
100
AcDbLine
 10
25.5
 20
7.5
 30
0.0
 11
28.0
 21
7.5
 31
0.0
  0
LINE
  5
247
100
AcDbEntity
  8
0
  6
CONTINUOUS
 62
               7
100
AcDbLine
 10
28.0
 20
-66.5
 30
0.0
 11
51.0
 21
-66.5
 31
0.0
  0
LINE
  5
248
100
AcDbEntity
  8
0
  6
CENTER
 62
               2
100
AcDbLine
 10
39.5
 20
37.359999999999999
 30
0.0
 11
39.5
 21
-74.069999999999993
 31
0.0
  0
LINE
  5
249
100
AcDbEntity
  8
0
  6
CONTINUOUS
 62
               7
100
AcDbLine
 10
51.0
 20
13.0
 30
0.0
 11
51.0
 21
-66.5
 31
0.0
  0
LINE
  5
24A
100
AcDbEntity
  8
0
  6
CONTINUOUS
 62
               7
100
AcDbLine
 10
28.0
 20
13.0
 30
0.0
 11
28.0
 21
-66.5
 31
0.0
  0
LINE
  5
24B
100
AcDbEntity
  8
0
  6
CONTINUOUS
 62
               4
100
AcDbLine
 10
163.0
 20
-57.5
 30
0.0
 11
163.0
 21
-4.5
 31
0.0
  0
LINE
  5
24C
100
AcDbEntity
  8
0
  6
CONTINUOUS
 62
               4
100
AcDbLine
 10
140.0
 20
-4.5
 30
0.0
 11
140.0
 21
-57.5
 31
0.0
  0
LINE
  5
24D
100
AcDbEntity
  8
0
  6
CONTINUOUS
 62
               4
100
AcDbLine
 10
141.44
 20
-42.93
 30
0.0
 11
143.56
 21
-45.060000000000002
 31
0.0
  0
LINE
  5
24E
100
AcDbEntity
  8
0
  6
CONTINUOUS
 62
               4
100
AcDbLine
 10
141.44
 20
-45.060000000000002
 30
0.0
 11
143.56
 21
-42.93
 31
0.0
  0
LINE
  5
24F
100
AcDbEntity
  8
0
  6
CONTINUOUS
 62
               4
100
AcDbLine
 10
159.44
 20
-24.93
 30
0.0
 11
161.56
 21
-27.059999999999999
 31
0.0
  0
LINE
  5
250
100
AcDbEntity
  8
0
  6
CONTINUOUS
 62
               4
100
AcDbLine
 10
159.44
 20
-27.059999999999999
 30
0.0
 11
161.56
 21
-24.93
 31
0.0
  0
LINE
  5
251
100
AcDbEntity
  8
0
  6
CONTINUOUS
 62
               4
100
AcDbLine
 10
141.44
 20
-16.93
 30
0.0
 11
143.56
 21
-19.059999999999999
 31
0.0
  0
LINE
  5
252
100
AcDbEntity
  8
0
  6
CONTINUOUS
 62
               4
100
AcDbLine
 10
141.44
 20
-19.059999999999999
 30
0.0
 11
143.56
 21
-16.93
 31
0.0
  0
LINE
  5
253
100
AcDbEntity
  8
0
  6
CONTINUOUS
 62
               4
100
AcDbLine
 10
140.0
 20
-4.5
 30
0.0
 11
163.0
 21
-4.5
 31
0.0
  0
LINE
  5
254
100
AcDbEntity
  8
0
  6
CONTINUOUS
 62
               4
100
AcDbLine
 10
140.0
 20
-57.5
 30
0.0
 11
163.0
 21
-57.5
 31
0.0
  0
LINE
  5
255
100
AcDbEntity
  8
0
  6
CONTINUOUS
 62
               7
100
AcDbLine
 10
165.5
 20
-70.5
 30
0.0
 11
137.5
 21
-70.5
 31
0.0
  0
LINE
  5
256
100
AcDbEntity
  8
0
  6
CONTINUOUS
 62
               7
100
AcDbLine
 10
165.5
 20
-71.5
 30
0.0
 11
165.5
 21
7.5
 31
0.0
  0
LINE
  5
257
100
AcDbEntity
  8
0
  6
CONTINUOUS
 62
               7
100
AcDbLine
 10
137.5
 20
-71.5
 30
0.0
 11
137.5
 21
7.5
 31
0.0
  0
LINE
  5
258
100
AcDbEntity
  8
0
  6
CONTINUOUS
 62
               7
100
AcDbLine
 10
137.5
 20
-71.5
 30
0.0
 11
165.5
 21
-71.5
 31
0.0
  0
LINE
  5
259
100
AcDbEntity
  8
0
  6
CONTINUOUS
 62
               7
100
AcDbLine
 10
165.5
 20
-70.5
 30
0.0
 11
183.5
 21
-70.5
 31
0.0
  0
LINE
  5
25A
100
AcDbEntity
  8
0
  6
CONTINUOUS
 62
               7
100
AcDbLine
 10
194.0
 20
-7.5
 30
0.0
 11
185.5
 21
-7.5
 31
0.0
  0
LINE
  5
25B
100
AcDbEntity
  8
0
  6
CONTINUOUS
 62
               7
100
AcDbLine
 10
194.0
 20
7.5
 30
0.0
 11
183.5
 21
7.5
 31
0.0
  0
LINE
  5
25C
100
AcDbEntity
  8
0
  6
CONTINUOUS
 62
               7
100
AcDbLine
 10
194.0
 20
-56.5
 30
0.0
 11
185.5
 21
-56.5
 31
0.0
  0
LINE
  5
25D
100
AcDbEntity
  8
0
  6
CONTINUOUS
 62
               7
100
AcDbLine
 10
194.0
 20
-71.5
 30
0.0
 11
183.5
 21
-71.5
 31
0.0
  0
LINE
  5
25E
100
AcDbEntity
  8
0
  6
CONTINUOUS
 62
               7
100
AcDbLine
 10
196.0
 20
-61.5
 30
0.0
 11
191.0
 21
-61.5
 31
0.0
  0
LINE
  5
25F
100
AcDbEntity
  8
0
  6
CONTINUOUS
 62
               7
100
AcDbLine
 10
196.0
 20
-66.5
 30
0.0
 11
191.0
 21
-66.5
 31
0.0
  0
LINE
  5
260
100
AcDbEntity
  8
0
  6
CENTER
 62
               2
100
AcDbLine
 10
191.0
 20
-69.739999999999995
 30
0.0
 11
191.0
 21
-58.119999999999997
 31
0.0
  0
LINE
  5
261
100
AcDbEntity
  8
0
  6
CONTINUOUS
 62
               7
100
AcDbLine
 10
196.0
 20
-69.5
 30
0.0
 11
196.0
 21
-66.5
 31
0.0
  0
LINE
  5
262
100
AcDbEntity
  8
0
  6
CONTINUOUS
 62
               7
100
AcDbLine
 10
196.0
 20
-61.5
 30
0.0
 11
196.0
 21
-58.5
 31
0.0
  0
LINE
  5
263
100
AcDbEntity
  8
0
  6
CONTINUOUS
 62
               7
100
AcDbLine
 10
196.0
 20
2.5
 30
0.0
 11
191.0
 21
2.5
 31
0.0
  0
LINE
  5
264
100
AcDbEntity
  8
0
  6
CONTINUOUS
 62
               7
100
AcDbLine
 10
196.0
 20
-2.5
 30
0.0
 11
191.0
 21
-2.5
 31
0.0
  0
LINE
  5
265
100
AcDbEntity
  8
0
  6
CENTER
 62
               2
100
AcDbLine
 10
191.0
 20
-5.7400000000000002
 30
0.0
 11
191.0
 21
5.8700000000000001
 31
0.0
  0
LINE
  5
266
100
AcDbEntity
  8
0
  6
CONTINUOUS
 62
               7
100
AcDbLine
 10
196.0
 20
-5.5
 30
0.0
 11
196.0
 21
-2.5
 31
0.0
  0
LINE
  5
267
100
AcDbEntity
  8
0
  6
CONTINUOUS
 62
               7
100
AcDbLine
 10
196.0
 20
2.5
 30
0.0
 11
196.0
 21
5.5
 31
0.0
  0
LINE
  5
268
100
AcDbEntity
  8
0
  6
CONTINUOUS
 62
               7
100
AcDbLine
 10
183.5
 20
-71.5
 30
0.0
 11
165.5
 21
-71.5
 31
0.0
  0
LINE
  5
269
100
AcDbEntity
  8
0
  6
CONTINUOUS
 62
               7
100
AcDbLine
 10
183.5
 20
53.0
 30
0.0
 11
183.5
 21
-71.5
 31
0.0
  0
LINE
  5
26A
100
AcDbEntity
  8
0
  6
CONTINUOUS
 62
               7
100
AcDbLine
 10
165.5
 20
-71.5
 30
0.0
 11
165.5
 21
7.5
 31
0.0
  0
LINE
  5
26B
100
AcDbEntity
  8
0
  6
CONTINUOUS
 62
               7
100
AcDbLine
 10
183.5
 20
7.5
 30
0.0
 11
165.5
 21
7.5
 31
0.0
  0
LINE
  5
26C
100
AcDbEntity
  8
0
  6
CONTINUOUS
 62
               7
100
AcDbLine
 10
7.5
 20
53.0
 30
0.0
 11
7.5
 21
-71.5
 31
0.0
  0
LINE
  5
26D
100
AcDbEntity
  8
0
  6
CONTINUOUS
 62
               7
100
AcDbLine
 10
25.5
 20
7.5
 30
0.0
 11
25.5
 21
-71.5
 31
0.0
  0
LINE
  5
26E
100
AcDbEntity
  8
0
  6
CONTINUOUS
 62
               7
100
AcDbLine
 10
-3.0
 20
-7.5
 30
0.0
 11
5.5
 21
-7.5
 31
0.0
  0
LINE
  5
26F
100
AcDbEntity
  8
0
  6
CONTINUOUS
 62
               7
100
AcDbLine
 10
-3.0
 20
-56.5
 30
0.0
 11
5.5
 21
-56.5
 31
0.0
  0
LINE
  5
270
100
AcDbEntity
  8
0
  6
CONTINUOUS
 62
               7
100
AcDbLine
 10
-3.0
 20
-71.5
 30
0.0
 11
7.5
 21
-71.5
 31
0.0
  0
LINE
  5
271
100
AcDbEntity
  8
0
  6
CONTINUOUS
 62
               7
100
AcDbLine
 10
-5.0
 20
-61.5
 30
0.0
 11
0.0
 21
-61.5
 31
0.0
  0
LINE
  5
272
100
AcDbEntity
  8
0
  6
CONTINUOUS
 62
               7
100
AcDbLine
 10
-5.0
 20
-66.5
 30
0.0
 11
0.0
 21
-66.5
 31
0.0
  0
LINE
  5
273
100
AcDbEntity
  8
0
  6
CENTER
 62
               2
100
AcDbLine
 10
0.0
 20
-69.739999999999995
 30
0.0
 11
0.0
 21
-58.119999999999997
 31
0.0
  0
LINE
  5
274
100
AcDbEntity
  8
0
  6
CONTINUOUS
 62
               7
100
AcDbLine
 10
-5.0
 20
-69.5
 30
0.0
 11
-5.0
 21
-66.5
 31
0.0
  0
LINE
  5
275
100
AcDbEntity
  8
0
  6
CONTINUOUS
 62
               7
100
AcDbLine
 10
-5.0
 20
-61.5
 30
0.0
 11
-5.0
 21
-58.5
 31
0.0
  0
LINE
  5
276
100
AcDbEntity
  8
0
  6
CENTER
 62
               2
100
AcDbLine
 10
-4.9900000000000002
 20
-64.0
 30
0.0
 11
5.7800000000000002
 21
-64.0
 31
0.0
  0
LINE
  5
277
100
AcDbEntity
  8
0
  6
CONTINUOUS
 62
               7
100
AcDbLine
 10
-5.0
 20
2.5
 30
0.0
 11
0.0
 21
2.5
 31
0.0
  0
LINE
  5
278
100
AcDbEntity
  8
0
  6
CONTINUOUS
 62
               7
100
AcDbLine
 10
-5.0
 20
-2.5
 30
0.0
 11
0.0
 21
-2.5
 31
0.0
  0
LINE
  5
279
100
AcDbEntity
  8
0
  6
CENTER
 62
               2
100
AcDbLine
 10
0.0
 20
-5.7400000000000002
 30
0.0
 11
0.0
 21
5.8700000000000001
 31
0.0
  0
LINE
  5
27A
100
AcDbEntity
  8
0
  6
CONTINUOUS
 62
               7
100
AcDbLine
 10
-5.0
 20
-5.5
 30
0.0
 11
-5.0
 21
-2.5
 31
0.0
  0
LINE
  5
27B
100
AcDbEntity
  8
0
  6
CONTINUOUS
 62
               7
100
AcDbLine
 10
-5.0
 20
2.5
 30
0.0
 11
-5.0
 21
5.5
 31
0.0
  0
LINE
  5
27C
100
AcDbEntity
  8
0
  6
CENTER
 62
               2
100
AcDbLine
 10
-4.9900000000000002
 20
0.0
 30
0.0
 11
5.7800000000000002
 21
0.0
 31
0.0
  0
LINE
  5
27D
100
AcDbEntity
  8
0
  6
CONTINUOUS
 62
               7
100
AcDbLine
 10
7.5
 20
-71.5
 30
0.0
 11
25.5
 21
-71.5
 31
0.0
  0
LINE
  5
27E
100
AcDbEntity
  8
0
  6
CONTINUOUS
 62
               7
100
AcDbLine
 10
74.0
 20
-73.5
 30
0.0
 11
72.0
 21
-71.5
 31
0.0
  0
LINE
  5
27F
100
AcDbEntity
  8
0
  6
CONTINUOUS
 62
               7
100
AcDbLine
 10
79.0
 20
-73.5
 30
0.0
 11
81.0
 21
-71.5
 31
0.0
  0
LINE
  5
280
100
AcDbEntity
  8
0
  6
CONTINUOUS
 62
               7
100
AcDbLine
 10
74.0
 20
-73.5
 30
0.0
 11
79.0
 21
-73.5
 31
0.0
  0
LINE
  5
281
100
AcDbEntity
  8
0
  6
CONTINUOUS
 62
               7
100
AcDbLine
 10
80.0
 20
-74.5
 30
0.0
 11
80.0
 21
-72.5
 31
0.0
  0
LINE
  5
282
100
AcDbEntity
  8
0
  6
CONTINUOUS
 62
               7
100
AcDbLine
 10
73.0
 20
-74.5
 30
0.0
 11
80.0
 21
-74.5
 31
0.0
  0
LINE
  5
283
100
AcDbEntity
  8
0
  6
CONTINUOUS
 62
               7
100
AcDbLine
 10
73.0
 20
-74.5
 30
0.0
 11
73.0
 21
-72.5
 31
0.0
  0
LINE
  5
284
100
AcDbEntity
  8
0
  6
CONTINUOUS
 62
               7
100
AcDbLine
 10
163.0
 20
-73.5
 30
0.0
 11
165.0
 21
-71.5
 31
0.0
  0
LINE
  5
285
100
AcDbEntity
  8
0
  6
CONTINUOUS
 62
               7
100
AcDbLine
 10
158.0
 20
-73.5
 30
0.0
 11
156.0
 21
-71.5
 31
0.0
  0
LINE
  5
286
100
AcDbEntity
  8
0
  6
CONTINUOUS
 62
               7
100
AcDbLine
 10
163.0
 20
-73.5
 30
0.0
 11
158.0
 21
-73.5
 31
0.0
  0
LINE
  5
287
100
AcDbEntity
  8
0
  6
CONTINUOUS
 62
               7
100
AcDbLine
 10
157.0
 20
-74.5
 30
0.0
 11
157.0
 21
-72.5
 31
0.0
  0
LINE
  5
288
100
AcDbEntity
  8
0
  6
CONTINUOUS
 62
               7
100
AcDbLine
 10
164.0
 20
-74.5
 30
0.0
 11
157.0
 21
-74.5
 31
0.0
  0
LINE
  5
289
100
AcDbEntity
  8
0
  6
CONTINUOUS
 62
               7
100
AcDbLine
 10
164.0
 20
-74.5
 30
0.0
 11
164.0
 21
-72.5
 31
0.0
  0
ENDBLK
  5
28A
100
AcDbEntity
  8
0
100
AcDbBlockEnd
  0
BLOCK
  5
28B
100
AcDbEntity
  8
0
100
AcDbBlockBegin
  2
MS_2
 70
               0
 10
0.0
 20
0.0
 30
0.0
  3
MS_2
  1

  0
ARC
  5
28C
100
AcDbEntity
  8
0
  6
CONTINUOUS
 62
               7
100
AcDbCircle
 10
-46.000015258672647
 20
-70.500015258672647
 30
0.0
 40
0.9999847414437681
100
AcDbArc
 50
179.9991257291158
 51
270.00087427088317
  0
ARC
  5
28D
100
AcDbEntity
  8
0
  6
CONTINUOUS
 62
               7
100
AcDbCircle
 10
-46.0
 20
53.0
 30
0.0
 40
1.0
100
AcDbArc
 50
89.999999999999801
 51
179.9999999999996
  0
ARC
  5
28E
100
AcDbEntity
  8
0
  6
CONTINUOUS
 62
               7
100
AcDbCircle
 10
-7.0000076294236351
 20
52.999992370576365
 30
0.0
 40
1.0000076294527389
100
AcDbArc
 50
0.0004371304393457
 51
89.999562869560464
  0
ARC
  5
28F
100
AcDbEntity
  8
0
  6
CONTINUOUS
 62
               7
100
AcDbCircle
 10
-4.5
 20
9.0
 30
0.0
 40
1.5
100
AcDbArc
 50
179.9999999999996
 51
269.99999999999937
  0
CIRCLE
  5
290
100
AcDbEntity
  8
0
  6
CONTINUOUS
 62
               7
100
AcDbCircle
 10
-21.5
 20
39.0
 30
0.0
 40
9.899998664855957
  0
CIRCLE
  5
291
100
AcDbEntity
  8
0
  6
CONTINUOUS
 62
               2
100
AcDbCircle
 10
-21.5
 20
39.0
 30
0.0
 40
10.5
  0
CIRCLE
  5
292
100
AcDbEntity
  8
0
  6
CONTINUOUS
 62
               7
100
AcDbCircle
 10
-17.0
 20
-45.0
 30
0.0
 40
5.7499990463256836
  0
CIRCLE
  5
293
100
AcDbEntity
  8
0
  6
CONTINUOUS
 62
               7
100
AcDbCircle
 10
-32.0
 20
-29.999984741210937
 30
0.0
 40
5.7499990463256836
  0
CIRCLE
  5
294
100
AcDbEntity
  8
0
  6
CONTINUOUS
 62
               7
100
AcDbCircle
 10
-17.0
 20
-14.000015258789063
 30
0.0
 40
5.7499990463256836
  0
CIRCLE
  5
295
100
AcDbEntity
  8
0
  6
CONTINUOUS
 62
               2
100
AcDbCircle
 10
-17.0
 20
-45.0
 30
0.0
 40
6.5999994277954102
  0
CIRCLE
  5
296
100
AcDbEntity
  8
0
  6
CONTINUOUS
 62
               2
100
AcDbCircle
 10
-32.0
 20
-29.999984741210937
 30
0.0
 40
6.5999994277954102
  0
CIRCLE
  5
297
100
AcDbEntity
  8
0
  6
CONTINUOUS
 62
               2
100
AcDbCircle
 10
-17.0
 20
-14.000015258789063
 30
0.0
 40
6.5999994277954102
  0
CIRCLE
  5
298
100
AcDbEntity
  8
0
  6
CONTINUOUS
 62
               7
100
AcDbCircle
 10
-37.0
 20
-56.0
 30
0.0
 40
4.2999992370605469
  0
CIRCLE
  5
299
100
AcDbEntity
  8
0
  6
CONTINUOUS
 62
               2
100
AcDbCircle
 10
-37.0
 20
-56.0
 30
0.0
 40
4.899998664855957
  0
ARC
  5
29A
100
AcDbEntity
  8
0
  6
CONTINUOUS
 62
               4
100
AcDbCircle
 10
-75.249993896493692
 20
-111.70000610350631
 30
0.0
 40
1.9999938965030029
100
AcDbArc
 50
269.99982514688992
 51
0.0001748531094711
  0
ARC
  5
29B
100
AcDbEntity
  8
0
  6
CONTINUOUS
 62
               4
100
AcDbCircle
 10
-83.0
 20
-108.0
 30
0.0
 40
1.0
100
AcDbArc
 50
179.9999999999996
 51
269.99999999999937
  0
ARC
  5
29C
100
AcDbEntity
  8
0
  6
CONTINUOUS
 62
               4
100
AcDbCircle
 10
-76.750006103506308
 20
-111.70000610350631
 30
0.0
 40
1.9999938965030029
100
AcDbArc
 50
179.99982514689015
 51
270.00017485310889
  0
ARC
  5
29D
100
AcDbEntity
  8
0
  6
CONTINUOUS
 62
               4
100
AcDbCircle
 10
-56.750113192454791
 20
-111.69996007504467
 30
0.0
 40
2.0000399281583903
100
AcDbArc
 50
220.54212856638841
 51
270.00324266023046
  0
ARC
  5
29E
100
AcDbEntity
  8
0
  6
CONTINUOUS
 62
               4
100
AcDbCircle
 10
-55.249886807545209
 20
-111.69996007504467
 30
0.0
 40
2.0000399281583903
100
AcDbArc
 50
269.99675733976824
 51
319.45787143361042
  0
ARC
  5
29F
100
AcDbEntity
  8
0
  6
CONTINUOUS
 62
               4
100
AcDbCircle
 10
-83.0
 20
-91.0
 30
0.0
 40
1.0
100
AcDbArc
 50
89.999999999999801
 51
179.9999999999996
  0
ARC
  5
2A0
100
AcDbEntity
  8
0
  6
CONTINUOUS
 62
               4
100
AcDbCircle
 10
-82.999992370576365
 20
29.000007629423635
 30
0.0
 40
1.0000076294527389
100
AcDbArc
 50
180.00043713043894
 51
269.99956286956007
  0
ARC
  5
2A1
100
AcDbEntity
  8
0
  6
CONTINUOUS
 62
               4
100
AcDbCircle
 10
-75.249881010188574
 20
49.69997266359055
 30
0.0
 40
2.0000273399490487
100
AcDbArc
 50
40.541962466214933
 51
90.003408760404042
  0
ARC
  5
2A2
100
AcDbEntity
  8
0
  6
CONTINUOUS
 62
               4
100
AcDbCircle
 10
-76.750118989811426
 20
49.69997266359055
 30
0.0
 40
2.0000273399490487
100
AcDbArc
 50
89.996591239595574
 51
139.45803753378468
  0
ARC
  5
2A3
100
AcDbEntity
  8
0
  6
CONTINUOUS
 62
               4
100
AcDbCircle
 10
-55.24998626713699
 20
49.700013732863013
 30
0.0
 40
1.9999862671841415
100
AcDbArc
 50
359.99960657975225
 51
90.000393420246752
  0
ARC
  5
2A4
100
AcDbEntity
  8
0
  6
CONTINUOUS
 62
               4
100
AcDbCircle
 10
-56.75001373286301
 20
49.700013732863013
 30
0.0
 40
1.9999862671841415
100
AcDbArc
 50
89.99960657975285
 51
180.00039342024655
  0
ARC
  5
2A5
100
AcDbEntity
  8
0
  6
CONTINUOUS
 62
               4
100
AcDbCircle
 10
-83.000007629365427
 20
46.000007629365427
 30
0.0
 40
0.9999923706636764
100
AcDbArc
 50
89.999562866225403
 51
180.00043713377397
  0
ARC
  5
2A6
100
AcDbEntity
  8
0
  6
CONTINUOUS
 62
               4
100
AcDbCircle
 10
-54.369608539741996
 20
-46.134626332501043
 30
0.0
 40
0.6653737826531321
100
AcDbArc
 50
209.27545688270791
 51
269.96629109455523
  0
ARC
  5
2A7
100
AcDbEntity
  8
0
  6
CONTINUOUS
 62
               4
100
AcDbCircle
 10
-54.373895508094371
 20
-41.867850319106864
 30
0.0
 40
0.6678616800763803
100
AcDbArc
 50
89.66580289732488
 51
149.61096447897717
  0
ARC
  5
2A8
100
AcDbEntity
  8
0
  6
CONTINUOUS
 62
               4
100
AcDbCircle
 10
-50.60000392840314
 20
-43.995000000000005
 30
0.0
 40
4.9998690805768238
100
AcDbArc
 50
150.46119554631576
 51
209.53880445368335
  0
ARC
  5
2A9
100
AcDbEntity
  8
0
  6
CONTINUOUS
 62
               4
100
AcDbCircle
 10
-54.369608539741989
 20
-28.13462633250105
 30
0.0
 40
0.6653737826531339
100
AcDbArc
 50
209.27545688270706
 51
269.96629109455461
  0
ARC
  5
2AA
100
AcDbEntity
  8
0
  6
CONTINUOUS
 62
               4
100
AcDbCircle
 10
-54.373895508094371
 20
-23.867850319106861
 30
0.0
 40
0.667861680076382
100
AcDbArc
 50
89.66580289732488
 51
149.61096447897742
  0
ARC
  5
2AB
100
AcDbEntity
  8
0
  6
CONTINUOUS
 62
               4
100
AcDbCircle
 10
-50.60000392840314
 20
-25.995000000000001
 30
0.0
 40
4.9998690805768238
100
AcDbArc
 50
150.46119554631576
 51
209.53880445368341
  0
ARC
  5
2AC
100
AcDbEntity
  8
0
  6
CONTINUOUS
 62
               4
100
AcDbCircle
 10
-54.369608539741989
 20
-20.13462633250105
 30
0.0
 40
0.6653737826531339
100
AcDbArc
 50
209.27545688270706
 51
269.96629109455461
  0
ARC
  5
2AD
100
AcDbEntity
  8
0
  6
CONTINUOUS
 62
               4
100
AcDbCircle
 10
-54.373892234580993
 20
-15.867856072554613
 30
0.0
 40
0.6678674143406815
100
AcDbArc
 50
89.666086603462986
 51
149.61068077283949
  0
ARC
  5
2AE
100
AcDbEntity
  8
0
  6
CONTINUOUS
 62
               4
100
AcDbCircle
 10
-50.60000392840314
 20
-17.995000000000001
 30
0.0
 40
4.9998690805768238
100
AcDbArc
 50
150.46119554631576
 51
209.53880445368341
  0
ARC
  5
2AF
100
AcDbEntity
  8
0
  6
CONTINUOUS
 62
               7
100
AcDbCircle
 10
-84.701985439525572
 20
-26.996637061203757
 30
0.0
 40
1.9980173906213174
100
AcDbArc
 50
180.09643674357687
 51
241.3483851609964
  0
ARC
  5
2B0
100
AcDbEntity
  8
0
  6
CONTINUOUS
 62
               7
100
AcDbCircle
 10
-84.701978757241548
 20
-25.003366909982176
 30
0.0
 40
1.9980240795838509
100
AcDbArc
 50
118.65172839491854
 51
179.90344970050666
  0
ARC
  5
2B1
100
AcDbEntity
  8
0
  6
CONTINUOUS
 62
               7
100
AcDbCircle
 10
-85.501926900087398
 20
-51.796572453842529
 30
0.0
 40
1.6980765591455045
100
AcDbArc
 50
180.11565088818008
 51
238.86216473636404
  0
ARC
  5
2B2
100
AcDbEntity
  8
0
  6
CONTINUOUS
 62
               7
100
AcDbCircle
 10
-85.501933414917858
 20
-50.203423861908526
 30
0.0
 40
1.6980700368956785
100
AcDbArc
 50
121.13771139475128
 51
179.88447298070272
  0
LINE
  5
2B3
100
AcDbEntity
  8
0
  6
CONTINUOUS
 62
               7
100
AcDbLine
 10
-47.5
 20
-4.5
 30
0.0
 11
-47.5
 21
-57.5
 31
0.0
  0
LINE
  5
2B4
100
AcDbEntity
  8
0
  6
CONTINUOUS
 62
               7
100
AcDbLine
 10
-47.0
 20
53.0
 30
0.0
 11
-47.0
 21
-70.5
 31
0.0
  0
LINE
  5
2B5
100
AcDbEntity
  8
0
  6
CONTINUOUS
 62
               7
100
AcDbLine
 10
-21.100000000000001
 20
-72.5
 30
0.0
 11
-30.899999999999999
 21
-72.5
 31
0.0
  0
LINE
  5
2B6
100
AcDbEntity
  8
0
  6
CONTINUOUS
 62
               7
100
AcDbLine
 10
-21.100000000000001
 20
-71.5
 30
0.0
 11
-21.100000000000001
 21
-72.5
 31
0.0
  0
LINE
  5
2B7
100
AcDbEntity
  8
0
  6
CONTINUOUS
 62
               7
100
AcDbLine
 10
-30.899999999999999
 20
-71.5
 30
0.0
 11
-30.899999999999999
 21
-72.5
 31
0.0
  0
LINE
  5
2B8
100
AcDbEntity
  8
0
  6
CONTINUOUS
 62
               7
100
AcDbLine
 10
-29.5
 20
-74.200000000000003
 30
0.0
 11
-29.5
 21
-72.5
 31
0.0
  0
LINE
  5
2B9
100
AcDbEntity
  8
0
  6
CONTINUOUS
 62
               7
100
AcDbLine
 10
-29.5
 20
-74.200000000000003
 30
0.0
 11
-28.98
 21
-74.5
 31
0.0
  0
LINE
  5
2BA
100
AcDbEntity
  8
0
  6
CONTINUOUS
 62
               7
100
AcDbLine
 10
-22.5
 20
-74.200000000000003
 30
0.0
 11
-29.5
 21
-74.200000000000003
 31
0.0
  0
LINE
  5
2BB
100
AcDbEntity
  8
0
  6
CONTINUOUS
 62
               7
100
AcDbLine
 10
-23.02
 20
-74.5
 30
0.0
 11
-28.98
 21
-74.5
 31
0.0
  0
LINE
  5
2BC
100
AcDbEntity
  8
0
  6
CONTINUOUS
 62
               7
100
AcDbLine
 10
-22.5
 20
-74.200000000000003
 30
0.0
 11
-23.02
 21
-74.5
 31
0.0
  0
LINE
  5
2BD
100
AcDbEntity
  8
0
  6
CONTINUOUS
 62
               7
100
AcDbLine
 10
-22.5
 20
-74.200000000000003
 30
0.0
 11
-22.5
 21
-72.5
 31
0.0
  0
LINE
  5
2BE
100
AcDbEntity
  8
0
  6
CONTINUOUS
 62
               7
100
AcDbLine
 10
-46.0
 20
-71.5
 30
0.0
 11
0.0
 21
-71.5
 31
0.0
  0
LINE
  5
2BF
100
AcDbEntity
  8
0
  6
CONTINUOUS
 62
               7
100
AcDbLine
 10
-6.0
 20
53.0
 30
0.0
 11
-6.0
 21
9.0
 31
0.0
  0
LINE
  5
2C0
100
AcDbEntity
  8
0
  6
CENTER
 62
               2
100
AcDbLine
 10
-35.630000000000003
 20
39.0
 30
0.0
 11
-8.5500000000000007
 21
39.0
 31
0.0
  0
LINE
  5
2C1
100
AcDbEntity
  8
0
  6
CENTER
 62
               2
100
AcDbLine
 10
-21.5
 20
51.240000000000002
 30
0.0
 11
-21.5
 21
25.699999999999999
 31
0.0
  0
LINE
  5
2C2
100
AcDbEntity
  8
0
  6
CONTINUOUS
 62
               7
100
AcDbLine
 10
-5.0
 20
7.5
 30
0.0
 11
0.0
 21
7.5
 31
0.0
  0
LINE
  5
2C3
100
AcDbEntity
  8
0
  6
CONTINUOUS
 62
               7
100
AcDbLine
 10
-5.0
 20
-7.5
 30
0.0
 11
0.0
 21
-7.5
 31
0.0
  0
LINE
  5
2C4
100
AcDbEntity
  8
0
  6
CONTINUOUS
 62
               7
100
AcDbLine
 10
-5.0
 20
2.5
 30
0.0
 11
0.0
 21
2.5
 31
0.0
  0
LINE
  5
2C5
100
AcDbEntity
  8
0
  6
CONTINUOUS
 62
               7
100
AcDbLine
 10
-5.0
 20
-2.5
 30
0.0
 11
0.0
 21
-2.5
 31
0.0
  0
LINE
  5
2C6
100
AcDbEntity
  8
0
  6
CONTINUOUS
 62
               7
100
AcDbLine
 10
-5.0
 20
7.5
 30
0.0
 11
-5.0
 21
-7.5
 31
0.0
  0
LINE
  5
2C7
100
AcDbEntity
  8
0
  6
CONTINUOUS
 62
               7
100
AcDbLine
 10
-5.0
 20
-56.5
 30
0.0
 11
-5.0
 21
-71.5
 31
0.0
  0
LINE
  5
2C8
100
AcDbEntity
  8
0
  6
CONTINUOUS
 62
               7
100
AcDbLine
 10
-5.0
 20
-56.5
 30
0.0
 11
0.0
 21
-56.5
 31
0.0
  0
LINE
  5
2C9
100
AcDbEntity
  8
0
  6
CONTINUOUS
 62
               7
100
AcDbLine
 10
-5.0
 20
-61.5
 30
0.0
 11
0.0
 21
-61.5
 31
0.0
  0
LINE
  5
2CA
100
AcDbEntity
  8
0
  6
CONTINUOUS
 62
               7
100
AcDbLine
 10
-5.0
 20
-66.5
 30
0.0
 11
0.0
 21
-66.5
 31
0.0
  0
LINE
  5
2CB
100
AcDbEntity
  8
0
  6
CENTER
 62
               2
100
AcDbLine
 10
-24.780000000000001
 20
-45.0
 30
0.0
 11
-9.4399999999999995
 21
-45.0
 31
0.0
  0
LINE
  5
2CC
100
AcDbEntity
  8
0
  6
CENTER
 62
               2
100
AcDbLine
 10
-24.5
 20
-14.0
 30
0.0
 11
-8.4499999999999993
 21
-14.0
 31
0.0
  0
LINE
  5
2CD
100
AcDbEntity
  8
0
  6
CENTER
 62
               2
100
AcDbLine
 10
-17.0
 20
-36.719999999999999
 30
0.0
 11
-17.0
 21
-52.490000000000002
 31
0.0
  0
LINE
  5
2CE
100
AcDbEntity
  8
0
  6
CENTER
 62
               2
100
AcDbLine
 10
-43.68
 20
-56.0
 30
0.0
 11
-30.890000000000001
 21
-56.0
 31
0.0
  0
LINE
  5
2CF
100
AcDbEntity
  8
0
  6
CENTER
 62
               2
100
AcDbLine
 10
-40.549999999999997
 20
-30.0
 30
0.0
 11
-24.210000000000001
 21
-30.0
 31
0.0
  0
LINE
  5
2D0
100
AcDbEntity
  8
0
  6
CENTER
 62
               2
100
AcDbLine
 10
-17.0
 20
-6.1799999999999997
 30
0.0
 11
-17.0
 21
-22.23
 31
0.0
  0
LINE
  5
2D1
100
AcDbEntity
  8
0
  6
CENTER
 62
               2
100
AcDbLine
 10
-32.0
 20
-20.390000000000001
 30
0.0
 11
-32.0
 21
-40.560000000000002
 31
0.0
  0
LINE
  5
2D2
100
AcDbEntity
  8
0
  6
CENTER
 62
               2
100
AcDbLine
 10
-37.0
 20
-49.509999999999998
 30
0.0
 11
-37.0
 21
-62.719999999999999
 31
0.0
  0
LINE
  5
2D3
100
AcDbEntity
  8
0
  6
CONTINUOUS
 62
               7
100
AcDbLine
 10
-46.0
 20
54.0
 30
0.0
 11
-7.0
 21
54.0
 31
0.0
  0
LINE
  5
2D4
100
AcDbEntity
  8
0
  6
CONTINUOUS
 62
               7
100
AcDbLine
 10
0.0
 20
7.5
 30
0.0
 11
0.0
 21
-71.5
 31
0.0
  0
LINE
  5
2D5
100
AcDbEntity
  8
0
  6
CONTINUOUS
 62
               4
100
AcDbLine
 10
-73.730000000000004
 20
-113.0
 30
0.0
 11
-49.5
 21
-113.0
 31
0.0
  0
LINE
  5
2D6
100
AcDbEntity
  8
0
  6
CONTINUOUS
 62
               4
100
AcDbLine
 10
-56.75
 20
-113.7
 30
0.0
 11
-55.25
 21
-113.7
 31
0.0
  0
LINE
  5
2D7
100
AcDbEntity
  8
0
  6
CONTINUOUS
 62
               4
100
AcDbLine
 10
-72.0
 20
-113.0
 30
0.0
 11
-72.0
 21
-111.0
 31
0.0
  0
LINE
  5
2D8
100
AcDbEntity
  8
0
  6
CONTINUOUS
 62
               4
100
AcDbLine
 10
-84.0
 20
-108.0
 30
0.0
 11
-84.0
 21
-91.0
 31
0.0
  0
LINE
  5
2D9
100
AcDbEntity
  8
0
  6
CONTINUOUS
 62
               4
100
AcDbLine
 10
-78.5
 20
-113.0
 30
0.0
 11
-78.269999999999996
 21
-113.0
 31
0.0
  0
LINE
  5
2DA
100
AcDbEntity
  8
0
  6
CONTINUOUS
 62
               4
100
AcDbLine
 10
-76.75
 20
-113.7
 30
0.0
 11
-75.25
 21
-113.7
 31
0.0
  0
LINE
  5
2DB
100
AcDbEntity
  8
0
  6
CONTINUOUS
 62
               4
100
AcDbLine
 10
-78.75
 20
-111.7
 30
0.0
 11
-78.75
 21
-111.0
 31
0.0
  0
LINE
  5
2DC
100
AcDbEntity
  8
0
  6
CONTINUOUS
 62
               4
100
AcDbLine
 10
-73.25
 20
-111.7
 30
0.0
 11
-73.25
 21
-111.0
 31
0.0
  0
LINE
  5
2DD
100
AcDbEntity
  8
0
  6
CONTINUOUS
 62
               4
100
AcDbLine
 10
-78.75
 20
-111.7
 30
0.0
 11
-73.25
 21
-111.7
 31
0.0
  0
LINE
  5
2DE
100
AcDbEntity
  8
0
  6
CONTINUOUS
 62
               4
100
AcDbLine
 10
-49.5
 20
-113.0
 30
0.0
 11
-48.5
 21
-111.0
 31
0.0
  0
LINE
  5
2DF
100
AcDbEntity
  8
0
  6
CONTINUOUS
 62
               4
100
AcDbLine
 10
-79.5
 20
-111.0
 30
0.0
 11
-78.5
 21
-113.0
 31
0.0
  0
LINE
  5
2E0
100
AcDbEntity
  8
0
  6
CONTINUOUS
 62
               4
100
AcDbLine
 10
-79.5
 20
-111.0
 30
0.0
 11
-79.5
 21
-110.0
 31
0.0
  0
LINE
  5
2E1
100
AcDbEntity
  8
0
  6
CONTINUOUS
 62
               4
100
AcDbLine
 10
-79.5
 20
-111.0
 30
0.0
 11
-48.5
 21
-111.0
 31
0.0
  0
LINE
  5
2E2
100
AcDbEntity
  8
0
  6
CONTINUOUS
 62
               4
100
AcDbLine
 10
-83.0
 20
-109.0
 30
0.0
 11
-80.0
 21
-109.0
 31
0.0
  0
LINE
  5
2E3
100
AcDbEntity
  8
0
  6
CONTINUOUS
 62
               4
100
AcDbLine
 10
-80.0
 20
-110.0
 30
0.0
 11
-80.0
 21
-90.0
 31
0.0
  0
LINE
  5
2E4
100
AcDbEntity
  8
0
  6
CONTINUOUS
 62
               4
100
AcDbLine
 10
-80.0
 20
-110.0
 30
0.0
 11
-48.5
 21
-110.0
 31
0.0
  0
LINE
  5
2E5
100
AcDbEntity
  8
0
  6
CONTINUOUS
 62
               4
100
AcDbLine
 10
-48.5
 20
-111.0
 30
0.0
 11
-48.5
 21
-90.0
 31
0.0
  0
LINE
  5
2E6
100
AcDbEntity
  8
0
  6
CONTINUOUS
 62
               4
100
AcDbLine
 10
-83.5
 20
-90.0
 30
0.0
 11
-48.5
 21
-90.0
 31
0.0
  0
LINE
  5
2E7
100
AcDbEntity
  8
0
  6
CONTINUOUS
 62
               4
100
AcDbLine
 10
-83.5
 20
28.0
 30
0.0
 11
-48.5
 21
28.0
 31
0.0
  0
LINE
  5
2E8
100
AcDbEntity
  8
0
  6
CONTINUOUS
 62
               4
100
AcDbLine
 10
-53.729999999999997
 20
51.0
 30
0.0
 11
-49.5
 21
51.0
 31
0.0
  0
LINE
  5
2E9
100
AcDbEntity
  8
0
  6
CONTINUOUS
 62
               4
100
AcDbLine
 10
-75.25
 20
51.700000000000003
 30
0.0
 11
-76.75
 21
51.700000000000003
 31
0.0
  0
LINE
  5
2EA
100
AcDbEntity
  8
0
  6
CONTINUOUS
 62
               4
100
AcDbLine
 10
-52.0
 20
51.0
 30
0.0
 11
-52.0
 21
49.0
 31
0.0
  0
LINE
  5
2EB
100
AcDbEntity
  8
0
  6
CONTINUOUS
 62
               4
100
AcDbLine
 10
-60.0
 20
51.0
 30
0.0
 11
-60.0
 21
49.0
 31
0.0
  0
LINE
  5
2EC
100
AcDbEntity
  8
0
  6
CONTINUOUS
 62
               4
100
AcDbLine
 10
-84.0
 20
46.0
 30
0.0
 11
-84.0
 21
29.0
 31
0.0
  0
LINE
  5
2ED
100
AcDbEntity
  8
0
  6
CONTINUOUS
 62
               4
100
AcDbLine
 10
-78.5
 20
51.0
 30
0.0
 11
-58.270000000000003
 21
51.0
 31
0.0
  0
LINE
  5
2EE
100
AcDbEntity
  8
0
  6
CONTINUOUS
 62
               4
100
AcDbLine
 10
-55.25
 20
51.700000000000003
 30
0.0
 11
-56.75
 21
51.700000000000003
 31
0.0
  0
LINE
  5
2EF
100
AcDbEntity
  8
0
  6
CONTINUOUS
 62
               4
100
AcDbLine
 10
-53.25
 20
49.700000000000003
 30
0.0
 11
-53.25
 21
49.0
 31
0.0
  0
LINE
  5
2F0
100
AcDbEntity
  8
0
  6
CONTINUOUS
 62
               4
100
AcDbLine
 10
-58.75
 20
49.700000000000003
 30
0.0
 11
-58.75
 21
49.0
 31
0.0
  0
LINE
  5
2F1
100
AcDbEntity
  8
0
  6
CONTINUOUS
 62
               4
100
AcDbLine
 10
-53.25
 20
49.700000000000003
 30
0.0
 11
-58.75
 21
49.700000000000003
 31
0.0
  0
LINE
  5
2F2
100
AcDbEntity
  8
0
  6
CONTINUOUS
 62
               4
100
AcDbLine
 10
-49.5
 20
51.0
 30
0.0
 11
-48.5
 21
49.0
 31
0.0
  0
LINE
  5
2F3
100
AcDbEntity
  8
0
  6
CONTINUOUS
 62
               4
100
AcDbLine
 10
-79.5
 20
49.0
 30
0.0
 11
-78.5
 21
51.0
 31
0.0
  0
LINE
  5
2F4
100
AcDbEntity
  8
0
  6
CONTINUOUS
 62
               4
100
AcDbLine
 10
-79.5
 20
49.0
 30
0.0
 11
-79.5
 21
48.0
 31
0.0
  0
LINE
  5
2F5
100
AcDbEntity
  8
0
  6
CONTINUOUS
 62
               4
100
AcDbLine
 10
-79.5
 20
49.0
 30
0.0
 11
-48.5
 21
49.0
 31
0.0
  0
LINE
  5
2F6
100
AcDbEntity
  8
0
  6
CONTINUOUS
 62
               4
100
AcDbLine
 10
-83.0
 20
47.0
 30
0.0
 11
-80.0
 21
47.0
 31
0.0
  0
LINE
  5
2F7
100
AcDbEntity
  8
0
  6
CONTINUOUS
 62
               4
100
AcDbLine
 10
-80.0
 20
48.0
 30
0.0
 11
-80.0
 21
28.0
 31
0.0
  0
LINE
  5
2F8
100
AcDbEntity
  8
0
  6
CONTINUOUS
 62
               4
100
AcDbLine
 10
-80.0
 20
48.0
 30
0.0
 11
-48.5
 21
48.0
 31
0.0
  0
LINE
  5
2F9
100
AcDbEntity
  8
0
  6
CONTINUOUS
 62
               4
100
AcDbLine
 10
-48.5
 20
49.0
 30
0.0
 11
-48.5
 21
28.0
 31
0.0
  0
LINE
  5
2FA
100
AcDbEntity
  8
0
  6
CONTINUOUS
 62
               7
100
AcDbLine
 10
-87.0
 20
-52.600000000000001
 30
0.0
 11
-87.0
 21
-56.0
 31
0.0
  0
LINE
  5
2FB
100
AcDbEntity
  8
0
  6
CONTINUOUS
 62
               4
100
AcDbLine
 10
-52.5
 20
-41.049999999999997
 30
0.0
 11
-53.200000000000003
 21
-41.049999999999997
 31
0.0
  0
LINE
  5
2FC
100
AcDbEntity
  8
0
  6
CONTINUOUS
 62
               4
100
AcDbLine
 10
-53.200000000000003
 20
-46.950000000000003
 30
0.0
 11
-53.200000000000003
 21
-41.049999999999997
 31
0.0
  0
LINE
  5
2FD
100
AcDbEntity
  8
0
  6
CONTINUOUS
 62
               4
100
AcDbLine
 10
-52.5
 20
-46.950000000000003
 30
0.0
 11
-53.200000000000003
 21
-46.950000000000003
 31
0.0
  0
LINE
  5
2FE
100
AcDbEntity
  8
0
  6
CONTINUOUS
 62
               4
100
AcDbLine
 10
-53.200000000000003
 20
-41.200000000000003
 30
0.0
 11
-53.200000000000003
 21
-46.799999999999997
 31
0.0
  0
LINE
  5
2FF
100
AcDbEntity
  8
0
  6
CONTINUOUS
 62
               4
100
AcDbLine
 10
-54.369999999999997
 20
-46.799999999999997
 30
0.0
 11
-53.200000000000003
 21
-46.799999999999997
 31
0.0
  0
LINE
  5
300
100
AcDbEntity
  8
0
  6
CONTINUOUS
 62
               4
100
AcDbLine
 10
-54.369999999999997
 20
-41.200000000000003
 30
0.0
 11
-53.200000000000003
 21
-41.200000000000003
 31
0.0
  0
LINE
  5
301
100
AcDbEntity
  8
0
  6
CONTINUOUS
 62
               4
100
AcDbLine
 10
-52.5
 20
-23.050000000000001
 30
0.0
 11
-53.200000000000003
 21
-23.050000000000001
 31
0.0
  0
LINE
  5
302
100
AcDbEntity
  8
0
  6
CONTINUOUS
 62
               4
100
AcDbLine
 10
-53.200000000000003
 20
-28.949999999999999
 30
0.0
 11
-53.200000000000003
 21
-23.050000000000001
 31
0.0
  0
LINE
  5
303
100
AcDbEntity
  8
0
  6
CONTINUOUS
 62
               4
100
AcDbLine
 10
-52.5
 20
-28.949999999999999
 30
0.0
 11
-53.200000000000003
 21
-28.949999999999999
 31
0.0
  0
LINE
  5
304
100
AcDbEntity
  8
0
  6
CONTINUOUS
 62
               4
100
AcDbLine
 10
-53.200000000000003
 20
-23.199999999999999
 30
0.0
 11
-53.200000000000003
 21
-28.800000000000001
 31
0.0
  0
LINE
  5
305
100
AcDbEntity
  8
0
  6
CONTINUOUS
 62
               4
100
AcDbLine
 10
-54.369999999999997
 20
-28.800000000000001
 30
0.0
 11
-53.200000000000003
 21
-28.800000000000001
 31
0.0
  0
LINE
  5
306
100
AcDbEntity
  8
0
  6
CONTINUOUS
 62
               4
100
AcDbLine
 10
-54.369999999999997
 20
-23.199999999999999
 30
0.0
 11
-53.200000000000003
 21
-23.199999999999999
 31
0.0
  0
LINE
  5
307
100
AcDbEntity
  8
0
  6
CONTINUOUS
 62
               4
100
AcDbLine
 10
-52.5
 20
-15.050000000000001
 30
0.0
 11
-53.200000000000003
 21
-15.050000000000001
 31
0.0
  0
LINE
  5
308
100
AcDbEntity
  8
0
  6
CONTINUOUS
 62
               4
100
AcDbLine
 10
-53.200000000000003
 20
-20.949999999999999
 30
0.0
 11
-53.200000000000003
 21
-15.050000000000001
 31
0.0
  0
LINE
  5
309
100
AcDbEntity
  8
0
  6
CONTINUOUS
 62
               4
100
AcDbLine
 10
-52.5
 20
-20.949999999999999
 30
0.0
 11
-53.200000000000003
 21
-20.949999999999999
 31
0.0
  0
LINE
  5
30A
100
AcDbEntity
  8
0
  6
CONTINUOUS
 62
               4
100
AcDbLine
 10
-53.200000000000003
 20
-15.199999999999999
 30
0.0
 11
-53.200000000000003
 21
-20.800000000000001
 31
0.0
  0
LINE
  5
30B
100
AcDbEntity
  8
0
  6
CONTINUOUS
 62
               4
100
AcDbLine
 10
-54.369999999999997
 20
-20.800000000000001
 30
0.0
 11
-53.200000000000003
 21
-20.800000000000001
 31
0.0
  0
LINE
  5
30C
100
AcDbEntity
  8
0
  6
CONTINUOUS
 62
               4
100
AcDbLine
 10
-54.369999999999997
 20
-15.199999999999999
 30
0.0
 11
-53.200000000000003
 21
-15.199999999999999
 31
0.0
  0
LINE
  5
30D
100
AcDbEntity
  8
0
  6
CONTINUOUS
 62
               4
100
AcDbLine
 10
-52.5
 20
-4.5
 30
0.0
 11
-52.5
 21
-57.5
 31
0.0
  0
LINE
  5
30E
100
AcDbEntity
  8
0
  6
CONTINUOUS
 62
               4
100
AcDbLine
 10
-52.5
 20
-57.5
 30
0.0
 11
-48.5
 21
-57.5
 31
0.0
  0
LINE
  5
30F
100
AcDbEntity
  8
0
  6
CONTINUOUS
 62
               4
100
AcDbLine
 10
-52.5
 20
-4.5
 30
0.0
 11
-48.5
 21
-4.5
 31
0.0
  0
LINE
  5
310
100
AcDbEntity
  8
0
  6
CONTINUOUS
 62
               7
100
AcDbLine
 10
-48.5
 20
28.0
 30
0.0
 11
-48.5
 21
-90.0
 31
0.0
  0
LINE
  5
311
100
AcDbEntity
  8
0
  6
CONTINUOUS
 62
               7
100
AcDbLine
 10
-48.5
 20
-57.5
 30
0.0
 11
-47.0
 21
-57.5
 31
0.0
  0
LINE
  5
312
100
AcDbEntity
  8
0
  6
CONTINUOUS
 62
               7
100
AcDbLine
 10
-48.5
 20
-4.5
 30
0.0
 11
-47.0
 21
-4.5
 31
0.0
  0
LINE
  5
313
100
AcDbEntity
  8
0
  6
CENTER
 62
               2
100
AcDbLine
 10
2.4900000000000002
 20
-64.0
 30
0.0
 11
-8.2799999999999994
 21
-64.0
 31
0.0
  0
LINE
  5
314
100
AcDbEntity
  8
0
  6
CENTER
 62
               2
100
AcDbLine
 10
2.4900000000000002
 20
0.0
 30
0.0
 11
-8.2799999999999994
 21
0.0
 31
0.0
  0
LINE
  5
315
100
AcDbEntity
  8
0
  6
CONTINUOUS
 62
               7
100
AcDbLine
 10
-87.200000000000003
 20
-50.200000000000003
 30
0.0
 11
-87.200000000000003
 21
-51.799999999999997
 31
0.0
  0
LINE
  5
316
100
AcDbEntity
  8
0
  6
CONTINUOUS
 62
               7
100
AcDbLine
 10
-86.700000000000003
 20
-25.0
 30
0.0
 11
-86.700000000000003
 21
-27.0
 31
0.0
  0
LINE
  5
317
100
AcDbEntity
  8
0
  6
CONTINUOUS
 62
               7
100
AcDbLine
 10
-84.700000000000003
 20
-23.25
 30
0.0
 11
-84.700000000000003
 21
-28.75
 31
0.0
  0
LINE
  5
318
100
AcDbEntity
  8
0
  6
CONTINUOUS
 62
               7
100
AcDbLine
 10
-85.659999999999997
 20
-23.25
 30
0.0
 11
-84.0
 21
-23.25
 31
0.0
  0
LINE
  5
319
100
AcDbEntity
  8
0
  6
CONTINUOUS
 62
               7
100
AcDbLine
 10
-85.659999999999997
 20
-28.75
 30
0.0
 11
-84.0
 21
-28.75
 31
0.0
  0
LINE
  5
31A
100
AcDbEntity
  8
0
  6
CONTINUOUS
 62
               7
100
AcDbLine
 10
-87.0
 20
-6.0
 30
0.0
 11
-87.0
 21
-49.399999999999999
 31
0.0
  0
LINE
  5
31B
100
AcDbEntity
  8
0
  6
CONTINUOUS
 62
               7
100
AcDbLine
 10
-86.379999999999995
 20
-53.25
 30
0.0
 11
-85.5
 21
-53.25
 31
0.0
  0
LINE
  5
31C
100
AcDbEntity
  8
0
  6
CONTINUOUS
 62
               7
100
AcDbLine
 10
-86.379999999999995
 20
-48.75
 30
0.0
 11
-85.5
 21
-48.75
 31
0.0
  0
LINE
  5
31D
100
AcDbEntity
  8
0
  6
CONTINUOUS
 62
               7
100
AcDbLine
 10
-83.5
 20
28.0
 30
0.0
 11
-83.5
 21
-90.0
 31
0.0
  0
LINE
  5
31E
100
AcDbEntity
  8
0
  6
CENTER
 62
               2
100
AcDbLine
 10
-66.0
 20
55.600000000000001
 30
0.0
 11
-66.0
 21
-118.38
 31
0.0
  0
LINE
  5
31F
100
AcDbEntity
  8
0
  6
CONTINUOUS
 62
               7
100
AcDbLine
 10
-84.0
 20
-4.5
 30
0.0
 11
-84.0
 21
-57.5
 31
0.0
  0
LINE
  5
320
100
AcDbEntity
  8
0
  6
CONTINUOUS
 62
               7
100
AcDbLine
 10
-87.0
 20
-53.5
 30
0.0
 11
-85.5
 21
-53.5
 31
0.0
  0
LINE
  5
321
100
AcDbEntity
  8
0
  6
CONTINUOUS
 62
               7
100
AcDbLine
 10
-87.0
 20
-48.5
 30
0.0
 11
-85.5
 21
-48.5
 31
0.0
  0
LINE
  5
322
100
AcDbEntity
  8
0
  6
CONTINUOUS
 62
               7
100
AcDbLine
 10
-85.5
 20
-29.0
 30
0.0
 11
-85.5
 21
-57.5
 31
0.0
  0
LINE
  5
323
100
AcDbEntity
  8
0
  6
CONTINUOUS
 62
               7
100
AcDbLine
 10
-87.0
 20
-23.0
 30
0.0
 11
-84.0
 21
-23.0
 31
0.0
  0
LINE
  5
324
100
AcDbEntity
  8
0
  6
CONTINUOUS
 62
               7
100
AcDbLine
 10
-87.0
 20
-29.0
 30
0.0
 11
-84.0
 21
-29.0
 31
0.0
  0
LINE
  5
325
100
AcDbEntity
  8
0
  6
CONTINUOUS
 62
               7
100
AcDbLine
 10
-87.0
 20
-56.0
 30
0.0
 11
-85.5
 21
-57.5
 31
0.0
  0
LINE
  5
326
100
AcDbEntity
  8
0
  6
CONTINUOUS
 62
               7
100
AcDbLine
 10
-85.5
 20
-4.5
 30
0.0
 11
-87.0
 21
-6.0
 31
0.0
  0
LINE
  5
327
100
AcDbEntity
  8
0
  6
CONTINUOUS
 62
               7
100
AcDbLine
 10
-85.5
 20
-4.5
 30
0.0
 11
-48.5
 21
-4.5
 31
0.0
  0
LINE
  5
328
100
AcDbEntity
  8
0
  6
CONTINUOUS
 62
               7
100
AcDbLine
 10
-85.5
 20
-57.5
 30
0.0
 11
-48.5
 21
-57.5
 31
0.0
  0
LINE
  5
329
100
AcDbEntity
  8
0
  6
CONTINUOUS
 62
               7
100
AcDbLine
 10
-85.5
 20
-4.5
 30
0.0
 11
-85.5
 21
-23.0
 31
0.0
  0
ENDBLK
  5
32A
100
AcDbEntity
  8
0
100
AcDbBlockEnd
  0
BLOCK
  5
32B
100
AcDbEntity
  8
0
100
AcDbBlockBegin
  2
MS_3
 70
               0
 10
0.0
 20
0.0
 30
0.0
  3
MS_3
  1

  0
LINE
  5
32C
100
AcDbEntity
  8
0
  6
CENTER
 62
               2
100
AcDbLine
 10
151.5
 20
54.07
 30
0.0
 11
151.5
 21
-2.0
 31
0.0
  0
LINE
  5
32D
100
AcDbEntity
  8
0
  6
CENTER
 62
               2
100
AcDbLine
 10
67.5
 20
91.349999999999994
 30
0.0
 11
67.5
 21
-2.0
 31
0.0
  0
LINE
  5
32E
100
AcDbEntity
  8
0
  6
CENTER
 62
               2
100
AcDbLine
 10
39.5
 20
91.349999999999994
 30
0.0
 11
39.5
 21
-2.0
 31
0.0
  0
CIRCLE
  5
32F
100
AcDbEntity
  8
0
  6
CONTINUOUS
 62
               4
100
AcDbCircle
 10
115.49996948242187
 20
56.0
 30
0.0
 40
2.75
  0
CIRCLE
  5
330
100
AcDbEntity
  8
0
  6
CONTINUOUS
 62
               4
100
AcDbCircle
 10
131.49996948242187
 20
76.0
 30
0.0
 40
2.75
  0
ARC
  5
331
100
AcDbEntity
  8
0
  6
CONTINUOUS
 62
               4
100
AcDbCircle
 10
115.49998474117213
 20
56.000015258827865
 30
0.0
 40
3.0000152588666724
100
AcDbArc
 50
270.00029142066296
 51
359.99970857933579
  0
ARC
  5
332
100
AcDbEntity
  8
0
  6
CONTINUOUS
 62
               4
100
AcDbCircle
 10
131.49998474124973
 20
75.999984741249747
 30
0.0
 40
2.9999847412885474
100
AcDbArc
 50
179.99970857785399
 51
270.00029142214527
  0
ARC
  5
333
100
AcDbEntity
  8
0
  6
CONTINUOUS
 62
               4
100
AcDbCircle
 10
115.49998474117213
 20
55.999984741172135
 30
0.0
 40
3.0000152588666724
100
AcDbArc
 50
0.0002914206634165
 51
89.999708579336243
  0
CIRCLE
  5
334
100
AcDbEntity
  8
0
  6
CONTINUOUS
 62
               4
100
AcDbCircle
 10
87.499954223632813
 20
56.0
 30
0.0
 40
2.75
  0
CIRCLE
  5
335
100
AcDbEntity
  8
0
  6
CONTINUOUS
 62
               4
100
AcDbCircle
 10
103.49995422363281
 20
76.0
 30
0.0
 40
2.75
  0
ARC
  5
336
100
AcDbEntity
  8
0
  6
CONTINUOUS
 62
               4
100
AcDbCircle
 10
87.499977111729095
 20
56.000022888270905
 30
0.0
 40
3.0000228883582167
100
AcDbArc
 50
270.00043713043874
 51
359.99956286955984
  0
ARC
  5
337
100
AcDbEntity
  8
0
  6
CONTINUOUS
 62
               4
100
AcDbCircle
 10
103.49997711190372
 20
75.999977111903718
 30
0.0
 40
2.9999771119910292
100
AcDbArc
 50
179.9995628662252
 51
270.0004371337738
  0
ARC
  5
338
100
AcDbEntity
  8
0
  6
CONTINUOUS
 62
               4
100
AcDbCircle
 10
87.499977111729095
 20
55.999977111729095
 30
0.0
 40
3.0000228883582167
100
AcDbArc
 50
0.0004371304393457
 51
89.999562869560464
  0
ARC
  5
339
100
AcDbEntity
  8
0
  6
CONTINUOUS
 62
               4
100
AcDbCircle
 10
160.5
 20
50.600006103341975
 30
0.0
 40
4.9979545280410225
100
AcDbArc
 50
55.928350994658011
 51
124.07164900534158
  0
ARC
  5
33A
100
AcDbEntity
  8
0
  6
CONTINUOUS
 62
               4
100
AcDbCircle
 10
142.5
 20
50.600006103341975
 30
0.0
 40
4.9979545280410225
100
AcDbArc
 50
55.928350994658011
 51
124.07164900534158
  0
CIRCLE
  5
33B
100
AcDbEntity
  8
0
  6
CONTINUOUS
 62
               7
100
AcDbCircle
 10
104.49998474121094
 20
26.0
 30
0.0
 40
3.5
  0
CIRCLE
  5
33C
100
AcDbEntity
  8
0
  6
CONTINUOUS
 62
               7
100
AcDbCircle
 10
104.49998474121094
 20
26.0
 30
0.0
 40
1.7999992370605469
  0
CIRCLE
  5
33D
100
AcDbEntity
  8
0
  6
CONTINUOUS
 62
               7
100
AcDbCircle
 10
76.499984741210937
 20
26.0
 30
0.0
 40
3.5
  0
CIRCLE
  5
33E
100
AcDbEntity
  8
0
  6
CONTINUOUS
 62
               7
100
AcDbCircle
 10
76.499984741210937
 20
26.0
 30
0.0
 40
1.7999992370605469
  0
CIRCLE
  5
33F
100
AcDbEntity
  8
0
  6
CONTINUOUS
 62
               7
100
AcDbCircle
 10
48.499984741210937
 20
26.0
 30
0.0
 40
3.5
  0
CIRCLE
  5
340
100
AcDbEntity
  8
0
  6
CONTINUOUS
 62
               7
100
AcDbCircle
 10
48.499984741210937
 20
26.0
 30
0.0
 40
1.7999992370605469
  0
CIRCLE
  5
341
100
AcDbEntity
  8
0
  6
CONTINUOUS
 62
               7
100
AcDbCircle
 10
132.49998474121094
 20
26.0
 30
0.0
 40
1.7999992370605469
  0
CIRCLE
  5
342
100
AcDbEntity
  8
0
  6
CONTINUOUS
 62
               7
100
AcDbCircle
 10
132.49998474121094
 20
26.0
 30
0.0
 40
3.5
  0
CIRCLE
  5
343
100
AcDbEntity
  8
0
  6
CONTINUOUS
 62
               7
100
AcDbCircle
 10
38.499984741210937
 20
12.5
 30
0.0
 40
6.0
  0
CIRCLE
  5
344
100
AcDbEntity
  8
0
  6
CONTINUOUS
 62
               7
100
AcDbCircle
 10
35.499984741210938
 20
38.5
 30
0.0
 40
6.0
  0
CIRCLE
  5
345
100
AcDbEntity
  8
0
  6
CONTINUOUS
 62
               2
100
AcDbCircle
 10
38.499984741210937
 20
12.5
 30
0.0
 40
6.4999990463256836
  0
CIRCLE
  5
346
100
AcDbEntity
  8
0
  6
CONTINUOUS
 62
               2
100
AcDbCircle
 10
35.499984741210938
 20
38.5
 30
0.0
 40
6.4999990463256836
  0
CIRCLE
  5
347
100
AcDbEntity
  8
0
  6
CONTINUOUS
 62
               7
100
AcDbCircle
 10
66.5
 20
12.5
 30
0.0
 40
6.0
  0
CIRCLE
  5
348
100
AcDbEntity
  8
0
  6
CONTINUOUS
 62
               7
100
AcDbCircle
 10
63.5
 20
38.5
 30
0.0
 40
6.0
  0
CIRCLE
  5
349
100
AcDbEntity
  8
0
  6
CONTINUOUS
 62
               2
100
AcDbCircle
 10
66.5
 20
12.5
 30
0.0
 40
6.4999990463256836
  0
CIRCLE
  5
34A
100
AcDbEntity
  8
0
  6
CONTINUOUS
 62
               2
100
AcDbCircle
 10
63.5
 20
38.5
 30
0.0
 40
6.4999990463256836
  0
CIRCLE
  5
34B
100
AcDbEntity
  8
0
  6
CONTINUOUS
 62
               7
100
AcDbCircle
 10
150.49996948242187
 20
12.5
 30
0.0
 40
6.0
  0
CIRCLE
  5
34C
100
AcDbEntity
  8
0
  6
CONTINUOUS
 62
               7
100
AcDbCircle
 10
147.49996948242187
 20
38.5
 30
0.0
 40
6.0
  0
CIRCLE
  5
34D
100
AcDbEntity
  8
0
  6
CONTINUOUS
 62
               2
100
AcDbCircle
 10
150.49996948242187
 20
12.5
 30
0.0
 40
6.4999990463256836
  0
CIRCLE
  5
34E
100
AcDbEntity
  8
0
  6
CONTINUOUS
 62
               2
100
AcDbCircle
 10
147.49996948242187
 20
38.5
 30
0.0
 40
6.4999990463256836
  0
CIRCLE
  5
34F
100
AcDbEntity
  8
0
  6
CONTINUOUS
 62
               7
100
AcDbCircle
 10
160.49996948242187
 20
26.0
 30
0.0
 40
1.7999992370605469
  0
CIRCLE
  5
350
100
AcDbEntity
  8
0
  6
CONTINUOUS
 62
               7
100
AcDbCircle
 10
160.49996948242187
 20
26.0
 30
0.0
 40
3.5
  0
CIRCLE
  5
351
100
AcDbEntity
  8
0
  6
CONTINUOUS
 62
               7
100
AcDbCircle
 10
122.49995422363281
 20
12.5
 30
0.0
 40
6.0
  0
CIRCLE
  5
352
100
AcDbEntity
  8
0
  6
CONTINUOUS
 62
               7
100
AcDbCircle
 10
119.49995422363281
 20
38.5
 30
0.0
 40
6.0
  0
CIRCLE
  5
353
100
AcDbEntity
  8
0
  6
CONTINUOUS
 62
               2
100
AcDbCircle
 10
122.49995422363281
 20
12.5
 30
0.0
 40
6.4999990463256836
  0
CIRCLE
  5
354
100
AcDbEntity
  8
0
  6
CONTINUOUS
 62
               2
100
AcDbCircle
 10
119.49995422363281
 20
38.5
 30
0.0
 40
6.4999990463256836
  0
CIRCLE
  5
355
100
AcDbEntity
  8
0
  6
CONTINUOUS
 62
               7
100
AcDbCircle
 10
94.499969482421875
 20
12.5
 30
0.0
 40
6.0
  0
CIRCLE
  5
356
100
AcDbEntity
  8
0
  6
CONTINUOUS
 62
               7
100
AcDbCircle
 10
91.499969482421875
 20
38.5
 30
0.0
 40
6.0
  0
CIRCLE
  5
357
100
AcDbEntity
  8
0
  6
CONTINUOUS
 62
               2
100
AcDbCircle
 10
94.499969482421875
 20
12.5
 30
0.0
 40
6.4999990463256836
  0
CIRCLE
  5
358
100
AcDbEntity
  8
0
  6
CONTINUOUS
 62
               2
100
AcDbCircle
 10
91.499969482421875
 20
38.5
 30
0.0
 40
6.4999990463256836
  0
ARC
  5
359
100
AcDbEntity
  8
0
  6
CONTINUOUS
 62
               7
100
AcDbCircle
 10
181.49996948218904
 20
44.999969482189044
 30
0.0
 40
2.0000305180437863
100
AcDbArc
 50
0.0008742575435872
 51
89.999125742456215
  0
ARC
  5
35A
100
AcDbEntity
  8
0
  6
CONTINUOUS
 62
               7
100
AcDbCircle
 10
193.99996948218904
 20
2.9999694821890444
 30
0.0
 40
2.0000305180437863
100
AcDbArc
 50
0.0008742575435872
 51
89.999125742456215
  0
ARC
  5
35B
100
AcDbEntity
  8
0
  6
CONTINUOUS
 62
               7
100
AcDbCircle
 10
186.49996948257709
 20
7.9999694825770948
 30
0.0
 40
2.9999694827323156
100
AcDbArc
 50
179.99941715422594
 51
270.00058284577324
  0
CIRCLE
  5
35C
100
AcDbEntity
  8
0
  6
CONTINUOUS
 62
               7
100
AcDbCircle
 10
20.5
 20
26.0
 30
0.0
 40
1.7999982833862305
  0
CIRCLE
  5
35D
100
AcDbEntity
  8
0
  6
CONTINUOUS
 62
               7
100
AcDbCircle
 10
20.5
 20
26.0
 30
0.0
 40
3.4999990463256836
  0
ARC
  5
35E
100
AcDbEntity
  8
0
  6
CONTINUOUS
 62
               7
100
AcDbCircle
 10
9.5
 20
45.0
 30
0.0
 40
2.0
100
AcDbArc
 50
89.999999999999801
 51
179.9999999999996
  0
ARC
  5
35F
100
AcDbEntity
  8
0
  6
CONTINUOUS
 62
               7
100
AcDbCircle
 10
-3.0
 20
3.0
 30
0.0
 40
2.0
100
AcDbArc
 50
89.999999999999801
 51
179.9999999999996
  0
ARC
  5
360
100
AcDbEntity
  8
0
  6
CONTINUOUS
 62
               7
100
AcDbCircle
 10
4.5
 20
8.0
 30
0.0
 40
3.0
100
AcDbArc
 50
269.99999999999937
 51
0.0
  0
CIRCLE
  5
361
100
AcDbEntity
  8
0
  6
CONTINUOUS
 62
               7
100
AcDbCircle
 10
74.49993896484375
 20
54.5
 30
0.0
 40
1.1999998092651367
  0
CIRCLE
  5
362
100
AcDbEntity
  8
0
  6
CONTINUOUS
 62
               7
100
AcDbCircle
 10
60.49993896484375
 20
77.5
 30
0.0
 40
1.1999998092651367
  0
CIRCLE
  5
363
100
AcDbEntity
  8
0
  6
CONTINUOUS
 62
               2
100
AcDbCircle
 10
74.49993896484375
 20
54.5
 30
0.0
 40
1.5
  0
CIRCLE
  5
364
100
AcDbEntity
  8
0
  6
CONTINUOUS
 62
               2
100
AcDbCircle
 10
60.49993896484375
 20
77.5
 30
0.0
 40
1.5
  0
CIRCLE
  5
365
100
AcDbEntity
  8
0
  6
CONTINUOUS
 62
               7
100
AcDbCircle
 10
74.49993896484375
 20
54.5
 30
0.0
 40
2.2999992370605469
  0
CIRCLE
  5
366
100
AcDbEntity
  8
0
  6
CONTINUOUS
 62
               7
100
AcDbCircle
 10
60.49993896484375
 20
77.5
 30
0.0
 40
2.2999992370605469
  0
CIRCLE
  5
367
100
AcDbEntity
  8
0
  6
CONTINUOUS
 62
               7
100
AcDbCircle
 10
59.49993896484375
 20
56.0
 30
0.0
 40
2.75
  0
CIRCLE
  5
368
100
AcDbEntity
  8
0
  6
CONTINUOUS
 62
               7
100
AcDbCircle
 10
75.49993896484375
 20
76.0
 30
0.0
 40
2.75
  0
ARC
  5
369
100
AcDbEntity
  8
0
  6
CONTINUOUS
 62
               7
100
AcDbCircle
 10
59.499969482266657
 20
56.000030517733343
 30
0.0
 40
3.0000305178885656
100
AcDbArc
 50
270.00058283984401
 51
359.99941716015456
  0
ARC
  5
36A
100
AcDbEntity
  8
0
  6
CONTINUOUS
 62
               7
100
AcDbCircle
 10
75.5
 20
76.0
 30
0.0
 40
3.0000000006208816
100
AcDbArc
 50
89.999999999999801
 51
269.99999999999937
  0
ARC
  5
36B
100
AcDbEntity
  8
0
  6
CONTINUOUS
 62
               7
100
AcDbCircle
 10
75.505637353867584
 20
75.875709156924415
 30
0.0
 40
2.9969410855446648
100
AcDbArc
 50
2.3768848097819273
 51
5.2512648588023261
  0
ARC
  5
36C
100
AcDbEntity
  8
0
  6
CONTINUOUS
 62
               7
100
AcDbCircle
 10
59.499969482266657
 20
55.999969482266657
 30
0.0
 40
3.0000305178885656
100
AcDbArc
 50
0.0005828398446173
 51
89.99941716015519
  0
CIRCLE
  5
36D
100
AcDbEntity
  8
0
  6
CONTINUOUS
 62
               7
100
AcDbCircle
 10
46.49993896484375
 20
54.5
 30
0.0
 40
1.1999998092651367
  0
CIRCLE
  5
36E
100
AcDbEntity
  8
0
  6
CONTINUOUS
 62
               7
100
AcDbCircle
 10
32.49993896484375
 20
77.5
 30
0.0
 40
1.1999998092651367
  0
CIRCLE
  5
36F
100
AcDbEntity
  8
0
  6
CONTINUOUS
 62
               2
100
AcDbCircle
 10
46.49993896484375
 20
54.5
 30
0.0
 40
1.5
  0
CIRCLE
  5
370
100
AcDbEntity
  8
0
  6
CONTINUOUS
 62
               2
100
AcDbCircle
 10
32.49993896484375
 20
77.5
 30
0.0
 40
1.5
  0
CIRCLE
  5
371
100
AcDbEntity
  8
0
  6
CONTINUOUS
 62
               7
100
AcDbCircle
 10
46.49993896484375
 20
54.5
 30
0.0
 40
2.2999992370605469
  0
CIRCLE
  5
372
100
AcDbEntity
  8
0
  6
CONTINUOUS
 62
               7
100
AcDbCircle
 10
32.49993896484375
 20
77.5
 30
0.0
 40
2.2999992370605469
  0
CIRCLE
  5
373
100
AcDbEntity
  8
0
  6
CONTINUOUS
 62
               7
100
AcDbCircle
 10
31.49993896484375
 20
56.0
 30
0.0
 40
2.75
  0
CIRCLE
  5
374
100
AcDbEntity
  8
0
  6
CONTINUOUS
 62
               7
100
AcDbCircle
 10
47.49993896484375
 20
76.0
 30
0.0
 40
2.75
  0
ARC
  5
375
100
AcDbEntity
  8
0
  6
CONTINUOUS
 62
               7
100
AcDbCircle
 10
31.499969482266653
 20
56.000030517733343
 30
0.0
 40
3.0000305178885656
100
AcDbArc
 50
270.00058283984407
 51
359.99941716015456
  0
ARC
  5
376
100
AcDbEntity
  8
0
  6
CONTINUOUS
 62
               7
100
AcDbCircle
 10
47.5
 20
76.0
 30
0.0
 40
3.0000000006208816
100
AcDbArc
 50
89.999999999999801
 51
269.99999999999937
  0
ARC
  5
377
100
AcDbEntity
  8
0
  6
CONTINUOUS
 62
               7
100
AcDbCircle
 10
47.50563735386757
 20
75.875709156924557
 30
0.0
 40
2.9969410855446683
100
AcDbArc
 50
2.376884809779201
 51
5.2512648587995834
  0
ARC
  5
378
100
AcDbEntity
  8
0
  6
CONTINUOUS
 62
               7
100
AcDbCircle
 10
31.499969482266653
 20
55.999969482266657
 30
0.0
 40
3.0000305178885656
100
AcDbArc
 50
0.0005828398446173
 51
89.999417160155119
  0
LINE
  5
379
100
AcDbEntity
  8
0
  6
CONTINUOUS
 62
               7
100
AcDbLine
 10
135.0
 20
48.5
 30
0.0
 11
135.0
 21
47.5
 31
0.0
  0
LINE
  5
37A
100
AcDbEntity
  8
0
  6
CONTINUOUS
 62
               7
100
AcDbLine
 10
112.0
 20
48.5
 30
0.0
 11
112.0
 21
47.5
 31
0.0
  0
LINE
  5
37B
100
AcDbEntity
  8
0
  6
CONTINUOUS
 62
               7
100
AcDbLine
 10
107.0
 20
48.5
 30
0.0
 11
107.0
 21
47.5
 31
0.0
  0
LINE
  5
37C
100
AcDbEntity
  8
0
  6
CONTINUOUS
 62
               7
100
AcDbLine
 10
84.0
 20
48.5
 30
0.0
 11
84.0
 21
47.5
 31
0.0
  0
LINE
  5
37D
100
AcDbEntity
  8
0
  6
CONTINUOUS
 62
               4
100
AcDbLine
 10
113.0
 20
53.0
 30
0.0
 11
113.0
 21
49.5
 31
0.0
  0
LINE
  5
37E
100
AcDbEntity
  8
0
  6
CONTINUOUS
 62
               4
100
AcDbLine
 10
128.5
 20
76.0
 30
0.0
 11
128.5
 21
79.5
 31
0.0
  0
LINE
  5
37F
100
AcDbEntity
  8
0
  6
CONTINUOUS
 62
               4
100
AcDbLine
 10
112.0
 20
79.5
 30
0.0
 11
113.0
 21
78.5
 31
0.0
  0
LINE
  5
380
100
AcDbEntity
  8
0
  6
CONTINUOUS
 62
               4
100
AcDbLine
 10
135.0
 20
48.5
 30
0.0
 11
134.0
 21
49.5
 31
0.0
  0
LINE
  5
381
100
AcDbEntity
  8
0
  6
CONTINUOUS
 62
               4
100
AcDbLine
 10
112.0
 20
48.5
 30
0.0
 11
113.0
 21
49.5
 31
0.0
  0
LINE
  5
382
100
AcDbEntity
  8
0
  6
CONTINUOUS
 62
               4
100
AcDbLine
 10
113.0
 20
78.5
 30
0.0
 11
113.0
 21
59.0
 31
0.0
  0
LINE
  5
383
100
AcDbEntity
  8
0
  6
CONTINUOUS
 62
               4
100
AcDbLine
 10
134.0
 20
49.5
 30
0.0
 11
134.0
 21
73.0
 31
0.0
  0
LINE
  5
384
100
AcDbEntity
  8
0
  6
CONTINUOUS
 62
               4
100
AcDbLine
 10
135.0
 20
48.5
 30
0.0
 11
135.0
 21
85.5
 31
0.0
  0
LINE
  5
385
100
AcDbEntity
  8
0
  6
CONTINUOUS
 62
               4
100
AcDbLine
 10
112.0
 20
85.5
 30
0.0
 11
112.0
 21
48.5
 31
0.0
  0
LINE
  5
386
100
AcDbEntity
  8
0
  6
CONTINUOUS
 62
               4
100
AcDbLine
 10
113.0
 20
78.5
 30
0.0
 11
128.5
 21
78.5
 31
0.0
  0
LINE
  5
387
100
AcDbEntity
  8
0
  6
CONTINUOUS
 62
               4
100
AcDbLine
 10
112.0
 20
79.5
 30
0.0
 11
135.0
 21
79.5
 31
0.0
  0
LINE
  5
388
100
AcDbEntity
  8
0
  6
CONTINUOUS
 62
               4
100
AcDbLine
 10
113.0
 20
49.5
 30
0.0
 11
134.0
 21
49.5
 31
0.0
  0
LINE
  5
389
100
AcDbEntity
  8
0
  6
CONTINUOUS
 62
               4
100
AcDbLine
 10
112.0
 20
48.5
 30
0.0
 11
135.0
 21
48.5
 31
0.0
  0
LINE
  5
38A
100
AcDbEntity
  8
0
  6
CONTINUOUS
 62
               4
100
AcDbLine
 10
130.34
 20
77.159999999999997
 30
0.0
 11
132.53
 21
74.959999999999994
 31
0.0
  0
LINE
  5
38B
100
AcDbEntity
  8
0
  6
CONTINUOUS
 62
               4
100
AcDbLine
 10
130.41
 20
74.909999999999997
 30
0.0
 11
132.46000000000001
 21
76.959999999999994
 31
0.0
  0
LINE
  5
38C
100
AcDbEntity
  8
0
  6
CONTINUOUS
 62
               4
100
AcDbLine
 10
114.34
 20
57.159999999999997
 30
0.0
 11
116.53
 21
54.960000000000001
 31
0.0
  0
LINE
  5
38D
100
AcDbEntity
  8
0
  6
CONTINUOUS
 62
               4
100
AcDbLine
 10
114.41
 20
54.909999999999997
 30
0.0
 11
116.45999999999999
 21
56.960000000000001
 31
0.0
  0
LINE
  5
38E
100
AcDbEntity
  8
0
  6
CONTINUOUS
 62
               4
100
AcDbLine
 10
112.0
 20
85.5
 30
0.0
 11
113.5
 21
87.0
 31
0.0
  0
LINE
  5
38F
100
AcDbEntity
  8
0
  6
CONTINUOUS
 62
               4
100
AcDbLine
 10
133.5
 20
87.0
 30
0.0
 11
135.0
 21
85.5
 31
0.0
  0
LINE
  5
390
100
AcDbEntity
  8
0
  6
CONTINUOUS
 62
               4
100
AcDbLine
 10
112.0
 20
85.5
 30
0.0
 11
135.0
 21
85.5
 31
0.0
  0
LINE
  5
391
100
AcDbEntity
  8
0
  6
CONTINUOUS
 62
               4
100
AcDbLine
 10
113.5
 20
87.0
 30
0.0
 11
133.5
 21
87.0
 31
0.0
  0
LINE
  5
392
100
AcDbEntity
  8
0
  6
CONTINUOUS
 62
               4
100
AcDbLine
 10
112.0
 20
53.0
 30
0.0
 11
115.5
 21
53.0
 31
0.0
  0
LINE
  5
393
100
AcDbEntity
  8
0
  6
CONTINUOUS
 62
               4
100
AcDbLine
 10
112.0
 20
59.0
 30
0.0
 11
115.5
 21
59.0
 31
0.0
  0
LINE
  5
394
100
AcDbEntity
  8
0
  6
CONTINUOUS
 62
               4
100
AcDbLine
 10
131.5
 20
73.0
 30
0.0
 11
135.0
 21
73.0
 31
0.0
  0
LINE
  5
395
100
AcDbEntity
  8
0
  6
CONTINUOUS
 62
               4
100
AcDbLine
 10
112.0
 20
83.5
 30
0.0
 11
135.0
 21
83.5
 31
0.0
  0
LINE
  5
396
100
AcDbEntity
  8
0
  6
CONTINUOUS
 62
               4
100
AcDbLine
 10
85.0
 20
53.0
 30
0.0
 11
85.0
 21
49.5
 31
0.0
  0
LINE
  5
397
100
AcDbEntity
  8
0
  6
CONTINUOUS
 62
               4
100
AcDbLine
 10
100.5
 20
76.0
 30
0.0
 11
100.5
 21
79.5
 31
0.0
  0
LINE
  5
398
100
AcDbEntity
  8
0
  6
CONTINUOUS
 62
               4
100
AcDbLine
 10
84.0
 20
79.5
 30
0.0
 11
85.0
 21
78.5
 31
0.0
  0
LINE
  5
399
100
AcDbEntity
  8
0
  6
CONTINUOUS
 62
               4
100
AcDbLine
 10
107.0
 20
48.5
 30
0.0
 11
106.0
 21
49.5
 31
0.0
  0
LINE
  5
39A
100
AcDbEntity
  8
0
  6
CONTINUOUS
 62
               4
100
AcDbLine
 10
84.0
 20
48.5
 30
0.0
 11
85.0
 21
49.5
 31
0.0
  0
LINE
  5
39B
100
AcDbEntity
  8
0
  6
CONTINUOUS
 62
               4
100
AcDbLine
 10
85.0
 20
78.5
 30
0.0
 11
85.0
 21
59.0
 31
0.0
  0
LINE
  5
39C
100
AcDbEntity
  8
0
  6
CONTINUOUS
 62
               4
100
AcDbLine
 10
106.0
 20
49.5
 30
0.0
 11
106.0
 21
73.0
 31
0.0
  0
LINE
  5
39D
100
AcDbEntity
  8
0
  6
CONTINUOUS
 62
               4
100
AcDbLine
 10
107.0
 20
48.5
 30
0.0
 11
107.0
 21
85.5
 31
0.0
  0
LINE
  5
39E
100
AcDbEntity
  8
0
  6
CONTINUOUS
 62
               4
100
AcDbLine
 10
84.0
 20
85.5
 30
0.0
 11
84.0
 21
48.5
 31
0.0
  0
LINE
  5
39F
100
AcDbEntity
  8
0
  6
CONTINUOUS
 62
               4
100
AcDbLine
 10
85.0
 20
78.5
 30
0.0
 11
100.5
 21
78.5
 31
0.0
  0
LINE
  5
3A0
100
AcDbEntity
  8
0
  6
CONTINUOUS
 62
               4
100
AcDbLine
 10
84.0
 20
79.5
 30
0.0
 11
107.0
 21
79.5
 31
0.0
  0
LINE
  5
3A1
100
AcDbEntity
  8
0
  6
CONTINUOUS
 62
               4
100
AcDbLine
 10
85.0
 20
49.5
 30
0.0
 11
106.0
 21
49.5
 31
0.0
  0
LINE
  5
3A2
100
AcDbEntity
  8
0
  6
CONTINUOUS
 62
               4
100
AcDbLine
 10
84.0
 20
48.5
 30
0.0
 11
107.0
 21
48.5
 31
0.0
  0
LINE
  5
3A3
100
AcDbEntity
  8
0
  6
CONTINUOUS
 62
               4
100
AcDbLine
 10
102.34
 20
77.159999999999997
 30
0.0
 11
104.53
 21
74.959999999999994
 31
0.0
  0
LINE
  5
3A4
100
AcDbEntity
  8
0
  6
CONTINUOUS
 62
               4
100
AcDbLine
 10
102.41
 20
74.909999999999997
 30
0.0
 11
104.45999999999999
 21
76.959999999999994
 31
0.0
  0
LINE
  5
3A5
100
AcDbEntity
  8
0
  6
CONTINUOUS
 62
               4
100
AcDbLine
 10
86.329999999999998
 20
57.159999999999997
 30
0.0
 11
88.530000000000001
 21
54.960000000000001
 31
0.0
  0
LINE
  5
3A6
100
AcDbEntity
  8
0
  6
CONTINUOUS
 62
               4
100
AcDbLine
 10
86.409999999999997
 20
54.909999999999997
 30
0.0
 11
88.459999999999994
 21
56.960000000000001
 31
0.0
  0
LINE
  5
3A7
100
AcDbEntity
  8
0
  6
CONTINUOUS
 62
               4
100
AcDbLine
 10
84.0
 20
85.5
 30
0.0
 11
85.5
 21
87.0
 31
0.0
  0
LINE
  5
3A8
100
AcDbEntity
  8
0
  6
CONTINUOUS
 62
               4
100
AcDbLine
 10
105.5
 20
87.0
 30
0.0
 11
107.0
 21
85.5
 31
0.0
  0
LINE
  5
3A9
100
AcDbEntity
  8
0
  6
CONTINUOUS
 62
               4
100
AcDbLine
 10
84.0
 20
85.5
 30
0.0
 11
107.0
 21
85.5
 31
0.0
  0
LINE
  5
3AA
100
AcDbEntity
  8
0
  6
CONTINUOUS
 62
               4
100
AcDbLine
 10
85.5
 20
87.0
 30
0.0
 11
105.5
 21
87.0
 31
0.0
  0
LINE
  5
3AB
100
AcDbEntity
  8
0
  6
CONTINUOUS
 62
               4
100
AcDbLine
 10
84.0
 20
53.0
 30
0.0
 11
87.5
 21
53.0
 31
0.0
  0
LINE
  5
3AC
100
AcDbEntity
  8
0
  6
CONTINUOUS
 62
               4
100
AcDbLine
 10
84.0
 20
59.0
 30
0.0
 11
87.5
 21
59.0
 31
0.0
  0
LINE
  5
3AD
100
AcDbEntity
  8
0
  6
CONTINUOUS
 62
               4
100
AcDbLine
 10
103.5
 20
73.0
 30
0.0
 11
107.0
 21
73.0
 31
0.0
  0
LINE
  5
3AE
100
AcDbEntity
  8
0
  6
CONTINUOUS
 62
               4
100
AcDbLine
 10
84.0
 20
83.5
 30
0.0
 11
107.0
 21
83.5
 31
0.0
  0
LINE
  5
3AF
100
AcDbEntity
  8
0
  6
CONTINUOUS
 62
               7
100
AcDbLine
 10
25.5
 20
47.0
 30
0.0
 11
9.5
 21
47.0
 31
0.0
  0
LINE
  5
3B0
100
AcDbEntity
  8
0
  6
CONTINUOUS
 62
               7
100
AcDbLine
 10
53.5
 20
47.0
 30
0.0
 11
25.5
 21
47.0
 31
0.0
  0
LINE
  5
3B1
100
AcDbEntity
  8
0
  6
CONTINUOUS
 62
               7
100
AcDbLine
 10
81.5
 20
47.0
 30
0.0
 11
53.5
 21
47.0
 31
0.0
  0
LINE
  5
3B2
100
AcDbEntity
  8
0
  6
CONTINUOUS
 62
               7
100
AcDbLine
 10
109.5
 20
47.0
 30
0.0
 11
81.5
 21
47.0
 31
0.0
  0
LINE
  5
3B3
100
AcDbEntity
  8
0
  6
CONTINUOUS
 62
               7
100
AcDbLine
 10
137.5
 20
47.0
 30
0.0
 11
109.5
 21
47.0
 31
0.0
  0
LINE
  5
3B4
100
AcDbEntity
  8
0
  6
CONTINUOUS
 62
               7
100
AcDbLine
 10
163.0
 20
48.5
 30
0.0
 11
163.0
 21
47.5
 31
0.0
  0
LINE
  5
3B5
100
AcDbEntity
  8
0
  6
CONTINUOUS
 62
               7
100
AcDbLine
 10
140.0
 20
48.5
 30
0.0
 11
140.0
 21
47.5
 31
0.0
  0
LINE
  5
3B6
100
AcDbEntity
  8
0
  6
CONTINUOUS
 62
               7
100
AcDbLine
 10
163.5
 20
47.5
 30
0.0
 11
163.5
 21
47.0
 31
0.0
  0
LINE
  5
3B7
100
AcDbEntity
  8
0
  6
CONTINUOUS
 62
               7
100
AcDbLine
 10
139.5
 20
47.5
 30
0.0
 11
139.5
 21
47.0
 31
0.0
  0
LINE
  5
3B8
100
AcDbEntity
  8
0
  6
CONTINUOUS
 62
               7
100
AcDbLine
 10
139.5
 20
47.5
 30
0.0
 11
163.5
 21
47.5
 31
0.0
  0
LINE
  5
3B9
100
AcDbEntity
  8
0
  6
CONTINUOUS
 62
               7
100
AcDbLine
 10
137.5
 20
47.0
 30
0.0
 11
165.5
 21
47.0
 31
0.0
  0
LINE
  5
3BA
100
AcDbEntity
  8
0
  6
CONTINUOUS
 62
               4
100
AcDbLine
 10
157.69999999999999
 20
53.200000000000003
 30
0.0
 11
163.30000000000001
 21
53.200000000000003
 31
0.0
  0
LINE
  5
3BB
100
AcDbEntity
  8
0
  6
CONTINUOUS
 62
               4
100
AcDbLine
 10
139.69999999999999
 20
52.5
 30
0.0
 11
163.30000000000001
 21
52.5
 31
0.0
  0
LINE
  5
3BC
100
AcDbEntity
  8
0
  6
CONTINUOUS
 62
               4
100
AcDbLine
 10
157.69999999999999
 20
54.740000000000002
 30
0.0
 11
157.69999999999999
 21
52.5
 31
0.0
  0
LINE
  5
3BD
100
AcDbEntity
  8
0
  6
CONTINUOUS
 62
               4
100
AcDbLine
 10
163.30000000000001
 20
54.740000000000002
 30
0.0
 11
163.30000000000001
 21
52.5
 31
0.0
  0
LINE
  5
3BE
100
AcDbEntity
  8
0
  6
CONTINUOUS
 62
               4
100
AcDbLine
 10
139.55000000000001
 20
53.200000000000003
 30
0.0
 11
145.30000000000001
 21
53.200000000000003
 31
0.0
  0
LINE
  5
3BF
100
AcDbEntity
  8
0
  6
CONTINUOUS
 62
               4
100
AcDbLine
 10
139.69999999999999
 20
54.740000000000002
 30
0.0
 11
139.69999999999999
 21
52.5
 31
0.0
  0
LINE
  5
3C0
100
AcDbEntity
  8
0
  6
CONTINUOUS
 62
               4
100
AcDbLine
 10
145.30000000000001
 20
54.740000000000002
 30
0.0
 11
145.30000000000001
 21
52.5
 31
0.0
  0
LINE
  5
3C1
100
AcDbEntity
  8
0
  6
CONTINUOUS
 62
               4
100
AcDbLine
 10
140.0
 20
52.5
 30
0.0
 11
140.0
 21
48.5
 31
0.0
  0
LINE
  5
3C2
100
AcDbEntity
  8
0
  6
CONTINUOUS
 62
               7
100
AcDbLine
 10
140.0
 20
48.5
 30
0.0
 11
163.0
 21
48.5
 31
0.0
  0
LINE
  5
3C3
100
AcDbEntity
  8
0
  6
CONTINUOUS
 62
               4
100
AcDbLine
 10
163.0
 20
52.5
 30
0.0
 11
163.0
 21
48.5
 31
0.0
  0
LINE
  5
3C4
100
AcDbEntity
  8
0
  6
CONTINUOUS
 62
               7
100
AcDbLine
 10
181.5
 20
47.0
 30
0.0
 11
165.5
 21
47.0
 31
0.0
  0
LINE
  5
3C5
100
AcDbEntity
  8
0
  6
CONTINUOUS
 62
               7
100
AcDbLine
 10
171.0
 20
22.489999999999998
 30
0.0
 11
169.09999999999999
 21
20.600000000000001
 31
0.0
  0
LINE
  5
3C6
100
AcDbEntity
  8
0
  6
CONTINUOUS
 62
               7
100
AcDbLine
 10
171.0
 20
29.5
 30
0.0
 11
169.09999999999999
 21
31.399999999999999
 31
0.0
  0
LINE
  5
3C7
100
AcDbEntity
  8
0
  6
CONTINUOUS
 62
               7
100
AcDbLine
 10
11.890000000000001
 20
20.600000000000001
 30
0.0
 11
10.0
 21
22.489999999999998
 31
0.0
  0
LINE
  5
3C8
100
AcDbEntity
  8
0
  6
CONTINUOUS
 62
               7
100
AcDbLine
 10
11.890000000000001
 20
31.399999999999999
 30
0.0
 11
10.0
 21
29.5
 31
0.0
  0
LINE
  5
3C9
100
AcDbEntity
  8
0
  6
CONTINUOUS
 62
               7
100
AcDbLine
 10
100.0
 20
21.100000000000001
 30
0.0
 11
109.0
 21
21.100000000000001
 31
0.0
  0
LINE
  5
3CA
100
AcDbEntity
  8
0
  6
CONTINUOUS
 62
               7
100
AcDbLine
 10
113.09999999999999
 20
20.600000000000001
 30
0.0
 11
115.0
 21
22.489999999999998
 31
0.0
  0
LINE
  5
3CB
100
AcDbEntity
  8
0
  6
CONTINUOUS
 62
               7
100
AcDbLine
 10
112.90000000000001
 20
31.399999999999999
 30
0.0
 11
112.90000000000001
 21
20.600000000000001
 31
0.0
  0
LINE
  5
3CC
100
AcDbEntity
  8
0
  6
CONTINUOUS
 62
               7
100
AcDbLine
 10
113.09999999999999
 20
31.399999999999999
 30
0.0
 11
115.0
 21
29.5
 31
0.0
  0
LINE
  5
3CD
100
AcDbEntity
  8
0
  6
CONTINUOUS
 62
               7
100
AcDbLine
 10
115.0
 20
29.5
 30
0.0
 11
115.0
 21
22.489999999999998
 31
0.0
  0
LINE
  5
3CE
100
AcDbEntity
  8
0
  6
CONTINUOUS
 62
               7
100
AcDbLine
 10
95.890000000000001
 20
31.399999999999999
 30
0.0
 11
113.09999999999999
 21
31.399999999999999
 31
0.0
  0
LINE
  5
3CF
100
AcDbEntity
  8
0
  6
CONTINUOUS
 62
               7
100
AcDbLine
 10
94.0
 20
29.5
 30
0.0
 11
95.890000000000001
 21
31.399999999999999
 31
0.0
  0
LINE
  5
3D0
100
AcDbEntity
  8
0
  6
CONTINUOUS
 62
               7
100
AcDbLine
 10
94.0
 20
29.5
 30
0.0
 11
94.0
 21
22.489999999999998
 31
0.0
  0
LINE
  5
3D1
100
AcDbEntity
  8
0
  6
CONTINUOUS
 62
               7
100
AcDbLine
 10
104.5
 20
27.82
 30
0.0
 11
106.04000000000001
 21
26.93
 31
0.0
  0
LINE
  5
3D2
100
AcDbEntity
  8
0
  6
CONTINUOUS
 62
               7
100
AcDbLine
 10
102.95999999999999
 20
25.059999999999999
 30
0.0
 11
104.5
 21
24.170000000000002
 31
0.0
  0
LINE
  5
3D3
100
AcDbEntity
  8
0
  6
CONTINUOUS
 62
               7
100
AcDbLine
 10
104.5
 20
24.170000000000002
 30
0.0
 11
106.04000000000001
 21
25.059999999999999
 31
0.0
  0
LINE
  5
3D4
100
AcDbEntity
  8
0
  6
CONTINUOUS
 62
               7
100
AcDbLine
 10
102.95999999999999
 20
26.93
 30
0.0
 11
104.5
 21
27.82
 31
0.0
  0
LINE
  5
3D5
100
AcDbEntity
  8
0
  6
CONTINUOUS
 62
               7
100
AcDbLine
 10
102.95999999999999
 20
26.93
 30
0.0
 11
102.95999999999999
 21
25.059999999999999
 31
0.0
  0
LINE
  5
3D6
100
AcDbEntity
  8
0
  6
CONTINUOUS
 62
               7
100
AcDbLine
 10
106.04000000000001
 20
26.93
 30
0.0
 11
106.04000000000001
 21
25.059999999999999
 31
0.0
  0
LINE
  5
3D7
100
AcDbEntity
  8
0
  6
CONTINUOUS
 62
               7
100
AcDbLine
 10
109.0
 20
22.199999999999999
 30
0.0
 11
109.0
 21
21.100000000000001
 31
0.0
  0
LINE
  5
3D8
100
AcDbEntity
  8
0
  6
CONTINUOUS
 62
               7
100
AcDbLine
 10
100.0
 20
22.199999999999999
 30
0.0
 11
100.0
 21
21.100000000000001
 31
0.0
  0
LINE
  5
3D9
100
AcDbEntity
  8
0
  6
CONTINUOUS
 62
               7
100
AcDbLine
 10
100.0
 20
30.899999999999999
 30
0.0
 11
100.0
 21
29.800000000000001
 31
0.0
  0
LINE
  5
3DA
100
AcDbEntity
  8
0
  6
CONTINUOUS
 62
               7
100
AcDbLine
 10
109.0
 20
30.899999999999999
 30
0.0
 11
109.0
 21
29.800000000000001
 31
0.0
  0
LINE
  5
3DB
100
AcDbEntity
  8
0
  6
CONTINUOUS
 62
               7
100
AcDbLine
 10
107.0
 20
22.199999999999999
 30
0.0
 11
107.0
 21
21.100000000000001
 31
0.0
  0
LINE
  5
3DC
100
AcDbEntity
  8
0
  6
CONTINUOUS
 62
               7
100
AcDbLine
 10
102.0
 20
30.899999999999999
 30
0.0
 11
102.0
 21
29.800000000000001
 31
0.0
  0
LINE
  5
3DD
100
AcDbEntity
  8
0
  6
CONTINUOUS
 62
               7
100
AcDbLine
 10
102.0
 20
22.199999999999999
 30
0.0
 11
102.0
 21
21.100000000000001
 31
0.0
  0
LINE
  5
3DE
100
AcDbEntity
  8
0
  6
CONTINUOUS
 62
               7
100
AcDbLine
 10
107.0
 20
30.899999999999999
 30
0.0
 11
107.0
 21
29.800000000000001
 31
0.0
  0
LINE
  5
3DF
100
AcDbEntity
  8
0
  6
CONTINUOUS
 62
               7
100
AcDbLine
 10
100.0
 20
29.800000000000001
 30
0.0
 11
109.0
 21
29.800000000000001
 31
0.0
  0
LINE
  5
3E0
100
AcDbEntity
  8
0
  6
CONTINUOUS
 62
               7
100
AcDbLine
 10
100.0
 20
22.199999999999999
 30
0.0
 11
109.0
 21
22.199999999999999
 31
0.0
  0
LINE
  5
3E1
100
AcDbEntity
  8
0
  6
CONTINUOUS
 62
               7
100
AcDbLine
 10
96.099999999999994
 20
31.399999999999999
 30
0.0
 11
96.099999999999994
 21
20.600000000000001
 31
0.0
  0
LINE
  5
3E2
100
AcDbEntity
  8
0
  6
CONTINUOUS
 62
               7
100
AcDbLine
 10
100.0
 20
30.899999999999999
 30
0.0
 11
109.0
 21
30.899999999999999
 31
0.0
  0
LINE
  5
3E3
100
AcDbEntity
  8
0
  6
CONTINUOUS
 62
               7
100
AcDbLine
 10
95.890000000000001
 20
20.600000000000001
 30
0.0
 11
113.09999999999999
 21
20.600000000000001
 31
0.0
  0
LINE
  5
3E4
100
AcDbEntity
  8
0
  6
CONTINUOUS
 62
               7
100
AcDbLine
 10
94.0
 20
22.489999999999998
 30
0.0
 11
95.890000000000001
 21
20.600000000000001
 31
0.0
  0
LINE
  5
3E5
100
AcDbEntity
  8
0
  6
CONTINUOUS
 62
               7
100
AcDbLine
 10
109.5
 20
20.600000000000001
 30
0.0
 11
109.5
 21
1.0
 31
0.0
  0
LINE
  5
3E6
100
AcDbEntity
  8
0
  6
CONTINUOUS
 62
               7
100
AcDbLine
 10
109.5
 20
47.0
 30
0.0
 11
109.5
 21
31.399999999999999
 31
0.0
  0
LINE
  5
3E7
100
AcDbEntity
  8
0
  6
CONTINUOUS
 62
               7
100
AcDbLine
 10
72.0
 20
21.100000000000001
 30
0.0
 11
81.0
 21
21.100000000000001
 31
0.0
  0
LINE
  5
3E8
100
AcDbEntity
  8
0
  6
CONTINUOUS
 62
               7
100
AcDbLine
 10
85.099999999999994
 20
20.600000000000001
 30
0.0
 11
87.0
 21
22.489999999999998
 31
0.0
  0
LINE
  5
3E9
100
AcDbEntity
  8
0
  6
CONTINUOUS
 62
               7
100
AcDbLine
 10
84.900000000000006
 20
31.399999999999999
 30
0.0
 11
84.900000000000006
 21
20.600000000000001
 31
0.0
  0
LINE
  5
3EA
100
AcDbEntity
  8
0
  6
CONTINUOUS
 62
               7
100
AcDbLine
 10
85.099999999999994
 20
31.399999999999999
 30
0.0
 11
87.0
 21
29.5
 31
0.0
  0
LINE
  5
3EB
100
AcDbEntity
  8
0
  6
CONTINUOUS
 62
               7
100
AcDbLine
 10
87.0
 20
29.5
 30
0.0
 11
87.0
 21
22.489999999999998
 31
0.0
  0
LINE
  5
3EC
100
AcDbEntity
  8
0
  6
CONTINUOUS
 62
               7
100
AcDbLine
 10
67.890000000000001
 20
31.399999999999999
 30
0.0
 11
85.099999999999994
 21
31.399999999999999
 31
0.0
  0
LINE
  5
3ED
100
AcDbEntity
  8
0
  6
CONTINUOUS
 62
               7
100
AcDbLine
 10
66.0
 20
29.5
 30
0.0
 11
67.890000000000001
 21
31.399999999999999
 31
0.0
  0
LINE
  5
3EE
100
AcDbEntity
  8
0
  6
CONTINUOUS
 62
               7
100
AcDbLine
 10
66.0
 20
29.5
 30
0.0
 11
66.0
 21
22.489999999999998
 31
0.0
  0
LINE
  5
3EF
100
AcDbEntity
  8
0
  6
CONTINUOUS
 62
               7
100
AcDbLine
 10
76.5
 20
27.82
 30
0.0
 11
78.040000000000006
 21
26.93
 31
0.0
  0
LINE
  5
3F0
100
AcDbEntity
  8
0
  6
CONTINUOUS
 62
               7
100
AcDbLine
 10
74.959999999999994
 20
25.059999999999999
 30
0.0
 11
76.5
 21
24.170000000000002
 31
0.0
  0
LINE
  5
3F1
100
AcDbEntity
  8
0
  6
CONTINUOUS
 62
               7
100
AcDbLine
 10
76.5
 20
24.170000000000002
 30
0.0
 11
78.040000000000006
 21
25.059999999999999
 31
0.0
  0
LINE
  5
3F2
100
AcDbEntity
  8
0
  6
CONTINUOUS
 62
               7
100
AcDbLine
 10
74.959999999999994
 20
26.93
 30
0.0
 11
76.5
 21
27.82
 31
0.0
  0
LINE
  5
3F3
100
AcDbEntity
  8
0
  6
CONTINUOUS
 62
               7
100
AcDbLine
 10
74.959999999999994
 20
26.93
 30
0.0
 11
74.959999999999994
 21
25.059999999999999
 31
0.0
  0
LINE
  5
3F4
100
AcDbEntity
  8
0
  6
CONTINUOUS
 62
               7
100
AcDbLine
 10
78.040000000000006
 20
26.93
 30
0.0
 11
78.040000000000006
 21
25.059999999999999
 31
0.0
  0
LINE
  5
3F5
100
AcDbEntity
  8
0
  6
CONTINUOUS
 62
               7
100
AcDbLine
 10
81.0
 20
22.199999999999999
 30
0.0
 11
81.0
 21
21.100000000000001
 31
0.0
  0
LINE
  5
3F6
100
AcDbEntity
  8
0
  6
CONTINUOUS
 62
               7
100
AcDbLine
 10
72.0
 20
22.199999999999999
 30
0.0
 11
72.0
 21
21.100000000000001
 31
0.0
  0
LINE
  5
3F7
100
AcDbEntity
  8
0
  6
CONTINUOUS
 62
               7
100
AcDbLine
 10
72.0
 20
30.899999999999999
 30
0.0
 11
72.0
 21
29.800000000000001
 31
0.0
  0
LINE
  5
3F8
100
AcDbEntity
  8
0
  6
CONTINUOUS
 62
               7
100
AcDbLine
 10
81.0
 20
30.899999999999999
 30
0.0
 11
81.0
 21
29.800000000000001
 31
0.0
  0
LINE
  5
3F9
100
AcDbEntity
  8
0
  6
CONTINUOUS
 62
               7
100
AcDbLine
 10
79.0
 20
22.199999999999999
 30
0.0
 11
79.0
 21
21.100000000000001
 31
0.0
  0
LINE
  5
3FA
100
AcDbEntity
  8
0
  6
CONTINUOUS
 62
               7
100
AcDbLine
 10
74.0
 20
30.899999999999999
 30
0.0
 11
74.0
 21
29.800000000000001
 31
0.0
  0
LINE
  5
3FB
100
AcDbEntity
  8
0
  6
CONTINUOUS
 62
               7
100
AcDbLine
 10
74.0
 20
22.199999999999999
 30
0.0
 11
74.0
 21
21.100000000000001
 31
0.0
  0
LINE
  5
3FC
100
AcDbEntity
  8
0
  6
CONTINUOUS
 62
               7
100
AcDbLine
 10
79.0
 20
30.899999999999999
 30
0.0
 11
79.0
 21
29.800000000000001
 31
0.0
  0
LINE
  5
3FD
100
AcDbEntity
  8
0
  6
CONTINUOUS
 62
               7
100
AcDbLine
 10
72.0
 20
29.800000000000001
 30
0.0
 11
81.0
 21
29.800000000000001
 31
0.0
  0
LINE
  5
3FE
100
AcDbEntity
  8
0
  6
CONTINUOUS
 62
               7
100
AcDbLine
 10
72.0
 20
22.199999999999999
 30
0.0
 11
81.0
 21
22.199999999999999
 31
0.0
  0
LINE
  5
3FF
100
AcDbEntity
  8
0
  6
CONTINUOUS
 62
               7
100
AcDbLine
 10
68.099999999999994
 20
31.399999999999999
 30
0.0
 11
68.099999999999994
 21
20.600000000000001
 31
0.0
  0
LINE
  5
400
100
AcDbEntity
  8
0
  6
CONTINUOUS
 62
               7
100
AcDbLine
 10
72.0
 20
30.899999999999999
 30
0.0
 11
81.0
 21
30.899999999999999
 31
0.0
  0
LINE
  5
401
100
AcDbEntity
  8
0
  6
CONTINUOUS
 62
               7
100
AcDbLine
 10
67.890000000000001
 20
20.600000000000001
 30
0.0
 11
85.099999999999994
 21
20.600000000000001
 31
0.0
  0
LINE
  5
402
100
AcDbEntity
  8
0
  6
CONTINUOUS
 62
               7
100
AcDbLine
 10
66.0
 20
22.489999999999998
 30
0.0
 11
67.890000000000001
 21
20.600000000000001
 31
0.0
  0
LINE
  5
403
100
AcDbEntity
  8
0
  6
CONTINUOUS
 62
               7
100
AcDbLine
 10
81.5
 20
20.600000000000001
 30
0.0
 11
81.5
 21
1.0
 31
0.0
  0
LINE
  5
404
100
AcDbEntity
  8
0
  6
CONTINUOUS
 62
               7
100
AcDbLine
 10
81.5
 20
47.0
 30
0.0
 11
81.5
 21
31.399999999999999
 31
0.0
  0
LINE
  5
405
100
AcDbEntity
  8
0
  6
CONTINUOUS
 62
               7
100
AcDbLine
 10
44.0
 20
21.100000000000001
 30
0.0
 11
53.0
 21
21.100000000000001
 31
0.0
  0
LINE
  5
406
100
AcDbEntity
  8
0
  6
CONTINUOUS
 62
               7
100
AcDbLine
 10
57.100000000000001
 20
20.600000000000001
 30
0.0
 11
59.0
 21
22.489999999999998
 31
0.0
  0
LINE
  5
407
100
AcDbEntity
  8
0
  6
CONTINUOUS
 62
               7
100
AcDbLine
 10
56.899999999999999
 20
31.399999999999999
 30
0.0
 11
56.899999999999999
 21
20.600000000000001
 31
0.0
  0
LINE
  5
408
100
AcDbEntity
  8
0
  6
CONTINUOUS
 62
               7
100
AcDbLine
 10
57.100000000000001
 20
31.399999999999999
 30
0.0
 11
59.0
 21
29.5
 31
0.0
  0
LINE
  5
409
100
AcDbEntity
  8
0
  6
CONTINUOUS
 62
               7
100
AcDbLine
 10
59.0
 20
29.5
 30
0.0
 11
59.0
 21
22.489999999999998
 31
0.0
  0
LINE
  5
40A
100
AcDbEntity
  8
0
  6
CONTINUOUS
 62
               7
100
AcDbLine
 10
39.890000000000001
 20
31.399999999999999
 30
0.0
 11
57.100000000000001
 21
31.399999999999999
 31
0.0
  0
LINE
  5
40B
100
AcDbEntity
  8
0
  6
CONTINUOUS
 62
               7
100
AcDbLine
 10
38.0
 20
29.5
 30
0.0
 11
39.890000000000001
 21
31.399999999999999
 31
0.0
  0
LINE
  5
40C
100
AcDbEntity
  8
0
  6
CONTINUOUS
 62
               7
100
AcDbLine
 10
38.0
 20
29.5
 30
0.0
 11
38.0
 21
22.489999999999998
 31
0.0
  0
LINE
  5
40D
100
AcDbEntity
  8
0
  6
CONTINUOUS
 62
               7
100
AcDbLine
 10
48.5
 20
27.82
 30
0.0
 11
50.039999999999999
 21
26.93
 31
0.0
  0
LINE
  5
40E
100
AcDbEntity
  8
0
  6
CONTINUOUS
 62
               7
100
AcDbLine
 10
46.960000000000001
 20
25.059999999999999
 30
0.0
 11
48.5
 21
24.170000000000002
 31
0.0
  0
LINE
  5
40F
100
AcDbEntity
  8
0
  6
CONTINUOUS
 62
               7
100
AcDbLine
 10
48.5
 20
24.170000000000002
 30
0.0
 11
50.039999999999999
 21
25.059999999999999
 31
0.0
  0
LINE
  5
410
100
AcDbEntity
  8
0
  6
CONTINUOUS
 62
               7
100
AcDbLine
 10
46.960000000000001
 20
26.93
 30
0.0
 11
48.5
 21
27.82
 31
0.0
  0
LINE
  5
411
100
AcDbEntity
  8
0
  6
CONTINUOUS
 62
               7
100
AcDbLine
 10
46.960000000000001
 20
26.93
 30
0.0
 11
46.960000000000001
 21
25.059999999999999
 31
0.0
  0
LINE
  5
412
100
AcDbEntity
  8
0
  6
CONTINUOUS
 62
               7
100
AcDbLine
 10
50.039999999999999
 20
26.93
 30
0.0
 11
50.039999999999999
 21
25.059999999999999
 31
0.0
  0
LINE
  5
413
100
AcDbEntity
  8
0
  6
CONTINUOUS
 62
               7
100
AcDbLine
 10
53.0
 20
22.199999999999999
 30
0.0
 11
53.0
 21
21.100000000000001
 31
0.0
  0
LINE
  5
414
100
AcDbEntity
  8
0
  6
CONTINUOUS
 62
               7
100
AcDbLine
 10
44.0
 20
22.199999999999999
 30
0.0
 11
44.0
 21
21.100000000000001
 31
0.0
  0
LINE
  5
415
100
AcDbEntity
  8
0
  6
CONTINUOUS
 62
               7
100
AcDbLine
 10
44.0
 20
30.899999999999999
 30
0.0
 11
44.0
 21
29.800000000000001
 31
0.0
  0
LINE
  5
416
100
AcDbEntity
  8
0
  6
CONTINUOUS
 62
               7
100
AcDbLine
 10
53.0
 20
30.899999999999999
 30
0.0
 11
53.0
 21
29.800000000000001
 31
0.0
  0
LINE
  5
417
100
AcDbEntity
  8
0
  6
CONTINUOUS
 62
               7
100
AcDbLine
 10
51.0
 20
22.199999999999999
 30
0.0
 11
51.0
 21
21.100000000000001
 31
0.0
  0
LINE
  5
418
100
AcDbEntity
  8
0
  6
CONTINUOUS
 62
               7
100
AcDbLine
 10
46.0
 20
30.899999999999999
 30
0.0
 11
46.0
 21
29.800000000000001
 31
0.0
  0
LINE
  5
419
100
AcDbEntity
  8
0
  6
CONTINUOUS
 62
               7
100
AcDbLine
 10
46.0
 20
22.199999999999999
 30
0.0
 11
46.0
 21
21.100000000000001
 31
0.0
  0
LINE
  5
41A
100
AcDbEntity
  8
0
  6
CONTINUOUS
 62
               7
100
AcDbLine
 10
51.0
 20
30.899999999999999
 30
0.0
 11
51.0
 21
29.800000000000001
 31
0.0
  0
LINE
  5
41B
100
AcDbEntity
  8
0
  6
CONTINUOUS
 62
               7
100
AcDbLine
 10
44.0
 20
29.800000000000001
 30
0.0
 11
53.0
 21
29.800000000000001
 31
0.0
  0
LINE
  5
41C
100
AcDbEntity
  8
0
  6
CONTINUOUS
 62
               7
100
AcDbLine
 10
44.0
 20
22.199999999999999
 30
0.0
 11
53.0
 21
22.199999999999999
 31
0.0
  0
LINE
  5
41D
100
AcDbEntity
  8
0
  6
CONTINUOUS
 62
               7
100
AcDbLine
 10
40.100000000000001
 20
31.399999999999999
 30
0.0
 11
40.100000000000001
 21
20.600000000000001
 31
0.0
  0
LINE
  5
41E
100
AcDbEntity
  8
0
  6
CONTINUOUS
 62
               7
100
AcDbLine
 10
44.0
 20
30.899999999999999
 30
0.0
 11
53.0
 21
30.899999999999999
 31
0.0
  0
LINE
  5
41F
100
AcDbEntity
  8
0
  6
CONTINUOUS
 62
               7
100
AcDbLine
 10
39.890000000000001
 20
20.600000000000001
 30
0.0
 11
57.100000000000001
 21
20.600000000000001
 31
0.0
  0
LINE
  5
420
100
AcDbEntity
  8
0
  6
CONTINUOUS
 62
               7
100
AcDbLine
 10
38.0
 20
22.489999999999998
 30
0.0
 11
39.890000000000001
 21
20.600000000000001
 31
0.0
  0
LINE
  5
421
100
AcDbEntity
  8
0
  6
CONTINUOUS
 62
               7
100
AcDbLine
 10
53.5
 20
20.600000000000001
 30
0.0
 11
53.5
 21
1.0
 31
0.0
  0
LINE
  5
422
100
AcDbEntity
  8
0
  6
CONTINUOUS
 62
               7
100
AcDbLine
 10
53.5
 20
47.0
 30
0.0
 11
53.5
 21
31.399999999999999
 31
0.0
  0
LINE
  5
423
100
AcDbEntity
  8
0
  6
CENTER
 62
               2
100
AcDbLine
 10
191.0
 20
9.7699999999999996
 30
0.0
 11
191.0
 21
-4.9699999999999998
 31
0.0
  0
LINE
  5
424
100
AcDbEntity
  8
0
  6
CENTER
 62
               2
100
AcDbLine
 10
0.0
 20
9.7699999999999996
 30
0.0
 11
0.0
 21
-4.9699999999999998
 31
0.0
  0
LINE
  5
425
100
AcDbEntity
  8
0
  6
CONTINUOUS
 62
               7
100
AcDbLine
 10
128.0
 20
21.100000000000001
 30
0.0
 11
137.0
 21
21.100000000000001
 31
0.0
  0
LINE
  5
426
100
AcDbEntity
  8
0
  6
CONTINUOUS
 62
               7
100
AcDbLine
 10
141.09999999999999
 20
20.600000000000001
 30
0.0
 11
143.0
 21
22.489999999999998
 31
0.0
  0
LINE
  5
427
100
AcDbEntity
  8
0
  6
CONTINUOUS
 62
               7
100
AcDbLine
 10
140.90000000000001
 20
31.399999999999999
 30
0.0
 11
140.90000000000001
 21
20.600000000000001
 31
0.0
  0
LINE
  5
428
100
AcDbEntity
  8
0
  6
CONTINUOUS
 62
               7
100
AcDbLine
 10
141.09999999999999
 20
31.399999999999999
 30
0.0
 11
143.0
 21
29.5
 31
0.0
  0
LINE
  5
429
100
AcDbEntity
  8
0
  6
CONTINUOUS
 62
               7
100
AcDbLine
 10
143.0
 20
29.5
 30
0.0
 11
143.0
 21
22.489999999999998
 31
0.0
  0
LINE
  5
42A
100
AcDbEntity
  8
0
  6
CONTINUOUS
 62
               7
100
AcDbLine
 10
123.89
 20
31.399999999999999
 30
0.0
 11
141.09999999999999
 21
31.399999999999999
 31
0.0
  0
LINE
  5
42B
100
AcDbEntity
  8
0
  6
CONTINUOUS
 62
               7
100
AcDbLine
 10
122.0
 20
29.5
 30
0.0
 11
123.89
 21
31.399999999999999
 31
0.0
  0
LINE
  5
42C
100
AcDbEntity
  8
0
  6
CONTINUOUS
 62
               7
100
AcDbLine
 10
122.0
 20
29.5
 30
0.0
 11
122.0
 21
22.489999999999998
 31
0.0
  0
LINE
  5
42D
100
AcDbEntity
  8
0
  6
CONTINUOUS
 62
               7
100
AcDbLine
 10
132.5
 20
27.82
 30
0.0
 11
134.03999999999999
 21
26.93
 31
0.0
  0
LINE
  5
42E
100
AcDbEntity
  8
0
  6
CONTINUOUS
 62
               7
100
AcDbLine
 10
130.96000000000001
 20
25.059999999999999
 30
0.0
 11
132.5
 21
24.170000000000002
 31
0.0
  0
LINE
  5
42F
100
AcDbEntity
  8
0
  6
CONTINUOUS
 62
               7
100
AcDbLine
 10
132.5
 20
24.170000000000002
 30
0.0
 11
134.03999999999999
 21
25.059999999999999
 31
0.0
  0
LINE
  5
430
100
AcDbEntity
  8
0
  6
CONTINUOUS
 62
               7
100
AcDbLine
 10
130.96000000000001
 20
26.93
 30
0.0
 11
132.5
 21
27.82
 31
0.0
  0
LINE
  5
431
100
AcDbEntity
  8
0
  6
CONTINUOUS
 62
               7
100
AcDbLine
 10
130.96000000000001
 20
26.93
 30
0.0
 11
130.96000000000001
 21
25.059999999999999
 31
0.0
  0
LINE
  5
432
100
AcDbEntity
  8
0
  6
CONTINUOUS
 62
               7
100
AcDbLine
 10
134.03999999999999
 20
26.93
 30
0.0
 11
134.03999999999999
 21
25.059999999999999
 31
0.0
  0
LINE
  5
433
100
AcDbEntity
  8
0
  6
CONTINUOUS
 62
               7
100
AcDbLine
 10
137.0
 20
22.199999999999999
 30
0.0
 11
137.0
 21
21.100000000000001
 31
0.0
  0
LINE
  5
434
100
AcDbEntity
  8
0
  6
CONTINUOUS
 62
               7
100
AcDbLine
 10
128.0
 20
22.199999999999999
 30
0.0
 11
128.0
 21
21.100000000000001
 31
0.0
  0
LINE
  5
435
100
AcDbEntity
  8
0
  6
CONTINUOUS
 62
               7
100
AcDbLine
 10
128.0
 20
30.899999999999999
 30
0.0
 11
128.0
 21
29.800000000000001
 31
0.0
  0
LINE
  5
436
100
AcDbEntity
  8
0
  6
CONTINUOUS
 62
               7
100
AcDbLine
 10
137.0
 20
30.899999999999999
 30
0.0
 11
137.0
 21
29.800000000000001
 31
0.0
  0
LINE
  5
437
100
AcDbEntity
  8
0
  6
CONTINUOUS
 62
               7
100
AcDbLine
 10
135.0
 20
22.199999999999999
 30
0.0
 11
135.0
 21
21.100000000000001
 31
0.0
  0
LINE
  5
438
100
AcDbEntity
  8
0
  6
CONTINUOUS
 62
               7
100
AcDbLine
 10
130.0
 20
30.899999999999999
 30
0.0
 11
130.0
 21
29.800000000000001
 31
0.0
  0
LINE
  5
439
100
AcDbEntity
  8
0
  6
CONTINUOUS
 62
               7
100
AcDbLine
 10
130.0
 20
22.199999999999999
 30
0.0
 11
130.0
 21
21.100000000000001
 31
0.0
  0
LINE
  5
43A
100
AcDbEntity
  8
0
  6
CONTINUOUS
 62
               7
100
AcDbLine
 10
135.0
 20
30.899999999999999
 30
0.0
 11
135.0
 21
29.800000000000001
 31
0.0
  0
LINE
  5
43B
100
AcDbEntity
  8
0
  6
CONTINUOUS
 62
               7
100
AcDbLine
 10
128.0
 20
29.800000000000001
 30
0.0
 11
137.0
 21
29.800000000000001
 31
0.0
  0
LINE
  5
43C
100
AcDbEntity
  8
0
  6
CONTINUOUS
 62
               7
100
AcDbLine
 10
128.0
 20
22.199999999999999
 30
0.0
 11
137.0
 21
22.199999999999999
 31
0.0
  0
LINE
  5
43D
100
AcDbEntity
  8
0
  6
CONTINUOUS
 62
               7
100
AcDbLine
 10
124.09999999999999
 20
31.399999999999999
 30
0.0
 11
124.09999999999999
 21
20.600000000000001
 31
0.0
  0
LINE
  5
43E
100
AcDbEntity
  8
0
  6
CONTINUOUS
 62
               7
100
AcDbLine
 10
128.0
 20
30.899999999999999
 30
0.0
 11
137.0
 21
30.899999999999999
 31
0.0
  0
LINE
  5
43F
100
AcDbEntity
  8
0
  6
CONTINUOUS
 62
               7
100
AcDbLine
 10
123.89
 20
20.600000000000001
 30
0.0
 11
141.09999999999999
 21
20.600000000000001
 31
0.0
  0
LINE
  5
440
100
AcDbEntity
  8
0
  6
CONTINUOUS
 62
               7
100
AcDbLine
 10
122.0
 20
22.489999999999998
 30
0.0
 11
123.89
 21
20.600000000000001
 31
0.0
  0
LINE
  5
441
100
AcDbEntity
  8
0
  6
CONTINUOUS
 62
               7
100
AcDbLine
 10
25.5
 20
20.600000000000001
 30
0.0
 11
25.5
 21
1.0
 31
0.0
  0
LINE
  5
442
100
AcDbEntity
  8
0
  6
CONTINUOUS
 62
               7
100
AcDbLine
 10
29.100000000000001
 20
31.399999999999999
 30
0.0
 11
31.0
 21
29.5
 31
0.0
  0
LINE
  5
443
100
AcDbEntity
  8
0
  6
CONTINUOUS
 62
               7
100
AcDbLine
 10
31.0
 20
29.5
 30
0.0
 11
31.0
 21
22.489999999999998
 31
0.0
  0
LINE
  5
444
100
AcDbEntity
  8
0
  6
CONTINUOUS
 62
               7
100
AcDbLine
 10
29.100000000000001
 20
20.600000000000001
 30
0.0
 11
31.0
 21
22.489999999999998
 31
0.0
  0
LINE
  5
445
100
AcDbEntity
  8
0
  6
CONTINUOUS
 62
               7
100
AcDbLine
 10
28.899999999999999
 20
31.399999999999999
 30
0.0
 11
28.899999999999999
 21
20.600000000000001
 31
0.0
  0
LINE
  5
446
100
AcDbEntity
  8
0
  6
CONTINUOUS
 62
               7
100
AcDbLine
 10
25.5
 20
1.5
 30
0.0
 11
53.5
 21
1.5
 31
0.0
  0
LINE
  5
447
100
AcDbEntity
  8
0
  6
CONTINUOUS
 62
               7
100
AcDbLine
 10
25.5
 20
1.0
 30
0.0
 11
53.5
 21
1.0
 31
0.0
  0
LINE
  5
448
100
AcDbEntity
  8
0
  6
CENTER
 62
               2
100
AcDbLine
 10
38.5
 20
20.609999999999999
 30
0.0
 11
38.5
 21
4.7199999999999998
 31
0.0
  0
LINE
  5
449
100
AcDbEntity
  8
0
  6
CENTER
 62
               2
100
AcDbLine
 10
30.960000000000001
 20
12.5
 30
0.0
 11
46.189999999999998
 21
12.5
 31
0.0
  0
LINE
  5
44A
100
AcDbEntity
  8
0
  6
CENTER
 62
               2
100
AcDbLine
 10
35.5
 20
45.969999999999999
 30
0.0
 11
35.5
 21
29.800000000000001
 31
0.0
  0
LINE
  5
44B
100
AcDbEntity
  8
0
  6
CENTER
 62
               2
100
AcDbLine
 10
27.879999999999999
 20
38.5
 30
0.0
 11
44.509999999999998
 21
38.5
 31
0.0
  0
LINE
  5
44C
100
AcDbEntity
  8
0
  6
CONTINUOUS
 62
               7
100
AcDbLine
 10
25.5
 20
46.0
 30
0.0
 11
53.5
 21
46.0
 31
0.0
  0
LINE
  5
44D
100
AcDbEntity
  8
0
  6
CONTINUOUS
 62
               7
100
AcDbLine
 10
25.5
 20
47.0
 30
0.0
 11
25.5
 21
31.399999999999999
 31
0.0
  0
LINE
  5
44E
100
AcDbEntity
  8
0
  6
CONTINUOUS
 62
               7
100
AcDbLine
 10
137.5
 20
20.600000000000001
 30
0.0
 11
137.5
 21
1.0
 31
0.0
  0
LINE
  5
44F
100
AcDbEntity
  8
0
  6
CONTINUOUS
 62
               7
100
AcDbLine
 10
53.5
 20
1.5
 30
0.0
 11
81.5
 21
1.5
 31
0.0
  0
LINE
  5
450
100
AcDbEntity
  8
0
  6
CONTINUOUS
 62
               7
100
AcDbLine
 10
53.5
 20
1.0
 30
0.0
 11
81.5
 21
1.0
 31
0.0
  0
LINE
  5
451
100
AcDbEntity
  8
0
  6
CENTER
 62
               2
100
AcDbLine
 10
66.5
 20
20.609999999999999
 30
0.0
 11
66.5
 21
4.7199999999999998
 31
0.0
  0
LINE
  5
452
100
AcDbEntity
  8
0
  6
CENTER
 62
               2
100
AcDbLine
 10
58.960000000000001
 20
12.5
 30
0.0
 11
74.189999999999998
 21
12.5
 31
0.0
  0
LINE
  5
453
100
AcDbEntity
  8
0
  6
CENTER
 62
               2
100
AcDbLine
 10
63.5
 20
45.969999999999999
 30
0.0
 11
63.5
 21
29.800000000000001
 31
0.0
  0
LINE
  5
454
100
AcDbEntity
  8
0
  6
CENTER
 62
               2
100
AcDbLine
 10
55.880000000000003
 20
38.5
 30
0.0
 11
72.510000000000005
 21
38.5
 31
0.0
  0
LINE
  5
455
100
AcDbEntity
  8
0
  6
CONTINUOUS
 62
               7
100
AcDbLine
 10
53.5
 20
46.0
 30
0.0
 11
81.5
 21
46.0
 31
0.0
  0
LINE
  5
456
100
AcDbEntity
  8
0
  6
CONTINUOUS
 62
               7
100
AcDbLine
 10
137.5
 20
47.0
 30
0.0
 11
137.5
 21
31.399999999999999
 31
0.0
  0
LINE
  5
457
100
AcDbEntity
  8
0
  6
CONTINUOUS
 62
               7
100
AcDbLine
 10
150.0
 20
22.489999999999998
 30
0.0
 11
151.88999999999999
 21
20.600000000000001
 31
0.0
  0
LINE
  5
458
100
AcDbEntity
  8
0
  6
CONTINUOUS
 62
               7
100
AcDbLine
 10
151.88999999999999
 20
20.600000000000001
 30
0.0
 11
171.0
 21
20.600000000000001
 31
0.0
  0
LINE
  5
459
100
AcDbEntity
  8
0
  6
CONTINUOUS
 62
               7
100
AcDbLine
 10
151.88999999999999
 20
31.399999999999999
 30
0.0
 11
171.0
 21
31.399999999999999
 31
0.0
  0
LINE
  5
45A
100
AcDbEntity
  8
0
  6
CONTINUOUS
 62
               7
100
AcDbLine
 10
150.0
 20
29.5
 30
0.0
 11
151.88999999999999
 21
31.399999999999999
 31
0.0
  0
LINE
  5
45B
100
AcDbEntity
  8
0
  6
CONTINUOUS
 62
               7
100
AcDbLine
 10
150.0
 20
29.5
 30
0.0
 11
150.0
 21
22.489999999999998
 31
0.0
  0
LINE
  5
45C
100
AcDbEntity
  8
0
  6
CONTINUOUS
 62
               7
100
AcDbLine
 10
160.5
 20
27.82
 30
0.0
 11
162.03999999999999
 21
26.93
 31
0.0
  0
LINE
  5
45D
100
AcDbEntity
  8
0
  6
CONTINUOUS
 62
               7
100
AcDbLine
 10
158.96000000000001
 20
25.059999999999999
 30
0.0
 11
160.5
 21
24.170000000000002
 31
0.0
  0
LINE
  5
45E
100
AcDbEntity
  8
0
  6
CONTINUOUS
 62
               7
100
AcDbLine
 10
160.5
 20
24.170000000000002
 30
0.0
 11
162.03999999999999
 21
25.059999999999999
 31
0.0
  0
LINE
  5
45F
100
AcDbEntity
  8
0
  6
CONTINUOUS
 62
               7
100
AcDbLine
 10
158.96000000000001
 20
26.93
 30
0.0
 11
160.5
 21
27.82
 31
0.0
  0
LINE
  5
460
100
AcDbEntity
  8
0
  6
CONTINUOUS
 62
               7
100
AcDbLine
 10
158.96000000000001
 20
26.93
 30
0.0
 11
158.96000000000001
 21
25.059999999999999
 31
0.0
  0
LINE
  5
461
100
AcDbEntity
  8
0
  6
CONTINUOUS
 62
               7
100
AcDbLine
 10
162.03999999999999
 20
26.93
 30
0.0
 11
162.03999999999999
 21
25.059999999999999
 31
0.0
  0
LINE
  5
462
100
AcDbEntity
  8
0
  6
CONTINUOUS
 62
               7
100
AcDbLine
 10
165.0
 20
22.199999999999999
 30
0.0
 11
165.0
 21
21.100000000000001
 31
0.0
  0
LINE
  5
463
100
AcDbEntity
  8
0
  6
CONTINUOUS
 62
               7
100
AcDbLine
 10
156.0
 20
22.199999999999999
 30
0.0
 11
156.0
 21
21.100000000000001
 31
0.0
  0
LINE
  5
464
100
AcDbEntity
  8
0
  6
CONTINUOUS
 62
               7
100
AcDbLine
 10
156.0
 20
30.899999999999999
 30
0.0
 11
156.0
 21
29.800000000000001
 31
0.0
  0
LINE
  5
465
100
AcDbEntity
  8
0
  6
CONTINUOUS
 62
               7
100
AcDbLine
 10
165.0
 20
30.899999999999999
 30
0.0
 11
165.0
 21
29.800000000000001
 31
0.0
  0
LINE
  5
466
100
AcDbEntity
  8
0
  6
CONTINUOUS
 62
               7
100
AcDbLine
 10
163.0
 20
22.199999999999999
 30
0.0
 11
163.0
 21
21.100000000000001
 31
0.0
  0
LINE
  5
467
100
AcDbEntity
  8
0
  6
CONTINUOUS
 62
               7
100
AcDbLine
 10
158.0
 20
30.899999999999999
 30
0.0
 11
158.0
 21
29.800000000000001
 31
0.0
  0
LINE
  5
468
100
AcDbEntity
  8
0
  6
CONTINUOUS
 62
               7
100
AcDbLine
 10
158.0
 20
22.199999999999999
 30
0.0
 11
158.0
 21
21.100000000000001
 31
0.0
  0
LINE
  5
469
100
AcDbEntity
  8
0
  6
CONTINUOUS
 62
               7
100
AcDbLine
 10
163.0
 20
30.899999999999999
 30
0.0
 11
163.0
 21
29.800000000000001
 31
0.0
  0
LINE
  5
46A
100
AcDbEntity
  8
0
  6
CONTINUOUS
 62
               7
100
AcDbLine
 10
156.0
 20
29.800000000000001
 30
0.0
 11
165.0
 21
29.800000000000001
 31
0.0
  0
LINE
  5
46B
100
AcDbEntity
  8
0
  6
CONTINUOUS
 62
               7
100
AcDbLine
 10
156.0
 20
22.199999999999999
 30
0.0
 11
165.0
 21
22.199999999999999
 31
0.0
  0
LINE
  5
46C
100
AcDbEntity
  8
0
  6
CONTINUOUS
 62
               7
100
AcDbLine
 10
152.09999999999999
 20
31.399999999999999
 30
0.0
 11
152.09999999999999
 21
20.600000000000001
 31
0.0
  0
LINE
  5
46D
100
AcDbEntity
  8
0
  6
CONTINUOUS
 62
               7
100
AcDbLine
 10
156.0
 20
30.899999999999999
 30
0.0
 11
165.0
 21
30.899999999999999
 31
0.0
  0
LINE
  5
46E
100
AcDbEntity
  8
0
  6
CONTINUOUS
 62
               7
100
AcDbLine
 10
156.0
 20
21.100000000000001
 30
0.0
 11
165.0
 21
21.100000000000001
 31
0.0
  0
LINE
  5
46F
100
AcDbEntity
  8
0
  6
CONTINUOUS
 62
               7
100
AcDbLine
 10
137.5
 20
1.5
 30
0.0
 11
165.5
 21
1.5
 31
0.0
  0
LINE
  5
470
100
AcDbEntity
  8
0
  6
CONTINUOUS
 62
               7
100
AcDbLine
 10
137.5
 20
1.0
 30
0.0
 11
165.5
 21
1.0
 31
0.0
  0
LINE
  5
471
100
AcDbEntity
  8
0
  6
CENTER
 62
               2
100
AcDbLine
 10
150.5
 20
20.609999999999999
 30
0.0
 11
150.5
 21
4.7199999999999998
 31
0.0
  0
LINE
  5
472
100
AcDbEntity
  8
0
  6
CENTER
 62
               2
100
AcDbLine
 10
142.96000000000001
 20
12.5
 30
0.0
 11
158.19
 21
12.5
 31
0.0
  0
LINE
  5
473
100
AcDbEntity
  8
0
  6
CENTER
 62
               2
100
AcDbLine
 10
147.5
 20
45.969999999999999
 30
0.0
 11
147.5
 21
29.800000000000001
 31
0.0
  0
LINE
  5
474
100
AcDbEntity
  8
0
  6
CENTER
 62
               2
100
AcDbLine
 10
139.88
 20
38.5
 30
0.0
 11
156.50999999999999
 21
38.5
 31
0.0
  0
LINE
  5
475
100
AcDbEntity
  8
0
  6
CONTINUOUS
 62
               7
100
AcDbLine
 10
137.5
 20
46.0
 30
0.0
 11
165.5
 21
46.0
 31
0.0
  0
LINE
  5
476
100
AcDbEntity
  8
0
  6
CONTINUOUS
 62
               7
100
AcDbLine
 10
109.5
 20
1.5
 30
0.0
 11
137.5
 21
1.5
 31
0.0
  0
LINE
  5
477
100
AcDbEntity
  8
0
  6
CONTINUOUS
 62
               7
100
AcDbLine
 10
109.5
 20
1.0
 30
0.0
 11
137.5
 21
1.0
 31
0.0
  0
LINE
  5
478
100
AcDbEntity
  8
0
  6
CENTER
 62
               2
100
AcDbLine
 10
122.5
 20
20.609999999999999
 30
0.0
 11
122.5
 21
4.7199999999999998
 31
0.0
  0
LINE
  5
479
100
AcDbEntity
  8
0
  6
CENTER
 62
               2
100
AcDbLine
 10
114.95999999999999
 20
12.5
 30
0.0
 11
130.19
 21
12.5
 31
0.0
  0
LINE
  5
47A
100
AcDbEntity
  8
0
  6
CENTER
 62
               2
100
AcDbLine
 10
119.5
 20
45.969999999999999
 30
0.0
 11
119.5
 21
29.800000000000001
 31
0.0
  0
LINE
  5
47B
100
AcDbEntity
  8
0
  6
CENTER
 62
               2
100
AcDbLine
 10
111.88
 20
38.5
 30
0.0
 11
128.50999999999999
 21
38.5
 31
0.0
  0
LINE
  5
47C
100
AcDbEntity
  8
0
  6
CONTINUOUS
 62
               7
100
AcDbLine
 10
109.5
 20
46.0
 30
0.0
 11
137.5
 21
46.0
 31
0.0
  0
LINE
  5
47D
100
AcDbEntity
  8
0
  6
CONTINUOUS
 62
               7
100
AcDbLine
 10
81.5
 20
1.5
 30
0.0
 11
109.5
 21
1.5
 31
0.0
  0
LINE
  5
47E
100
AcDbEntity
  8
0
  6
CONTINUOUS
 62
               7
100
AcDbLine
 10
81.5
 20
1.0
 30
0.0
 11
109.5
 21
1.0
 31
0.0
  0
LINE
  5
47F
100
AcDbEntity
  8
0
  6
CENTER
 62
               2
100
AcDbLine
 10
94.5
 20
20.609999999999999
 30
0.0
 11
94.5
 21
4.7199999999999998
 31
0.0
  0
LINE
  5
480
100
AcDbEntity
  8
0
  6
CENTER
 62
               2
100
AcDbLine
 10
86.959999999999994
 20
12.5
 30
0.0
 11
102.19
 21
12.5
 31
0.0
  0
LINE
  5
481
100
AcDbEntity
  8
0
  6
CENTER
 62
               2
100
AcDbLine
 10
91.5
 20
45.969999999999999
 30
0.0
 11
91.5
 21
29.800000000000001
 31
0.0
  0
LINE
  5
482
100
AcDbEntity
  8
0
  6
CENTER
 62
               2
100
AcDbLine
 10
83.879999999999995
 20
38.5
 30
0.0
 11
100.51000000000001
 21
38.5
 31
0.0
  0
LINE
  5
483
100
AcDbEntity
  8
0
  6
CONTINUOUS
 62
               7
100
AcDbLine
 10
81.5
 20
46.0
 30
0.0
 11
109.5
 21
46.0
 31
0.0
  0
LINE
  5
484
100
AcDbEntity
  8
0
  6
CONTINUOUS
 62
               7
100
AcDbLine
 10
171.0
 20
31.399999999999999
 30
0.0
 11
171.0
 21
20.600000000000001
 31
0.0
  0
LINE
  5
485
100
AcDbEntity
  8
0
  6
CONTINUOUS
 62
               7
100
AcDbLine
 10
168.90000000000001
 20
31.399999999999999
 30
0.0
 11
168.90000000000001
 21
20.600000000000001
 31
0.0
  0
LINE
  5
486
100
AcDbEntity
  8
0
  6
CONTINUOUS
 62
               7
100
AcDbLine
 10
165.5
 20
20.600000000000001
 30
0.0
 11
165.5
 21
1.0
 31
0.0
  0
LINE
  5
487
100
AcDbEntity
  8
0
  6
CONTINUOUS
 62
               7
100
AcDbLine
 10
194.0
 20
5.0
 30
0.0
 11
186.5
 21
5.0
 31
0.0
  0
LINE
  5
488
100
AcDbEntity
  8
0
  6
CONTINUOUS
 62
               7
100
AcDbLine
 10
196.0
 20
3.0
 30
0.0
 11
196.0
 21
0.0
 31
0.0
  0
LINE
  5
489
100
AcDbEntity
  8
0
  6
CONTINUOUS
 62
               7
100
AcDbLine
 10
196.0
 20
0.0
 30
0.0
 11
167.5
 21
0.0
 31
0.0
  0
LINE
  5
48A
100
AcDbEntity
  8
0
  6
CONTINUOUS
 62
               7
100
AcDbLine
 10
167.5
 20
1.0
 30
0.0
 11
167.5
 21
0.0
 31
0.0
  0
LINE
  5
48B
100
AcDbEntity
  8
0
  6
CONTINUOUS
 62
               7
100
AcDbLine
 10
183.5
 20
45.0
 30
0.0
 11
183.5
 21
8.0
 31
0.0
  0
LINE
  5
48C
100
AcDbEntity
  8
0
  6
CONTINUOUS
 62
               7
100
AcDbLine
 10
167.5
 20
1.0
 30
0.0
 11
165.5
 21
1.0
 31
0.0
  0
LINE
  5
48D
100
AcDbEntity
  8
0
  6
CONTINUOUS
 62
               7
100
AcDbLine
 10
183.5
 20
46.0
 30
0.0
 11
165.5
 21
46.0
 31
0.0
  0
LINE
  5
48E
100
AcDbEntity
  8
0
  6
CONTINUOUS
 62
               7
100
AcDbLine
 10
165.5
 20
47.0
 30
0.0
 11
165.5
 21
31.399999999999999
 31
0.0
  0
LINE
  5
48F
100
AcDbEntity
  8
0
  6
CONTINUOUS
 62
               7
100
AcDbLine
 10
10.0
 20
31.399999999999999
 30
0.0
 11
29.100000000000001
 21
31.399999999999999
 31
0.0
  0
LINE
  5
490
100
AcDbEntity
  8
0
  6
CONTINUOUS
 62
               7
100
AcDbLine
 10
10.0
 20
20.600000000000001
 30
0.0
 11
29.100000000000001
 21
20.600000000000001
 31
0.0
  0
LINE
  5
491
100
AcDbEntity
  8
0
  6
CONTINUOUS
 62
               7
100
AcDbLine
 10
10.0
 20
31.399999999999999
 30
0.0
 11
10.0
 21
20.600000000000001
 31
0.0
  0
LINE
  5
492
100
AcDbEntity
  8
0
  6
CONTINUOUS
 62
               7
100
AcDbLine
 10
20.5
 20
27.82
 30
0.0
 11
22.039999999999999
 21
26.93
 31
0.0
  0
LINE
  5
493
100
AcDbEntity
  8
0
  6
CONTINUOUS
 62
               7
100
AcDbLine
 10
18.960000000000001
 20
25.059999999999999
 30
0.0
 11
20.5
 21
24.170000000000002
 31
0.0
  0
LINE
  5
494
100
AcDbEntity
  8
0
  6
CONTINUOUS
 62
               7
100
AcDbLine
 10
20.5
 20
24.170000000000002
 30
0.0
 11
22.039999999999999
 21
25.059999999999999
 31
0.0
  0
LINE
  5
495
100
AcDbEntity
  8
0
  6
CONTINUOUS
 62
               7
100
AcDbLine
 10
18.960000000000001
 20
26.93
 30
0.0
 11
20.5
 21
27.82
 31
0.0
  0
LINE
  5
496
100
AcDbEntity
  8
0
  6
CONTINUOUS
 62
               7
100
AcDbLine
 10
18.960000000000001
 20
26.93
 30
0.0
 11
18.960000000000001
 21
25.059999999999999
 31
0.0
  0
LINE
  5
497
100
AcDbEntity
  8
0
  6
CONTINUOUS
 62
               7
100
AcDbLine
 10
22.039999999999999
 20
26.93
 30
0.0
 11
22.039999999999999
 21
25.059999999999999
 31
0.0
  0
LINE
  5
498
100
AcDbEntity
  8
0
  6
CONTINUOUS
 62
               7
100
AcDbLine
 10
25.0
 20
22.199999999999999
 30
0.0
 11
25.0
 21
21.100000000000001
 31
0.0
  0
LINE
  5
499
100
AcDbEntity
  8
0
  6
CONTINUOUS
 62
               7
100
AcDbLine
 10
16.0
 20
22.199999999999999
 30
0.0
 11
16.0
 21
21.100000000000001
 31
0.0
  0
LINE
  5
49A
100
AcDbEntity
  8
0
  6
CONTINUOUS
 62
               7
100
AcDbLine
 10
16.0
 20
30.899999999999999
 30
0.0
 11
16.0
 21
29.800000000000001
 31
0.0
  0
LINE
  5
49B
100
AcDbEntity
  8
0
  6
CONTINUOUS
 62
               7
100
AcDbLine
 10
25.0
 20
30.899999999999999
 30
0.0
 11
25.0
 21
29.800000000000001
 31
0.0
  0
LINE
  5
49C
100
AcDbEntity
  8
0
  6
CONTINUOUS
 62
               7
100
AcDbLine
 10
23.0
 20
22.199999999999999
 30
0.0
 11
23.0
 21
21.100000000000001
 31
0.0
  0
LINE
  5
49D
100
AcDbEntity
  8
0
  6
CONTINUOUS
 62
               7
100
AcDbLine
 10
18.0
 20
30.899999999999999
 30
0.0
 11
18.0
 21
29.800000000000001
 31
0.0
  0
LINE
  5
49E
100
AcDbEntity
  8
0
  6
CONTINUOUS
 62
               7
100
AcDbLine
 10
18.0
 20
22.199999999999999
 30
0.0
 11
18.0
 21
21.100000000000001
 31
0.0
  0
LINE
  5
49F
100
AcDbEntity
  8
0
  6
CONTINUOUS
 62
               7
100
AcDbLine
 10
23.0
 20
30.899999999999999
 30
0.0
 11
23.0
 21
29.800000000000001
 31
0.0
  0
LINE
  5
4A0
100
AcDbEntity
  8
0
  6
CONTINUOUS
 62
               7
100
AcDbLine
 10
16.0
 20
29.800000000000001
 30
0.0
 11
25.0
 21
29.800000000000001
 31
0.0
  0
LINE
  5
4A1
100
AcDbEntity
  8
0
  6
CONTINUOUS
 62
               7
100
AcDbLine
 10
16.0
 20
22.199999999999999
 30
0.0
 11
25.0
 21
22.199999999999999
 31
0.0
  0
LINE
  5
4A2
100
AcDbEntity
  8
0
  6
CONTINUOUS
 62
               7
100
AcDbLine
 10
12.1
 20
31.399999999999999
 30
0.0
 11
12.1
 21
20.600000000000001
 31
0.0
  0
LINE
  5
4A3
100
AcDbEntity
  8
0
  6
CONTINUOUS
 62
               7
100
AcDbLine
 10
16.0
 20
30.899999999999999
 30
0.0
 11
25.0
 21
30.899999999999999
 31
0.0
  0
LINE
  5
4A4
100
AcDbEntity
  8
0
  6
CONTINUOUS
 62
               7
100
AcDbLine
 10
16.0
 20
21.100000000000001
 30
0.0
 11
25.0
 21
21.100000000000001
 31
0.0
  0
LINE
  5
4A5
100
AcDbEntity
  8
0
  6
CONTINUOUS
 62
               7
100
AcDbLine
 10
-3.0
 20
5.0
 30
0.0
 11
4.5
 21
5.0
 31
0.0
  0
LINE
  5
4A6
100
AcDbEntity
  8
0
  6
CONTINUOUS
 62
               7
100
AcDbLine
 10
-5.0
 20
3.0
 30
0.0
 11
-5.0
 21
0.0
 31
0.0
  0
LINE
  5
4A7
100
AcDbEntity
  8
0
  6
CONTINUOUS
 62
               7
100
AcDbLine
 10
-5.0
 20
0.0
 30
0.0
 11
23.5
 21
0.0
 31
0.0
  0
LINE
  5
4A8
100
AcDbEntity
  8
0
  6
CONTINUOUS
 62
               7
100
AcDbLine
 10
23.5
 20
1.0
 30
0.0
 11
23.5
 21
0.0
 31
0.0
  0
LINE
  5
4A9
100
AcDbEntity
  8
0
  6
CONTINUOUS
 62
               7
100
AcDbLine
 10
7.5
 20
45.0
 30
0.0
 11
7.5
 21
8.0
 31
0.0
  0
LINE
  5
4AA
100
AcDbEntity
  8
0
  6
CONTINUOUS
 62
               7
100
AcDbLine
 10
23.5
 20
1.0
 30
0.0
 11
25.5
 21
1.0
 31
0.0
  0
LINE
  5
4AB
100
AcDbEntity
  8
0
  6
CONTINUOUS
 62
               7
100
AcDbLine
 10
7.7599999999999998
 20
46.0
 30
0.0
 11
25.5
 21
46.0
 31
0.0
  0
LINE
  5
4AC
100
AcDbEntity
  8
0
  6
CONTINUOUS
 62
               7
100
AcDbLine
 10
51.5
 20
47.5
 30
0.0
 11
51.5
 21
47.0
 31
0.0
  0
LINE
  5
4AD
100
AcDbEntity
  8
0
  6
CONTINUOUS
 62
               7
100
AcDbLine
 10
27.5
 20
47.5
 30
0.0
 11
27.5
 21
47.0
 31
0.0
  0
LINE
  5
4AE
100
AcDbEntity
  8
0
  6
CONTINUOUS
 62
               7
100
AcDbLine
 10
27.5
 20
47.5
 30
0.0
 11
51.5
 21
47.5
 31
0.0
  0
LINE
  5
4AF
100
AcDbEntity
  8
0
  6
CONTINUOUS
 62
               7
100
AcDbLine
 10
79.5
 20
47.5
 30
0.0
 11
79.5
 21
47.0
 31
0.0
  0
LINE
  5
4B0
100
AcDbEntity
  8
0
  6
CONTINUOUS
 62
               7
100
AcDbLine
 10
55.5
 20
47.5
 30
0.0
 11
55.5
 21
47.0
 31
0.0
  0
LINE
  5
4B1
100
AcDbEntity
  8
0
  6
CONTINUOUS
 62
               7
100
AcDbLine
 10
55.5
 20
47.5
 30
0.0
 11
79.5
 21
47.5
 31
0.0
  0
LINE
  5
4B2
100
AcDbEntity
  8
0
  6
CONTINUOUS
 62
               7
100
AcDbLine
 10
135.5
 20
47.5
 30
0.0
 11
135.5
 21
47.0
 31
0.0
  0
LINE
  5
4B3
100
AcDbEntity
  8
0
  6
CONTINUOUS
 62
               7
100
AcDbLine
 10
111.5
 20
47.5
 30
0.0
 11
111.5
 21
47.0
 31
0.0
  0
LINE
  5
4B4
100
AcDbEntity
  8
0
  6
CONTINUOUS
 62
               7
100
AcDbLine
 10
111.5
 20
47.5
 30
0.0
 11
135.5
 21
47.5
 31
0.0
  0
LINE
  5
4B5
100
AcDbEntity
  8
0
  6
CONTINUOUS
 62
               7
100
AcDbLine
 10
107.5
 20
47.5
 30
0.0
 11
107.5
 21
47.0
 31
0.0
  0
LINE
  5
4B6
100
AcDbEntity
  8
0
  6
CONTINUOUS
 62
               7
100
AcDbLine
 10
83.5
 20
47.5
 30
0.0
 11
83.5
 21
47.0
 31
0.0
  0
LINE
  5
4B7
100
AcDbEntity
  8
0
  6
CONTINUOUS
 62
               7
100
AcDbLine
 10
83.5
 20
47.5
 30
0.0
 11
107.5
 21
47.5
 31
0.0
  0
LINE
  5
4B8
100
AcDbEntity
  8
0
  6
CENTER
 62
               2
100
AcDbLine
 10
123.5
 20
92.269999999999996
 30
0.0
 11
123.5
 21
44.979999999999997
 31
0.0
  0
LINE
  5
4B9
100
AcDbEntity
  8
0
  6
CENTER
 62
               2
100
AcDbLine
 10
95.5
 20
92.269999999999996
 30
0.0
 11
95.5
 21
44.979999999999997
 31
0.0
  0
LINE
  5
4BA
100
AcDbEntity
  8
0
  6
CONTINUOUS
 62
               7
100
AcDbLine
 10
79.0
 20
48.5
 30
0.0
 11
79.0
 21
47.5
 31
0.0
  0
LINE
  5
4BB
100
AcDbEntity
  8
0
  6
CONTINUOUS
 62
               7
100
AcDbLine
 10
56.0
 20
48.5
 30
0.0
 11
56.0
 21
47.5
 31
0.0
  0
LINE
  5
4BC
100
AcDbEntity
  8
0
  6
CONTINUOUS
 62
               7
100
AcDbLine
 10
79.0
 20
85.5
 30
0.0
 11
79.0
 21
48.5
 31
0.0
  0
LINE
  5
4BD
100
AcDbEntity
  8
0
  6
CONTINUOUS
 62
               7
100
AcDbLine
 10
56.0
 20
85.5
 30
0.0
 11
56.0
 21
48.5
 31
0.0
  0
LINE
  5
4BE
100
AcDbEntity
  8
0
  6
CENTER
 62
               2
100
AcDbLine
 10
60.5
 20
82.5
 30
0.0
 11
60.5
 21
72.5
 31
0.0
  0
LINE
  5
4BF
100
AcDbEntity
  8
0
  6
CENTER
 62
               2
100
AcDbLine
 10
74.5
 20
59.5
 30
0.0
 11
74.5
 21
49.5
 31
0.0
  0
LINE
  5
4C0
100
AcDbEntity
  8
0
  6
CENTER
 62
               2
100
AcDbLine
 10
69.5
 20
54.5
 30
0.0
 11
79.5
 21
54.5
 31
0.0
  0
LINE
  5
4C1
100
AcDbEntity
  8
0
  6
CENTER
 62
               2
100
AcDbLine
 10
55.5
 20
77.5
 30
0.0
 11
65.5
 21
77.5
 31
0.0
  0
LINE
  5
4C2
100
AcDbEntity
  8
0
  6
CONTINUOUS
 62
               7
100
AcDbLine
 10
74.329999999999998
 20
77.159999999999997
 30
0.0
 11
76.530000000000001
 21
74.959999999999994
 31
0.0
  0
LINE
  5
4C3
100
AcDbEntity
  8
0
  6
CONTINUOUS
 62
               7
100
AcDbLine
 10
74.409999999999997
 20
74.909999999999997
 30
0.0
 11
76.459999999999994
 21
76.959999999999994
 31
0.0
  0
LINE
  5
4C4
100
AcDbEntity
  8
0
  6
CONTINUOUS
 62
               7
100
AcDbLine
 10
58.329999999999998
 20
57.159999999999997
 30
0.0
 11
60.530000000000001
 21
54.960000000000001
 31
0.0
  0
LINE
  5
4C5
100
AcDbEntity
  8
0
  6
CONTINUOUS
 62
               7
100
AcDbLine
 10
58.409999999999997
 20
54.909999999999997
 30
0.0
 11
60.460000000000001
 21
56.960000000000001
 31
0.0
  0
LINE
  5
4C6
100
AcDbEntity
  8
0
  6
CONTINUOUS
 62
               7
100
AcDbLine
 10
56.0
 20
85.5
 30
0.0
 11
57.5
 21
87.0
 31
0.0
  0
LINE
  5
4C7
100
AcDbEntity
  8
0
  6
CONTINUOUS
 62
               7
100
AcDbLine
 10
77.5
 20
87.0
 30
0.0
 11
79.0
 21
85.5
 31
0.0
  0
LINE
  5
4C8
100
AcDbEntity
  8
0
  6
CONTINUOUS
 62
               7
100
AcDbLine
 10
56.0
 20
85.5
 30
0.0
 11
79.0
 21
85.5
 31
0.0
  0
LINE
  5
4C9
100
AcDbEntity
  8
0
  6
CONTINUOUS
 62
               7
100
AcDbLine
 10
57.5
 20
87.0
 30
0.0
 11
77.5
 21
87.0
 31
0.0
  0
LINE
  5
4CA
100
AcDbEntity
  8
0
  6
CONTINUOUS
 62
               7
100
AcDbLine
 10
56.0
 20
53.0
 30
0.0
 11
59.5
 21
53.0
 31
0.0
  0
LINE
  5
4CB
100
AcDbEntity
  8
0
  6
CONTINUOUS
 62
               7
100
AcDbLine
 10
56.0
 20
59.0
 30
0.0
 11
59.5
 21
59.0
 31
0.0
  0
LINE
  5
4CC
100
AcDbEntity
  8
0
  6
CONTINUOUS
 62
               7
100
AcDbLine
 10
75.5
 20
73.0
 30
0.0
 11
79.0
 21
73.0
 31
0.0
  0
LINE
  5
4CD
100
AcDbEntity
  8
0
  6
CONTINUOUS
 62
               7
100
AcDbLine
 10
75.5
 20
79.0
 30
0.0
 11
79.0
 21
79.0
 31
0.0
  0
LINE
  5
4CE
100
AcDbEntity
  8
0
  6
CONTINUOUS
 62
               7
100
AcDbLine
 10
56.0
 20
48.5
 30
0.0
 11
79.0
 21
48.5
 31
0.0
  0
LINE
  5
4CF
100
AcDbEntity
  8
0
  6
CONTINUOUS
 62
               7
100
AcDbLine
 10
56.0
 20
83.5
 30
0.0
 11
79.0
 21
83.5
 31
0.0
  0
LINE
  5
4D0
100
AcDbEntity
  8
0
  6
CONTINUOUS
 62
               7
100
AcDbLine
 10
51.0
 20
48.5
 30
0.0
 11
51.0
 21
47.5
 31
0.0
  0
LINE
  5
4D1
100
AcDbEntity
  8
0
  6
CONTINUOUS
 62
               7
100
AcDbLine
 10
28.0
 20
48.5
 30
0.0
 11
28.0
 21
47.5
 31
0.0
  0
LINE
  5
4D2
100
AcDbEntity
  8
0
  6
CONTINUOUS
 62
               7
100
AcDbLine
 10
51.0
 20
85.5
 30
0.0
 11
51.0
 21
48.5
 31
0.0
  0
LINE
  5
4D3
100
AcDbEntity
  8
0
  6
CONTINUOUS
 62
               7
100
AcDbLine
 10
28.0
 20
85.5
 30
0.0
 11
28.0
 21
48.5
 31
0.0
  0
LINE
  5
4D4
100
AcDbEntity
  8
0
  6
CENTER
 62
               2
100
AcDbLine
 10
32.5
 20
82.5
 30
0.0
 11
32.5
 21
72.5
 31
0.0
  0
LINE
  5
4D5
100
AcDbEntity
  8
0
  6
CENTER
 62
               2
100
AcDbLine
 10
46.5
 20
59.5
 30
0.0
 11
46.5
 21
49.5
 31
0.0
  0
LINE
  5
4D6
100
AcDbEntity
  8
0
  6
CENTER
 62
               2
100
AcDbLine
 10
41.5
 20
54.5
 30
0.0
 11
51.5
 21
54.5
 31
0.0
  0
LINE
  5
4D7
100
AcDbEntity
  8
0
  6
CENTER
 62
               2
100
AcDbLine
 10
27.5
 20
77.5
 30
0.0
 11
37.5
 21
77.5
 31
0.0
  0
LINE
  5
4D8
100
AcDbEntity
  8
0
  6
CONTINUOUS
 62
               7
100
AcDbLine
 10
46.329999999999998
 20
77.159999999999997
 30
0.0
 11
48.530000000000001
 21
74.959999999999994
 31
0.0
  0
LINE
  5
4D9
100
AcDbEntity
  8
0
  6
CONTINUOUS
 62
               7
100
AcDbLine
 10
46.409999999999997
 20
74.909999999999997
 30
0.0
 11
48.460000000000001
 21
76.959999999999994
 31
0.0
  0
LINE
  5
4DA
100
AcDbEntity
  8
0
  6
CONTINUOUS
 62
               7
100
AcDbLine
 10
30.329999999999998
 20
57.159999999999997
 30
0.0
 11
32.530000000000001
 21
54.960000000000001
 31
0.0
  0
LINE
  5
4DB
100
AcDbEntity
  8
0
  6
CONTINUOUS
 62
               7
100
AcDbLine
 10
30.41
 20
54.909999999999997
 30
0.0
 11
32.460000000000001
 21
56.960000000000001
 31
0.0
  0
LINE
  5
4DC
100
AcDbEntity
  8
0
  6
CONTINUOUS
 62
               7
100
AcDbLine
 10
28.0
 20
85.5
 30
0.0
 11
29.5
 21
87.0
 31
0.0
  0
LINE
  5
4DD
100
AcDbEntity
  8
0
  6
CONTINUOUS
 62
               7
100
AcDbLine
 10
49.5
 20
87.0
 30
0.0
 11
51.0
 21
85.5
 31
0.0
  0
LINE
  5
4DE
100
AcDbEntity
  8
0
  6
CONTINUOUS
 62
               7
100
AcDbLine
 10
28.0
 20
85.5
 30
0.0
 11
51.0
 21
85.5
 31
0.0
  0
LINE
  5
4DF
100
AcDbEntity
  8
0
  6
CONTINUOUS
 62
               7
100
AcDbLine
 10
29.5
 20
87.0
 30
0.0
 11
49.5
 21
87.0
 31
0.0
  0
LINE
  5
4E0
100
AcDbEntity
  8
0
  6
CONTINUOUS
 62
               7
100
AcDbLine
 10
28.0
 20
53.0
 30
0.0
 11
31.5
 21
53.0
 31
0.0
  0
LINE
  5
4E1
100
AcDbEntity
  8
0
  6
CONTINUOUS
 62
               7
100
AcDbLine
 10
28.0
 20
59.0
 30
0.0
 11
31.5
 21
59.0
 31
0.0
  0
LINE
  5
4E2
100
AcDbEntity
  8
0
  6
CONTINUOUS
 62
               7
100
AcDbLine
 10
47.5
 20
73.0
 30
0.0
 11
51.0
 21
73.0
 31
0.0
  0
LINE
  5
4E3
100
AcDbEntity
  8
0
  6
CONTINUOUS
 62
               7
100
AcDbLine
 10
47.5
 20
79.0
 30
0.0
 11
51.0
 21
79.0
 31
0.0
  0
LINE
  5
4E4
100
AcDbEntity
  8
0
  6
CONTINUOUS
 62
               7
100
AcDbLine
 10
28.0
 20
48.5
 30
0.0
 11
51.0
 21
48.5
 31
0.0
  0
LINE
  5
4E5
100
AcDbEntity
  8
0
  6
CONTINUOUS
 62
               7
100
AcDbLine
 10
28.0
 20
83.5
 30
0.0
 11
51.0
 21
83.5
 31
0.0
  0
ENDBLK
  5
4E6
100
AcDbEntity
  8
0
100
AcDbBlockEnd
  0
BLOCK
  5
4E7
100
AcDbEntity
  8
0
100
AcDbBlockBegin
  2
MS_4
 70
               0
 10
0.0
 20
0.0
 30
0.0
  3
MS_4
  1

  0
ARC
  5
4E8
100
AcDbEntity
  8
0
  6
CONTINUOUS
 62
               7
100
AcDbCircle
 10
-8.4999771120783407
 20
53.000022887921659
 30
0.0
 40
0.9999771123402752
100
AcDbArc
 50
359.99868858867109
 51
90.001311411327976
  0
ARC
  5
4E9
100
AcDbEntity
  8
0
  6
CONTINUOUS
 62
               7
100
AcDbCircle
 10
-182.49999236917938
 20
52.999992369179381
 30
0.0
 40
1.0000076308497334
100
AcDbArc
 50
90.000437210479205
 51
179.99956278952021
  0
CIRCLE
  5
4EA
100
AcDbEntity
  8
0
  6
CONTINUOUS
 62
               2
100
AcDbCircle
 10
-60.999969482421875
 20
-55.5
 30
0.0
 40
4.899998664855957
  0
CIRCLE
  5
4EB
100
AcDbEntity
  8
0
  6
CONTINUOUS
 62
               7
100
AcDbCircle
 10
-60.999969482421875
 20
-55.5
 30
0.0
 40
4.2999992370605469
  0
CIRCLE
  5
4EC
100
AcDbEntity
  8
0
  6
CONTINUOUS
 62
               2
100
AcDbCircle
 10
-60.999969482421875
 20
-30.499984741210937
 30
0.0
 40
4.899998664855957
  0
CIRCLE
  5
4ED
100
AcDbEntity
  8
0
  6
CONTINUOUS
 62
               7
100
AcDbCircle
 10
-60.999969482421875
 20
-30.499984741210937
 30
0.0
 40
4.2999992370605469
  0
CIRCLE
  5
4EE
100
AcDbEntity
  8
0
  6
CONTINUOUS
 62
               2
100
AcDbCircle
 10
-60.999969482421875
 20
-8.4999923706054687
 30
0.0
 40
4.899998664855957
  0
CIRCLE
  5
4EF
100
AcDbEntity
  8
0
  6
CONTINUOUS
 62
               7
100
AcDbCircle
 10
-60.999969482421875
 20
-8.4999923706054687
 30
0.0
 40
4.2999992370605469
  0
CIRCLE
  5
4F0
100
AcDbEntity
  8
0
  6
CONTINUOUS
 62
               2
100
AcDbCircle
 10
-74.999969482421875
 20
-19.500015258789063
 30
0.0
 40
4.899998664855957
  0
CIRCLE
  5
4F1
100
AcDbEntity
  8
0
  6
CONTINUOUS
 62
               7
100
AcDbCircle
 10
-74.999969482421875
 20
-19.500015258789063
 30
0.0
 40
4.2999992370605469
  0
CIRCLE
  5
4F2
100
AcDbEntity
  8
0
  6
CONTINUOUS
 62
               2
100
AcDbCircle
 10
-74.999969482421875
 20
-41.500015258789063
 30
0.0
 40
4.899998664855957
  0
CIRCLE
  5
4F3
100
AcDbEntity
  8
0
  6
CONTINUOUS
 62
               7
100
AcDbCircle
 10
-74.999969482421875
 20
-41.500015258789063
 30
0.0
 40
4.2999992370605469
  0
CIRCLE
  5
4F4
100
AcDbEntity
  8
0
  6
CONTINUOUS
 62
               2
100
AcDbCircle
 10
-88.999969482421875
 20
-55.5
 30
0.0
 40
4.899998664855957
  0
CIRCLE
  5
4F5
100
AcDbEntity
  8
0
  6
CONTINUOUS
 62
               7
100
AcDbCircle
 10
-88.999969482421875
 20
-55.5
 30
0.0
 40
4.2999992370605469
  0
CIRCLE
  5
4F6
100
AcDbEntity
  8
0
  6
CONTINUOUS
 62
               2
100
AcDbCircle
 10
-88.999969482421875
 20
-30.499984741210937
 30
0.0
 40
4.899998664855957
  0
CIRCLE
  5
4F7
100
AcDbEntity
  8
0
  6
CONTINUOUS
 62
               7
100
AcDbCircle
 10
-88.999969482421875
 20
-30.499984741210937
 30
0.0
 40
4.2999992370605469
  0
CIRCLE
  5
4F8
100
AcDbEntity
  8
0
  6
CONTINUOUS
 62
               2
100
AcDbCircle
 10
-88.999969482421875
 20
-8.4999923706054687
 30
0.0
 40
4.899998664855957
  0
CIRCLE
  5
4F9
100
AcDbEntity
  8
0
  6
CONTINUOUS
 62
               7
100
AcDbCircle
 10
-88.999969482421875
 20
-8.4999923706054687
 30
0.0
 40
4.2999992370605469
  0
CIRCLE
  5
4FA
100
AcDbEntity
  8
0
  6
CONTINUOUS
 62
               2
100
AcDbCircle
 10
-102.99996948242187
 20
-19.500015258789063
 30
0.0
 40
4.899998664855957
  0
CIRCLE
  5
4FB
100
AcDbEntity
  8
0
  6
CONTINUOUS
 62
               7
100
AcDbCircle
 10
-102.99996948242187
 20
-19.500015258789063
 30
0.0
 40
4.2999992370605469
  0
CIRCLE
  5
4FC
100
AcDbEntity
  8
0
  6
CONTINUOUS
 62
               2
100
AcDbCircle
 10
-102.99996948242187
 20
-41.500015258789063
 30
0.0
 40
4.899998664855957
  0
CIRCLE
  5
4FD
100
AcDbEntity
  8
0
  6
CONTINUOUS
 62
               7
100
AcDbCircle
 10
-102.99996948242187
 20
-41.500015258789063
 30
0.0
 40
4.2999992370605469
  0
CIRCLE
  5
4FE
100
AcDbEntity
  8
0
  6
CONTINUOUS
 62
               2
100
AcDbCircle
 10
-116.99996948242187
 20
-55.5
 30
0.0
 40
4.899998664855957
  0
CIRCLE
  5
4FF
100
AcDbEntity
  8
0
  6
CONTINUOUS
 62
               7
100
AcDbCircle
 10
-116.99996948242187
 20
-55.5
 30
0.0
 40
4.2999992370605469
  0
CIRCLE
  5
500
100
AcDbEntity
  8
0
  6
CONTINUOUS
 62
               2
100
AcDbCircle
 10
-116.99996948242187
 20
-30.499984741210937
 30
0.0
 40
4.899998664855957
  0
CIRCLE
  5
501
100
AcDbEntity
  8
0
  6
CONTINUOUS
 62
               7
100
AcDbCircle
 10
-116.99996948242187
 20
-30.499984741210937
 30
0.0
 40
4.2999992370605469
  0
CIRCLE
  5
502
100
AcDbEntity
  8
0
  6
CONTINUOUS
 62
               2
100
AcDbCircle
 10
-116.99996948242187
 20
-8.4999923706054687
 30
0.0
 40
4.899998664855957
  0
CIRCLE
  5
503
100
AcDbEntity
  8
0
  6
CONTINUOUS
 62
               7
100
AcDbCircle
 10
-116.99996948242187
 20
-8.4999923706054687
 30
0.0
 40
4.2999992370605469
  0
CIRCLE
  5
504
100
AcDbEntity
  8
0
  6
CONTINUOUS
 62
               2
100
AcDbCircle
 10
-130.99996948242187
 20
-19.500015258789063
 30
0.0
 40
4.899998664855957
  0
CIRCLE
  5
505
100
AcDbEntity
  8
0
  6
CONTINUOUS
 62
               7
100
AcDbCircle
 10
-130.99996948242187
 20
-19.500015258789063
 30
0.0
 40
4.2999992370605469
  0
CIRCLE
  5
506
100
AcDbEntity
  8
0
  6
CONTINUOUS
 62
               2
100
AcDbCircle
 10
-130.99996948242187
 20
-41.500015258789063
 30
0.0
 40
4.899998664855957
  0
CIRCLE
  5
507
100
AcDbEntity
  8
0
  6
CONTINUOUS
 62
               7
100
AcDbCircle
 10
-130.99996948242187
 20
-41.500015258789063
 30
0.0
 40
4.2999992370605469
  0
CIRCLE
  5
508
100
AcDbEntity
  8
0
  6
CONTINUOUS
 62
               2
100
AcDbCircle
 10
-144.99996948242187
 20
-55.5
 30
0.0
 40
4.899998664855957
  0
CIRCLE
  5
509
100
AcDbEntity
  8
0
  6
CONTINUOUS
 62
               7
100
AcDbCircle
 10
-144.99996948242187
 20
-55.5
 30
0.0
 40
4.2999992370605469
  0
CIRCLE
  5
50A
100
AcDbEntity
  8
0
  6
CONTINUOUS
 62
               2
100
AcDbCircle
 10
-144.99996948242187
 20
-30.499984741210937
 30
0.0
 40
4.899998664855957
  0
CIRCLE
  5
50B
100
AcDbEntity
  8
0
  6
CONTINUOUS
 62
               7
100
AcDbCircle
 10
-144.99996948242187
 20
-30.499984741210937
 30
0.0
 40
4.2999992370605469
  0
CIRCLE
  5
50C
100
AcDbEntity
  8
0
  6
CONTINUOUS
 62
               2
100
AcDbCircle
 10
-144.99996948242187
 20
-8.4999923706054687
 30
0.0
 40
4.899998664855957
  0
CIRCLE
  5
50D
100
AcDbEntity
  8
0
  6
CONTINUOUS
 62
               7
100
AcDbCircle
 10
-144.99996948242187
 20
-8.4999923706054687
 30
0.0
 40
4.2999992370605469
  0
CIRCLE
  5
50E
100
AcDbEntity
  8
0
  6
CONTINUOUS
 62
               2
100
AcDbCircle
 10
-158.99996948242187
 20
-19.500015258789063
 30
0.0
 40
4.899998664855957
  0
CIRCLE
  5
50F
100
AcDbEntity
  8
0
  6
CONTINUOUS
 62
               7
100
AcDbCircle
 10
-158.99996948242187
 20
-19.500015258789063
 30
0.0
 40
4.2999992370605469
  0
CIRCLE
  5
510
100
AcDbEntity
  8
0
  6
CONTINUOUS
 62
               2
100
AcDbCircle
 10
-158.99996948242187
 20
-41.500015258789063
 30
0.0
 40
4.899998664855957
  0
CIRCLE
  5
511
100
AcDbEntity
  8
0
  6
CONTINUOUS
 62
               7
100
AcDbCircle
 10
-158.99996948242187
 20
-41.500015258789063
 30
0.0
 40
4.2999992370605469
  0
CIRCLE
  5
512
100
AcDbEntity
  8
0
  6
CONTINUOUS
 62
               2
100
AcDbCircle
 10
-32.999969482421875
 20
-55.5
 30
0.0
 40
4.899998664855957
  0
CIRCLE
  5
513
100
AcDbEntity
  8
0
  6
CONTINUOUS
 62
               7
100
AcDbCircle
 10
-32.999969482421875
 20
-55.5
 30
0.0
 40
4.2999992370605469
  0
CIRCLE
  5
514
100
AcDbEntity
  8
0
  6
CONTINUOUS
 62
               2
100
AcDbCircle
 10
-32.999969482421875
 20
-30.499984741210937
 30
0.0
 40
4.899998664855957
  0
CIRCLE
  5
515
100
AcDbEntity
  8
0
  6
CONTINUOUS
 62
               7
100
AcDbCircle
 10
-32.999969482421875
 20
-30.499984741210937
 30
0.0
 40
4.2999992370605469
  0
CIRCLE
  5
516
100
AcDbEntity
  8
0
  6
CONTINUOUS
 62
               2
100
AcDbCircle
 10
-32.999969482421875
 20
-8.4999923706054687
 30
0.0
 40
4.899998664855957
  0
CIRCLE
  5
517
100
AcDbEntity
  8
0
  6
CONTINUOUS
 62
               7
100
AcDbCircle
 10
-32.999969482421875
 20
-8.4999923706054687
 30
0.0
 40
4.2999992370605469
  0
CIRCLE
  5
518
100
AcDbEntity
  8
0
  6
CONTINUOUS
 62
               2
100
AcDbCircle
 10
-46.999969482421875
 20
-19.500015258789063
 30
0.0
 40
4.899998664855957
  0
CIRCLE
  5
519
100
AcDbEntity
  8
0
  6
CONTINUOUS
 62
               7
100
AcDbCircle
 10
-46.999969482421875
 20
-19.500015258789063
 30
0.0
 40
4.2999992370605469
  0
CIRCLE
  5
51A
100
AcDbEntity
  8
0
  6
CONTINUOUS
 62
               2
100
AcDbCircle
 10
-46.999969482421875
 20
-41.500015258789063
 30
0.0
 40
4.899998664855957
  0
CIRCLE
  5
51B
100
AcDbEntity
  8
0
  6
CONTINUOUS
 62
               7
100
AcDbCircle
 10
-46.999969482421875
 20
-41.500015258789063
 30
0.0
 40
4.2999992370605469
  0
ARC
  5
51C
100
AcDbEntity
  8
0
  6
CONTINUOUS
 62
               7
100
AcDbCircle
 10
-185.49998855599915
 20
-9.4999885559991526
 30
0.0
 40
1.999988556031894
100
AcDbArc
 50
359.99967215164855
 51
90.000327848350423
  0
ARC
  5
51D
100
AcDbEntity
  8
0
  6
CONTINUOUS
 62
               7
100
AcDbCircle
 10
-193.99997329682446
 20
-5.4999732968244643
 30
0.0
 40
2.0000267033537984
100
AcDbArc
 50
180.00076497941473
 51
269.99923502058419
  0
ARC
  5
51E
100
AcDbEntity
  8
0
  6
CONTINUOUS
 62
               7
100
AcDbCircle
 10
-193.99996185289638
 20
5.4999618528963765
 30
0.0
 40
2.0000381474674169
100
AcDbArc
 50
90.001092813174978
 51
179.99890718682443
  0
ARC
  5
51F
100
AcDbEntity
  8
0
  6
CONTINUOUS
 62
               7
100
AcDbCircle
 10
-185.49997711183096
 20
-54.500022888169042
 30
0.0
 40
1.9999771119619267
100
AcDbArc
 50
269.99934429475206
 51
0.0006557052473604
  0
ARC
  5
520
100
AcDbEntity
  8
0
  6
CONTINUOUS
 62
               7
100
AcDbCircle
 10
-193.99996948218904
 20
-69.499969482189044
 30
0.0
 40
2.0000305180437863
100
AcDbArc
 50
180.00087425754319
 51
269.99912574245582
  0
ARC
  5
521
100
AcDbEntity
  8
0
  6
CONTINUOUS
 62
               7
100
AcDbCircle
 10
-190.99996185313211
 20
-64.00003814686788
 30
0.0
 40
2.4999618534231587
100
AcDbArc
 50
269.99912572484635
 51
0.0008742751527324
  0
ARC
  5
522
100
AcDbEntity
  8
0
  6
CONTINUOUS
 62
               7
100
AcDbCircle
 10
-190.99997711210744
 20
-63.999977112107445
 30
0.0
 40
2.4999771122122167
100
AcDbArc
 50
359.99947544333867
 51
90.000524556660309
  0
ARC
  5
523
100
AcDbEntity
  8
0
  6
CONTINUOUS
 62
               7
100
AcDbCircle
 10
-193.99996948218904
 20
-58.500030517810956
 30
0.0
 40
2.0000305180437863
100
AcDbArc
 50
90.000874257543387
 51
179.99912574245602
  0
ARC
  5
524
100
AcDbEntity
  8
0
  6
CONTINUOUS
 62
               7
100
AcDbCircle
 10
-190.99996948260815
 20
-0.0000305173918604
 30
0.0
 40
2.4999694827944041
100
AcDbArc
 50
269.99930058435979
 51
0.0006994156398633
  0
ARC
  5
525
100
AcDbEntity
  8
0
  6
CONTINUOUS
 62
               7
100
AcDbCircle
 10
-190.99996948260815
 20
0.0000305173918604
 30
0.0
 40
2.4999694827944041
100
AcDbArc
 50
359.99930058435933
 51
90.000699415639403
  0
ARC
  5
526
100
AcDbEntity
  8
0
  6
CONTINUOUS
 62
               7
100
AcDbCircle
 10
-5.5000030517554848
 20
-8.8999969482445156
 30
0.0
 40
1.9999969482468438
100
AcDbArc
 50
89.999912573511722
 51
180.00008742648768
  0
ARC
  5
527
100
AcDbEntity
  8
0
  6
CONTINUOUS
 62
               7
100
AcDbCircle
 10
2.9999816894158728
 20
-4.8999816894158732
 30
0.0
 40
2.0000183106679463
100
AcDbArc
 50
270.00052455479238
 51
359.9994754452062
  0
ARC
  5
528
100
AcDbEntity
  8
0
  6
CONTINUOUS
 62
               7
100
AcDbCircle
 10
2.9999771118018543
 20
5.4999771118018543
 30
0.0
 40
2.0000228883291116
100
AcDbArc
 50
0.0006556910733807
 51
89.999344308926425
  0
ARC
  5
529
100
AcDbEntity
  8
0
  6
CONTINUOUS
 62
               7
100
AcDbCircle
 10
-5.5000106811238219
 20
-55.10001068112382
 30
0.0
 40
1.9999893189047004
100
AcDbArc
 50
179.99969400670781
 51
270.00030599329125
  0
ARC
  5
52A
100
AcDbEntity
  8
0
  6
CONTINUOUS
 62
               7
100
AcDbCircle
 10
2.9999847411527298
 20
-69.49998474115273
 30
0.0
 40
2.0000152589054778
100
AcDbArc
 50
270.00043713043874
 51
359.99956286955984
  0
ARC
  5
52B
100
AcDbEntity
  8
0
  6
CONTINUOUS
 62
               7
100
AcDbCircle
 10
-0.0000076293828899
 20
-64.000007629382893
 30
0.0
 40
2.4999923706287519
100
AcDbArc
 50
179.99982514688998
 51
270.00017485310894
  0
ARC
  5
52C
100
AcDbEntity
  8
0
  6
CONTINUOUS
 62
               7
100
AcDbCircle
 10
0.0000076294061726
 20
-64.00000762940617
 30
0.0
 40
2.5000076294178144
100
AcDbArc
 50
90.000174852575753
 51
179.99982514742373
  0
ARC
  5
52D
100
AcDbEntity
  8
0
  6
CONTINUOUS
 62
               7
100
AcDbCircle
 10
2.9999893187492859
 20
-59.100010681250716
 30
0.0
 40
2.0000106812792362
100
AcDbArc
 50
0.0003059936587199
 51
89.999694006341088
  0
ARC
  5
52E
100
AcDbEntity
  8
0
  6
CONTINUOUS
 62
               7
100
AcDbCircle
 10
-0.0000000000000002
 20
-0.0000000000000002
 30
0.0
 40
2.5
100
AcDbArc
 50
179.9999999999996
 51
269.99999999999937
  0
ARC
  5
52F
100
AcDbEntity
  8
0
  6
CONTINUOUS
 62
               7
100
AcDbCircle
 10
-0.0000000000000002
 20
0.0000000000000002
 30
0.0
 40
2.5
100
AcDbArc
 50
89.999999999999801
 51
179.9999999999996
  0
LINE
  5
530
100
AcDbEntity
  8
0
  6
CONTINUOUS
 62
               7
100
AcDbLine
 10
-7.5
 20
-8.9000000000000004
 30
0.0
 11
-7.5
 21
-55.100000000000001
 31
0.0
  0
LINE
  5
531
100
AcDbEntity
  8
0
  6
CONTINUOUS
 62
               7
100
AcDbLine
 10
-183.5
 20
-9.5
 30
0.0
 11
-183.5
 21
-54.5
 31
0.0
  0
LINE
  5
532
100
AcDbEntity
  8
0
  6
CONTINUOUS
 62
               7
100
AcDbLine
 10
-84.0
 20
54.0
 30
0.0
 11
-84.0
 21
15.0
 31
0.0
  0
LINE
  5
533
100
AcDbEntity
  8
0
  6
CONTINUOUS
 62
               7
100
AcDbLine
 10
-109.0
 20
55.0
 30
0.0
 11
-109.0
 21
54.0
 31
0.0
  0
LINE
  5
534
100
AcDbEntity
  8
0
  6
CONTINUOUS
 62
               7
100
AcDbLine
 10
-110.0
 20
55.0
 30
0.0
 11
-109.0
 21
55.0
 31
0.0
  0
LINE
  5
535
100
AcDbEntity
  8
0
  6
CONTINUOUS
 62
               7
100
AcDbLine
 10
-107.0
 20
54.0
 30
0.0
 11
-107.0
 21
15.0
 31
0.0
  0
LINE
  5
536
100
AcDbEntity
  8
0
  6
CONTINUOUS
 62
               7
100
AcDbLine
 10
-84.0
 20
50.5
 30
0.0
 11
-107.0
 21
50.5
 31
0.0
  0
LINE
  5
537
100
AcDbEntity
  8
0
  6
CONTINUOUS
 62
               7
100
AcDbLine
 10
-84.0
 20
54.0
 30
0.0
 11
-107.0
 21
54.0
 31
0.0
  0
LINE
  5
538
100
AcDbEntity
  8
0
  6
CONTINUOUS
 62
               7
100
AcDbLine
 10
-111.0
 20
15.0
 30
0.0
 11
-111.0
 21
7.5
 31
0.0
  0
LINE
  5
539
100
AcDbEntity
  8
0
  6
CONTINUOUS
 62
               7
100
AcDbLine
 10
-108.0
 20
15.0
 30
0.0
 11
-83.0
 21
15.0
 31
0.0
  0
LINE
  5
53A
100
AcDbEntity
  8
0
  6
CONTINUOUS
 62
               7
100
AcDbLine
 10
-108.0
 20
15.0
 30
0.0
 11
-108.0
 21
7.5
 31
0.0
  0
LINE
  5
53B
100
AcDbEntity
  8
0
  6
CONTINUOUS
 62
               7
100
AcDbLine
 10
-109.0
 20
50.5
 30
0.0
 11
-109.0
 21
7.5
 31
0.0
  0
LINE
  5
53C
100
AcDbEntity
  8
0
  6
CONTINUOUS
 62
               7
100
AcDbLine
 10
-110.0
 20
50.5
 30
0.0
 11
-110.0
 21
7.5
 31
0.0
  0
LINE
  5
53D
100
AcDbEntity
  8
0
  6
CONTINUOUS
 62
               7
100
AcDbLine
 10
-109.0
 20
50.5
 30
0.0
 11
-107.2
 21
50.5
 31
0.0
  0
LINE
  5
53E
100
AcDbEntity
  8
0
  6
CONTINUOUS
 62
               7
100
AcDbLine
 10
-110.0
 20
50.5
 30
0.0
 11
-111.8
 21
50.5
 31
0.0
  0
LINE
  5
53F
100
AcDbEntity
  8
0
  6
CONTINUOUS
 62
               7
100
AcDbLine
 10
-107.2
 20
54.0
 30
0.0
 11
-107.2
 21
15.0
 31
0.0
  0
LINE
  5
540
100
AcDbEntity
  8
0
  6
CONTINUOUS
 62
               7
100
AcDbLine
 10
-109.0
 20
54.0
 30
0.0
 11
-107.2
 21
54.0
 31
0.0
  0
LINE
  5
541
100
AcDbEntity
  8
0
  6
CONTINUOUS
 62
               7
100
AcDbLine
 10
-111.8
 20
54.0
 30
0.0
 11
-111.8
 21
15.0
 31
0.0
  0
LINE
  5
542
100
AcDbEntity
  8
0
  6
CONTINUOUS
 62
               7
100
AcDbLine
 10
-110.0
 20
54.0
 30
0.0
 11
-111.8
 21
54.0
 31
0.0
  0
LINE
  5
543
100
AcDbEntity
  8
0
  6
CONTINUOUS
 62
               7
100
AcDbLine
 10
-110.0
 20
55.0
 30
0.0
 11
-110.0
 21
54.0
 31
0.0
  0
LINE
  5
544
100
AcDbEntity
  8
0
  6
CONTINUOUS
 62
               7
100
AcDbLine
 10
-137.0
 20
55.0
 30
0.0
 11
-137.0
 21
54.0
 31
0.0
  0
LINE
  5
545
100
AcDbEntity
  8
0
  6
CONTINUOUS
 62
               7
100
AcDbLine
 10
-138.0
 20
55.0
 30
0.0
 11
-137.0
 21
55.0
 31
0.0
  0
LINE
  5
546
100
AcDbEntity
  8
0
  6
CONTINUOUS
 62
               7
100
AcDbLine
 10
-56.0
 20
54.0
 30
0.0
 11
-56.0
 21
15.0
 31
0.0
  0
LINE
  5
547
100
AcDbEntity
  8
0
  6
CONTINUOUS
 62
               7
100
AcDbLine
 10
-79.0
 20
54.0
 30
0.0
 11
-79.0
 21
15.0
 31
0.0
  0
LINE
  5
548
100
AcDbEntity
  8
0
  6
CONTINUOUS
 62
               7
100
AcDbLine
 10
-56.0
 20
50.5
 30
0.0
 11
-79.0
 21
50.5
 31
0.0
  0
LINE
  5
549
100
AcDbEntity
  8
0
  6
CONTINUOUS
 62
               7
100
AcDbLine
 10
-56.0
 20
54.0
 30
0.0
 11
-79.0
 21
54.0
 31
0.0
  0
LINE
  5
54A
100
AcDbEntity
  8
0
  6
CONTINUOUS
 62
               7
100
AcDbLine
 10
-83.0
 20
15.0
 30
0.0
 11
-83.0
 21
7.5
 31
0.0
  0
LINE
  5
54B
100
AcDbEntity
  8
0
  6
CONTINUOUS
 62
               7
100
AcDbLine
 10
-80.0
 20
15.0
 30
0.0
 11
-55.0
 21
15.0
 31
0.0
  0
LINE
  5
54C
100
AcDbEntity
  8
0
  6
CONTINUOUS
 62
               7
100
AcDbLine
 10
-80.0
 20
15.0
 30
0.0
 11
-80.0
 21
7.5
 31
0.0
  0
LINE
  5
54D
100
AcDbEntity
  8
0
  6
CONTINUOUS
 62
               7
100
AcDbLine
 10
-81.0
 20
50.5
 30
0.0
 11
-81.0
 21
7.5
 31
0.0
  0
LINE
  5
54E
100
AcDbEntity
  8
0
  6
CONTINUOUS
 62
               7
100
AcDbLine
 10
-82.0
 20
50.5
 30
0.0
 11
-82.0
 21
7.5
 31
0.0
  0
LINE
  5
54F
100
AcDbEntity
  8
0
  6
CONTINUOUS
 62
               7
100
AcDbLine
 10
-81.0
 20
50.5
 30
0.0
 11
-79.200000000000003
 21
50.5
 31
0.0
  0
LINE
  5
550
100
AcDbEntity
  8
0
  6
CONTINUOUS
 62
               7
100
AcDbLine
 10
-82.0
 20
50.5
 30
0.0
 11
-83.799999999999997
 21
50.5
 31
0.0
  0
LINE
  5
551
100
AcDbEntity
  8
0
  6
CONTINUOUS
 62
               7
100
AcDbLine
 10
-79.200000000000003
 20
54.0
 30
0.0
 11
-79.200000000000003
 21
15.0
 31
0.0
  0
LINE
  5
552
100
AcDbEntity
  8
0
  6
CONTINUOUS
 62
               7
100
AcDbLine
 10
-81.0
 20
54.0
 30
0.0
 11
-79.200000000000003
 21
54.0
 31
0.0
  0
LINE
  5
553
100
AcDbEntity
  8
0
  6
CONTINUOUS
 62
               7
100
AcDbLine
 10
-83.799999999999997
 20
54.0
 30
0.0
 11
-83.799999999999997
 21
15.0
 31
0.0
  0
LINE
  5
554
100
AcDbEntity
  8
0
  6
CONTINUOUS
 62
               7
100
AcDbLine
 10
-82.0
 20
54.0
 30
0.0
 11
-83.799999999999997
 21
54.0
 31
0.0
  0
LINE
  5
555
100
AcDbEntity
  8
0
  6
CONTINUOUS
 62
               7
100
AcDbLine
 10
-82.0
 20
55.0
 30
0.0
 11
-82.0
 21
54.0
 31
0.0
  0
LINE
  5
556
100
AcDbEntity
  8
0
  6
CONTINUOUS
 62
               7
100
AcDbLine
 10
-81.0
 20
55.0
 30
0.0
 11
-81.0
 21
54.0
 31
0.0
  0
LINE
  5
557
100
AcDbEntity
  8
0
  6
CONTINUOUS
 62
               7
100
AcDbLine
 10
-82.0
 20
55.0
 30
0.0
 11
-81.0
 21
55.0
 31
0.0
  0
LINE
  5
558
100
AcDbEntity
  8
0
  6
CONTINUOUS
 62
               7
100
AcDbLine
 10
-135.0
 20
54.0
 30
0.0
 11
-135.0
 21
15.0
 31
0.0
  0
LINE
  5
559
100
AcDbEntity
  8
0
  6
CONTINUOUS
 62
               7
100
AcDbLine
 10
-112.0
 20
54.0
 30
0.0
 11
-135.0
 21
54.0
 31
0.0
  0
LINE
  5
55A
100
AcDbEntity
  8
0
  6
CONTINUOUS
 62
               7
100
AcDbLine
 10
-139.0
 20
15.0
 30
0.0
 11
-139.0
 21
7.5
 31
0.0
  0
LINE
  5
55B
100
AcDbEntity
  8
0
  6
CONTINUOUS
 62
               7
100
AcDbLine
 10
-139.0
 20
15.0
 30
0.0
 11
-164.0
 21
15.0
 31
0.0
  0
LINE
  5
55C
100
AcDbEntity
  8
0
  6
CONTINUOUS
 62
               7
100
AcDbLine
 10
-136.0
 20
15.0
 30
0.0
 11
-111.0
 21
15.0
 31
0.0
  0
LINE
  5
55D
100
AcDbEntity
  8
0
  6
CONTINUOUS
 62
               7
100
AcDbLine
 10
-136.0
 20
15.0
 30
0.0
 11
-136.0
 21
7.5
 31
0.0
  0
LINE
  5
55E
100
AcDbEntity
  8
0
  6
CONTINUOUS
 62
               7
100
AcDbLine
 10
-137.0
 20
50.5
 30
0.0
 11
-137.0
 21
7.5
 31
0.0
  0
LINE
  5
55F
100
AcDbEntity
  8
0
  6
CONTINUOUS
 62
               7
100
AcDbLine
 10
-138.0
 20
50.5
 30
0.0
 11
-138.0
 21
7.5
 31
0.0
  0
LINE
  5
560
100
AcDbEntity
  8
0
  6
CONTINUOUS
 62
               7
100
AcDbLine
 10
-137.0
 20
50.5
 30
0.0
 11
-135.19999999999999
 21
50.5
 31
0.0
  0
LINE
  5
561
100
AcDbEntity
  8
0
  6
CONTINUOUS
 62
               7
100
AcDbLine
 10
-138.0
 20
50.5
 30
0.0
 11
-139.80000000000001
 21
50.5
 31
0.0
  0
LINE
  5
562
100
AcDbEntity
  8
0
  6
CONTINUOUS
 62
               7
100
AcDbLine
 10
-135.19999999999999
 20
54.0
 30
0.0
 11
-135.19999999999999
 21
15.0
 31
0.0
  0
LINE
  5
563
100
AcDbEntity
  8
0
  6
CONTINUOUS
 62
               7
100
AcDbLine
 10
-137.0
 20
54.0
 30
0.0
 11
-135.19999999999999
 21
54.0
 31
0.0
  0
LINE
  5
564
100
AcDbEntity
  8
0
  6
CONTINUOUS
 62
               7
100
AcDbLine
 10
-139.80000000000001
 20
54.0
 30
0.0
 11
-139.80000000000001
 21
15.0
 31
0.0
  0
LINE
  5
565
100
AcDbEntity
  8
0
  6
CONTINUOUS
 62
               7
100
AcDbLine
 10
-138.0
 20
54.0
 30
0.0
 11
-139.80000000000001
 21
54.0
 31
0.0
  0
LINE
  5
566
100
AcDbEntity
  8
0
  6
CONTINUOUS
 62
               7
100
AcDbLine
 10
-138.0
 20
55.0
 30
0.0
 11
-138.0
 21
54.0
 31
0.0
  0
LINE
  5
567
100
AcDbEntity
  8
0
  6
CONTINUOUS
 62
               7
100
AcDbLine
 10
-28.0
 20
54.0
 30
0.0
 11
-28.0
 21
15.0
 31
0.0
  0
LINE
  5
568
100
AcDbEntity
  8
0
  6
CONTINUOUS
 62
               7
100
AcDbLine
 10
-51.0
 20
54.0
 30
0.0
 11
-51.0
 21
15.0
 31
0.0
  0
LINE
  5
569
100
AcDbEntity
  8
0
  6
CONTINUOUS
 62
               7
100
AcDbLine
 10
-28.0
 20
50.5
 30
0.0
 11
-51.0
 21
50.5
 31
0.0
  0
LINE
  5
56A
100
AcDbEntity
  8
0
  6
CONTINUOUS
 62
               7
100
AcDbLine
 10
-28.0
 20
54.0
 30
0.0
 11
-51.0
 21
54.0
 31
0.0
  0
LINE
  5
56B
100
AcDbEntity
  8
0
  6
CONTINUOUS
 62
               7
100
AcDbLine
 10
-55.0
 20
15.0
 30
0.0
 11
-55.0
 21
7.5
 31
0.0
  0
LINE
  5
56C
100
AcDbEntity
  8
0
  6
CONTINUOUS
 62
               7
100
AcDbLine
 10
-52.0
 20
15.0
 30
0.0
 11
-27.0
 21
15.0
 31
0.0
  0
LINE
  5
56D
100
AcDbEntity
  8
0
  6
CONTINUOUS
 62
               7
100
AcDbLine
 10
-52.0
 20
15.0
 30
0.0
 11
-52.0
 21
7.5
 31
0.0
  0
LINE
  5
56E
100
AcDbEntity
  8
0
  6
CONTINUOUS
 62
               7
100
AcDbLine
 10
-53.0
 20
50.5
 30
0.0
 11
-53.0
 21
7.5
 31
0.0
  0
LINE
  5
56F
100
AcDbEntity
  8
0
  6
CONTINUOUS
 62
               7
100
AcDbLine
 10
-54.0
 20
50.5
 30
0.0
 11
-54.0
 21
7.5
 31
0.0
  0
LINE
  5
570
100
AcDbEntity
  8
0
  6
CONTINUOUS
 62
               7
100
AcDbLine
 10
-53.0
 20
50.5
 30
0.0
 11
-51.200000000000003
 21
50.5
 31
0.0
  0
LINE
  5
571
100
AcDbEntity
  8
0
  6
CONTINUOUS
 62
               7
100
AcDbLine
 10
-54.0
 20
50.5
 30
0.0
 11
-55.799999999999997
 21
50.5
 31
0.0
  0
LINE
  5
572
100
AcDbEntity
  8
0
  6
CONTINUOUS
 62
               7
100
AcDbLine
 10
-51.200000000000003
 20
54.0
 30
0.0
 11
-51.200000000000003
 21
15.0
 31
0.0
  0
LINE
  5
573
100
AcDbEntity
  8
0
  6
CONTINUOUS
 62
               7
100
AcDbLine
 10
-53.0
 20
54.0
 30
0.0
 11
-51.200000000000003
 21
54.0
 31
0.0
  0
LINE
  5
574
100
AcDbEntity
  8
0
  6
CONTINUOUS
 62
               7
100
AcDbLine
 10
-55.799999999999997
 20
54.0
 30
0.0
 11
-55.799999999999997
 21
15.0
 31
0.0
  0
LINE
  5
575
100
AcDbEntity
  8
0
  6
CONTINUOUS
 62
               7
100
AcDbLine
 10
-54.0
 20
54.0
 30
0.0
 11
-55.799999999999997
 21
54.0
 31
0.0
  0
LINE
  5
576
100
AcDbEntity
  8
0
  6
CONTINUOUS
 62
               7
100
AcDbLine
 10
-54.0
 20
55.0
 30
0.0
 11
-54.0
 21
54.0
 31
0.0
  0
LINE
  5
577
100
AcDbEntity
  8
0
  6
CONTINUOUS
 62
               7
100
AcDbLine
 10
-53.0
 20
55.0
 30
0.0
 11
-53.0
 21
54.0
 31
0.0
  0
LINE
  5
578
100
AcDbEntity
  8
0
  6
CONTINUOUS
 62
               7
100
AcDbLine
 10
-54.0
 20
55.0
 30
0.0
 11
-53.0
 21
55.0
 31
0.0
  0
LINE
  5
579
100
AcDbEntity
  8
0
  6
CONTINUOUS
 62
               7
100
AcDbLine
 10
-27.0
 20
15.0
 30
0.0
 11
-27.0
 21
7.5
 31
0.0
  0
LINE
  5
57A
100
AcDbEntity
  8
0
  6
CONTINUOUS
 62
               7
100
AcDbLine
 10
-26.0
 20
50.5
 30
0.0
 11
-27.800000000000001
 21
50.5
 31
0.0
  0
LINE
  5
57B
100
AcDbEntity
  8
0
  6
CONTINUOUS
 62
               7
100
AcDbLine
 10
-27.800000000000001
 20
54.0
 30
0.0
 11
-27.800000000000001
 21
15.0
 31
0.0
  0
LINE
  5
57C
100
AcDbEntity
  8
0
  6
CONTINUOUS
 62
               7
100
AcDbLine
 10
-26.0
 20
54.0
 30
0.0
 11
-27.800000000000001
 21
54.0
 31
0.0
  0
LINE
  5
57D
100
AcDbEntity
  8
0
  6
CONTINUOUS
 62
               7
100
AcDbLine
 10
-112.0
 20
54.0
 30
0.0
 11
-112.0
 21
15.0
 31
0.0
  0
LINE
  5
57E
100
AcDbEntity
  8
0
  6
CONTINUOUS
 62
               7
100
AcDbLine
 10
-182.5
 20
54.0
 30
0.0
 11
-166.5
 21
54.0
 31
0.0
  0
LINE
  5
57F
100
AcDbEntity
  8
0
  6
CONTINUOUS
 62
               7
100
AcDbLine
 10
-8.5
 20
54.0
 30
0.0
 11
-24.5
 21
54.0
 31
0.0
  0
LINE
  5
580
100
AcDbEntity
  8
0
  6
CONTINUOUS
 62
               7
100
AcDbLine
 10
-168.19999999999999
 20
54.0
 30
0.0
 11
-168.19999999999999
 21
7.5
 31
0.0
  0
LINE
  5
581
100
AcDbEntity
  8
0
  6
CONTINUOUS
 62
               7
100
AcDbLine
 10
-164.0
 20
15.0
 30
0.0
 11
-164.0
 21
7.5
 31
0.0
  0
LINE
  5
582
100
AcDbEntity
  8
0
  6
CONTINUOUS
 62
               7
100
AcDbLine
 10
-165.0
 20
50.5
 30
0.0
 11
-165.0
 21
7.5
 31
0.0
  0
LINE
  5
583
100
AcDbEntity
  8
0
  6
CONTINUOUS
 62
               7
100
AcDbLine
 10
-165.0
 20
50.5
 30
0.0
 11
-163.19999999999999
 21
50.5
 31
0.0
  0
LINE
  5
584
100
AcDbEntity
  8
0
  6
CONTINUOUS
 62
               7
100
AcDbLine
 10
-163.19999999999999
 20
54.0
 30
0.0
 11
-163.19999999999999
 21
15.0
 31
0.0
  0
LINE
  5
585
100
AcDbEntity
  8
0
  6
CONTINUOUS
 62
               7
100
AcDbLine
 10
-165.0
 20
54.0
 30
0.0
 11
-163.19999999999999
 21
54.0
 31
0.0
  0
LINE
  5
586
100
AcDbEntity
  8
0
  6
CONTINUOUS
 62
               7
100
AcDbLine
 10
-168.19999999999999
 20
54.0
 30
0.0
 11
-166.0
 21
54.0
 31
0.0
  0
LINE
  5
587
100
AcDbEntity
  8
0
  6
CONTINUOUS
 62
               7
100
AcDbLine
 10
-165.0
 20
55.0
 30
0.0
 11
-165.0
 21
54.0
 31
0.0
  0
LINE
  5
588
100
AcDbEntity
  8
0
  6
CONTINUOUS
 62
               7
100
AcDbLine
 10
-166.0
 20
55.0
 30
0.0
 11
-166.0
 21
7.5
 31
0.0
  0
LINE
  5
589
100
AcDbEntity
  8
0
  6
CONTINUOUS
 62
               7
100
AcDbLine
 10
-166.0
 20
55.0
 30
0.0
 11
-165.0
 21
55.0
 31
0.0
  0
LINE
  5
58A
100
AcDbEntity
  8
0
  6
CONTINUOUS
 62
               7
100
AcDbLine
 10
-22.800000000000001
 20
54.0
 30
0.0
 11
-22.800000000000001
 21
7.5
 31
0.0
  0
LINE
  5
58B
100
AcDbEntity
  8
0
  6
CONTINUOUS
 62
               7
100
AcDbLine
 10
-26.0
 20
50.5
 30
0.0
 11
-26.0
 21
7.5
 31
0.0
  0
LINE
  5
58C
100
AcDbEntity
  8
0
  6
CONTINUOUS
 62
               7
100
AcDbLine
 10
-22.800000000000001
 20
54.0
 30
0.0
 11
-25.0
 21
54.0
 31
0.0
  0
LINE
  5
58D
100
AcDbEntity
  8
0
  6
CONTINUOUS
 62
               7
100
AcDbLine
 10
-26.0
 20
55.0
 30
0.0
 11
-26.0
 21
54.0
 31
0.0
  0
LINE
  5
58E
100
AcDbEntity
  8
0
  6
CONTINUOUS
 62
               7
100
AcDbLine
 10
-25.0
 20
55.0
 30
0.0
 11
-25.0
 21
7.5
 31
0.0
  0
LINE
  5
58F
100
AcDbEntity
  8
0
  6
CONTINUOUS
 62
               7
100
AcDbLine
 10
-25.0
 20
55.0
 30
0.0
 11
-26.0
 21
55.0
 31
0.0
  0
LINE
  5
590
100
AcDbEntity
  8
0
  6
CONTINUOUS
 62
               7
100
AcDbLine
 10
-163.0
 20
54.0
 30
0.0
 11
-163.0
 21
15.0
 31
0.0
  0
LINE
  5
591
100
AcDbEntity
  8
0
  6
CONTINUOUS
 62
               7
100
AcDbLine
 10
-140.0
 20
50.5
 30
0.0
 11
-163.0
 21
50.5
 31
0.0
  0
LINE
  5
592
100
AcDbEntity
  8
0
  6
CONTINUOUS
 62
               7
100
AcDbLine
 10
-140.0
 20
54.0
 30
0.0
 11
-140.0
 21
15.0
 31
0.0
  0
LINE
  5
593
100
AcDbEntity
  8
0
  6
CONTINUOUS
 62
               7
100
AcDbLine
 10
-140.0
 20
54.0
 30
0.0
 11
-163.0
 21
54.0
 31
0.0
  0
LINE
  5
594
100
AcDbEntity
  8
0
  6
CONTINUOUS
 62
               7
100
AcDbLine
 10
-112.0
 20
50.5
 30
0.0
 11
-135.0
 21
50.5
 31
0.0
  0
LINE
  5
595
100
AcDbEntity
  8
0
  6
CENTER
 62
               2
100
AcDbLine
 10
-61.0
 20
-62.979999999999997
 30
0.0
 11
-61.0
 21
-46.799999999999997
 31
0.0
  0
LINE
  5
596
100
AcDbEntity
  8
0
  6
CENTER
 62
               2
100
AcDbLine
 10
-69.129999999999995
 20
-55.5
 30
0.0
 11
-53.5
 21
-55.5
 31
0.0
  0
LINE
  5
597
100
AcDbEntity
  8
0
  6
CENTER
 62
               2
100
AcDbLine
 10
-61.0
 20
-37.920000000000002
 30
0.0
 11
-61.0
 21
-22.66
 31
0.0
  0
LINE
  5
598
100
AcDbEntity
  8
0
  6
CENTER
 62
               2
100
AcDbLine
 10
-68.670000000000002
 20
-30.5
 30
0.0
 11
-53.5
 21
-30.5
 31
0.0
  0
LINE
  5
599
100
AcDbEntity
  8
0
  6
CENTER
 62
               2
100
AcDbLine
 10
-61.0
 20
-15.369999999999999
 30
0.0
 11
-61.0
 21
-0.79
 31
0.0
  0
LINE
  5
59A
100
AcDbEntity
  8
0
  6
CENTER
 62
               2
100
AcDbLine
 10
-69.129999999999995
 20
-8.5
 30
0.0
 11
-53.5
 21
-8.5
 31
0.0
  0
LINE
  5
59B
100
AcDbEntity
  8
0
  6
CENTER
 62
               2
100
AcDbLine
 10
-75.0
 20
-27.440000000000001
 30
0.0
 11
-75.0
 21
-12.18
 31
0.0
  0
LINE
  5
59C
100
AcDbEntity
  8
0
  6
CENTER
 62
               2
100
AcDbLine
 10
-80.519999999999996
 20
-19.5
 30
0.0
 11
-68.439999999999998
 21
-19.5
 31
0.0
  0
LINE
  5
59D
100
AcDbEntity
  8
0
  6
CENTER
 62
               2
100
AcDbLine
 10
-81.879999999999995
 20
-41.5
 30
0.0
 11
-68.209999999999994
 21
-41.5
 31
0.0
  0
LINE
  5
59E
100
AcDbEntity
  8
0
  6
CENTER
 62
               2
100
AcDbLine
 10
-75.0
 20
-49.310000000000002
 30
0.0
 11
-75.0
 21
-33.82
 31
0.0
  0
LINE
  5
59F
100
AcDbEntity
  8
0
  6
CENTER
 62
               2
100
AcDbLine
 10
-89.0
 20
-62.979999999999997
 30
0.0
 11
-89.0
 21
-46.799999999999997
 31
0.0
  0
LINE
  5
5A0
100
AcDbEntity
  8
0
  6
CENTER
 62
               2
100
AcDbLine
 10
-97.129999999999995
 20
-55.5
 30
0.0
 11
-81.5
 21
-55.5
 31
0.0
  0
LINE
  5
5A1
100
AcDbEntity
  8
0
  6
CENTER
 62
               2
100
AcDbLine
 10
-89.0
 20
-37.920000000000002
 30
0.0
 11
-89.0
 21
-22.66
 31
0.0
  0
LINE
  5
5A2
100
AcDbEntity
  8
0
  6
CENTER
 62
               2
100
AcDbLine
 10
-96.670000000000002
 20
-30.5
 30
0.0
 11
-81.5
 21
-30.5
 31
0.0
  0
LINE
  5
5A3
100
AcDbEntity
  8
0
  6
CENTER
 62
               2
100
AcDbLine
 10
-89.0
 20
-15.369999999999999
 30
0.0
 11
-89.0
 21
-0.79
 31
0.0
  0
LINE
  5
5A4
100
AcDbEntity
  8
0
  6
CENTER
 62
               2
100
AcDbLine
 10
-97.129999999999995
 20
-8.5
 30
0.0
 11
-81.5
 21
-8.5
 31
0.0
  0
LINE
  5
5A5
100
AcDbEntity
  8
0
  6
CENTER
 62
               2
100
AcDbLine
 10
-103.0
 20
-27.440000000000001
 30
0.0
 11
-103.0
 21
-12.18
 31
0.0
  0
LINE
  5
5A6
100
AcDbEntity
  8
0
  6
CENTER
 62
               2
100
AcDbLine
 10
-108.52
 20
-19.5
 30
0.0
 11
-96.439999999999998
 21
-19.5
 31
0.0
  0
LINE
  5
5A7
100
AcDbEntity
  8
0
  6
CENTER
 62
               2
100
AcDbLine
 10
-109.88
 20
-41.5
 30
0.0
 11
-96.209999999999994
 21
-41.5
 31
0.0
  0
LINE
  5
5A8
100
AcDbEntity
  8
0
  6
CENTER
 62
               2
100
AcDbLine
 10
-103.0
 20
-49.310000000000002
 30
0.0
 11
-103.0
 21
-33.82
 31
0.0
  0
LINE
  5
5A9
100
AcDbEntity
  8
0
  6
CENTER
 62
               2
100
AcDbLine
 10
-117.0
 20
-62.979999999999997
 30
0.0
 11
-117.0
 21
-46.799999999999997
 31
0.0
  0
LINE
  5
5AA
100
AcDbEntity
  8
0
  6
CENTER
 62
               2
100
AcDbLine
 10
-125.13
 20
-55.5
 30
0.0
 11
-109.5
 21
-55.5
 31
0.0
  0
LINE
  5
5AB
100
AcDbEntity
  8
0
  6
CENTER
 62
               2
100
AcDbLine
 10
-117.0
 20
-37.920000000000002
 30
0.0
 11
-117.0
 21
-22.66
 31
0.0
  0
LINE
  5
5AC
100
AcDbEntity
  8
0
  6
CENTER
 62
               2
100
AcDbLine
 10
-124.67
 20
-30.5
 30
0.0
 11
-109.5
 21
-30.5
 31
0.0
  0
LINE
  5
5AD
100
AcDbEntity
  8
0
  6
CENTER
 62
               2
100
AcDbLine
 10
-117.0
 20
-15.369999999999999
 30
0.0
 11
-117.0
 21
-0.79
 31
0.0
  0
LINE
  5
5AE
100
AcDbEntity
  8
0
  6
CENTER
 62
               2
100
AcDbLine
 10
-125.13
 20
-8.5
 30
0.0
 11
-109.5
 21
-8.5
 31
0.0
  0
LINE
  5
5AF
100
AcDbEntity
  8
0
  6
CENTER
 62
               2
100
AcDbLine
 10
-131.0
 20
-27.440000000000001
 30
0.0
 11
-131.0
 21
-12.18
 31
0.0
  0
LINE
  5
5B0
100
AcDbEntity
  8
0
  6
CENTER
 62
               2
100
AcDbLine
 10
-136.52000000000001
 20
-19.5
 30
0.0
 11
-124.44
 21
-19.5
 31
0.0
  0
LINE
  5
5B1
100
AcDbEntity
  8
0
  6
CENTER
 62
               2
100
AcDbLine
 10
-137.88
 20
-41.5
 30
0.0
 11
-124.20999999999999
 21
-41.5
 31
0.0
  0
LINE
  5
5B2
100
AcDbEntity
  8
0
  6
CENTER
 62
               2
100
AcDbLine
 10
-131.0
 20
-49.310000000000002
 30
0.0
 11
-131.0
 21
-33.82
 31
0.0
  0
LINE
  5
5B3
100
AcDbEntity
  8
0
  6
CENTER
 62
               2
100
AcDbLine
 10
-145.0
 20
-62.979999999999997
 30
0.0
 11
-145.0
 21
-46.799999999999997
 31
0.0
  0
LINE
  5
5B4
100
AcDbEntity
  8
0
  6
CENTER
 62
               2
100
AcDbLine
 10
-153.13
 20
-55.5
 30
0.0
 11
-137.5
 21
-55.5
 31
0.0
  0
LINE
  5
5B5
100
AcDbEntity
  8
0
  6
CENTER
 62
               2
100
AcDbLine
 10
-145.0
 20
-37.920000000000002
 30
0.0
 11
-145.0
 21
-22.66
 31
0.0
  0
LINE
  5
5B6
100
AcDbEntity
  8
0
  6
CENTER
 62
               2
100
AcDbLine
 10
-152.66999999999999
 20
-30.5
 30
0.0
 11
-137.5
 21
-30.5
 31
0.0
  0
LINE
  5
5B7
100
AcDbEntity
  8
0
  6
CENTER
 62
               2
100
AcDbLine
 10
-145.0
 20
-15.369999999999999
 30
0.0
 11
-145.0
 21
-0.79
 31
0.0
  0
LINE
  5
5B8
100
AcDbEntity
  8
0
  6
CENTER
 62
               2
100
AcDbLine
 10
-153.13
 20
-8.5
 30
0.0
 11
-137.5
 21
-8.5
 31
0.0
  0
LINE
  5
5B9
100
AcDbEntity
  8
0
  6
CENTER
 62
               2
100
AcDbLine
 10
-159.0
 20
-27.440000000000001
 30
0.0
 11
-159.0
 21
-12.18
 31
0.0
  0
LINE
  5
5BA
100
AcDbEntity
  8
0
  6
CENTER
 62
               2
100
AcDbLine
 10
-164.52000000000001
 20
-19.5
 30
0.0
 11
-152.44
 21
-19.5
 31
0.0
  0
LINE
  5
5BB
100
AcDbEntity
  8
0
  6
CENTER
 62
               2
100
AcDbLine
 10
-165.88
 20
-41.5
 30
0.0
 11
-152.21000000000001
 21
-41.5
 31
0.0
  0
LINE
  5
5BC
100
AcDbEntity
  8
0
  6
CENTER
 62
               2
100
AcDbLine
 10
-159.0
 20
-49.310000000000002
 30
0.0
 11
-159.0
 21
-33.82
 31
0.0
  0
LINE
  5
5BD
100
AcDbEntity
  8
0
  6
CENTER
 62
               2
100
AcDbLine
 10
-33.0
 20
-62.979999999999997
 30
0.0
 11
-33.0
 21
-46.799999999999997
 31
0.0
  0
LINE
  5
5BE
100
AcDbEntity
  8
0
  6
CENTER
 62
               2
100
AcDbLine
 10
-41.130000000000003
 20
-55.5
 30
0.0
 11
-25.5
 21
-55.5
 31
0.0
  0
LINE
  5
5BF
100
AcDbEntity
  8
0
  6
CENTER
 62
               2
100
AcDbLine
 10
-33.0
 20
-37.920000000000002
 30
0.0
 11
-33.0
 21
-22.66
 31
0.0
  0
LINE
  5
5C0
100
AcDbEntity
  8
0
  6
CENTER
 62
               2
100
AcDbLine
 10
-40.670000000000002
 20
-30.5
 30
0.0
 11
-25.5
 21
-30.5
 31
0.0
  0
LINE
  5
5C1
100
AcDbEntity
  8
0
  6
CENTER
 62
               2
100
AcDbLine
 10
-33.0
 20
-15.369999999999999
 30
0.0
 11
-33.0
 21
-0.79
 31
0.0
  0
LINE
  5
5C2
100
AcDbEntity
  8
0
  6
CENTER
 62
               2
100
AcDbLine
 10
-41.130000000000003
 20
-8.5
 30
0.0
 11
-25.5
 21
-8.5
 31
0.0
  0
LINE
  5
5C3
100
AcDbEntity
  8
0
  6
CENTER
 62
               2
100
AcDbLine
 10
-47.0
 20
-27.440000000000001
 30
0.0
 11
-47.0
 21
-12.18
 31
0.0
  0
LINE
  5
5C4
100
AcDbEntity
  8
0
  6
CENTER
 62
               2
100
AcDbLine
 10
-52.520000000000003
 20
-19.5
 30
0.0
 11
-40.439999999999998
 21
-19.5
 31
0.0
  0
LINE
  5
5C5
100
AcDbEntity
  8
0
  6
CENTER
 62
               2
100
AcDbLine
 10
-53.880000000000003
 20
-41.5
 30
0.0
 11
-40.210000000000001
 21
-41.5
 31
0.0
  0
LINE
  5
5C6
100
AcDbEntity
  8
0
  6
CENTER
 62
               2
100
AcDbLine
 10
-47.0
 20
-49.310000000000002
 30
0.0
 11
-47.0
 21
-33.82
 31
0.0
  0
LINE
  5
5C7
100
AcDbEntity
  8
0
  6
CONTINUOUS
 62
               7
100
AcDbLine
 10
-25.5
 20
7.5
 30
0.0
 11
3.0
 21
7.5
 31
0.0
  0
LINE
  5
5C8
100
AcDbEntity
  8
0
  6
CONTINUOUS
 62
               7
100
AcDbLine
 10
-53.5
 20
7.5
 30
0.0
 11
-81.5
 21
7.5
 31
0.0
  0
LINE
  5
5C9
100
AcDbEntity
  8
0
  6
CONTINUOUS
 62
               7
100
AcDbLine
 10
-81.5
 20
7.5
 30
0.0
 11
-109.5
 21
7.5
 31
0.0
  0
LINE
  5
5CA
100
AcDbEntity
  8
0
  6
CONTINUOUS
 62
               7
100
AcDbLine
 10
-109.5
 20
7.5
 30
0.0
 11
-137.5
 21
7.5
 31
0.0
  0
LINE
  5
5CB
100
AcDbEntity
  8
0
  6
CONTINUOUS
 62
               7
100
AcDbLine
 10
-137.5
 20
7.5
 30
0.0
 11
-165.5
 21
7.5
 31
0.0
  0
LINE
  5
5CC
100
AcDbEntity
  8
0
  6
CONTINUOUS
 62
               7
100
AcDbLine
 10
-81.5
 20
-71.5
 30
0.0
 11
-109.5
 21
-71.5
 31
0.0
  0
LINE
  5
5CD
100
AcDbEntity
  8
0
  6
CONTINUOUS
 62
               7
100
AcDbLine
 10
-102.0
 20
-73.5
 30
0.0
 11
-100.0
 21
-71.5
 31
0.0
  0
LINE
  5
5CE
100
AcDbEntity
  8
0
  6
CONTINUOUS
 62
               7
100
AcDbLine
 10
-107.0
 20
-73.5
 30
0.0
 11
-109.0
 21
-71.5
 31
0.0
  0
LINE
  5
5CF
100
AcDbEntity
  8
0
  6
CONTINUOUS
 62
               7
100
AcDbLine
 10
-102.0
 20
-73.5
 30
0.0
 11
-107.0
 21
-73.5
 31
0.0
  0
LINE
  5
5D0
100
AcDbEntity
  8
0
  6
CONTINUOUS
 62
               7
100
AcDbLine
 10
-108.0
 20
-74.5
 30
0.0
 11
-108.0
 21
-72.5
 31
0.0
  0
LINE
  5
5D1
100
AcDbEntity
  8
0
  6
CONTINUOUS
 62
               7
100
AcDbLine
 10
-101.0
 20
-74.5
 30
0.0
 11
-108.0
 21
-74.5
 31
0.0
  0
LINE
  5
5D2
100
AcDbEntity
  8
0
  6
CONTINUOUS
 62
               7
100
AcDbLine
 10
-101.0
 20
-74.5
 30
0.0
 11
-101.0
 21
-72.5
 31
0.0
  0
LINE
  5
5D3
100
AcDbEntity
  8
0
  6
CONTINUOUS
 62
               7
100
AcDbLine
 10
-109.5
 20
-70.5
 30
0.0
 11
-81.5
 21
-70.5
 31
0.0
  0
LINE
  5
5D4
100
AcDbEntity
  8
0
  6
CONTINUOUS
 62
               7
100
AcDbLine
 10
-53.5
 20
-71.5
 30
0.0
 11
-81.5
 21
-71.5
 31
0.0
  0
LINE
  5
5D5
100
AcDbEntity
  8
0
  6
CONTINUOUS
 62
               7
100
AcDbLine
 10
-74.0
 20
-73.5
 30
0.0
 11
-72.0
 21
-71.5
 31
0.0
  0
LINE
  5
5D6
100
AcDbEntity
  8
0
  6
CONTINUOUS
 62
               7
100
AcDbLine
 10
-79.0
 20
-73.5
 30
0.0
 11
-81.0
 21
-71.5
 31
0.0
  0
LINE
  5
5D7
100
AcDbEntity
  8
0
  6
CONTINUOUS
 62
               7
100
AcDbLine
 10
-74.0
 20
-73.5
 30
0.0
 11
-79.0
 21
-73.5
 31
0.0
  0
LINE
  5
5D8
100
AcDbEntity
  8
0
  6
CONTINUOUS
 62
               7
100
AcDbLine
 10
-80.0
 20
-74.5
 30
0.0
 11
-80.0
 21
-72.5
 31
0.0
  0
LINE
  5
5D9
100
AcDbEntity
  8
0
  6
CONTINUOUS
 62
               7
100
AcDbLine
 10
-73.0
 20
-74.5
 30
0.0
 11
-80.0
 21
-74.5
 31
0.0
  0
LINE
  5
5DA
100
AcDbEntity
  8
0
  6
CONTINUOUS
 62
               7
100
AcDbLine
 10
-73.0
 20
-74.5
 30
0.0
 11
-73.0
 21
-72.5
 31
0.0
  0
LINE
  5
5DB
100
AcDbEntity
  8
0
  6
CONTINUOUS
 62
               7
100
AcDbLine
 10
-81.5
 20
-70.5
 30
0.0
 11
-53.5
 21
-70.5
 31
0.0
  0
LINE
  5
5DC
100
AcDbEntity
  8
0
  6
CONTINUOUS
 62
               7
100
AcDbLine
 10
-109.5
 20
-71.5
 30
0.0
 11
-109.5
 21
7.5
 31
0.0
  0
LINE
  5
5DD
100
AcDbEntity
  8
0
  6
CONTINUOUS
 62
               7
100
AcDbLine
 10
-81.5
 20
-71.5
 30
0.0
 11
-81.5
 21
7.5
 31
0.0
  0
LINE
  5
5DE
100
AcDbEntity
  8
0
  6
CONTINUOUS
 62
               7
100
AcDbLine
 10
-109.5
 20
-71.5
 30
0.0
 11
-137.5
 21
-71.5
 31
0.0
  0
LINE
  5
5DF
100
AcDbEntity
  8
0
  6
CONTINUOUS
 62
               7
100
AcDbLine
 10
-130.0
 20
-73.5
 30
0.0
 11
-128.0
 21
-71.5
 31
0.0
  0
LINE
  5
5E0
100
AcDbEntity
  8
0
  6
CONTINUOUS
 62
               7
100
AcDbLine
 10
-135.0
 20
-73.5
 30
0.0
 11
-137.0
 21
-71.5
 31
0.0
  0
LINE
  5
5E1
100
AcDbEntity
  8
0
  6
CONTINUOUS
 62
               7
100
AcDbLine
 10
-130.0
 20
-73.5
 30
0.0
 11
-135.0
 21
-73.5
 31
0.0
  0
LINE
  5
5E2
100
AcDbEntity
  8
0
  6
CONTINUOUS
 62
               7
100
AcDbLine
 10
-136.0
 20
-74.5
 30
0.0
 11
-136.0
 21
-72.5
 31
0.0
  0
LINE
  5
5E3
100
AcDbEntity
  8
0
  6
CONTINUOUS
 62
               7
100
AcDbLine
 10
-129.0
 20
-74.5
 30
0.0
 11
-136.0
 21
-74.5
 31
0.0
  0
LINE
  5
5E4
100
AcDbEntity
  8
0
  6
CONTINUOUS
 62
               7
100
AcDbLine
 10
-129.0
 20
-74.5
 30
0.0
 11
-129.0
 21
-72.5
 31
0.0
  0
LINE
  5
5E5
100
AcDbEntity
  8
0
  6
CONTINUOUS
 62
               7
100
AcDbLine
 10
-137.5
 20
-70.5
 30
0.0
 11
-109.5
 21
-70.5
 31
0.0
  0
LINE
  5
5E6
100
AcDbEntity
  8
0
  6
CONTINUOUS
 62
               7
100
AcDbLine
 10
-53.5
 20
-71.5
 30
0.0
 11
-53.5
 21
7.5
 31
0.0
  0
LINE
  5
5E7
100
AcDbEntity
  8
0
  6
CONTINUOUS
 62
               7
100
AcDbLine
 10
-25.5
 20
-71.5
 30
0.0
 11
-53.5
 21
-71.5
 31
0.0
  0
LINE
  5
5E8
100
AcDbEntity
  8
0
  6
CONTINUOUS
 62
               7
100
AcDbLine
 10
-46.0
 20
-73.5
 30
0.0
 11
-44.0
 21
-71.5
 31
0.0
  0
LINE
  5
5E9
100
AcDbEntity
  8
0
  6
CONTINUOUS
 62
               7
100
AcDbLine
 10
-51.0
 20
-73.5
 30
0.0
 11
-53.0
 21
-71.5
 31
0.0
  0
LINE
  5
5EA
100
AcDbEntity
  8
0
  6
CONTINUOUS
 62
               7
100
AcDbLine
 10
-46.0
 20
-73.5
 30
0.0
 11
-51.0
 21
-73.5
 31
0.0
  0
LINE
  5
5EB
100
AcDbEntity
  8
0
  6
CONTINUOUS
 62
               7
100
AcDbLine
 10
-52.0
 20
-74.5
 30
0.0
 11
-52.0
 21
-72.5
 31
0.0
  0
LINE
  5
5EC
100
AcDbEntity
  8
0
  6
CONTINUOUS
 62
               7
100
AcDbLine
 10
-45.0
 20
-74.5
 30
0.0
 11
-52.0
 21
-74.5
 31
0.0
  0
LINE
  5
5ED
100
AcDbEntity
  8
0
  6
CONTINUOUS
 62
               7
100
AcDbLine
 10
-45.0
 20
-74.5
 30
0.0
 11
-45.0
 21
-72.5
 31
0.0
  0
LINE
  5
5EE
100
AcDbEntity
  8
0
  6
CONTINUOUS
 62
               7
100
AcDbLine
 10
-53.5
 20
-70.5
 30
0.0
 11
-25.5
 21
-70.5
 31
0.0
  0
LINE
  5
5EF
100
AcDbEntity
  8
0
  6
CONTINUOUS
 62
               7
100
AcDbLine
 10
-25.5
 20
-71.5
 30
0.0
 11
-25.5
 21
7.5
 31
0.0
  0
LINE
  5
5F0
100
AcDbEntity
  8
0
  6
CONTINUOUS
 62
               7
100
AcDbLine
 10
-137.5
 20
-71.5
 30
0.0
 11
-137.5
 21
7.5
 31
0.0
  0
LINE
  5
5F1
100
AcDbEntity
  8
0
  6
CONTINUOUS
 62
               7
100
AcDbLine
 10
-165.5
 20
-70.5
 30
0.0
 11
-137.5
 21
-70.5
 31
0.0
  0
LINE
  5
5F2
100
AcDbEntity
  8
0
  6
CONTINUOUS
 62
               7
100
AcDbLine
 10
-165.5
 20
-71.5
 30
0.0
 11
-165.5
 21
7.5
 31
0.0
  0
LINE
  5
5F3
100
AcDbEntity
  8
0
  6
CONTINUOUS
 62
               7
100
AcDbLine
 10
-25.5
 20
7.5
 30
0.0
 11
-53.5
 21
7.5
 31
0.0
  0
LINE
  5
5F4
100
AcDbEntity
  8
0
  6
CONTINUOUS
 62
               7
100
AcDbLine
 10
-137.5
 20
-71.5
 30
0.0
 11
-165.5
 21
-71.5
 31
0.0
  0
LINE
  5
5F5
100
AcDbEntity
  8
0
  6
CONTINUOUS
 62
               7
100
AcDbLine
 10
-194.0
 20
-7.5
 30
0.0
 11
-185.5
 21
-7.5
 31
0.0
  0
LINE
  5
5F6
100
AcDbEntity
  8
0
  6
CONTINUOUS
 62
               7
100
AcDbLine
 10
-194.0
 20
7.5
 30
0.0
 11
-183.5
 21
7.5
 31
0.0
  0
LINE
  5
5F7
100
AcDbEntity
  8
0
  6
CONTINUOUS
 62
               7
100
AcDbLine
 10
-194.0
 20
-56.5
 30
0.0
 11
-185.5
 21
-56.5
 31
0.0
  0
LINE
  5
5F8
100
AcDbEntity
  8
0
  6
CONTINUOUS
 62
               7
100
AcDbLine
 10
-194.0
 20
-71.5
 30
0.0
 11
-183.5
 21
-71.5
 31
0.0
  0
LINE
  5
5F9
100
AcDbEntity
  8
0
  6
CONTINUOUS
 62
               7
100
AcDbLine
 10
-196.0
 20
-61.5
 30
0.0
 11
-191.0
 21
-61.5
 31
0.0
  0
LINE
  5
5FA
100
AcDbEntity
  8
0
  6
CONTINUOUS
 62
               7
100
AcDbLine
 10
-196.0
 20
-66.5
 30
0.0
 11
-191.0
 21
-66.5
 31
0.0
  0
LINE
  5
5FB
100
AcDbEntity
  8
0
  6
CENTER
 62
               2
100
AcDbLine
 10
-191.0
 20
-69.739999999999995
 30
0.0
 11
-191.0
 21
-58.119999999999997
 31
0.0
  0
LINE
  5
5FC
100
AcDbEntity
  8
0
  6
CONTINUOUS
 62
               7
100
AcDbLine
 10
-196.0
 20
-69.5
 30
0.0
 11
-196.0
 21
-66.5
 31
0.0
  0
LINE
  5
5FD
100
AcDbEntity
  8
0
  6
CONTINUOUS
 62
               7
100
AcDbLine
 10
-196.0
 20
-61.5
 30
0.0
 11
-196.0
 21
-58.5
 31
0.0
  0
LINE
  5
5FE
100
AcDbEntity
  8
0
  6
CENTER
 62
               2
100
AcDbLine
 10
-195.99000000000001
 20
-64.0
 30
0.0
 11
-185.21000000000001
 21
-64.0
 31
0.0
  0
LINE
  5
5FF
100
AcDbEntity
  8
0
  6
CONTINUOUS
 62
               7
100
AcDbLine
 10
-196.0
 20
2.5
 30
0.0
 11
-191.0
 21
2.5
 31
0.0
  0
LINE
  5
600
100
AcDbEntity
  8
0
  6
CONTINUOUS
 62
               7
100
AcDbLine
 10
-196.0
 20
-2.5
 30
0.0
 11
-191.0
 21
-2.5
 31
0.0
  0
LINE
  5
601
100
AcDbEntity
  8
0
  6
CENTER
 62
               2
100
AcDbLine
 10
-191.0
 20
-5.7400000000000002
 30
0.0
 11
-191.0
 21
5.8700000000000001
 31
0.0
  0
LINE
  5
602
100
AcDbEntity
  8
0
  6
CONTINUOUS
 62
               7
100
AcDbLine
 10
-196.0
 20
-5.5
 30
0.0
 11
-196.0
 21
-2.5
 31
0.0
  0
LINE
  5
603
100
AcDbEntity
  8
0
  6
CONTINUOUS
 62
               7
100
AcDbLine
 10
-196.0
 20
2.5
 30
0.0
 11
-196.0
 21
5.5
 31
0.0
  0
LINE
  5
604
100
AcDbEntity
  8
0
  6
CENTER
 62
               2
100
AcDbLine
 10
-195.99000000000001
 20
0.0
 30
0.0
 11
-185.21000000000001
 21
0.0
 31
0.0
  0
LINE
  5
605
100
AcDbEntity
  8
0
  6
CONTINUOUS
 62
               7
100
AcDbLine
 10
-183.5
 20
-71.5
 30
0.0
 11
-165.5
 21
-71.5
 31
0.0
  0
LINE
  5
606
100
AcDbEntity
  8
0
  6
CONTINUOUS
 62
               7
100
AcDbLine
 10
-183.5
 20
53.0
 30
0.0
 11
-183.5
 21
7.5
 31
0.0
  0
LINE
  5
607
100
AcDbEntity
  8
0
  6
CONTINUOUS
 62
               7
100
AcDbLine
 10
-165.5
 20
-71.5
 30
0.0
 11
-165.5
 21
7.5
 31
0.0
  0
LINE
  5
608
100
AcDbEntity
  8
0
  6
CONTINUOUS
 62
               7
100
AcDbLine
 10
-183.5
 20
7.5
 30
0.0
 11
-165.5
 21
7.5
 31
0.0
  0
LINE
  5
609
100
AcDbEntity
  8
0
  6
CONTINUOUS
 62
               7
100
AcDbLine
 10
-7.5
 20
53.0
 30
0.0
 11
-7.5
 21
7.5
 31
0.0
  0
LINE
  5
60A
100
AcDbEntity
  8
0
  6
CONTINUOUS
 62
               7
100
AcDbLine
 10
3.0
 20
-6.9000000000000004
 30
0.0
 11
-5.5
 21
-6.9000000000000004
 31
0.0
  0
LINE
  5
60B
100
AcDbEntity
  8
0
  6
CONTINUOUS
 62
               7
100
AcDbLine
 10
3.0
 20
-57.100000000000001
 30
0.0
 11
-5.5
 21
-57.100000000000001
 31
0.0
  0
LINE
  5
60C
100
AcDbEntity
  8
0
  6
CONTINUOUS
 62
               7
100
AcDbLine
 10
3.0
 20
-71.5
 30
0.0
 11
-7.5
 21
-71.5
 31
0.0
  0
LINE
  5
60D
100
AcDbEntity
  8
0
  6
CONTINUOUS
 62
               7
100
AcDbLine
 10
5.0
 20
-61.5
 30
0.0
 11
0.0
 21
-61.5
 31
0.0
  0
LINE
  5
60E
100
AcDbEntity
  8
0
  6
CONTINUOUS
 62
               7
100
AcDbLine
 10
5.0
 20
-66.5
 30
0.0
 11
0.0
 21
-66.5
 31
0.0
  0
LINE
  5
60F
100
AcDbEntity
  8
0
  6
CENTER
 62
               2
100
AcDbLine
 10
0.0
 20
-69.739999999999995
 30
0.0
 11
0.0
 21
-58.119999999999997
 31
0.0
  0
LINE
  5
610
100
AcDbEntity
  8
0
  6
CONTINUOUS
 62
               7
100
AcDbLine
 10
5.0
 20
-69.5
 30
0.0
 11
5.0
 21
-66.5
 31
0.0
  0
LINE
  5
611
100
AcDbEntity
  8
0
  6
CONTINUOUS
 62
               7
100
AcDbLine
 10
5.0
 20
-61.5
 30
0.0
 11
5.0
 21
-59.100000000000001
 31
0.0
  0
LINE
  5
612
100
AcDbEntity
  8
0
  6
CENTER
 62
               2
100
AcDbLine
 10
4.9900000000000002
 20
-64.0
 30
0.0
 11
-5.7800000000000002
 21
-64.0
 31
0.0
  0
LINE
  5
613
100
AcDbEntity
  8
0
  6
CONTINUOUS
 62
               7
100
AcDbLine
 10
5.0
 20
2.5
 30
0.0
 11
0.0
 21
2.5
 31
0.0
  0
LINE
  5
614
100
AcDbEntity
  8
0
  6
CONTINUOUS
 62
               7
100
AcDbLine
 10
5.0
 20
-2.5
 30
0.0
 11
0.0
 21
-2.5
 31
0.0
  0
LINE
  5
615
100
AcDbEntity
  8
0
  6
CENTER
 62
               2
100
AcDbLine
 10
0.0
 20
-5.7400000000000002
 30
0.0
 11
0.0
 21
5.8700000000000001
 31
0.0
  0
LINE
  5
616
100
AcDbEntity
  8
0
  6
CONTINUOUS
 62
               7
100
AcDbLine
 10
5.0
 20
-4.9000000000000004
 30
0.0
 11
5.0
 21
-2.5
 31
0.0
  0
LINE
  5
617
100
AcDbEntity
  8
0
  6
CONTINUOUS
 62
               7
100
AcDbLine
 10
5.0
 20
2.5
 30
0.0
 11
5.0
 21
5.5
 31
0.0
  0
LINE
  5
618
100
AcDbEntity
  8
0
  6
CENTER
 62
               2
100
AcDbLine
 10
4.9900000000000002
 20
0.0
 30
0.0
 11
-5.7800000000000002
 21
0.0
 31
0.0
  0
LINE
  5
619
100
AcDbEntity
  8
0
  6
CONTINUOUS
 62
               7
100
AcDbLine
 10
-7.5
 20
-71.5
 30
0.0
 11
-25.5
 21
-71.5
 31
0.0
  0
LINE
  5
61A
100
AcDbEntity
  8
0
  6
CONTINUOUS
 62
               7
100
AcDbLine
 10
-18.0
 20
-73.5
 30
0.0
 11
-16.0
 21
-71.5
 31
0.0
  0
LINE
  5
61B
100
AcDbEntity
  8
0
  6
CONTINUOUS
 62
               7
100
AcDbLine
 10
-23.0
 20
-73.5
 30
0.0
 11
-25.0
 21
-71.5
 31
0.0
  0
LINE
  5
61C
100
AcDbEntity
  8
0
  6
CONTINUOUS
 62
               7
100
AcDbLine
 10
-18.0
 20
-73.5
 30
0.0
 11
-23.0
 21
-73.5
 31
0.0
  0
LINE
  5
61D
100
AcDbEntity
  8
0
  6
CONTINUOUS
 62
               7
100
AcDbLine
 10
-24.0
 20
-74.5
 30
0.0
 11
-24.0
 21
-72.5
 31
0.0
  0
LINE
  5
61E
100
AcDbEntity
  8
0
  6
CONTINUOUS
 62
               7
100
AcDbLine
 10
-17.0
 20
-74.5
 30
0.0
 11
-24.0
 21
-74.5
 31
0.0
  0
LINE
  5
61F
100
AcDbEntity
  8
0
  6
CONTINUOUS
 62
               7
100
AcDbLine
 10
-17.0
 20
-74.5
 30
0.0
 11
-17.0
 21
-72.5
 31
0.0
  0
LINE
  5
620
100
AcDbEntity
  8
0
  6
CONTINUOUS
 62
               7
100
AcDbLine
 10
-163.0
 20
-73.5
 30
0.0
 11
-165.0
 21
-71.5
 31
0.0
  0
LINE
  5
621
100
AcDbEntity
  8
0
  6
CONTINUOUS
 62
               7
100
AcDbLine
 10
-158.0
 20
-73.5
 30
0.0
 11
-156.0
 21
-71.5
 31
0.0
  0
LINE
  5
622
100
AcDbEntity
  8
0
  6
CONTINUOUS
 62
               7
100
AcDbLine
 10
-163.0
 20
-73.5
 30
0.0
 11
-158.0
 21
-73.5
 31
0.0
  0
LINE
  5
623
100
AcDbEntity
  8
0
  6
CONTINUOUS
 62
               7
100
AcDbLine
 10
-157.0
 20
-74.5
 30
0.0
 11
-157.0
 21
-72.5
 31
0.0
  0
LINE
  5
624
100
AcDbEntity
  8
0
  6
CONTINUOUS
 62
               7
100
AcDbLine
 10
-164.0
 20
-74.5
 30
0.0
 11
-157.0
 21
-74.5
 31
0.0
  0
LINE
  5
625
100
AcDbEntity
  8
0
  6
CONTINUOUS
 62
               7
100
AcDbLine
 10
-164.0
 20
-74.5
 30
0.0
 11
-164.0
 21
-72.5
 31
0.0
  0
ENDBLK
  5
626
100
AcDbEntity
  8
0
100
AcDbBlockEnd
  0
BLOCK
  5
629
100
AcDbEntity
  8
0
  6
ByBlock
 62
               0
100
AcDbBlockBegin
  2
_OPEN30
 70
               2
 10
0.0
 20
0.0
 30
0.0
  3
_OPEN30
  1

  0
LINE
  5
62A
100
AcDbEntity
  8
0
  6
ByBlock
 62
               0
100
AcDbLine
 10
-1.0
 20
0.267949
 30
0.0
 11
0.0
 21
0.0
 31
0.0
  0
LINE
  5
62B
100
AcDbEntity
  8
0
  6
ByBlock
 62
               0
100
AcDbLine
 10
0.0
 20
0.0
 30
0.0
 11
-1.0
 21
-0.267949
 31
0.0
  0
LINE
  5
62C
100
AcDbEntity
  8
0
  6
ByBlock
 62
               0
100
AcDbLine
 10
0.0
 20
0.0
 30
0.0
 11
-1.0
 21
0.0
 31
0.0
  0
ENDBLK
  5
62D
100
AcDbEntity
  8
0
  6
ByBlock
 62
               0
100
AcDbBlockEnd
  0
BLOCK
  5
638
100
AcDbEntity
  8
0
  6
ByBlock
 62
               0
100
AcDbBlockBegin
  2
*D5
 70
               1
 10
0.0
 20
0.0
 30
0.0
  3
*D5
  1

  0
LINE
  5
639
100
AcDbEntity
  8
0
  6
ByBlock
 62
               0
100
AcDbLine
 10
77.578277587890625
 20
221.54411315917969
 30
0.0
 11
82.578277587890625
 21
221.54411315917969
 31
0.0
  0
LINE
  5
63A
100
AcDbEntity
  8
0
  6
ByBlock
 62
               0
100
AcDbLine
 10
82.578277587890625
 20
221.54411315917969
 30
0.0
 11
94.331152439117432
 21
221.54411315917969
 31
0.0
  0
LINE
  5
63B
100
AcDbEntity
  8
0
  6
ByBlock
 62
               0
100
AcDbLine
 10
82.578277587890625
 20
221.54411315917969
 30
0.0
 11
86.134277582168579
 21
221.54411315917969
 31
0.0
  0
INSERT
  5
640
100
AcDbEntity
  8
0
  6
ByBlock
 62
               0
100
AcDbBlockReference
  2
_OPEN30
 10
82.578277587890625
 20
221.54411315917969
 30
0.0
 41
2.77
 42
2.77
 43
2.77
 50
179.9999999999996
  0
MTEXT
  5
641
100
AcDbEntity
  8
0
  6
ByBlock
 62
               2
100
AcDbMText
 10
91.18115234375
 20
225.69411325454712
 30
0.0
 40
6.3000001907348633
 41
0.0
 71
               5
 72
               1
  1
\A1;5
  7
MX_NOTE_STANDARD
  0
POINT
  5
642
100
AcDbEntity
  8
DEFPOINTS
  6
ByBlock
 62
               0
100
AcDbPoint
 10
77.578277587890625
 20
137.72572326660156
 30
0.0
  0
POINT
  5
643
100
AcDbEntity
  8
DEFPOINTS
  6
ByBlock
 62
               0
100
AcDbPoint
 10
82.578277587890625
 20
137.35404968261719
 30
0.0
  0
POINT
  5
644
100
AcDbEntity
  8
DEFPOINTS
  6
ByBlock
 62
               0
100
AcDbPoint
 10
82.578277587890625
 20
221.54411315917969
 30
0.0
  0
ENDBLK
  5
645
100
AcDbEntity
  8
0
  6
ByBlock
 62
               0
100
AcDbBlockEnd
  0
BLOCK
  5
63D
100
AcDbEntity
  8
0
  6
ByBlock
 62
               0
100
AcDbBlockBegin
  2
_NONE
 70
               2
 10
0.0
 20
0.0
 30
0.0
  3
_NONE
  1

  0
CIRCLE
  5
63E
100
AcDbEntity
  8
0
  6
ByBlock
 62
               0
100
AcDbCircle
 10
0.0
 20
0.0
 30
0.0
 40
0.25
  0
ENDBLK
  5
63F
100
AcDbEntity
  8
0
  6
ByBlock
 62
               0
100
AcDbBlockEnd
  0
BLOCK
  5
648
100
AcDbEntity
  8
0
  6
ByBlock
 62
               0
100
AcDbBlockBegin
  2
*D7
 70
               1
 10
0.0
 20
0.0
 30
0.0
  3
*D7
  1

  0
LINE
  5
649
100
AcDbEntity
  8
0
  6
ByBlock
 62
               0
100
AcDbLine
 10
-113.42166137695312
 20
221.54411315917969
 30
0.0
 11
-118.42166137695312
 21
221.54411315917969
 31
0.0
  0
LINE
  5
64A
100
AcDbEntity
  8
0
  6
ByBlock
 62
               0
100
AcDbLine
 10
-118.42166137695312
 20
221.54411315917969
 30
0.0
 11
-128.44438791275024
 21
221.54411315917969
 31
0.0
  0
LINE
  5
64B
100
AcDbEntity
  8
0
  6
ByBlock
 62
               0
100
AcDbLine
 10
-118.42166137695312
 20
221.54411315917969
 30
0.0
 11
-121.97766137123108
 21
221.54411315917969
 31
0.0
  0
INSERT
  5
64C
100
AcDbEntity
  8
0
  6
ByBlock
 62
               0
100
AcDbBlockReference
  2
_OPEN30
 10
-118.42166137695312
 20
221.54411315917969
 30
0.0
 41
2.77
 42
2.77
 43
2.77
  0
MTEXT
  5
64D
100
AcDbEntity
  8
0
  6
ByBlock
 62
               2
100
AcDbMText
 10
-125.29438781738281
 20
225.69411325454712
 30
0.0
 40
6.3000001907348633
 41
0.0
 71
               5
 72
               1
  1
\A1;5
  7
MX_NOTE_STANDARD
 11
1.0
 21
-0.0000000000000001
 31
0.0
  0
POINT
  5
64E
100
AcDbEntity
  8
DEFPOINTS
  6
ByBlock
 62
               0
100
AcDbPoint
 10
-113.42166137695312
 20
137.72572326660156
 30
0.0
  0
POINT
  5
64F
100
AcDbEntity
  8
DEFPOINTS
  6
ByBlock
 62
               0
100
AcDbPoint
 10
-118.42166137695312
 20
137.35404968261719
 30
0.0
  0
POINT
  5
650
100
AcDbEntity
  8
DEFPOINTS
  6
ByBlock
 62
               0
100
AcDbPoint
 10
-118.42166137695312
 20
221.54411315917969
 30
0.0
  0
ENDBLK
  5
651
100
AcDbEntity
  8
0
  6
ByBlock
 62
               0
100
AcDbBlockEnd
  0
BLOCK
  5
654
100
AcDbEntity
  8
0
  6
ByBlock
 62
               0
100
AcDbBlockBegin
  2
*D8
 70
               1
 10
0.0
 20
0.0
 30
0.0
  3
*D8
  1

  0
LINE
  5
655
100
AcDbEntity
  8
0
  6
ByBlock
 62
               0
100
AcDbLine
 10
-113.42166137695312
 20
221.54411315917969
 30
0.0
 11
77.578277587890625
 21
221.54411315917969
 31
0.0
  0
LINE
  5
656
100
AcDbEntity
  8
0
  6
ByBlock
 62
               0
100
AcDbLine
 10
-113.42166137695312
 20
137.72572326660156
 30
0.0
 11
-113.42166137695312
 21
223.04411315917969
 31
0.0
  0
LINE
  5
657
100
AcDbEntity
  8
0
  6
ByBlock
 62
               0
100
AcDbLine
 10
77.578277587890625
 20
137.72572326660156
 30
0.0
 11
77.578277587890625
 21
223.04411315917969
 31
0.0
  0
INSERT
  5
658
100
AcDbEntity
  8
0
  6
ByBlock
 62
               0
100
AcDbBlockReference
  2
_OPEN30
 10
-113.42166137695312
 20
221.54411315917969
 30
0.0
 41
2.77
 42
2.77
 43
2.77
 50
179.9999999999996
  0
INSERT
  5
659
100
AcDbEntity
  8
0
  6
ByBlock
 62
               0
100
AcDbBlockReference
  2
_OPEN30
 10
77.578277587890625
 20
221.54411315917969
 30
0.0
 41
2.77
 42
2.77
 43
2.77
  0
MTEXT
  5
65A
100
AcDbEntity
  8
0
  6
ByBlock
 62
               2
100
AcDbMText
 10
-17.92169189453125
 20
225.69411325454712
 30
0.0
 40
6.3000001907348633
 41
0.0
 71
               5
 72
               1
  1
\A1;P
  7
MX_NOTE_STANDARD
  0
POINT
  5
65B
100
AcDbEntity
  8
DEFPOINTS
  6
ByBlock
 62
               0
100
AcDbPoint
 10
-113.42166137695312
 20
137.72572326660156
 30
0.0
  0
POINT
  5
65C
100
AcDbEntity
  8
DEFPOINTS
  6
ByBlock
 62
               0
100
AcDbPoint
 10
77.578277587890625
 20
137.72572326660156
 30
0.0
  0
POINT
  5
65D
100
AcDbEntity
  8
DEFPOINTS
  6
ByBlock
 62
               0
100
AcDbPoint
 10
77.578277587890625
 20
221.54411315917969
 30
0.0
  0
ENDBLK
  5
65E
100
AcDbEntity
  8
0
  6
ByBlock
 62
               0
100
AcDbBlockEnd
  0
BLOCK
  5
661
100
AcDbEntity
  8
0
  6
ByBlock
 62
               0
100
AcDbBlockBegin
  2
*D9
 70
               1
 10
0.0
 20
0.0
 30
0.0
  3
*D9
  1

  0
LINE
  5
662
100
AcDbEntity
  8
0
  6
ByBlock
 62
               0
100
AcDbLine
 10
-118.42166137695312
 20
236.54411315917969
 30
0.0
 11
82.578277587890625
 21
236.54411315917969
 31
0.0
  0
LINE
  5
663
100
AcDbEntity
  8
0
  6
ByBlock
 62
               0
100
AcDbLine
 10
-118.42166137695312
 20
138.85404968261719
 30
0.0
 11
-118.42166137695312
 21
238.04410767555237
 31
0.0
  0
LINE
  5
664
100
AcDbEntity
  8
0
  6
ByBlock
 62
               0
100
AcDbLine
 10
82.578277587890625
 20
138.85404968261719
 30
0.0
 11
82.578277587890625
 21
238.04410803318024
 31
0.0
  0
INSERT
  5
665
100
AcDbEntity
  8
0
  6
ByBlock
 62
               0
100
AcDbBlockReference
  2
_OPEN30
 10
-118.42166137695312
 20
236.54411315917969
 30
0.0
 41
2.77
 42
2.77
 43
2.77
 50
179.9999999999996
  0
INSERT
  5
666
100
AcDbEntity
  8
0
  6
ByBlock
 62
               0
100
AcDbBlockReference
  2
_OPEN30
 10
82.578277587890625
 20
236.54411315917969
 30
0.0
 41
2.77
 42
2.77
 43
2.77
  0
MTEXT
  5
667
100
AcDbEntity
  8
0
  6
ByBlock
 62
               2
100
AcDbMText
 10
-17.92169189453125
 20
240.69411325454712
 30
0.0
 40
6.3000001907348633
 41
0.0
 71
               5
 72
               1
  1
\A1;L
  7
MX_NOTE_STANDARD
  0
POINT
  5
668
100
AcDbEntity
  8
DEFPOINTS
  6
ByBlock
 62
               0
100
AcDbPoint
 10
-118.42166137695312
 20
137.35404968261719
 30
0.0
  0
POINT
  5
669
100
AcDbEntity
  8
DEFPOINTS
  6
ByBlock
 62
               0
100
AcDbPoint
 10
82.578277587890625
 20
137.35404968261719
 30
0.0
  0
POINT
  5
66A
100
AcDbEntity
  8
DEFPOINTS
  6
ByBlock
 62
               0
100
AcDbPoint
 10
82.578277587890625
 20
236.54411315917969
 30
0.0
  0
ENDBLK
  5
66B
100
AcDbEntity
  8
0
  6
ByBlock
 62
               0
100
AcDbBlockEnd
  0
ENDSEC
  0
SECTION
  2
ENTITIES
  0
LEADER
  5
627
100
AcDbEntity
  8
0
 62
               2
100
AcDbLeader
  3
MXDIMSTYLE
 73
               3
 74
               0
 75
               0
 40
0.0
 76
               3
 10
-73.921722412109375
 20
-84.145965576171875
 30
0.0
 10
-83.921707630162928
 20
-66.825466257486369
 30
0.0
 10
-150.42053315043995
 20
-66.825466257486369
 30
0.0
 77
               2
1001
ACAD
1000
DSTYLE
1002
{
1070
               6
1000
_OPEN30
1070
               7
1000
_OPEN30
1070
              41
1040
2.77
1070
             173
1070
               1
1002
}
  0
MTEXT
  5
62E
100
AcDbEntity
  8
0
 62
               2
100
AcDbMText
 10
-150.42053315043995
 20
-60.950466734323527
 30
0.0
 40
6.0
 41
0.0
 71
               4
 72
               1
  1
\W1.015;\A1;CS-W240-4E1
  7
MX_NOTE_STANDARD
  0
LEADER
  5
62F
100
AcDbEntity
  8
0
 62
               2
100
AcDbLeader
  3
MXDIMSTYLE
 73
               3
 74
               0
 75
               0
 40
0.0
 76
               3
 10
-45.921722412109375
 20
-84.145965576171875
 30
0.0
 10
-63.421711981296539
 20
-53.835070729255676
 30
0.0
 10
-131.73177343606949
 20
-53.835070729255676
 30
0.0
 77
               2
1001
ACAD
1000
DSTYLE
1002
{
1070
               6
1000
_OPEN30
1070
               7
1000
_OPEN30
1070
              41
1040
2.77
1070
             173
1070
               1
1002
}
  0
MTEXT
  5
630
100
AcDbEntity
  8
0
 62
               2
100
AcDbMText
 10
-131.73177343606949
 20
-47.960071206092834
 30
0.0
 40
6.0
 41
0.0
 71
               4
 72
               1
  1
\W1.015;\A1;CS-W240-4E1
  7
MX_NOTE_STANDARD
  0
LEADER
  5
631
100
AcDbEntity
  8
0
 62
               2
100
AcDbLeader
  3
MXDIMSTYLE
 73
               3
 74
               0
 75
               0
 40
0.0
 76
               3
 10
-17.92169189453125
 20
-84.145950317382812
 30
0.0
 10
-0.4216877222061157
 20
-53.835063815116882
 30
0.0
 10
66.897717714309692
 20
-53.835063815116882
 30
0.0
 77
               2
1001
ACAD
1000
DSTYLE
1002
{
1070
               6
1000
_OPEN30
1070
               7
1000
_OPEN30
1070
              41
1040
2.77
1070
             173
1070
               1
1002
}
  0
MTEXT
  5
632
100
AcDbEntity
  8
0
 62
               2
100
AcDbMText
 10
0.8977177143096924
 20
-47.960064291954041
 30
0.0
 40
6.0
 41
0.0
 71
               4
 72
               1
  1
\W0.985;\A1;CS-W240-4E2
  7
MX_NOTE_STANDARD
  0
LEADER
  5
633
100
AcDbEntity
  8
0
 62
               2
100
AcDbLeader
  3
MXDIMSTYLE
 73
               3
 74
               0
 75
               0
 40
0.0
 76
               3
 10
10.07830810546875
 20
-84.145950317382812
 30
0.0
 10
20.07830810546875
 20
-66.825442552566528
 30
0.0
 10
88.836696624755859
 20
-66.825442552566528
 30
0.0
 77
               2
1001
ACAD
1000
DSTYLE
1002
{
1070
               6
1000
_OPEN30
1070
               7
1000
_OPEN30
1070
              41
1040
2.77
1070
             173
1070
               1
1002
}
  0
MTEXT
  5
634
100
AcDbEntity
  8
0
 62
               2
100
AcDbMText
 10
22.836696624755859
 20
-60.950443029403687
 30
0.0
 40
6.0
 41
0.0
 71
               4
 72
               1
  1
\W0.971;\A1;CS-W243-4E2
  7
MX_NOTE_STANDARD
  0
LEADER
  5
635
100
AcDbEntity
  8
0
 62
               2
100
AcDbLeader
  3
MXDIMSTYLE
 73
               3
 74
               0
 75
               0
 40
0.0
 76
               3
 10
38.078289985656738
 20
-118.64595031738281
 30
0.0
 10
48.07829523086366
 20
-101.325428145974
 30
0.0
 10
80.463558673856824
 20
-101.325428145974
 30
0.0
 77
               2
1001
ACAD
1000
DSTYLE
1002
{
1070
               6
1000
_OPEN30
1070
               7
1000
_OPEN30
1070
              41
1040
2.77
1070
             173
1070
               1
1002
}
  0
MTEXT
  5
636
100
AcDbEntity
  8
0
 62
               2
100
AcDbMText
 10
50.463558673856824
 20
-95.45042862281116
 30
0.0
 40
6.0
 41
0.0
 71
               4
 72
               1
  1
\A1;CS-BP
  7
MX_NOTE_STANDARD
  0
DIMENSION
  5
646
100
AcDbEntity
  8
0
  6
CONTINUOUS
 62
               2
100
AcDbDimension
  2
*D5
 10
82.578277587890625
 20
221.54411315917969
 30
0.0
 11
91.18115234375
 21
221.54411315917969
 31
0.0
 70
             128
  1
<>
  3
MXDIMSTYLE
100
AcDbAlignedDimension
 13
77.578277587890625
 23
137.72572326660156
 33
0.0
 14
82.578277587890625
 24
137.35404968261719
 34
0.0
100
AcDbRotatedDimension
1001
ACAD
1000
DSTYLE
1002
{
1070
               6
1000
_NONE
1070
               7
1000
_OPEN30
1070
              75
1070
               1
1070
              76
1070
               1
1070
              78
1070
               0
1070
             140
1040
6.3000001907348633
1070
             173
1070
               1
1070
             271
1070
               0
1002
}
  0
DIMENSION
  5
652
100
AcDbEntity
  8
0
  6
CONTINUOUS
 62
               2
100
AcDbDimension
  2
*D7
 10
-118.42166137695312
 20
221.54411315917969
 30
0.0
 11
-125.29438781738281
 21
221.54411315917969
 31
0.0
 70
             128
  1
<>
  3
MXDIMSTYLE
100
AcDbAlignedDimension
 13
-113.42166137695312
 23
137.72572326660156
 33
0.0
 14
-118.42166137695312
 24
137.35404968261719
 34
0.0
100
AcDbRotatedDimension
1001
ACAD
1000
DSTYLE
1002
{
1070
               6
1000
_NONE
1070
               7
1000
_OPEN30
1070
              75
1070
               1
1070
              76
1070
               1
1070
              78
1070
               0
1070
             140
1040
6.3000001907348633
1070
             173
1070
               1
1070
             271
1070
               0
1002
}
  0
DIMENSION
  5
65F
100
AcDbEntity
  8
0
  6
CONTINUOUS
 62
               2
100
AcDbDimension
  2
*D8
 10
77.578277587890625
 20
221.54411315917969
 30
0.0
 11
-17.92169189453125
 21
221.54411315917969
 31
0.0
 70
             128
  1
P
  3
MXDIMSTYLE
100
AcDbAlignedDimension
 13
-113.42166137695312
 23
137.72572326660156
 33
0.0
 14
77.578277587890625
 24
137.72572326660156
 34
0.0
100
AcDbRotatedDimension
1001
ACAD
1000
DSTYLE
1002
{
1070
               6
1000
_OPEN30
1070
               7
1000
_OPEN30
1070
              41
1040
2.77
1070
              42
1040
0.0
1070
              78
1070
               0
1070
             140
1040
6.3000001907348633
1070
             173
1070
               1
1070
             271
1070
               0
1002
}
  0
DIMENSION
  5
66C
100
AcDbEntity
  8
0
  6
CONTINUOUS
 62
               2
100
AcDbDimension
  2
*D9
 10
82.578277587890625
 20
236.54411315917969
 30
0.0
 11
-17.92169189453125
 21
236.54411315917969
 31
0.0
 70
             128
  1
L
  3
MXDIMSTYLE
100
AcDbAlignedDimension
 13
-118.42166137695312
 23
137.35404968261719
 33
0.0
 14
82.578277587890625
 24
137.35404968261719
 34
0.0
100
AcDbRotatedDimension
1001
ACAD
1000
DSTYLE
1002
{
1070
               6
1000
_OPEN30
1070
               7
1000
_OPEN30
1070
              41
1040
2.77
1070
              78
1070
               0
1070
             140
1040
6.3000001907348633
1070
             173
1070
               1
1070
             271
1070
               0
1002
}
  0
INSERT
  5
66D
100
AcDbEntity
  8
0
100
AcDbBlockReference
  2
MS_4
 10
331.792236328125
 20
-118.14598083496094
 30
0.0
  0
INSERT
  5
66E
100
AcDbEntity
  8
0
100
AcDbBlockReference
  2
MS_3
 10
-113.42166137695312
 20
-171.14596557617187
 30
0.0
  0
INSERT
  5
66F
100
AcDbEntity
  8
0
100
AcDbBlockReference
  2
MS_2
 10
274.18539428710937
 20
131.85403442382812
 30
0.0
  0
INSERT
  5
670
100
AcDbEntity
  8
0
100
AcDbBlockReference
  2
MS_1
 10
-113.42166137695312
 20
131.85403442382812
 30
0.0
  0
MTEXT
  5
671
100
AcDbEntity
  8
0
  6
CONTINUOUS
 62
               7
100
AcDbMText
 10
269.50714766712747
 20
-206.22550964355469
 30
0.0
 40
6.3000001907348633
 41
0.0
 71
               4
 72
               1
  1
\W1.059;\A1;(240M5BW)
  7
MX_NOTE_STANDARD
  0
MTEXT
  5
672
100
AcDbEntity
  8
0
  6
CONTINUOUS
 62
               7
100
AcDbMText
 10
-382.20161353173125
 20
231.25
 30
0.0
 40
9.0
 41
0.0
 71
               4
 72
               1
  1
\W1.032;\A1;MODEL:CS-240M5AW
  7
MX_NOTE_STANDARD
  0
MTEXT
  5
673
100
AcDbEntity
  8
0
  6
CONTINUOUS
 62
               7
100
AcDbMText
 10
-308.63333463867502
 20
-104.25
 30
0.0
 40
6.3000001907348633
 41
0.0
 71
               4
 72
               1
  1
\W1.111;\A1;DIMENSION LIST
  7
MX_NOTE_STANDARD
  0
MTEXT
  5
674
100
AcDbEntity
  8
0
  6
CONTINUOUS
 62
               7
100
AcDbMText
 10
-222.91873194859363
 20
-254.25
 30
0.0
 40
6.3000001907348633
 41
0.0
 71
               4
 72
               1
  1
\W1.125;\A1;331
  7
MX_NOTE_STANDARD
  0
MTEXT
  5
675
100
AcDbEntity
  8
0
  6
CONTINUOUS
 62
               7
100
AcDbMText
 10
-222.98821722821793
 20
-239.25
 30
0.0
 40
6.3000001907348633
 41
0.0
 71
               4
 72
               1
  1
\W1.059;\A1;303
  7
MX_NOTE_STANDARD
  0
MTEXT
  5
676
100
AcDbEntity
  8
0
  6
CONTINUOUS
 62
               7
100
AcDbMText
 10
-223.04998194376626
 20
-224.25
 30
0.0
 40
6.3000001907348633
 41
0.0
 71
               4
 72
               1
  1
\A1;275
  7
MX_NOTE_STANDARD
  0
MTEXT
  5
677
100
AcDbEntity
  8
0
  6
CONTINUOUS
 62
               7
100
AcDbMText
 10
-223.04998194376626
 20
-209.25
 30
0.0
 40
6.3000001907348633
 41
0.0
 71
               4
 72
               1
  1
\A1;247
  7
MX_NOTE_STANDARD
  0
MTEXT
  5
678
100
AcDbEntity
  8
0
  6
CONTINUOUS
 62
               7
100
AcDbMText
 10
-222.91873194859363
 20
-194.25
 30
0.0
 40
6.3000001907348633
 41
0.0
 71
               4
 72
               1
  1
\W1.125;\A1;219
  7
MX_NOTE_STANDARD
  0
MTEXT
  5
679
100
AcDbEntity
  8
0
  6
CONTINUOUS
 62
               7
100
AcDbMText
 10
-222.74998195767401
 20
-179.25
 30
0.0
 40
6.3000001907348633
 41
0.0
 71
               4
 72
               1
  1
\W1.286;\A1;191
  7
MX_NOTE_STANDARD
  0
MTEXT
  5
67A
100
AcDbEntity
  8
0
  6
CONTINUOUS
 62
               7
100
AcDbMText
 10
-222.91873194859363
 20
-164.25
 30
0.0
 40
6.3000001907348633
 41
0.0
 71
               4
 72
               1
  1
\W1.125;\A1;163
  7
MX_NOTE_STANDARD
  0
MTEXT
  5
67B
100
AcDbEntity
  8
0
  6
CONTINUOUS
 62
               7
100
AcDbMText
 10
-222.91873194859363
 20
-149.25
 30
0.0
 40
6.3000001907348633
 41
0.0
 71
               4
 72
               1
  1
\W1.125;\A1;135
  7
MX_NOTE_STANDARD
  0
MTEXT
  5
67C
100
AcDbEntity
  8
0
  6
CONTINUOUS
 62
               7
100
AcDbMText
 10
-222.83998193740842
 20
-134.25
 30
0.0
 40
6.3000001907348633
 41
0.0
 71
               4
 72
               1
  1
\W1.200;\A1;107
  7
MX_NOTE_STANDARD
  0
MTEXT
  5
67D
100
AcDbEntity
  8
0
  6
CONTINUOUS
 62
               7
100
AcDbMText
 10
-177.91873194859363
 20
-254.25
 30
0.0
 40
6.3000001907348633
 41
0.0
 71
               4
 72
               1
  1
\W1.125;\A1;341
  7
MX_NOTE_STANDARD
  0
MTEXT
  5
67E
100
AcDbEntity
  8
0
  6
CONTINUOUS
 62
               7
100
AcDbMText
 10
-177.91873194859363
 20
-239.25
 30
0.0
 40
6.3000001907348633
 41
0.0
 71
               4
 72
               1
  1
\W1.125;\A1;313
  7
MX_NOTE_STANDARD
  0
MTEXT
  5
67F
100
AcDbEntity
  8
0
  6
CONTINUOUS
 62
               7
100
AcDbMText
 10
-178.04998194376626
 20
-224.25
 30
0.0
 40
6.3000001907348633
 41
0.0
 71
               4
 72
               1
  1
\A1;285
  7
MX_NOTE_STANDARD
  0
MTEXT
  5
680
100
AcDbEntity
  8
0
  6
CONTINUOUS
 62
               7
100
AcDbMText
 10
-178.04998194376626
 20
-209.25
 30
0.0
 40
6.3000001907348633
 41
0.0
 71
               4
 72
               1
  1
\A1;257
  7
MX_NOTE_STANDARD
  0
MTEXT
  5
681
100
AcDbEntity
  8
0
  6
CONTINUOUS
 62
               7
100
AcDbMText
 10
-178.04998194376626
 20
-194.25
 30
0.0
 40
6.3000001907348633
 41
0.0
 71
               4
 72
               1
  1
\A1;229
  7
MX_NOTE_STANDARD
  0
MTEXT
  5
682
100
AcDbEntity
  8
0
  6
CONTINUOUS
 62
               7
100
AcDbMText
 10
-177.83998193740842
 20
-179.25
 30
0.0
 40
6.3000001907348633
 41
0.0
 71
               4
 72
               1
  1
\W1.200;\A1;201
  7
MX_NOTE_STANDARD
  0
MTEXT
  5
683
100
AcDbEntity
  8
0
  6
CONTINUOUS
 62
               7
100
AcDbMText
 10
-177.91873194859363
 20
-164.25
 30
0.0
 40
6.3000001907348633
 41
0.0
 71
               4
 72
               1
  1
\W1.125;\A1;173
  7
MX_NOTE_STANDARD
  0
MTEXT
  5
684
100
AcDbEntity
  8
0
  6
CONTINUOUS
 62
               7
100
AcDbMText
 10
-177.91873194859363
 20
-149.25
 30
0.0
 40
6.3000001907348633
 41
0.0
 71
               4
 72
               1
  1
\W1.125;\A1;145
  7
MX_NOTE_STANDARD
  0
MTEXT
  5
685
100
AcDbEntity
  8
0
  6
CONTINUOUS
 62
               7
100
AcDbMText
 10
-177.74998195767401
 20
-134.25
 30
0.0
 40
6.3000001907348633
 41
0.0
 71
               4
 72
               1
  1
\W1.286;\A1;117
  7
MX_NOTE_STANDARD
  0
MTEXT
  5
686
100
AcDbEntity
  8
0
  6
CONTINUOUS
 62
               7
100
AcDbMText
 10
-216.74998175303139
 20
-119.25
 30
0.0
 40
6.3000001907348633
 41
0.0
 71
               4
 72
               1
  1
\A1;P
  7
MX_NOTE_STANDARD
  0
MTEXT
  5
687
100
AcDbEntity
  8
0
  6
CONTINUOUS
 62
               7
100
AcDbMText
 10
-171.74998175303139
 20
-119.25
 30
0.0
 40
6.3000001907348633
 41
0.0
 71
               4
 72
               1
  1
\A1;L
  7
MX_NOTE_STANDARD
  0
MTEXT
  5
688
100
AcDbEntity
  8
0
  6
CONTINUOUS
 62
               7
100
AcDbMText
 10
-382.06861214901329
 20
-254.25
 30
0.0
 40
6.3000001907348633
 41
0.0
 71
               4
 72
               1
  1
\W1.030;\A1;CS-240M10AW/CS-240M10BW
  7
MX_NOTE_STANDARD
  0
MTEXT
  5
689
100
AcDbEntity
  8
0
  6
CONTINUOUS
 62
               7
100
AcDbMText
 10
-369.51636130257253
 20
-239.25
 30
0.0
 40
6.3000001907348633
 41
0.0
 71
               4
 72
               1
  1
\W0.984;\A1;CS-240M9AW/CS-240M9BW
  7
MX_NOTE_STANDARD
  0
MTEXT
  5
68A
100
AcDbEntity
  8
0
  6
CONTINUOUS
 62
               7
100
AcDbMText
 10
-369.51636130257253
 20
-224.25
 30
0.0
 40
6.3000001907348633
 41
0.0
 71
               4
 72
               1
  1
\W0.984;\A1;CS-240M8AW/CS-240M8BW
  7
MX_NOTE_STANDARD
  0
MTEXT
  5
68B
100
AcDbEntity
  8
0
  6
CONTINUOUS
 62
               7
100
AcDbMText
 10
-369.51636130257253
 20
-209.25
 30
0.0
 40
6.3000001907348633
 41
0.0
 71
               4
 72
               1
  1
\W0.984;\A1;CS-240M7AW/CS-240M7BW
  7
MX_NOTE_STANDARD
  0
MTEXT
  5
68C
100
AcDbEntity
  8
0
  6
CONTINUOUS
 62
               7
100
AcDbMText
 10
-369.51636130257253
 20
-194.25
 30
0.0
 40
6.3000001907348633
 41
0.0
 71
               4
 72
               1
  1
\W0.984;\A1;CS-240M6AW/CS-240M6BW
  7
MX_NOTE_STANDARD
  0
MTEXT
  5
68D
100
AcDbEntity
  8
0
  6
CONTINUOUS
 62
               7
100
AcDbMText
 10
-369.51636130257253
 20
-179.25
 30
0.0
 40
6.3000001907348633
 41
0.0
 71
               4
 72
               1
  1
\W0.984;\A1;CS-240M5AW/CS-240M5BW
  7
MX_NOTE_STANDARD
  0
MTEXT
  5
68E
100
AcDbEntity
  8
0
  6
CONTINUOUS
 62
               7
100
AcDbMText
 10
-369.51636130257253
 20
-164.25
 30
0.0
 40
6.3000001907348633
 41
0.0
 71
               4
 72
               1
  1
\W0.984;\A1;CS-240M4AW/CS-240M4BW
  7
MX_NOTE_STANDARD
  0
MTEXT
  5
68F
100
AcDbEntity
  8
0
  6
CONTINUOUS
 62
               7
100
AcDbMText
 10
-369.51636130257253
 20
-149.25
 30
0.0
 40
6.3000001907348633
 41
0.0
 71
               4
 72
               1
  1
\W0.984;\A1;CS-240M3AW/CS-240M3BW
  7
MX_NOTE_STANDARD
  0
MTEXT
  5
690
100
AcDbEntity
  8
0
  6
CONTINUOUS
 62
               7
100
AcDbMText
 10
-369.51636130257253
 20
-134.25
 30
0.0
 40
6.3000001907348633
 41
0.0
 71
               4
 72
               1
  1
\W0.984;\A1;CS-240M2AW/CS-240M2BW
  7
MX_NOTE_STANDARD
  0
MTEXT
  5
691
100
AcDbEntity
  8
0
  6
CONTINUOUS
 62
               7
100
AcDbMText
 10
-322.25000034968059
 20
-119.25
 30
0.0
 40
6.3000001907348633
 41
0.0
 71
               4
 72
               1
  1
\A1;TYPE
  7
MX_NOTE_STANDARD
  0
MTEXT
  5
692
100
AcDbEntity
  8
0
  6
CONTINUOUS
 62
               7
100
AcDbMText
 10
-382.20161353173125
 20
216.25
 30
0.0
 40
9.0
 41
0.0
 71
               4
 72
               1
  1
\W1.032;\A1;MODEL:CS-240M5BW
  7
MX_NOTE_STANDARD
  0
MTEXT
  5
693
100
AcDbEntity
  8
0
  6
CONTINUOUS
 62
               7
100
AcDbMText
 10
285.76701057054424
 20
263.75
 30
0.0
 40
9.0
 41
0.0
 71
               4
 72
               1
  1
\W1.311;\A1;Ver. 1.0
  7
MX_NOTE_STANDARD
  0
MTEXT
  5
694
100
AcDbEntity
  8
0
  6
CONTINUOUS
 62
               7
100
AcDbMText
 10
245.88456275493564
 20
-264.25
 30
0.0
 40
12.5
 41
0.0
 71
               4
 72
               1
  1
\W1.121;\A1;KOGANEI CORP.
  7
MX_NOTE_STANDARD
  0
MTEXT
  5
695
100
AcDbEntity
  8
0
  6
CONTINUOUS
 62
               7
100
AcDbMText
 10
-376.13844180829597
 20
263.75
 30
0.0
 40
9.0
 41
0.0
 71
               4
 72
               1
  1
\W1.074;\A1;CS-240 SERIES
  7
MX_NOTE_STANDARD
  0
LINE
  5
696
100
AcDbEntity
  8
0
  6
CONTINUOUS
 62
               7
100
AcDbLine
 10
-147.14999999999998
 20
-111.75
 30
0.0
 11
-147.14999999999998
 21
-261.75
 31
0.0
  0
LINE
  5
697
100
AcDbEntity
  8
0
  6
CONTINUOUS
 62
               7
100
AcDbLine
 10
-192.14999999999998
 20
-111.75
 30
0.0
 11
-192.14999999999998
 21
-261.75
 31
0.0
  0
LINE
  5
698
100
AcDbEntity
  8
0
  6
CONTINUOUS
 62
               7
100
AcDbLine
 10
-237.14999999999998
 20
-111.75
 30
0.0
 11
-237.14999999999998
 21
-261.75
 31
0.0
  0
LINE
  5
699
100
AcDbEntity
  8
0
  6
CONTINUOUS
 62
               7
100
AcDbLine
 10
-384.25
 20
-111.75
 30
0.0
 11
-384.25
 21
-261.75
 31
0.0
  0
LINE
  5
69A
100
AcDbEntity
  8
0
  6
CONTINUOUS
 62
               7
100
AcDbLine
 10
-384.25
 20
-111.75
 30
0.0
 11
-147.14999999999998
 21
-111.75
 31
0.0
  0
LINE
  5
69B
100
AcDbEntity
  8
0
  6
CONTINUOUS
 62
               7
100
AcDbLine
 10
-384.25
 20
-126.75
 30
0.0
 11
-147.14999999999998
 21
-126.75
 31
0.0
  0
LINE
  5
69C
100
AcDbEntity
  8
0
  6
CONTINUOUS
 62
               7
100
AcDbLine
 10
-384.25
 20
-141.75
 30
0.0
 11
-147.14999999999998
 21
-141.75
 31
0.0
  0
LINE
  5
69D
100
AcDbEntity
  8
0
  6
CONTINUOUS
 62
               7
100
AcDbLine
 10
-384.25
 20
-156.75
 30
0.0
 11
-147.14999999999998
 21
-156.75
 31
0.0
  0
LINE
  5
69E
100
AcDbEntity
  8
0
  6
CONTINUOUS
 62
               7
100
AcDbLine
 10
-384.25
 20
-171.75
 30
0.0
 11
-147.14999999999998
 21
-171.75
 31
0.0
  0
LINE
  5
69F
100
AcDbEntity
  8
0
  6
CONTINUOUS
 62
               7
100
AcDbLine
 10
-384.25
 20
-186.75
 30
0.0
 11
-147.14999999999998
 21
-186.75
 31
0.0
  0
LINE
  5
6A0
100
AcDbEntity
  8
0
  6
CONTINUOUS
 62
               7
100
AcDbLine
 10
-384.25
 20
-201.75
 30
0.0
 11
-147.14999999999998
 21
-201.75
 31
0.0
  0
LINE
  5
6A1
100
AcDbEntity
  8
0
  6
CONTINUOUS
 62
               7
100
AcDbLine
 10
-384.25
 20
-216.75
 30
0.0
 11
-147.14999999999998
 21
-216.75
 31
0.0
  0
LINE
  5
6A2
100
AcDbEntity
  8
0
  6
CONTINUOUS
 62
               7
100
AcDbLine
 10
-384.25
 20
-231.75
 30
0.0
 11
-147.14999999999998
 21
-231.75
 31
0.0
  0
LINE
  5
6A3
100
AcDbEntity
  8
0
  6
CONTINUOUS
 62
               7
100
AcDbLine
 10
-384.25
 20
-246.75
 30
0.0
 11
-147.14999999999998
 21
-246.75
 31
0.0
  0
LINE
  5
6A4
100
AcDbEntity
  8
0
  6
CONTINUOUS
 62
               7
100
AcDbLine
 10
-384.25
 20
-261.75
 30
0.0
 11
-147.14999999999998
 21
-261.75
 31
0.0
  0
LINE
  5
6A5
100
AcDbEntity
  8
0
  6
CONTINUOUS
 62
               7
100
AcDbLine
 10
-239.25
 20
276.25
 30
0.0
 11
-239.25
 21
251.25
 31
0.0
  0
LINE
  5
6A6
100
AcDbEntity
  8
0
  6
CONTINUOUS
 62
               7
100
AcDbLine
 10
239.80000000000001
 20
251.25
 30
0.0
 11
239.80000000000001
 21
276.25
 31
0.0
  0
LINE
  5
6A7
100
AcDbEntity
  8
0
  6
CONTINUOUS
 62
               7
100
AcDbLine
 10
239.80000000000001
 20
-251.75
 30
0.0
 11
239.80000000000001
 21
-276.75
 31
0.0
  0
LINE
  5
6A8
100
AcDbEntity
  8
0
  6
CONTINUOUS
 62
               7
100
AcDbLine
 10
-399.25
 20
251.25
 30
0.0
 11
-239.25
 21
251.25
 31
0.0
  0
LINE
  5
6A9
100
AcDbEntity
  8
0
  6
CONTINUOUS
 62
               7
100
AcDbLine
 10
239.80000000000001
 20
251.25
 30
0.0
 11
399.80000000000001
 21
251.25
 31
0.0
  0
LINE
  5
6AA
100
AcDbEntity
  8
0
  6
CONTINUOUS
 62
               7
100
AcDbLine
 10
239.80000000000001
 20
-251.75
 30
0.0
 11
399.80000000000001
 21
-251.75
 31
0.0
  0
LINE
  5
6AB
100
AcDbEntity
  8
0
  6
CONTINUOUS
 62
               7
100
AcDbLine
 10
-399.25
 20
-276.75
 30
0.0
 11
399.80000000000001
 21
-276.75
 31
0.0
  0
LINE
  5
6AC
100
AcDbEntity
  8
0
  6
CONTINUOUS
 62
               7
100
AcDbLine
 10
-399.25
 20
276.25
 30
0.0
 11
399.80000000000001
 21
276.25
 31
0.0
  0
LINE
  5
6AD
100
AcDbEntity
  8
0
  6
CONTINUOUS
 62
               7
100
AcDbLine
 10
-399.25
 20
276.25
 30
0.0
 11
-399.25
 21
-276.75
 31
0.0
  0
LINE
  5
6AE
100
AcDbEntity
  8
0
  6
CONTINUOUS
 62
               7
100
AcDbLine
 10
399.80000000000001
 20
276.25
 30
0.0
 11
399.80000000000001
 21
-276.75
 31
0.0
  0
ENDSEC
  0
SECTION
  2
OBJECTS
  0
DICTIONARY
  5
19
100
AcDbDictionary
  3
ACAD_GROUP
350
1A
  3
ACAD_MLINESTYLE
350
1B
  0
DICTIONARY
  5
1A
102
{ACAD_REACTORS
330
19
102
}
100
AcDbDictionary
  0
DICTIONARY
  5
1B
102
{ACAD_REACTORS
330
19
102
}
100
AcDbDictionary
  3
STANDARD
350
1C
  0
MLINESTYLE
  5
1C
102
{ACAD_REACTORS
330
1B
102
}
100
AcDbMlineStyle
  2
Standard
 70
               0
  3

 62
               0
 51
90.0
 52
90.0
 71
               2
 49
0.5
 62
             256
  6
ByLayer
 49
-0.5
 62
             256
  6
ByLayer
  0
ENDSEC
  0
EOF
