  0
SECTION
  2
HEADER
  9
$ACADVER
  1
AC1012
  9
$DWGCODEPAGE
  3
dos932
  9
$INSBASE
 10
0.0
 20
0.0
 30
0.0
  9
$EXTMIN
 10
-399.52490234375
 20
-276.5
 30
0.0
  9
$EXTMAX
 10
403.02503681182861
 20
276.5
 30
0.0
  9
$LIMMIN
 10
-399.52490234375
 20
-276.5
  9
$LIMMAX
 10
403.02503681182861
 20
276.5
  9
$ORTHOMODE
 70
               0
  9
$REGENMODE
 70
               1
  9
$FILLMODE
 70
               1
  9
$QTEXTMODE
 70
               0
  9
$MIRRTEXT
 70
               1
  9
$DRAGMODE
 70
               2
  9
$LTSCALE
 40
1.0
  9
$OSMODE
 70
               0
  9
$ATTMODE
 70
               1
  9
$TEXTSIZE
 40
3.2000000476837158
  9
$TRACEWID
 40
0.05
  9
$TEXTSTYLE
  7
MX_NOTE_STANDARD
  9
$CLAYER
  8
0
  9
$CELTYPE
  6
CONTINUOUS
  9
$CECOLOR
 62
             256
  9
$CELTSCALE
 40
1.0
  9
$DELOBJ
 70
               1
  9
$DISPSILH
 70
               0
  9
$DIMSCALE
 40
1.0
  9
$DIMASZ
 40
2.5
  9
$DIMEXO
 40
1.5
  9
$DIMDLI
 40
3.75
  9
$DIMRND
 40
0.0
  9
$DIMDLE
 40
0.0
  9
$DIMEXE
 40
1.5
  9
$DIMTP
 40
0.0
  9
$DIMTM
 40
0.0
  9
$DIMTXT
 40
3.2000000476837158
  9
$DIMCEN
 40
2.5
  9
$DIMTSZ
 40
0.0
  9
$DIMTOL
 70
               0
  9
$DIMLIM
 70
               0
  9
$DIMTIH
 70
               0
  9
$DIMTOH
 70
               0
  9
$DIMSE1
 70
               0
  9
$DIMSE2
 70
               0
  9
$DIMTAD
 70
               1
  9
$DIMZIN
 70
               8
  9
$DIMBLK
  1

  9
$DIMASO
 70
               1
  9
$DIMSHO
 70
               1
  9
$DIMPOST
  1

  9
$DIMAPOST
  1

  9
$DIMALT
 70
               0
  9
$DIMALTD
 70
               4
  9
$DIMALTF
 40
0.0394
  9
$DIMLFAC
 40
1.0
  9
$DIMTOFL
 70
               1
  9
$DIMTVP
 40
0.0
  9
$DIMTIX
 70
               0
  9
$DIMSOXD
 70
               0
  9
$DIMSAH
 70
               0
  9
$DIMBLK1
  1

  9
$DIMBLK2
  1

  9
$DIMSTYLE
  2
MXDIMSTYLE
  9
$DIMCLRD
 70
               0
  9
$DIMCLRE
 70
               0
  9
$DIMCLRT
 70
               0
  9
$DIMTFAC
 40
1.0
  9
$DIMGAP
 40
1.0
  9
$DIMJUST
 70
               0
  9
$DIMSD1
 70
               0
  9
$DIMSD2
 70
               0
  9
$DIMTOLJ
 70
               1
  9
$DIMTZIN
 70
               0
  9
$DIMALTZ
 70
               0
  9
$DIMALTTZ
 70
               0
  9
$DIMFIT
 70
               3
  9
$DIMUPT
 70
               1
  9
$DIMUNIT
 70
               2
  9
$DIMDEC
 70
               4
  9
$DIMTDEC
 70
               4
  9
$DIMALTU
 70
               8
  9
$DIMALTTD
 70
               4
  9
$DIMTXSTY
  7
MX_NOTE_STANDARD
  9
$DIMAUNIT
 70
               0
  9
$LUNITS
 70
               2
  9
$LUPREC
 70
               4
  9
$SKETCHINC
 40
0.1
  9
$FILLETRAD
 40
0.0
  9
$AUNITS
 70
               0
  9
$AUPREC
 70
               0
  9
$MENU
  1
acad
  9
$ELEVATION
 40
0.0
  9
$PELEVATION
 40
0.0
  9
$THICKNESS
 40
0.0
  9
$LIMCHECK
 70
               0
  9
$BLIPMODE
 70
               1
  9
$CHAMFERA
 40
0.0
  9
$CHAMFERB
 40
0.0
  9
$CHAMFERC
 40
0.0
  9
$CHAMFERD
 40
0.0
  9
$SKPOLY
 70
               0
  9
$TDCREATE
 40
2452220.697094908
  9
$TDUPDATE
 40
2452220.697094908
  9
$TDINDWG
 40
0.0000000000
  9
$TDUSRTIMER
 40
0.0000000000
  9
$USRTIMER
 70
               1
  9
$ANGBASE
 50
0.0
  9
$ANGDIR
 70
               0
  9
$PDMODE
 70
               0
  9
$PDSIZE
 40
0.0
  9
$PLINEWID
 40
0.0
  9
$COORDS
 70
               1
  9
$SPLFRAME
 70
               0
  9
$SPLINETYPE
 70
               6
  9
$SPLINESEGS
 70
               8
  9
$ATTDIA
 70
               0
  9
$ATTREQ
 70
               1
  9
$HANDLING
 70
               1
  9
$HANDSEED
  5
88E
  9
$SURFTAB1
 70
               6
  9
$SURFTAB2
 70
               6
  9
$SURFTYPE
 70
               6
  9
$SURFU
 70
               6
  9
$SURFV
 70
               6
  9
$UCSNAME
  2

  9
$UCSORG
 10
0.0
 20
0.0
 30
0.0
  9
$UCSXDIR
 10
1.0
 20
0.0
 30
0.0
  9
$UCSYDIR
 10
0.0
 20
1.0
 30
0.0
  9
$PUCSNAME
  2

  9
$PUCSORG
 10
0.0
 20
0.0
 30
0.0
  9
$PUCSXDIR
 10
1.0
 20
0.0
 30
0.0
  9
$PUCSYDIR
 10
0.0
 20
1.0
 30
0.0
  9
$USERI1
 70
               0
  9
$USERI2
 70
               0
  9
$USERI3
 70
               0
  9
$USERI4
 70
               0
  9
$USERI5
 70
               0
  9
$USERR1
 40
0.0
  9
$USERR2
 40
0.0
  9
$USERR3
 40
0.0
  9
$USERR4
 40
0.0
  9
$USERR5
 40
0.0
  9
$WORLDVIEW
 70
               1
  9
$SHADEDGE
 70
               3
  9
$SHADEDIF
 70
              70
  9
$TILEMODE
 70
               1
  9
$MAXACTVP
 70
              16
  9
$PINSBASE
 10
0.0
 20
0.0
 30
0.0
  9
$PLIMCHECK
 70
               0
  9
$PEXTMIN
 10
1.0000000000000000E+20
 20
1.0000000000000000E+20
 30
1.0000000000000000E+20
  9
$PEXTMAX
 10
-1.0000000000000000E+20
 20
-1.0000000000000000E+20
 30
-1.0000000000000000E+20
  9
$PLIMMIN
 10
0.0
 20
0.0
  9
$PLIMMAX
 10
12.0
 20
9.0
  9
$UNITMODE
 70
               0
  9
$VISRETAIN
 70
               0
  9
$PLINEGEN
 70
               1
  9
$PSLTSCALE
 70
               0
  9
$TREEDEPTH
 70
            3020
  9
$PICKSTYLE
 70
               1
  9
$CMLSTYLE
  2
Standard
  9
$CMLJUST
 70
               0
  9
$CMLSCALE
 40
1.0
  9
$SAVEIMAGES
 70
               0
  0
ENDSEC
  0
SECTION
  2
CLASSES
  0
CLASS
  1
LWPOLYLINE
  2
AcDbPolyline
  3
"AutoCAD"
 90
        0
280
               0
281
               1
  0
CLASS
  1
IMAGE
  2
AcDbRasterImage
  3
ISM
 90
      127
280
               0
281
               1
  0
CLASS
  1
OLE2FRAME
  2
AcDbOle2Frame
  3
""
 90
        0
280
               0
281
               1
  0
CLASS
  1
HATCH
  2
AcDbHatch
  3
"ACAD_SEDONA"
 90
        0
280
               0
281
               1
  0
CLASS
  1
DICTIONARYVAR
  2
AcDbDictionaryVar
  3
"AutoCAD"
 90
        0
280
               0
281
               0
  0
CLASS
  1
RASTERVARIABLES
  2
AcDbRasterVariables
  3
ISM
 90
        0
280
               0
281
               0
  0
CLASS
  1
IMAGEDEF
  2
AcDbRasterImageDef
  3
ISM
 90
        0
280
               0
281
               0
  0
CLASS
  1
IMAGEDEF_REACTOR
  2
AcDbRasterImageDefReactor
  3
ISM
 90
        1
280
               0
281
               0
  0
CLASS
  1
IDBUFFER
  2
AcDbIdBuffer
  3
"Acad"
 90
        0
280
               0
281
               0
  0
CLASS
  1
SPATIAL_FILTER
  2
AcDbSpatialFilter
  3
"Acad"
 90
        0
280
               0
281
               0
  0
CLASS
  1
XRECORD
  2
AcDbXrecord
  3
"<Built In>"
 90
        0
280
               0
281
               0
  0
CLASS
  1
SORTENTSTABLE
  2
AcDbSortentsTable
  3
"AutoCAD"
 90
        0
280
               0
281
               0
  0
CLASS
  1
LAYER_INDEX
  2
AcDbLayerIndex
  3
"Acad"
 90
        0
280
               0
281
               0
  0
CLASS
  1
SPATIAL_INDEX
  2
AcDbSpatialIndex
  3
"Acad"
 90
        0
280
               0
281
               0
  0
CLASS
  1
OBJECT_PTR
  2
CAseDLPNTableRecord
  3
"ASE-LPNTableRecord"
 90
        1
280
               0
281
               0
  0
CLASS
  1
LAYOUT
  2
AcDbLayout
  3
"AutoCAD 2000"
 90
        1
280
               0
281
               0
  0
CLASS
  1
PLOTSETTINGS
  2
AcDbPlotSettings
  3
"AutoCAD 2000"
 90
        1
280
               0
281
               0
  0
CLASS
  1
ACDBDICTIONARYWDFLT
  2
AcDbDictionaryWithDefault
  3
"AutoCAD 2000"
 90
        1
280
               0
281
               0
  0
CLASS
  1
ACDBPLACEHOLDER
  2
AcDbPlaceHolder
  3
"AutoCAD 2000"
 90
        1
280
               0
281
               0
  0
CLASS
  1
VBA_PROJECT
  2
AcDbVbaProject
  3
"acadvba"
 90
        1
280
               0
281
               0
  0
CLASS
  1
WIPEOUT
  2
AcDbWipeout
  3
WipeOut|AutoCAD Express Tool|expresstools@autodesk.com
 90
      127
280
               0
281
               1
  0
CLASS
  1
WIPEOUTVARIABLES
  2
AcDbWipeoutVariables
  3
WipeOut|AutoCAD Express Tool|expresstools@autodesk.com
 90
        0
280
               0
281
               0
  0
CLASS
  1
RTEXT
  2
RText
  3
RText|AutoCAD Express Tool|expresstools@autodesk.com
 90
        0
280
               0
281
               1
  0
CLASS
  1
ARCALIGNEDTEXT
  2
AcDbArcAlignedText
  3
ATEXT|AutoCAD Express Tool|expresstools@autodesk.com
 90
        0
280
               0
281
               1
  0
ENDSEC
  0
SECTION
  2
TABLES
  0
TABLE
  2
VPORT
  5
7
100
AcDbSymbolTable
 70
               1
  0
VPORT
  5
15
100
AcDbSymbolTableRecord
100
AcDbViewportTableRecord
  2
*ACTIVE
 70
               0
 10
0.0
 20
0.0
 11
1.0
 21
1.0
 12
1.7500672340393066
 22
0.0
 13
0.0
 23
0.0
 14
1.0
 24
1.0
 15
0.0
 25
0.0
 16
0.0
 26
0.0
 36
1.0
 17
0.0
 27
0.0
 37
0.0
 40
558.52999999999997
 41
1.7320508075688772
 42
50.0
 43
0.0
 44
0.0
 50
0.0
 51
0.0
 71
               0
 72
             100
 73
               1
 74
               1
 75
               0
 76
               0
 77
               0
 78
               0
  0
ENDTAB
  0
TABLE
  2
LTYPE
  5
4
100
AcDbSymbolTable
 70
               5
  0
LTYPE
  5
11
100
AcDbSymbolTableRecord
100
AcDbLinetypeTableRecord
  2
BYBLOCK
 70
              64
  3

 72
              65
 73
               0
 40
0.0
  0
LTYPE
  5
12
100
AcDbSymbolTableRecord
100
AcDbLinetypeTableRecord
  2
BYLAYER
 70
              64
  3

 72
              65
 73
               0
 40
0.0
  0
LTYPE
  5
13
100
AcDbSymbolTableRecord
100
AcDbLinetypeTableRecord
  2
CONTINUOUS
 70
              64
  3
Solid line
 72
              65
 73
               0
 40
0.0
  0
LTYPE
  5
29
100
AcDbSymbolTableRecord
100
AcDbLinetypeTableRecord
  2
CENTER
 70
              64
  3
Center ____ _ ____ _ ____ _ ____ _ ____ _ ____
 72
              65
 73
               4
 40
50.800000000000004
 49
31.75
 74
               0
 49
-6.3499999999999996
 74
               0
 49
6.3499999999999996
 74
               0
 49
-6.3499999999999996
 74
               0
  0
LTYPE
  5
79F
100
AcDbSymbolTableRecord
100
AcDbLinetypeTableRecord
  2
DASHED
 70
              64
  3
Dashed __ __ __ __ __ __ __ __ __ __ __ __ __ _
 72
              65
 73
               2
 40
19.049999999999997
 49
12.699999999999999
 74
               0
 49
-6.3499999999999996
 74
               0
  0
ENDTAB
  0
TABLE
  2
LAYER
  5
2
100
AcDbSymbolTable
 70
               2
  0
LAYER
  5
14
100
AcDbSymbolTableRecord
100
AcDbLayerTableRecord
  2
0
 70
               0
 62
               7
  6
CONTINUOUS
  0
LAYER
  5
1D
100
AcDbSymbolTableRecord
100
AcDbLayerTableRecord
  2
DEFPOINTS
 70
               0
 62
               7
  6
CONTINUOUS
  0
ENDTAB
  0
TABLE
  2
STYLE
  5
3
100
AcDbSymbolTable
 70
               1
  0
STYLE
  5
17
100
AcDbSymbolTableRecord
100
AcDbTextStyleTableRecord
  2
MX_NOTE_STANDARD
 70
               0
 40
3.2000000476837158
 41
1.0
 50
0.0
 71
               0
 42
3.2000000476837158
  3
txt.shx
  4
extfont.shx
  0
ENDTAB
  0
TABLE
  2
VIEW
  5
5
100
AcDbSymbolTable
 70
               0
  0
ENDTAB
  0
TABLE
  2
UCS
  5
6
100
AcDbSymbolTable
 70
               0
  0
ENDTAB
  0
TABLE
  2
APPID
  5
8
100
AcDbSymbolTable
 70
               1
  0
APPID
  5
16
100
AcDbSymbolTableRecord
100
AcDbRegAppTableRecord
  2
ACAD
 70
               0
  0
ENDTAB
  0
TABLE
  2
DIMSTYLE
  5
9
100
AcDbSymbolTable
 70
               1
  0
DIMSTYLE
105
18
100
AcDbSymbolTableRecord
100
AcDbDimStyleTableRecord
  2
MXDIMSTYLE
 70
               0
  3

  4

  5

  6

  7

 40
1.0
 41
2.5
 42
1.5
 43
3.75
 44
1.5
 45
0.0
 46
0.0
 47
0.0
 48
0.0
 71
               0
 72
               0
 73
               0
 74
               0
 75
               0
 76
               0
 77
               1
 78
               8
140
3.2000000476837158
141
2.5
142
0.0
143
0.0394
144
1.0
145
0.0
146
1.0
147
1.0
170
               0
171
               4
172
               1
173
               0
174
               0
175
               0
176
               0
177
               0
178
               0
270
               2
271
               4
272
               4
273
               8
274
               4
275
               0
280
               0
281
               0
282
               0
283
               1
284
               0
285
               0
286
               0
287
               3
288
               1
340
17
  0
ENDTAB
  0
TABLE
  2
BLOCK_RECORD
  5
1
100
AcDbSymbolTable
 70
              19
  0
BLOCK_RECORD
  5
A
100
AcDbSymbolTableRecord
100
AcDbBlockTableRecord
  2
*MODEL_SPACE
  0
BLOCK_RECORD
  5
B
100
AcDbSymbolTableRecord
100
AcDbBlockTableRecord
  2
*PAPER_SPACE
  0
BLOCK_RECORD
  5
1E
100
AcDbSymbolTableRecord
100
AcDbBlockTableRecord
  2
MS_1
  0
BLOCK_RECORD
  5
1F
100
AcDbSymbolTableRecord
100
AcDbBlockTableRecord
  2
MS_2
  0
BLOCK_RECORD
  5
20
100
AcDbSymbolTableRecord
100
AcDbBlockTableRecord
  2
MS_3
  0
BLOCK_RECORD
  5
21
100
AcDbSymbolTableRecord
100
AcDbBlockTableRecord
  2
MS_4
  0
BLOCK_RECORD
  5
22
100
AcDbSymbolTableRecord
100
AcDbBlockTableRecord
  2
MS_5
  0
BLOCK_RECORD
  5
23
100
AcDbSymbolTableRecord
100
AcDbBlockTableRecord
  2
MS_6
  0
BLOCK_RECORD
  5
24
100
AcDbSymbolTableRecord
100
AcDbBlockTableRecord
  2
MS_7
  0
BLOCK_RECORD
  5
25
100
AcDbSymbolTableRecord
100
AcDbBlockTableRecord
  2
MS_8
  0
BLOCK_RECORD
  5
26
100
AcDbSymbolTableRecord
100
AcDbBlockTableRecord
  2
MS_9
  0
BLOCK_RECORD
  5
27
100
AcDbSymbolTableRecord
100
AcDbBlockTableRecord
  2
MS_10
  0
BLOCK_RECORD
  5
7A6
100
AcDbSymbolTableRecord
100
AcDbBlockTableRecord
  2
*D10
  0
BLOCK_RECORD
  5
7AB
100
AcDbSymbolTableRecord
100
AcDbBlockTableRecord
  2
_OPEN30
  0
BLOCK_RECORD
  5
7B9
100
AcDbSymbolTableRecord
100
AcDbBlockTableRecord
  2
*D12
  0
BLOCK_RECORD
  5
7C7
100
AcDbSymbolTableRecord
100
AcDbBlockTableRecord
  2
*D13
  0
BLOCK_RECORD
  5
7D3
100
AcDbSymbolTableRecord
100
AcDbBlockTableRecord
  2
*D14
  0
BLOCK_RECORD
  5
840
100
AcDbSymbolTableRecord
100
AcDbBlockTableRecord
  2
*D15
  0
BLOCK_RECORD
  5
84F
100
AcDbSymbolTableRecord
100
AcDbBlockTableRecord
  2
*D16
  0
BLOCK_RECORD
  5
85B
100
AcDbSymbolTableRecord
100
AcDbBlockTableRecord
  2
*D17
  0
BLOCK_RECORD
  5
869
100
AcDbSymbolTableRecord
100
AcDbBlockTableRecord
  2
*D18
  0
ENDTAB
  0
ENDSEC
  0
SECTION
  2
BLOCKS
  0
BLOCK
  5
D
100
AcDbEntity
  8
0
100
AcDbBlockBegin
  2
*MODEL_SPACE
 70
               0
 10
0.0
 20
0.0
 30
0.0
  3
*MODEL_SPACE
  1

  0
ENDBLK
  5
E
100
AcDbEntity
  8
0
100
AcDbBlockEnd
  0
BLOCK
  5
F
100
AcDbEntity
 67
               1
  8
0
100
AcDbBlockBegin
  2
*PAPER_SPACE
 70
               0
 10
0.0
 20
0.0
 30
0.0
  3
*PAPER_SPACE
  1

  0
ENDBLK
  5
10
100
AcDbEntity
 67
               1
  8
0
100
AcDbBlockEnd
  0
BLOCK
  5
28
100
AcDbEntity
  8
0
100
AcDbBlockBegin
  2
MS_1
 70
               0
 10
0.0
 20
0.0
 30
0.0
  3
MS_1
  1

  0
LINE
  5
2A
100
AcDbEntity
  8
0
  6
CENTER
 62
             200
100
AcDbLine
 10
71.0
 20
-44.579999999999998
 30
0.0
 11
71.0
 21
32.659999999999997
 31
0.0
  0
LINE
  5
2B
100
AcDbEntity
  8
0
  6
CONTINUOUS
 62
               4
100
AcDbLine
 10
62.0
 20
-38.0
 30
0.0
 11
62.0
 21
-32.649999999999999
 31
0.0
  0
LINE
  5
2C
100
AcDbEntity
  8
0
  6
CONTINUOUS
 62
               4
100
AcDbLine
 10
63.43
 20
-32.060000000000002
 30
0.0
 11
65.560000000000002
 21
-29.93
 31
0.0
  0
LINE
  5
2D
100
AcDbEntity
  8
0
  6
CONTINUOUS
 62
               4
100
AcDbLine
 10
63.43
 20
-29.93
 30
0.0
 11
65.560000000000002
 21
-32.060000000000002
 31
0.0
  0
LINE
  5
2E
100
AcDbEntity
  8
0
  6
CONTINUOUS
 62
               4
100
AcDbLine
 10
76.430000000000007
 20
7.9299999999999997
 30
0.0
 11
78.560000000000002
 21
10.06
 31
0.0
  0
LINE
  5
2F
100
AcDbEntity
  8
0
  6
CONTINUOUS
 62
               4
100
AcDbLine
 10
76.430000000000007
 20
10.06
 30
0.0
 11
78.560000000000002
 21
7.9299999999999997
 31
0.0
  0
LINE
  5
30
100
AcDbEntity
  8
0
  6
CONTINUOUS
 62
               4
100
AcDbLine
 10
62.0
 20
-29.350000000000001
 30
0.0
 11
62.0
 21
28.0
 31
0.0
  0
LINE
  5
31
100
AcDbEntity
  8
0
  6
CONTINUOUS
 62
               4
100
AcDbLine
 10
80.0
 20
10.65
 30
0.0
 11
80.0
 21
28.0
 31
0.0
  0
LINE
  5
32
100
AcDbEntity
  8
0
  6
CONTINUOUS
 62
               4
100
AcDbLine
 10
80.0
 20
-38.0
 30
0.0
 11
80.0
 21
7.3499999999999996
 31
0.0
  0
LINE
  5
33
100
AcDbEntity
  8
0
  6
CONTINUOUS
 62
               4
100
AcDbLine
 10
62.0
 20
-38.0
 30
0.0
 11
80.0
 21
-38.0
 31
0.0
  0
LINE
  5
34
100
AcDbEntity
  8
0
  6
CONTINUOUS
 62
               4
100
AcDbLine
 10
62.0
 20
28.0
 30
0.0
 11
80.0
 21
28.0
 31
0.0
  0
LINE
  5
35
100
AcDbEntity
  8
0
  6
CONTINUOUS
 62
               4
100
AcDbLine
 10
62.0
 20
-29.350000000000001
 30
0.0
 11
62.229999999999997
 21
-29.350000000000001
 31
0.0
  0
LINE
  5
36
100
AcDbEntity
  8
0
  6
CONTINUOUS
 62
               4
100
AcDbLine
 10
62.0
 20
-32.649999999999999
 30
0.0
 11
62.229999999999997
 21
-32.649999999999999
 31
0.0
  0
LINE
  5
37
100
AcDbEntity
  8
0
  6
CONTINUOUS
 62
               4
100
AcDbLine
 10
79.760000000000005
 20
10.65
 30
0.0
 11
80.0
 21
10.65
 31
0.0
  0
LINE
  5
38
100
AcDbEntity
  8
0
  6
CONTINUOUS
 62
               4
100
AcDbLine
 10
79.760000000000005
 20
7.3499999999999996
 30
0.0
 11
80.0
 21
7.3499999999999996
 31
0.0
  0
LINE
  5
39
100
AcDbEntity
  8
0
  6
CONTINUOUS
 62
               7
100
AcDbLine
 10
-5.0
 20
-48.0
 30
0.0
 11
-5.0
 21
29.0
 31
0.0
  0
LINE
  5
3A
100
AcDbEntity
  8
0
  6
CONTINUOUS
 62
               7
100
AcDbLine
 10
90.0
 20
-48.0
 30
0.0
 11
90.0
 21
29.0
 31
0.0
  0
LINE
  5
3B
100
AcDbEntity
  8
0
  6
CONTINUOUS
 62
               7
100
AcDbLine
 10
-5.0
 20
-48.0
 30
0.0
 11
5.0
 21
-48.0
 31
0.0
  0
LINE
  5
3C
100
AcDbEntity
  8
0
  6
CONTINUOUS
 62
               7
100
AcDbLine
 10
19.0
 20
29.0
 30
0.0
 11
28.0
 21
29.0
 31
0.0
  0
LINE
  5
3D
100
AcDbEntity
  8
0
  6
CONTINUOUS
 62
               7
100
AcDbLine
 10
57.0
 20
29.0
 30
0.0
 11
90.0
 21
29.0
 31
0.0
  0
LINE
  5
3E
100
AcDbEntity
  8
0
  6
CONTINUOUS
 62
               7
100
AcDbLine
 10
23.0
 20
-48.0
 30
0.0
 11
24.0
 21
-48.0
 31
0.0
  0
LINE
  5
3F
100
AcDbEntity
  8
0
  6
CONTINUOUS
 62
               7
100
AcDbLine
 10
42.0
 20
-48.0
 30
0.0
 11
43.0
 21
-48.0
 31
0.0
  0
LINE
  5
40
100
AcDbEntity
  8
0
  6
CONTINUOUS
 62
               7
100
AcDbLine
 10
61.0
 20
-48.0
 30
0.0
 11
90.0
 21
-48.0
 31
0.0
  0
LINE
  5
41
100
AcDbEntity
  8
0
  6
CENTER
 62
               2
100
AcDbLine
 10
0.0
 20
-26.25
 30
0.0
 11
0.0
 21
-19.75
 31
0.0
  0
LINE
  5
42
100
AcDbEntity
  8
0
  6
CENTER
 62
               2
100
AcDbLine
 10
85.0
 20
-26.25
 30
0.0
 11
85.0
 21
-19.75
 31
0.0
  0
LINE
  5
43
100
AcDbEntity
  8
0
  6
CENTER
 62
               2
100
AcDbLine
 10
-3.25
 20
-23.0
 30
0.0
 11
3.25
 21
-23.0
 31
0.0
  0
LINE
  5
44
100
AcDbEntity
  8
0
  6
CENTER
 62
               2
100
AcDbLine
 10
-3.25
 20
0.0
 30
0.0
 11
3.25
 21
0.0
 31
0.0
  0
LINE
  5
45
100
AcDbEntity
  8
0
  6
CENTER
 62
               2
100
AcDbLine
 10
81.75
 20
0.0
 30
0.0
 11
88.25
 21
0.0
 31
0.0
  0
LINE
  5
46
100
AcDbEntity
  8
0
  6
CENTER
 62
               2
100
AcDbLine
 10
81.75
 20
-23.0
 30
0.0
 11
88.25
 21
-23.0
 31
0.0
  0
LINE
  5
47
100
AcDbEntity
  8
0
  6
CENTER
 62
               2
100
AcDbLine
 10
0.0
 20
-3.25
 30
0.0
 11
0.0
 21
3.25
 31
0.0
  0
LINE
  5
48
100
AcDbEntity
  8
0
  6
CENTER
 62
               2
100
AcDbLine
 10
85.0
 20
-3.25
 30
0.0
 11
85.0
 21
3.25
 31
0.0
  0
LINE
  5
49
100
AcDbEntity
  8
0
  6
CONTINUOUS
 62
               7
100
AcDbLine
 10
9.0
 20
29.5
 30
0.0
 11
19.0
 21
29.5
 31
0.0
  0
LINE
  5
4A
100
AcDbEntity
  8
0
  6
CENTER
 62
               2
100
AcDbLine
 10
11.5
 20
35.700000000000003
 30
0.0
 11
16.5
 21
35.700000000000003
 31
0.0
  0
LINE
  5
4B
100
AcDbEntity
  8
0
  6
CENTER
 62
               2
100
AcDbLine
 10
14.0
 20
-63.799999999999997
 30
0.0
 11
14.0
 21
84.75
 31
0.0
  0
LINE
  5
4C
100
AcDbEntity
  8
0
  6
CONTINUOUS
 62
               4
100
AcDbLine
 10
9.0
 20
63.0
 30
0.0
 11
19.0
 21
63.0
 31
0.0
  0
LINE
  5
4D
100
AcDbEntity
  8
0
  6
CONTINUOUS
 62
               7
100
AcDbLine
 10
12.07
 20
35.399999999999999
 30
0.0
 11
15.92
 21
35.399999999999999
 31
0.0
  0
LINE
  5
4E
100
AcDbEntity
  8
0
  6
CONTINUOUS
 62
               7
100
AcDbLine
 10
12.07
 20
36.0
 30
0.0
 11
15.92
 21
36.0
 31
0.0
  0
LINE
  5
4F
100
AcDbEntity
  8
0
  6
CONTINUOUS
 62
               4
100
AcDbLine
 10
9.0500000000000007
 20
63.0
 30
0.0
 11
9.0500000000000007
 21
76.5
 31
0.0
  0
LINE
  5
50
100
AcDbEntity
  8
0
  6
CONTINUOUS
 62
               4
100
AcDbLine
 10
18.5
 20
72.0
 30
0.0
 11
9.5
 21
72.0
 31
0.0
  0
LINE
  5
51
100
AcDbEntity
  8
0
  6
CONTINUOUS
 62
               4
100
AcDbLine
 10
18.949999999999999
 20
67.5
 30
0.0
 11
9.0500000000000007
 21
67.5
 31
0.0
  0
LINE
  5
52
100
AcDbEntity
  8
0
  6
CONTINUOUS
 62
               4
100
AcDbLine
 10
18.949999999999999
 20
63.0
 30
0.0
 11
18.949999999999999
 21
76.5
 31
0.0
  0
LINE
  5
53
100
AcDbEntity
  8
0
  6
CONTINUOUS
 62
             200
100
AcDbLine
 10
14.0
 20
85.739999999999995
 30
0.0
 11
9.9499999999999993
 21
83.400000000000006
 31
0.0
  0
LINE
  5
54
100
AcDbEntity
  8
0
  6
CONTINUOUS
 62
               4
100
AcDbLine
 10
9.0500000000000007
 20
76.5
 30
0.0
 11
10.5
 21
76.5
 31
0.0
  0
LINE
  5
55
100
AcDbEntity
  8
0
  6
CONTINUOUS
 62
               4
100
AcDbLine
 10
9.9499999999999993
 20
72.0
 30
0.0
 11
9.9499999999999993
 21
74.5
 31
0.0
  0
LINE
  5
56
100
AcDbEntity
  8
0
  6
CONTINUOUS
 62
               4
100
AcDbLine
 10
18.050000000000001
 20
72.0
 30
0.0
 11
18.050000000000001
 21
74.5
 31
0.0
  0
LINE
  5
57
100
AcDbEntity
  8
0
  6
CONTINUOUS
 62
               4
100
AcDbLine
 10
17.5
 20
72.489999999999995
 30
0.0
 11
17.5
 21
83.0
 31
0.0
  0
LINE
  5
58
100
AcDbEntity
  8
0
  6
CONTINUOUS
 62
               4
100
AcDbLine
 10
10.5
 20
72.489999999999995
 30
0.0
 11
10.5
 21
83.0
 31
0.0
  0
LINE
  5
59
100
AcDbEntity
  8
0
  6
CONTINUOUS
 62
               4
100
AcDbLine
 10
10.5
 20
72.489999999999995
 30
0.0
 11
17.5
 21
72.489999999999995
 31
0.0
  0
LINE
  5
5A
100
AcDbEntity
  8
0
  6
CONTINUOUS
 62
               4
100
AcDbLine
 10
10.5
 20
76.049999999999997
 30
0.0
 11
17.5
 21
76.049999999999997
 31
0.0
  0
LINE
  5
5B
100
AcDbEntity
  8
0
  6
CONTINUOUS
 62
               4
100
AcDbLine
 10
10.5
 20
81.5
 30
0.0
 11
17.5
 21
81.5
 31
0.0
  0
LINE
  5
5C
100
AcDbEntity
  8
0
  6
CONTINUOUS
 62
               4
100
AcDbLine
 10
9.0999999999999996
 20
83.0
 30
0.0
 11
18.899999999999999
 21
83.0
 31
0.0
  0
LINE
  5
5D
100
AcDbEntity
  8
0
  6
CONTINUOUS
 62
               4
100
AcDbLine
 10
17.5
 20
76.5
 30
0.0
 11
18.949999999999999
 21
76.5
 31
0.0
  0
LINE
  5
5E
100
AcDbEntity
  8
0
  6
CONTINUOUS
 62
               4
100
AcDbLine
 10
17.5
 20
75.5
 30
0.0
 11
18.050000000000001
 21
75.5
 31
0.0
  0
LINE
  5
5F
100
AcDbEntity
  8
0
  6
CONTINUOUS
 62
               4
100
AcDbLine
 10
17.5
 20
74.5
 30
0.0
 11
18.050000000000001
 21
74.5
 31
0.0
  0
LINE
  5
60
100
AcDbEntity
  8
0
  6
CONTINUOUS
 62
               4
100
AcDbLine
 10
9.9499999999999993
 20
75.5
 30
0.0
 11
10.5
 21
75.5
 31
0.0
  0
LINE
  5
61
100
AcDbEntity
  8
0
  6
CONTINUOUS
 62
               4
100
AcDbLine
 10
9.9499999999999993
 20
74.5
 30
0.0
 11
10.5
 21
74.5
 31
0.0
  0
LINE
  5
62
100
AcDbEntity
  8
0
  6
CONTINUOUS
 62
               4
100
AcDbLine
 10
9.9499999999999993
 20
75.5
 30
0.0
 11
9.9499999999999993
 21
76.5
 31
0.0
  0
LINE
  5
63
100
AcDbEntity
  8
0
  6
CONTINUOUS
 62
               4
100
AcDbLine
 10
18.050000000000001
 20
75.5
 30
0.0
 11
18.050000000000001
 21
76.5
 31
0.0
  0
LINE
  5
64
100
AcDbEntity
  8
0
  6
CONTINUOUS
 62
               4
100
AcDbLine
 10
12.710000000000001
 20
86.150000000000006
 30
0.0
 11
12.710000000000001
 21
91.0
 31
0.0
  0
LINE
  5
65
100
AcDbEntity
  8
0
  6
CONTINUOUS
 62
               4
100
AcDbLine
 10
11.279999999999999
 20
85.319999999999993
 30
0.0
 11
11.279999999999999
 21
91.0
 31
0.0
  0
LINE
  5
66
100
AcDbEntity
  8
0
  6
CONTINUOUS
 62
               4
100
AcDbLine
 10
11.279999999999999
 20
91.0
 30
0.0
 11
12.710000000000001
 21
91.0
 31
0.0
  0
LINE
  5
67
100
AcDbEntity
  8
0
  6
CONTINUOUS
 62
               4
100
AcDbLine
 10
12.4
 20
91.0
 30
0.0
 11
12.4
 21
96.0
 31
0.0
  0
LINE
  5
68
100
AcDbEntity
  8
0
  6
CONTINUOUS
 62
               4
100
AcDbLine
 10
11.6
 20
91.0
 30
0.0
 11
11.6
 21
96.0
 31
0.0
  0
LINE
  5
69
100
AcDbEntity
  8
0
  6
CONTINUOUS
 62
               4
100
AcDbLine
 10
11.6
 20
96.0
 30
0.0
 11
12.4
 21
96.0
 31
0.0
  0
LINE
  5
6A
100
AcDbEntity
  8
0
  6
CONTINUOUS
 62
               4
100
AcDbLine
 10
12.710000000000001
 20
83.0
 30
0.0
 11
12.710000000000001
 21
85.0
 31
0.0
  0
LINE
  5
6B
100
AcDbEntity
  8
0
  6
CONTINUOUS
 62
               4
100
AcDbLine
 10
11.279999999999999
 20
83.0
 30
0.0
 11
11.279999999999999
 21
84.170000000000002
 31
0.0
  0
LINE
  5
6C
100
AcDbEntity
  8
0
  6
CONTINUOUS
 62
             200
100
AcDbLine
 10
14.0
 20
86.890000000000001
 30
0.0
 11
9.9499999999999993
 21
84.549999999999997
 31
0.0
  0
LINE
  5
6D
100
AcDbEntity
  8
0
  6
CONTINUOUS
 62
               4
100
AcDbLine
 10
18.899999999999999
 20
76.5
 30
0.0
 11
18.899999999999999
 21
83.0
 31
0.0
  0
LINE
  5
6E
100
AcDbEntity
  8
0
  6
CONTINUOUS
 62
               4
100
AcDbLine
 10
9.0999999999999996
 20
76.5
 30
0.0
 11
9.0999999999999996
 21
83.0
 31
0.0
  0
LINE
  5
6F
100
AcDbEntity
  8
0
  6
CONTINUOUS
 62
               4
100
AcDbLine
 10
10.0
 20
76.5
 30
0.0
 11
10.0
 21
83.0
 31
0.0
  0
LINE
  5
70
100
AcDbEntity
  8
0
  6
CONTINUOUS
 62
               4
100
AcDbLine
 10
18.0
 20
76.5
 30
0.0
 11
18.0
 21
83.0
 31
0.0
  0
LINE
  5
71
100
AcDbEntity
  8
0
  6
CONTINUOUS
 62
               7
100
AcDbLine
 10
5.0
 20
15.5
 30
0.0
 11
23.0
 21
15.5
 31
0.0
  0
LINE
  5
72
100
AcDbEntity
  8
0
  6
CONTINUOUS
 62
               7
100
AcDbLine
 10
23.0
 20
-60.0
 30
0.0
 11
23.0
 21
-34.140000000000001
 31
0.0
  0
LINE
  5
73
100
AcDbEntity
  8
0
  6
CONTINUOUS
 62
               7
100
AcDbLine
 10
5.0
 20
25.5
 30
0.0
 11
23.0
 21
25.5
 31
0.0
  0
LINE
  5
74
100
AcDbEntity
  8
0
  6
CONTINUOUS
 62
               7
100
AcDbLine
 10
5.0
 20
-37.5
 30
0.0
 11
23.0
 21
-37.5
 31
0.0
  0
LINE
  5
75
100
AcDbEntity
  8
0
  6
CONTINUOUS
 62
               7
100
AcDbLine
 10
5.0
 20
-49.5
 30
0.0
 11
23.0
 21
-49.5
 31
0.0
  0
LINE
  5
76
100
AcDbEntity
  8
0
  6
CONTINUOUS
 62
               7
100
AcDbLine
 10
5.0
 20
15.300000000000001
 30
0.0
 11
23.0
 21
15.300000000000001
 31
0.0
  0
LINE
  5
77
100
AcDbEntity
  8
0
  6
CONTINUOUS
 62
               7
100
AcDbLine
 10
5.0
 20
-37.299999999999997
 30
0.0
 11
23.0
 21
-37.299999999999997
 31
0.0
  0
LINE
  5
78
100
AcDbEntity
  8
0
  6
CONTINUOUS
 62
               7
100
AcDbLine
 10
5.0
 20
-34.0
 30
0.0
 11
7.5
 21
-34.0
 31
0.0
  0
LINE
  5
79
100
AcDbEntity
  8
0
  6
CONTINUOUS
 62
               7
100
AcDbLine
 10
5.0
 20
-28.0
 30
0.0
 11
7.5
 21
-28.0
 31
0.0
  0
LINE
  5
7A
100
AcDbEntity
  8
0
  6
CONTINUOUS
 62
               7
100
AcDbLine
 10
17.5
 20
-33.0
 30
0.0
 11
17.5
 21
-37.299999999999997
 31
0.0
  0
LINE
  5
7B
100
AcDbEntity
  8
0
  6
CONTINUOUS
 62
               7
100
AcDbLine
 10
10.5
 20
11.0
 30
0.0
 11
10.5
 21
15.300000000000001
 31
0.0
  0
LINE
  5
7C
100
AcDbEntity
  8
0
  6
CONTINUOUS
 62
               7
100
AcDbLine
 10
7.5
 20
8.0
 30
0.0
 11
5.0
 21
8.0
 31
0.0
  0
LINE
  5
7D
100
AcDbEntity
  8
0
  6
CONTINUOUS
 62
               7
100
AcDbLine
 10
20.5
 20
-30.0
 30
0.0
 11
23.0
 21
-30.0
 31
0.0
  0
LINE
  5
7E
100
AcDbEntity
  8
0
  6
CONTINUOUS
 62
               7
100
AcDbLine
 10
5.0
 20
-35.299999999999997
 30
0.0
 11
17.5
 21
-35.299999999999997
 31
0.0
  0
LINE
  5
7F
100
AcDbEntity
  8
0
  6
CONTINUOUS
 62
               7
100
AcDbLine
 10
10.5
 20
13.300000000000001
 30
0.0
 11
23.0
 21
13.300000000000001
 31
0.0
  0
LINE
  5
80
100
AcDbEntity
  8
0
  6
CONTINUOUS
 62
               7
100
AcDbLine
 10
21.559999999999999
 20
7.9299999999999997
 30
0.0
 11
19.43
 21
10.06
 31
0.0
  0
LINE
  5
81
100
AcDbEntity
  8
0
  6
CONTINUOUS
 62
               7
100
AcDbLine
 10
8.5600000000000005
 20
9.9299999999999997
 30
0.0
 11
6.4299999999999997
 21
12.06
 31
0.0
  0
LINE
  5
82
100
AcDbEntity
  8
0
  6
CONTINUOUS
 62
               7
100
AcDbLine
 10
6.4299999999999997
 20
9.9299999999999997
 30
0.0
 11
8.5600000000000005
 21
12.06
 31
0.0
  0
LINE
  5
83
100
AcDbEntity
  8
0
  6
CONTINUOUS
 62
               7
100
AcDbLine
 10
19.43
 20
7.9299999999999997
 30
0.0
 11
21.559999999999999
 21
10.06
 31
0.0
  0
LINE
  5
84
100
AcDbEntity
  8
0
  6
CONTINUOUS
 62
               7
100
AcDbLine
 10
5.5
 20
-60.5
 30
0.0
 11
22.5
 21
-60.5
 31
0.0
  0
LINE
  5
85
100
AcDbEntity
  8
0
  6
CONTINUOUS
 62
               7
100
AcDbLine
 10
21.5
 20
-48.5
 30
0.0
 11
6.5
 21
-48.5
 31
0.0
  0
LINE
  5
86
100
AcDbEntity
  8
0
  6
CONTINUOUS
 62
               7
100
AcDbLine
 10
21.5
 20
-48.5
 30
0.0
 11
21.5
 21
-38.5
 31
0.0
  0
LINE
  5
87
100
AcDbEntity
  8
0
  6
CONTINUOUS
 62
               7
100
AcDbLine
 10
6.5
 20
-48.5
 30
0.0
 11
6.5
 21
-38.5
 31
0.0
  0
LINE
  5
88
100
AcDbEntity
  8
0
  6
CONTINUOUS
 62
               7
100
AcDbLine
 10
6.5
 20
-38.5
 30
0.0
 11
21.5
 21
-38.5
 31
0.0
  0
LINE
  5
89
100
AcDbEntity
  8
0
  6
CONTINUOUS
 62
               7
100
AcDbLine
 10
20.5
 20
-47.5
 30
0.0
 11
7.5
 21
-47.5
 31
0.0
  0
LINE
  5
8A
100
AcDbEntity
  8
0
  6
CONTINUOUS
 62
               7
100
AcDbLine
 10
7.5
 20
-39.5
 30
0.0
 11
20.5
 21
-39.5
 31
0.0
  0
LINE
  5
8B
100
AcDbEntity
  8
0
  6
CONTINUOUS
 62
               7
100
AcDbLine
 10
20.5
 20
-47.5
 30
0.0
 11
20.5
 21
-39.5
 31
0.0
  0
LINE
  5
8C
100
AcDbEntity
  8
0
  6
CONTINUOUS
 62
               7
100
AcDbLine
 10
7.5
 20
-47.5
 30
0.0
 11
7.5
 21
-39.5
 31
0.0
  0
LINE
  5
8D
100
AcDbEntity
  8
0
  6
CONTINUOUS
 62
               7
100
AcDbLine
 10
21.5
 20
-48.5
 30
0.0
 11
20.5
 21
-47.5
 31
0.0
  0
LINE
  5
8E
100
AcDbEntity
  8
0
  6
CONTINUOUS
 62
               7
100
AcDbLine
 10
20.5
 20
-39.5
 30
0.0
 11
21.5
 21
-38.5
 31
0.0
  0
LINE
  5
8F
100
AcDbEntity
  8
0
  6
CONTINUOUS
 62
               7
100
AcDbLine
 10
6.5
 20
-38.5
 30
0.0
 11
7.5
 21
-39.5
 31
0.0
  0
LINE
  5
90
100
AcDbEntity
  8
0
  6
CONTINUOUS
 62
               7
100
AcDbLine
 10
7.5
 20
-47.5
 30
0.0
 11
6.5
 21
-48.5
 31
0.0
  0
LINE
  5
91
100
AcDbEntity
  8
0
  6
CONTINUOUS
 62
               7
100
AcDbLine
 10
7.5
 20
-49.5
 30
0.0
 11
7.5
 21
-48.5
 31
0.0
  0
LINE
  5
92
100
AcDbEntity
  8
0
  6
CONTINUOUS
 62
               7
100
AcDbLine
 10
5.0
 20
-46.5
 30
0.0
 11
6.5
 21
-46.5
 31
0.0
  0
LINE
  5
93
100
AcDbEntity
  8
0
  6
CONTINUOUS
 62
               7
100
AcDbLine
 10
7.5
 20
-38.5
 30
0.0
 11
7.5
 21
-37.5
 31
0.0
  0
LINE
  5
94
100
AcDbEntity
  8
0
  6
CONTINUOUS
 62
               7
100
AcDbLine
 10
5.0
 20
-40.5
 30
0.0
 11
6.5
 21
-40.5
 31
0.0
  0
LINE
  5
95
100
AcDbEntity
  8
0
  6
CONTINUOUS
 62
               7
100
AcDbLine
 10
20.5
 20
-38.5
 30
0.0
 11
20.5
 21
-37.5
 31
0.0
  0
LINE
  5
96
100
AcDbEntity
  8
0
  6
CONTINUOUS
 62
               7
100
AcDbLine
 10
21.5
 20
-40.5
 30
0.0
 11
23.0
 21
-40.5
 31
0.0
  0
LINE
  5
97
100
AcDbEntity
  8
0
  6
CONTINUOUS
 62
               7
100
AcDbLine
 10
20.5
 20
-49.5
 30
0.0
 11
20.5
 21
-48.5
 31
0.0
  0
LINE
  5
98
100
AcDbEntity
  8
0
  6
CONTINUOUS
 62
               7
100
AcDbLine
 10
21.5
 20
-46.5
 30
0.0
 11
23.0
 21
-46.5
 31
0.0
  0
LINE
  5
99
100
AcDbEntity
  8
0
  6
CONTINUOUS
 62
               7
100
AcDbLine
 10
19.43
 20
-34.060000000000002
 30
0.0
 11
21.559999999999999
 21
-31.93
 31
0.0
  0
LINE
  5
9A
100
AcDbEntity
  8
0
  6
CONTINUOUS
 62
               7
100
AcDbLine
 10
21.559999999999999
 20
-34.060000000000002
 30
0.0
 11
19.43
 21
-31.93
 31
0.0
  0
LINE
  5
9B
100
AcDbEntity
  8
0
  6
CONTINUOUS
 62
               7
100
AcDbLine
 10
6.4299999999999997
 20
-32.060000000000002
 30
0.0
 11
8.5600000000000005
 21
-29.93
 31
0.0
  0
LINE
  5
9C
100
AcDbEntity
  8
0
  6
CONTINUOUS
 62
               7
100
AcDbLine
 10
8.5600000000000005
 20
-32.060000000000002
 30
0.0
 11
6.4299999999999997
 21
-29.93
 31
0.0
  0
LINE
  5
9D
100
AcDbEntity
  8
0
  6
CONTINUOUS
 62
               7
100
AcDbLine
 10
-5.0
 20
29.0
 30
0.0
 11
9.0
 21
29.0
 31
0.0
  0
LINE
  5
9E
100
AcDbEntity
  8
0
  6
CONTINUOUS
 62
               7
100
AcDbLine
 10
38.0
 20
29.0
 30
0.0
 11
47.0
 21
29.0
 31
0.0
  0
LINE
  5
9F
100
AcDbEntity
  8
0
  6
CONTINUOUS
 62
               4
100
AcDbLine
 10
22.0
 20
-79.0
 30
0.0
 11
6.0
 21
-79.0
 31
0.0
  0
LINE
  5
A0
100
AcDbEntity
  8
0
  6
CONTINUOUS
 62
               4
100
AcDbLine
 10
80.0
 20
-52.5
 30
0.0
 11
80.0
 21
-48.0
 31
0.0
  0
LINE
  5
A1
100
AcDbEntity
  8
0
  6
CONTINUOUS
 62
               4
100
AcDbLine
 10
62.0
 20
-52.5
 30
0.0
 11
62.0
 21
-52.32
 31
0.0
  0
LINE
  5
A2
100
AcDbEntity
  8
0
  6
CONTINUOUS
 62
               4
100
AcDbLine
 10
79.5
 20
-53.0
 30
0.0
 11
62.5
 21
-53.0
 31
0.0
  0
LINE
  5
A3
100
AcDbEntity
  8
0
  6
CONTINUOUS
 62
               4
100
AcDbLine
 10
67.5
 20
-52.700000000000003
 30
0.0
 11
67.5
 21
-51.0
 31
0.0
  0
LINE
  5
A4
100
AcDbEntity
  8
0
  6
CONTINUOUS
 62
               4
100
AcDbLine
 10
80.0
 20
-51.0
 30
0.0
 11
61.75
 21
-51.0
 31
0.0
  0
LINE
  5
A5
100
AcDbEntity
  8
0
  6
CONTINUOUS
 62
               4
100
AcDbLine
 10
22.0
 20
-79.0
 30
0.0
 11
22.0
 21
-77.5
 31
0.0
  0
LINE
  5
A6
100
AcDbEntity
  8
0
  6
CONTINUOUS
 62
               4
100
AcDbLine
 10
22.5
 20
-75.0
 30
0.0
 11
22.5
 21
-69.0
 31
0.0
  0
LINE
  5
A7
100
AcDbEntity
  8
0
  6
CONTINUOUS
 62
               4
100
AcDbLine
 10
5.5
 20
-75.0
 30
0.0
 11
5.5
 21
-69.0
 31
0.0
  0
LINE
  5
A8
100
AcDbEntity
  8
0
  6
CONTINUOUS
 62
               4
100
AcDbLine
 10
6.0
 20
-79.0
 30
0.0
 11
6.0
 21
-77.5
 31
0.0
  0
LINE
  5
A9
100
AcDbEntity
  8
0
  6
CONTINUOUS
 62
               4
100
AcDbLine
 10
22.0
 20
-77.5
 30
0.0
 11
6.0
 21
-77.5
 31
0.0
  0
LINE
  5
AA
100
AcDbEntity
  8
0
  6
CONTINUOUS
 62
               4
100
AcDbLine
 10
22.0
 20
-75.5
 30
0.0
 11
6.0
 21
-75.5
 31
0.0
  0
LINE
  5
AB
100
AcDbEntity
  8
0
  6
CONTINUOUS
 62
               4
100
AcDbLine
 10
22.5
 20
-75.0
 30
0.0
 11
5.5
 21
-75.0
 31
0.0
  0
LINE
  5
AC
100
AcDbEntity
  8
0
  6
CONTINUOUS
 62
               4
100
AcDbLine
 10
22.5
 20
-74.5
 30
0.0
 11
5.5
 21
-74.5
 31
0.0
  0
LINE
  5
AD
100
AcDbEntity
  8
0
  6
CONTINUOUS
 62
               4
100
AcDbLine
 10
22.5
 20
-69.0
 30
0.0
 11
5.5
 21
-69.0
 31
0.0
  0
LINE
  5
AE
100
AcDbEntity
  8
0
  6
CONTINUOUS
 62
               4
100
AcDbLine
 10
21.5
 20
-68.0
 30
0.0
 11
6.5
 21
-68.0
 31
0.0
  0
LINE
  5
AF
100
AcDbEntity
  8
0
  6
CONTINUOUS
 62
               4
100
AcDbLine
 10
21.5
 20
-66.0
 30
0.0
 11
6.5
 21
-66.0
 31
0.0
  0
LINE
  5
B0
100
AcDbEntity
  8
0
  6
CONTINUOUS
 62
               4
100
AcDbLine
 10
22.5
 20
-65.0
 30
0.0
 11
5.5
 21
-65.0
 31
0.0
  0
LINE
  5
B1
100
AcDbEntity
  8
0
  6
CONTINUOUS
 62
               4
100
AcDbLine
 10
79.5
 20
-54.5
 30
0.0
 11
62.5
 21
-54.5
 31
0.0
  0
LINE
  5
B2
100
AcDbEntity
  8
0
  6
CONTINUOUS
 62
               4
100
AcDbLine
 10
22.5
 20
-65.0
 30
0.0
 11
22.5
 21
-60.5
 31
0.0
  0
LINE
  5
B3
100
AcDbEntity
  8
0
  6
CONTINUOUS
 62
               4
100
AcDbLine
 10
5.5
 20
-65.0
 30
0.0
 11
5.5
 21
-60.5
 31
0.0
  0
LINE
  5
B4
100
AcDbEntity
  8
0
  6
CONTINUOUS
 62
               4
100
AcDbLine
 10
22.5
 20
-75.0
 30
0.0
 11
22.0
 21
-75.5
 31
0.0
  0
LINE
  5
B5
100
AcDbEntity
  8
0
  6
CONTINUOUS
 62
               4
100
AcDbLine
 10
6.0
 20
-75.5
 30
0.0
 11
5.5
 21
-75.0
 31
0.0
  0
LINE
  5
B6
100
AcDbEntity
  8
0
  6
CONTINUOUS
 62
               4
100
AcDbLine
 10
6.5
 20
-68.0
 30
0.0
 11
6.5
 21
-66.0
 31
0.0
  0
LINE
  5
B7
100
AcDbEntity
  8
0
  6
CONTINUOUS
 62
               4
100
AcDbLine
 10
21.5
 20
-68.0
 30
0.0
 11
21.5
 21
-66.0
 31
0.0
  0
LINE
  5
B8
100
AcDbEntity
  8
0
  6
CONTINUOUS
 62
               4
100
AcDbLine
 10
22.5
 20
-69.0
 30
0.0
 11
21.5
 21
-68.0
 31
0.0
  0
LINE
  5
B9
100
AcDbEntity
  8
0
  6
CONTINUOUS
 62
               4
100
AcDbLine
 10
21.5
 20
-66.0
 30
0.0
 11
22.5
 21
-65.0
 31
0.0
  0
LINE
  5
BA
100
AcDbEntity
  8
0
  6
CONTINUOUS
 62
               4
100
AcDbLine
 10
5.5
 20
-69.0
 30
0.0
 11
6.5
 21
-68.0
 31
0.0
  0
LINE
  5
BB
100
AcDbEntity
  8
0
  6
CONTINUOUS
 62
               4
100
AcDbLine
 10
6.5
 20
-66.0
 30
0.0
 11
5.5
 21
-65.0
 31
0.0
  0
LINE
  5
BC
100
AcDbEntity
  8
0
  6
CONTINUOUS
 62
               4
100
AcDbLine
 10
64.25
 20
-54.5
 30
0.0
 11
64.25
 21
-53.0
 31
0.0
  0
LINE
  5
BD
100
AcDbEntity
  8
0
  6
CONTINUOUS
 62
               4
100
AcDbLine
 10
77.75
 20
-54.5
 30
0.0
 11
77.75
 21
-53.0
 31
0.0
  0
LINE
  5
BE
100
AcDbEntity
  8
0
  6
CONTINUOUS
 62
               4
100
AcDbLine
 10
19.5
 20
-77.5
 30
0.0
 11
19.5
 21
-75.5
 31
0.0
  0
LINE
  5
BF
100
AcDbEntity
  8
0
  6
CONTINUOUS
 62
               4
100
AcDbLine
 10
8.5
 20
-77.5
 30
0.0
 11
8.5
 21
-75.5
 31
0.0
  0
LINE
  5
C0
100
AcDbEntity
  8
0
  6
CONTINUOUS
 62
               4
100
AcDbLine
 10
67.25
 20
-51.5
 30
0.0
 11
67.25
 21
-51.0
 31
0.0
  0
LINE
  5
C1
100
AcDbEntity
  8
0
  6
CONTINUOUS
 62
               4
100
AcDbLine
 10
61.75
 20
-51.5
 30
0.0
 11
61.75
 21
-51.0
 31
0.0
  0
LINE
  5
C2
100
AcDbEntity
  8
0
  6
CONTINUOUS
 62
               4
100
AcDbLine
 10
62.0
 20
-51.0
 30
0.0
 11
62.0
 21
-48.0
 31
0.0
  0
LINE
  5
C3
100
AcDbEntity
  8
0
  6
CONTINUOUS
 62
               4
100
AcDbLine
 10
65.5
 20
-77.5
 30
0.0
 11
65.5
 21
-75.5
 31
0.0
  0
LINE
  5
C4
100
AcDbEntity
  8
0
  6
CONTINUOUS
 62
               4
100
AcDbLine
 10
79.0
 20
-79.0
 30
0.0
 11
63.0
 21
-79.0
 31
0.0
  0
LINE
  5
C5
100
AcDbEntity
  8
0
  6
CONTINUOUS
 62
               4
100
AcDbLine
 10
79.0
 20
-79.0
 30
0.0
 11
79.0
 21
-77.5
 31
0.0
  0
LINE
  5
C6
100
AcDbEntity
  8
0
  6
CONTINUOUS
 62
               4
100
AcDbLine
 10
79.5
 20
-75.0
 30
0.0
 11
79.5
 21
-69.0
 31
0.0
  0
LINE
  5
C7
100
AcDbEntity
  8
0
  6
CONTINUOUS
 62
               4
100
AcDbLine
 10
62.5
 20
-75.0
 30
0.0
 11
62.5
 21
-69.0
 31
0.0
  0
LINE
  5
C8
100
AcDbEntity
  8
0
  6
CONTINUOUS
 62
               4
100
AcDbLine
 10
63.0
 20
-79.0
 30
0.0
 11
63.0
 21
-77.5
 31
0.0
  0
LINE
  5
C9
100
AcDbEntity
  8
0
  6
CONTINUOUS
 62
               4
100
AcDbLine
 10
79.0
 20
-77.5
 30
0.0
 11
63.0
 21
-77.5
 31
0.0
  0
LINE
  5
CA
100
AcDbEntity
  8
0
  6
CONTINUOUS
 62
               4
100
AcDbLine
 10
79.0
 20
-75.5
 30
0.0
 11
63.0
 21
-75.5
 31
0.0
  0
LINE
  5
CB
100
AcDbEntity
  8
0
  6
CONTINUOUS
 62
               4
100
AcDbLine
 10
79.5
 20
-75.0
 30
0.0
 11
62.5
 21
-75.0
 31
0.0
  0
LINE
  5
CC
100
AcDbEntity
  8
0
  6
CONTINUOUS
 62
               4
100
AcDbLine
 10
79.5
 20
-74.5
 30
0.0
 11
62.5
 21
-74.5
 31
0.0
  0
LINE
  5
CD
100
AcDbEntity
  8
0
  6
CONTINUOUS
 62
               4
100
AcDbLine
 10
79.5
 20
-69.0
 30
0.0
 11
62.5
 21
-69.0
 31
0.0
  0
LINE
  5
CE
100
AcDbEntity
  8
0
  6
CONTINUOUS
 62
               4
100
AcDbLine
 10
78.5
 20
-68.0
 30
0.0
 11
63.5
 21
-68.0
 31
0.0
  0
LINE
  5
CF
100
AcDbEntity
  8
0
  6
CONTINUOUS
 62
               4
100
AcDbLine
 10
78.5
 20
-66.0
 30
0.0
 11
63.5
 21
-66.0
 31
0.0
  0
LINE
  5
D0
100
AcDbEntity
  8
0
  6
CONTINUOUS
 62
               4
100
AcDbLine
 10
79.5
 20
-65.0
 30
0.0
 11
62.5
 21
-65.0
 31
0.0
  0
LINE
  5
D1
100
AcDbEntity
  8
0
  6
CONTINUOUS
 62
               4
100
AcDbLine
 10
79.5
 20
-65.0
 30
0.0
 11
79.5
 21
-54.5
 31
0.0
  0
LINE
  5
D2
100
AcDbEntity
  8
0
  6
CONTINUOUS
 62
               4
100
AcDbLine
 10
62.5
 20
-65.0
 30
0.0
 11
62.5
 21
-54.5
 31
0.0
  0
LINE
  5
D3
100
AcDbEntity
  8
0
  6
CONTINUOUS
 62
               4
100
AcDbLine
 10
79.5
 20
-75.0
 30
0.0
 11
79.0
 21
-75.5
 31
0.0
  0
LINE
  5
D4
100
AcDbEntity
  8
0
  6
CONTINUOUS
 62
               4
100
AcDbLine
 10
63.0
 20
-75.5
 30
0.0
 11
62.5
 21
-75.0
 31
0.0
  0
LINE
  5
D5
100
AcDbEntity
  8
0
  6
CONTINUOUS
 62
               4
100
AcDbLine
 10
63.5
 20
-68.0
 30
0.0
 11
63.5
 21
-66.0
 31
0.0
  0
LINE
  5
D6
100
AcDbEntity
  8
0
  6
CONTINUOUS
 62
               4
100
AcDbLine
 10
78.5
 20
-68.0
 30
0.0
 11
78.5
 21
-66.0
 31
0.0
  0
LINE
  5
D7
100
AcDbEntity
  8
0
  6
CONTINUOUS
 62
               4
100
AcDbLine
 10
79.5
 20
-69.0
 30
0.0
 11
78.5
 21
-68.0
 31
0.0
  0
LINE
  5
D8
100
AcDbEntity
  8
0
  6
CONTINUOUS
 62
               4
100
AcDbLine
 10
78.5
 20
-66.0
 30
0.0
 11
79.5
 21
-65.0
 31
0.0
  0
LINE
  5
D9
100
AcDbEntity
  8
0
  6
CONTINUOUS
 62
               4
100
AcDbLine
 10
62.5
 20
-69.0
 30
0.0
 11
63.5
 21
-68.0
 31
0.0
  0
LINE
  5
DA
100
AcDbEntity
  8
0
  6
CONTINUOUS
 62
               4
100
AcDbLine
 10
63.5
 20
-66.0
 30
0.0
 11
62.5
 21
-65.0
 31
0.0
  0
LINE
  5
DB
100
AcDbEntity
  8
0
  6
CONTINUOUS
 62
               4
100
AcDbLine
 10
76.5
 20
-77.5
 30
0.0
 11
76.5
 21
-75.5
 31
0.0
  0
LINE
  5
DC
100
AcDbEntity
  8
0
  6
CONTINUOUS
 62
               4
100
AcDbLine
 10
46.5
 20
-77.5
 30
0.0
 11
46.5
 21
-75.5
 31
0.0
  0
LINE
  5
DD
100
AcDbEntity
  8
0
  6
CONTINUOUS
 62
               4
100
AcDbLine
 10
60.0
 20
-79.0
 30
0.0
 11
44.0
 21
-79.0
 31
0.0
  0
LINE
  5
DE
100
AcDbEntity
  8
0
  6
CONTINUOUS
 62
               4
100
AcDbLine
 10
60.0
 20
-79.0
 30
0.0
 11
60.0
 21
-77.5
 31
0.0
  0
LINE
  5
DF
100
AcDbEntity
  8
0
  6
CONTINUOUS
 62
               4
100
AcDbLine
 10
60.5
 20
-75.0
 30
0.0
 11
60.5
 21
-69.0
 31
0.0
  0
LINE
  5
E0
100
AcDbEntity
  8
0
  6
CONTINUOUS
 62
               4
100
AcDbLine
 10
43.5
 20
-75.0
 30
0.0
 11
43.5
 21
-69.0
 31
0.0
  0
LINE
  5
E1
100
AcDbEntity
  8
0
  6
CONTINUOUS
 62
               4
100
AcDbLine
 10
44.0
 20
-79.0
 30
0.0
 11
44.0
 21
-77.5
 31
0.0
  0
LINE
  5
E2
100
AcDbEntity
  8
0
  6
CONTINUOUS
 62
               4
100
AcDbLine
 10
60.0
 20
-77.5
 30
0.0
 11
44.0
 21
-77.5
 31
0.0
  0
LINE
  5
E3
100
AcDbEntity
  8
0
  6
CONTINUOUS
 62
               4
100
AcDbLine
 10
60.0
 20
-75.5
 30
0.0
 11
44.0
 21
-75.5
 31
0.0
  0
LINE
  5
E4
100
AcDbEntity
  8
0
  6
CONTINUOUS
 62
               4
100
AcDbLine
 10
60.5
 20
-75.0
 30
0.0
 11
43.5
 21
-75.0
 31
0.0
  0
LINE
  5
E5
100
AcDbEntity
  8
0
  6
CONTINUOUS
 62
               4
100
AcDbLine
 10
60.5
 20
-74.5
 30
0.0
 11
43.5
 21
-74.5
 31
0.0
  0
LINE
  5
E6
100
AcDbEntity
  8
0
  6
CONTINUOUS
 62
               4
100
AcDbLine
 10
60.5
 20
-69.0
 30
0.0
 11
43.5
 21
-69.0
 31
0.0
  0
LINE
  5
E7
100
AcDbEntity
  8
0
  6
CONTINUOUS
 62
               4
100
AcDbLine
 10
59.5
 20
-68.0
 30
0.0
 11
44.5
 21
-68.0
 31
0.0
  0
LINE
  5
E8
100
AcDbEntity
  8
0
  6
CONTINUOUS
 62
               4
100
AcDbLine
 10
59.5
 20
-66.0
 30
0.0
 11
44.5
 21
-66.0
 31
0.0
  0
LINE
  5
E9
100
AcDbEntity
  8
0
  6
CONTINUOUS
 62
               4
100
AcDbLine
 10
60.5
 20
-65.0
 30
0.0
 11
43.5
 21
-65.0
 31
0.0
  0
LINE
  5
EA
100
AcDbEntity
  8
0
  6
CONTINUOUS
 62
               4
100
AcDbLine
 10
60.5
 20
-65.0
 30
0.0
 11
60.5
 21
-60.5
 31
0.0
  0
LINE
  5
EB
100
AcDbEntity
  8
0
  6
CONTINUOUS
 62
               4
100
AcDbLine
 10
43.5
 20
-65.0
 30
0.0
 11
43.5
 21
-60.5
 31
0.0
  0
LINE
  5
EC
100
AcDbEntity
  8
0
  6
CONTINUOUS
 62
               4
100
AcDbLine
 10
60.5
 20
-75.0
 30
0.0
 11
60.0
 21
-75.5
 31
0.0
  0
LINE
  5
ED
100
AcDbEntity
  8
0
  6
CONTINUOUS
 62
               4
100
AcDbLine
 10
44.0
 20
-75.5
 30
0.0
 11
43.5
 21
-75.0
 31
0.0
  0
LINE
  5
EE
100
AcDbEntity
  8
0
  6
CONTINUOUS
 62
               4
100
AcDbLine
 10
44.5
 20
-68.0
 30
0.0
 11
44.5
 21
-66.0
 31
0.0
  0
LINE
  5
EF
100
AcDbEntity
  8
0
  6
CONTINUOUS
 62
               4
100
AcDbLine
 10
59.5
 20
-68.0
 30
0.0
 11
59.5
 21
-66.0
 31
0.0
  0
LINE
  5
F0
100
AcDbEntity
  8
0
  6
CONTINUOUS
 62
               4
100
AcDbLine
 10
60.5
 20
-69.0
 30
0.0
 11
59.5
 21
-68.0
 31
0.0
  0
LINE
  5
F1
100
AcDbEntity
  8
0
  6
CONTINUOUS
 62
               4
100
AcDbLine
 10
59.5
 20
-66.0
 30
0.0
 11
60.5
 21
-65.0
 31
0.0
  0
LINE
  5
F2
100
AcDbEntity
  8
0
  6
CONTINUOUS
 62
               4
100
AcDbLine
 10
43.5
 20
-69.0
 30
0.0
 11
44.5
 21
-68.0
 31
0.0
  0
LINE
  5
F3
100
AcDbEntity
  8
0
  6
CONTINUOUS
 62
               4
100
AcDbLine
 10
44.5
 20
-66.0
 30
0.0
 11
43.5
 21
-65.0
 31
0.0
  0
LINE
  5
F4
100
AcDbEntity
  8
0
  6
CONTINUOUS
 62
               4
100
AcDbLine
 10
57.5
 20
-77.5
 30
0.0
 11
57.5
 21
-75.5
 31
0.0
  0
LINE
  5
F5
100
AcDbEntity
  8
0
  6
CONTINUOUS
 62
               4
100
AcDbLine
 10
27.5
 20
-77.5
 30
0.0
 11
27.5
 21
-75.5
 31
0.0
  0
LINE
  5
F6
100
AcDbEntity
  8
0
  6
CONTINUOUS
 62
               4
100
AcDbLine
 10
41.0
 20
-79.0
 30
0.0
 11
25.0
 21
-79.0
 31
0.0
  0
LINE
  5
F7
100
AcDbEntity
  8
0
  6
CONTINUOUS
 62
               4
100
AcDbLine
 10
41.0
 20
-79.0
 30
0.0
 11
41.0
 21
-77.5
 31
0.0
  0
LINE
  5
F8
100
AcDbEntity
  8
0
  6
CONTINUOUS
 62
               4
100
AcDbLine
 10
41.5
 20
-75.0
 30
0.0
 11
41.5
 21
-69.0
 31
0.0
  0
LINE
  5
F9
100
AcDbEntity
  8
0
  6
CONTINUOUS
 62
               4
100
AcDbLine
 10
24.5
 20
-75.0
 30
0.0
 11
24.5
 21
-69.0
 31
0.0
  0
LINE
  5
FA
100
AcDbEntity
  8
0
  6
CONTINUOUS
 62
               4
100
AcDbLine
 10
25.0
 20
-79.0
 30
0.0
 11
25.0
 21
-77.5
 31
0.0
  0
LINE
  5
FB
100
AcDbEntity
  8
0
  6
CONTINUOUS
 62
               4
100
AcDbLine
 10
41.0
 20
-77.5
 30
0.0
 11
25.0
 21
-77.5
 31
0.0
  0
LINE
  5
FC
100
AcDbEntity
  8
0
  6
CONTINUOUS
 62
               4
100
AcDbLine
 10
41.0
 20
-75.5
 30
0.0
 11
25.0
 21
-75.5
 31
0.0
  0
LINE
  5
FD
100
AcDbEntity
  8
0
  6
CONTINUOUS
 62
               4
100
AcDbLine
 10
41.5
 20
-75.0
 30
0.0
 11
24.5
 21
-75.0
 31
0.0
  0
LINE
  5
FE
100
AcDbEntity
  8
0
  6
CONTINUOUS
 62
               4
100
AcDbLine
 10
41.5
 20
-74.5
 30
0.0
 11
24.5
 21
-74.5
 31
0.0
  0
LINE
  5
FF
100
AcDbEntity
  8
0
  6
CONTINUOUS
 62
               4
100
AcDbLine
 10
41.5
 20
-69.0
 30
0.0
 11
24.5
 21
-69.0
 31
0.0
  0
LINE
  5
100
100
AcDbEntity
  8
0
  6
CONTINUOUS
 62
               4
100
AcDbLine
 10
40.5
 20
-68.0
 30
0.0
 11
25.5
 21
-68.0
 31
0.0
  0
LINE
  5
101
100
AcDbEntity
  8
0
  6
CONTINUOUS
 62
               4
100
AcDbLine
 10
40.5
 20
-66.0
 30
0.0
 11
25.5
 21
-66.0
 31
0.0
  0
LINE
  5
102
100
AcDbEntity
  8
0
  6
CONTINUOUS
 62
               4
100
AcDbLine
 10
41.5
 20
-65.0
 30
0.0
 11
24.5
 21
-65.0
 31
0.0
  0
LINE
  5
103
100
AcDbEntity
  8
0
  6
CONTINUOUS
 62
               4
100
AcDbLine
 10
41.5
 20
-65.0
 30
0.0
 11
41.5
 21
-60.5
 31
0.0
  0
LINE
  5
104
100
AcDbEntity
  8
0
  6
CONTINUOUS
 62
               4
100
AcDbLine
 10
24.5
 20
-65.0
 30
0.0
 11
24.5
 21
-60.5
 31
0.0
  0
LINE
  5
105
100
AcDbEntity
  8
0
  6
CONTINUOUS
 62
               4
100
AcDbLine
 10
41.5
 20
-75.0
 30
0.0
 11
41.0
 21
-75.5
 31
0.0
  0
LINE
  5
106
100
AcDbEntity
  8
0
  6
CONTINUOUS
 62
               4
100
AcDbLine
 10
25.0
 20
-75.5
 30
0.0
 11
24.5
 21
-75.0
 31
0.0
  0
LINE
  5
107
100
AcDbEntity
  8
0
  6
CONTINUOUS
 62
               4
100
AcDbLine
 10
25.5
 20
-68.0
 30
0.0
 11
25.5
 21
-66.0
 31
0.0
  0
LINE
  5
108
100
AcDbEntity
  8
0
  6
CONTINUOUS
 62
               4
100
AcDbLine
 10
40.5
 20
-68.0
 30
0.0
 11
40.5
 21
-66.0
 31
0.0
  0
LINE
  5
109
100
AcDbEntity
  8
0
  6
CONTINUOUS
 62
               4
100
AcDbLine
 10
41.5
 20
-69.0
 30
0.0
 11
40.5
 21
-68.0
 31
0.0
  0
LINE
  5
10A
100
AcDbEntity
  8
0
  6
CONTINUOUS
 62
               4
100
AcDbLine
 10
40.5
 20
-66.0
 30
0.0
 11
41.5
 21
-65.0
 31
0.0
  0
LINE
  5
10B
100
AcDbEntity
  8
0
  6
CONTINUOUS
 62
               4
100
AcDbLine
 10
24.5
 20
-69.0
 30
0.0
 11
25.5
 21
-68.0
 31
0.0
  0
LINE
  5
10C
100
AcDbEntity
  8
0
  6
CONTINUOUS
 62
               4
100
AcDbLine
 10
25.5
 20
-66.0
 30
0.0
 11
24.5
 21
-65.0
 31
0.0
  0
LINE
  5
10D
100
AcDbEntity
  8
0
  6
CONTINUOUS
 62
               4
100
AcDbLine
 10
38.5
 20
-77.5
 30
0.0
 11
38.5
 21
-75.5
 31
0.0
  0
LINE
  5
10E
100
AcDbEntity
  8
0
  6
CONTINUOUS
 62
               7
100
AcDbLine
 10
7.0
 20
28.0
 30
0.0
 11
21.0
 21
28.0
 31
0.0
  0
LINE
  5
10F
100
AcDbEntity
  8
0
  6
CONTINUOUS
 62
               7
100
AcDbLine
 10
23.0
 20
25.5
 30
0.0
 11
21.0
 21
28.0
 31
0.0
  0
LINE
  5
110
100
AcDbEntity
  8
0
  6
CONTINUOUS
 62
               7
100
AcDbLine
 10
5.0
 20
25.5
 30
0.0
 11
7.0
 21
28.0
 31
0.0
  0
LINE
  5
111
100
AcDbEntity
  8
0
  6
CONTINUOUS
 62
               7
100
AcDbLine
 10
9.0
 20
28.0
 30
0.0
 11
9.0
 21
39.0
 31
0.0
  0
LINE
  5
112
100
AcDbEntity
  8
0
  6
CONTINUOUS
 62
               7
100
AcDbLine
 10
19.0
 20
28.0
 30
0.0
 11
19.0
 21
39.0
 31
0.0
  0
LINE
  5
113
100
AcDbEntity
  8
0
  6
CONTINUOUS
 62
               7
100
AcDbLine
 10
23.0
 20
10.140000000000001
 30
0.0
 11
23.0
 21
25.5
 31
0.0
  0
LINE
  5
114
100
AcDbEntity
  8
0
  6
CONTINUOUS
 62
               7
100
AcDbLine
 10
23.0
 20
-31.73
 30
0.0
 11
23.0
 21
7.8499999999999996
 31
0.0
  0
LINE
  5
115
100
AcDbEntity
  8
0
  6
CONTINUOUS
 62
               7
100
AcDbLine
 10
5.0
 20
12.26
 30
0.0
 11
5.0
 21
25.5
 31
0.0
  0
LINE
  5
116
100
AcDbEntity
  8
0
  6
CONTINUOUS
 62
               7
100
AcDbLine
 10
5.0
 20
-29.850000000000001
 30
0.0
 11
5.0
 21
9.7300000000000004
 31
0.0
  0
LINE
  5
117
100
AcDbEntity
  8
0
  6
CONTINUOUS
 62
               7
100
AcDbLine
 10
5.0
 20
-60.0
 30
0.0
 11
5.0
 21
-32.140000000000001
 31
0.0
  0
LINE
  5
118
100
AcDbEntity
  8
0
  6
CONTINUOUS
 62
               7
100
AcDbLine
 10
20.5
 20
12.0
 30
0.0
 11
23.0
 21
12.0
 31
0.0
  0
LINE
  5
119
100
AcDbEntity
  8
0
  6
CONTINUOUS
 62
               7
100
AcDbLine
 10
20.5
 20
6.0
 30
0.0
 11
23.0
 21
6.0
 31
0.0
  0
LINE
  5
11A
100
AcDbEntity
  8
0
  6
CONTINUOUS
 62
               4
100
AcDbLine
 10
9.0
 20
39.0
 30
0.0
 11
9.0
 21
63.0
 31
0.0
  0
LINE
  5
11B
100
AcDbEntity
  8
0
  6
CONTINUOUS
 62
               4
100
AcDbLine
 10
19.0
 20
39.0
 30
0.0
 11
19.0
 21
63.0
 31
0.0
  0
LINE
  5
11C
100
AcDbEntity
  8
0
  6
CENTER
 62
               2
100
AcDbLine
 10
30.379999999999999
 20
-45.5
 30
0.0
 11
35.609999999999999
 21
-45.5
 31
0.0
  0
LINE
  5
11D
100
AcDbEntity
  8
0
  6
CONTINUOUS
 62
               7
100
AcDbLine
 10
31.07
 20
-45.799999999999997
 30
0.0
 11
34.920000000000002
 21
-45.799999999999997
 31
0.0
  0
LINE
  5
11E
100
AcDbEntity
  8
0
  6
CONTINUOUS
 62
               7
100
AcDbLine
 10
31.07
 20
-45.200000000000003
 30
0.0
 11
34.920000000000002
 21
-45.200000000000003
 31
0.0
  0
LINE
  5
11F
100
AcDbEntity
  8
0
  6
CONTINUOUS
 62
               7
100
AcDbLine
 10
24.0
 20
-46.5
 30
0.0
 11
27.0
 21
-46.5
 31
0.0
  0
LINE
  5
120
100
AcDbEntity
  8
0
  6
CONTINUOUS
 62
               7
100
AcDbLine
 10
24.0
 20
-40.5
 30
0.0
 11
27.0
 21
-40.5
 31
0.0
  0
LINE
  5
121
100
AcDbEntity
  8
0
  6
CONTINUOUS
 62
               7
100
AcDbLine
 10
26.5
 20
-49.5
 30
0.0
 11
26.5
 21
-46.5
 31
0.0
  0
LINE
  5
122
100
AcDbEntity
  8
0
  6
CONTINUOUS
 62
               7
100
AcDbLine
 10
39.5
 20
-49.5
 30
0.0
 11
39.5
 21
-46.5
 31
0.0
  0
LINE
  5
123
100
AcDbEntity
  8
0
  6
CONTINUOUS
 62
               7
100
AcDbLine
 10
39.0
 20
-46.5
 30
0.0
 11
42.0
 21
-46.5
 31
0.0
  0
LINE
  5
124
100
AcDbEntity
  8
0
  6
CONTINUOUS
 62
               7
100
AcDbLine
 10
39.0
 20
-40.5
 30
0.0
 11
42.0
 21
-40.5
 31
0.0
  0
LINE
  5
125
100
AcDbEntity
  8
0
  6
CONTINUOUS
 62
               7
100
AcDbLine
 10
39.5
 20
-40.5
 30
0.0
 11
39.5
 21
-37.5
 31
0.0
  0
LINE
  5
126
100
AcDbEntity
  8
0
  6
CONTINUOUS
 62
               7
100
AcDbLine
 10
26.5
 20
-40.5
 30
0.0
 11
26.5
 21
-37.5
 31
0.0
  0
LINE
  5
127
100
AcDbEntity
  8
0
  6
CENTER
 62
               2
100
AcDbLine
 10
30.5
 20
35.700000000000003
 30
0.0
 11
35.5
 21
35.700000000000003
 31
0.0
  0
LINE
  5
128
100
AcDbEntity
  8
0
  6
CENTER
 62
               2
100
AcDbLine
 10
33.0
 20
-63.799999999999997
 30
0.0
 11
33.0
 21
84.75
 31
0.0
  0
LINE
  5
129
100
AcDbEntity
  8
0
  6
CONTINUOUS
 62
               4
100
AcDbLine
 10
28.0
 20
63.0
 30
0.0
 11
38.0
 21
63.0
 31
0.0
  0
LINE
  5
12A
100
AcDbEntity
  8
0
  6
CONTINUOUS
 62
               7
100
AcDbLine
 10
28.0
 20
39.0
 30
0.0
 11
38.0
 21
39.0
 31
0.0
  0
LINE
  5
12B
100
AcDbEntity
  8
0
  6
CONTINUOUS
 62
               7
100
AcDbLine
 10
31.07
 20
35.399999999999999
 30
0.0
 11
34.920000000000002
 21
35.399999999999999
 31
0.0
  0
LINE
  5
12C
100
AcDbEntity
  8
0
  6
CONTINUOUS
 62
               7
100
AcDbLine
 10
31.07
 20
36.0
 30
0.0
 11
34.920000000000002
 21
36.0
 31
0.0
  0
LINE
  5
12D
100
AcDbEntity
  8
0
  6
CONTINUOUS
 62
               4
100
AcDbLine
 10
28.050000000000001
 20
63.0
 30
0.0
 11
28.050000000000001
 21
76.5
 31
0.0
  0
LINE
  5
12E
100
AcDbEntity
  8
0
  6
CONTINUOUS
 62
               4
100
AcDbLine
 10
37.5
 20
72.0
 30
0.0
 11
28.5
 21
72.0
 31
0.0
  0
LINE
  5
12F
100
AcDbEntity
  8
0
  6
CONTINUOUS
 62
               4
100
AcDbLine
 10
37.950000000000003
 20
67.5
 30
0.0
 11
28.050000000000001
 21
67.5
 31
0.0
  0
LINE
  5
130
100
AcDbEntity
  8
0
  6
CONTINUOUS
 62
               4
100
AcDbLine
 10
37.950000000000003
 20
63.0
 30
0.0
 11
37.950000000000003
 21
76.5
 31
0.0
  0
LINE
  5
131
100
AcDbEntity
  8
0
  6
CONTINUOUS
 62
               4
100
AcDbLine
 10
34.280000000000001
 20
83.0
 30
0.0
 11
34.280000000000001
 21
86.480000000000004
 31
0.0
  0
LINE
  5
132
100
AcDbEntity
  8
0
  6
CONTINUOUS
 62
               4
100
AcDbLine
 10
35.710000000000001
 20
83.0
 30
0.0
 11
35.710000000000001
 21
87.310000000000002
 31
0.0
  0
LINE
  5
133
100
AcDbEntity
  8
0
  6
CONTINUOUS
 62
               4
100
AcDbLine
 10
34.600000000000001
 20
91.0
 30
0.0
 11
34.600000000000001
 21
96.0
 31
0.0
  0
LINE
  5
134
100
AcDbEntity
  8
0
  6
CONTINUOUS
 62
               4
100
AcDbLine
 10
35.399999999999999
 20
91.0
 30
0.0
 11
35.399999999999999
 21
96.0
 31
0.0
  0
LINE
  5
135
100
AcDbEntity
  8
0
  6
CONTINUOUS
 62
               4
100
AcDbLine
 10
34.600000000000001
 20
96.0
 30
0.0
 11
35.399999999999999
 21
96.0
 31
0.0
  0
LINE
  5
136
100
AcDbEntity
  8
0
  6
CONTINUOUS
 62
               4
100
AcDbLine
 10
34.280000000000001
 20
91.0
 30
0.0
 11
35.710000000000001
 21
91.0
 31
0.0
  0
LINE
  5
137
100
AcDbEntity
  8
0
  6
CONTINUOUS
 62
             200
100
AcDbLine
 10
37.049999999999997
 20
88.079999999999998
 30
0.0
 11
28.949999999999999
 21
83.400000000000006
 31
0.0
  0
LINE
  5
138
100
AcDbEntity
  8
0
  6
CONTINUOUS
 62
               4
100
AcDbLine
 10
34.280000000000001
 20
87.629999999999995
 30
0.0
 11
34.280000000000001
 21
91.0
 31
0.0
  0
LINE
  5
139
100
AcDbEntity
  8
0
  6
CONTINUOUS
 62
               4
100
AcDbLine
 10
35.710000000000001
 20
88.459999999999994
 30
0.0
 11
35.710000000000001
 21
91.0
 31
0.0
  0
LINE
  5
13A
100
AcDbEntity
  8
0
  6
CONTINUOUS
 62
               4
100
AcDbLine
 10
28.050000000000001
 20
76.5
 30
0.0
 11
29.5
 21
76.5
 31
0.0
  0
LINE
  5
13B
100
AcDbEntity
  8
0
  6
CONTINUOUS
 62
               4
100
AcDbLine
 10
28.949999999999999
 20
72.0
 30
0.0
 11
28.949999999999999
 21
74.5
 31
0.0
  0
LINE
  5
13C
100
AcDbEntity
  8
0
  6
CONTINUOUS
 62
               4
100
AcDbLine
 10
37.049999999999997
 20
72.0
 30
0.0
 11
37.049999999999997
 21
74.5
 31
0.0
  0
LINE
  5
13D
100
AcDbEntity
  8
0
  6
CONTINUOUS
 62
               4
100
AcDbLine
 10
36.5
 20
72.489999999999995
 30
0.0
 11
36.5
 21
83.0
 31
0.0
  0
LINE
  5
13E
100
AcDbEntity
  8
0
  6
CONTINUOUS
 62
               4
100
AcDbLine
 10
29.5
 20
72.489999999999995
 30
0.0
 11
29.5
 21
83.0
 31
0.0
  0
LINE
  5
13F
100
AcDbEntity
  8
0
  6
CONTINUOUS
 62
               4
100
AcDbLine
 10
29.5
 20
72.489999999999995
 30
0.0
 11
36.5
 21
72.489999999999995
 31
0.0
  0
LINE
  5
140
100
AcDbEntity
  8
0
  6
CONTINUOUS
 62
               4
100
AcDbLine
 10
29.5
 20
76.049999999999997
 30
0.0
 11
36.5
 21
76.049999999999997
 31
0.0
  0
LINE
  5
141
100
AcDbEntity
  8
0
  6
CONTINUOUS
 62
               4
100
AcDbLine
 10
29.5
 20
81.5
 30
0.0
 11
36.5
 21
81.5
 31
0.0
  0
LINE
  5
142
100
AcDbEntity
  8
0
  6
CONTINUOUS
 62
               4
100
AcDbLine
 10
28.100000000000001
 20
83.0
 30
0.0
 11
37.899999999999999
 21
83.0
 31
0.0
  0
LINE
  5
143
100
AcDbEntity
  8
0
  6
CONTINUOUS
 62
               4
100
AcDbLine
 10
36.5
 20
76.5
 30
0.0
 11
37.950000000000003
 21
76.5
 31
0.0
  0
LINE
  5
144
100
AcDbEntity
  8
0
  6
CONTINUOUS
 62
               4
100
AcDbLine
 10
36.5
 20
75.5
 30
0.0
 11
37.049999999999997
 21
75.5
 31
0.0
  0
LINE
  5
145
100
AcDbEntity
  8
0
  6
CONTINUOUS
 62
               4
100
AcDbLine
 10
36.5
 20
74.5
 30
0.0
 11
37.049999999999997
 21
74.5
 31
0.0
  0
LINE
  5
146
100
AcDbEntity
  8
0
  6
CONTINUOUS
 62
               4
100
AcDbLine
 10
28.949999999999999
 20
75.5
 30
0.0
 11
29.5
 21
75.5
 31
0.0
  0
LINE
  5
147
100
AcDbEntity
  8
0
  6
CONTINUOUS
 62
               4
100
AcDbLine
 10
28.949999999999999
 20
74.5
 30
0.0
 11
29.5
 21
74.5
 31
0.0
  0
LINE
  5
148
100
AcDbEntity
  8
0
  6
CONTINUOUS
 62
               4
100
AcDbLine
 10
28.949999999999999
 20
75.5
 30
0.0
 11
28.949999999999999
 21
76.5
 31
0.0
  0
LINE
  5
149
100
AcDbEntity
  8
0
  6
CONTINUOUS
 62
               4
100
AcDbLine
 10
37.049999999999997
 20
75.5
 30
0.0
 11
37.049999999999997
 21
76.5
 31
0.0
  0
LINE
  5
14A
100
AcDbEntity
  8
0
  6
CONTINUOUS
 62
               4
100
AcDbLine
 10
31.710000000000001
 20
86.150000000000006
 30
0.0
 11
31.710000000000001
 21
91.0
 31
0.0
  0
LINE
  5
14B
100
AcDbEntity
  8
0
  6
CONTINUOUS
 62
               4
100
AcDbLine
 10
30.280000000000001
 20
85.319999999999993
 30
0.0
 11
30.280000000000001
 21
91.0
 31
0.0
  0
LINE
  5
14C
100
AcDbEntity
  8
0
  6
CONTINUOUS
 62
               4
100
AcDbLine
 10
30.280000000000001
 20
91.0
 30
0.0
 11
31.710000000000001
 21
91.0
 31
0.0
  0
LINE
  5
14D
100
AcDbEntity
  8
0
  6
CONTINUOUS
 62
               4
100
AcDbLine
 10
31.399999999999999
 20
91.0
 30
0.0
 11
31.399999999999999
 21
96.0
 31
0.0
  0
LINE
  5
14E
100
AcDbEntity
  8
0
  6
CONTINUOUS
 62
               4
100
AcDbLine
 10
30.600000000000001
 20
91.0
 30
0.0
 11
30.600000000000001
 21
96.0
 31
0.0
  0
LINE
  5
14F
100
AcDbEntity
  8
0
  6
CONTINUOUS
 62
               4
100
AcDbLine
 10
30.600000000000001
 20
96.0
 30
0.0
 11
31.399999999999999
 21
96.0
 31
0.0
  0
LINE
  5
150
100
AcDbEntity
  8
0
  6
CONTINUOUS
 62
               4
100
AcDbLine
 10
31.710000000000001
 20
83.0
 30
0.0
 11
31.710000000000001
 21
85.0
 31
0.0
  0
LINE
  5
151
100
AcDbEntity
  8
0
  6
CONTINUOUS
 62
               4
100
AcDbLine
 10
30.280000000000001
 20
83.0
 30
0.0
 11
30.280000000000001
 21
84.170000000000002
 31
0.0
  0
LINE
  5
152
100
AcDbEntity
  8
0
  6
CONTINUOUS
 62
             200
100
AcDbLine
 10
37.049999999999997
 20
89.230000000000004
 30
0.0
 11
28.949999999999999
 21
84.549999999999997
 31
0.0
  0
LINE
  5
153
100
AcDbEntity
  8
0
  6
CONTINUOUS
 62
               7
100
AcDbLine
 10
38.0
 20
28.0
 30
0.0
 11
38.0
 21
39.0
 31
0.0
  0
LINE
  5
154
100
AcDbEntity
  8
0
  6
CONTINUOUS
 62
               7
100
AcDbLine
 10
28.0
 20
28.0
 30
0.0
 11
28.0
 21
39.0
 31
0.0
  0
LINE
  5
155
100
AcDbEntity
  8
0
  6
CONTINUOUS
 62
               4
100
AcDbLine
 10
37.899999999999999
 20
76.5
 30
0.0
 11
37.899999999999999
 21
83.0
 31
0.0
  0
LINE
  5
156
100
AcDbEntity
  8
0
  6
CONTINUOUS
 62
               4
100
AcDbLine
 10
28.100000000000001
 20
76.5
 30
0.0
 11
28.100000000000001
 21
83.0
 31
0.0
  0
LINE
  5
157
100
AcDbEntity
  8
0
  6
CONTINUOUS
 62
               4
100
AcDbLine
 10
29.0
 20
76.5
 30
0.0
 11
29.0
 21
83.0
 31
0.0
  0
LINE
  5
158
100
AcDbEntity
  8
0
  6
CONTINUOUS
 62
               4
100
AcDbLine
 10
37.0
 20
76.5
 30
0.0
 11
37.0
 21
83.0
 31
0.0
  0
LINE
  5
159
100
AcDbEntity
  8
0
  6
CONTINUOUS
 62
               7
100
AcDbLine
 10
24.0
 20
15.5
 30
0.0
 11
42.0
 21
15.5
 31
0.0
  0
LINE
  5
15A
100
AcDbEntity
  8
0
  6
CONTINUOUS
 62
               7
100
AcDbLine
 10
42.0
 20
-60.0
 30
0.0
 11
42.0
 21
-34.140000000000001
 31
0.0
  0
LINE
  5
15B
100
AcDbEntity
  8
0
  6
CONTINUOUS
 62
               7
100
AcDbLine
 10
24.0
 20
-60.0
 30
0.0
 11
24.0
 21
-32.140000000000001
 31
0.0
  0
LINE
  5
15C
100
AcDbEntity
  8
0
  6
CONTINUOUS
 62
               7
100
AcDbLine
 10
24.0
 20
25.5
 30
0.0
 11
42.0
 21
25.5
 31
0.0
  0
LINE
  5
15D
100
AcDbEntity
  8
0
  6
CONTINUOUS
 62
               7
100
AcDbLine
 10
24.0
 20
-37.5
 30
0.0
 11
42.0
 21
-37.5
 31
0.0
  0
LINE
  5
15E
100
AcDbEntity
  8
0
  6
CONTINUOUS
 62
               7
100
AcDbLine
 10
24.0
 20
-49.5
 30
0.0
 11
42.0
 21
-49.5
 31
0.0
  0
LINE
  5
15F
100
AcDbEntity
  8
0
  6
CONTINUOUS
 62
               7
100
AcDbLine
 10
24.0
 20
15.300000000000001
 30
0.0
 11
42.0
 21
15.300000000000001
 31
0.0
  0
LINE
  5
160
100
AcDbEntity
  8
0
  6
CONTINUOUS
 62
               7
100
AcDbLine
 10
24.0
 20
-37.299999999999997
 30
0.0
 11
42.0
 21
-37.299999999999997
 31
0.0
  0
LINE
  5
161
100
AcDbEntity
  8
0
  6
CONTINUOUS
 62
               7
100
AcDbLine
 10
39.5
 20
12.0
 30
0.0
 11
42.0
 21
12.0
 31
0.0
  0
LINE
  5
162
100
AcDbEntity
  8
0
  6
CONTINUOUS
 62
               7
100
AcDbLine
 10
39.5
 20
6.0
 30
0.0
 11
42.0
 21
6.0
 31
0.0
  0
LINE
  5
163
100
AcDbEntity
  8
0
  6
CONTINUOUS
 62
               7
100
AcDbLine
 10
24.0
 20
-34.0
 30
0.0
 11
26.5
 21
-34.0
 31
0.0
  0
LINE
  5
164
100
AcDbEntity
  8
0
  6
CONTINUOUS
 62
               7
100
AcDbLine
 10
24.0
 20
-28.0
 30
0.0
 11
26.5
 21
-28.0
 31
0.0
  0
LINE
  5
165
100
AcDbEntity
  8
0
  6
CONTINUOUS
 62
               7
100
AcDbLine
 10
36.5
 20
-33.0
 30
0.0
 11
36.5
 21
-37.299999999999997
 31
0.0
  0
LINE
  5
166
100
AcDbEntity
  8
0
  6
CONTINUOUS
 62
               7
100
AcDbLine
 10
29.5
 20
11.0
 30
0.0
 11
29.5
 21
15.300000000000001
 31
0.0
  0
LINE
  5
167
100
AcDbEntity
  8
0
  6
CONTINUOUS
 62
               7
100
AcDbLine
 10
26.5
 20
8.0
 30
0.0
 11
24.0
 21
8.0
 31
0.0
  0
LINE
  5
168
100
AcDbEntity
  8
0
  6
CONTINUOUS
 62
               7
100
AcDbLine
 10
39.5
 20
-30.0
 30
0.0
 11
42.0
 21
-30.0
 31
0.0
  0
LINE
  5
169
100
AcDbEntity
  8
0
  6
CONTINUOUS
 62
               7
100
AcDbLine
 10
24.0
 20
-35.299999999999997
 30
0.0
 11
36.5
 21
-35.299999999999997
 31
0.0
  0
LINE
  5
16A
100
AcDbEntity
  8
0
  6
CONTINUOUS
 62
               7
100
AcDbLine
 10
29.5
 20
13.300000000000001
 30
0.0
 11
42.0
 21
13.300000000000001
 31
0.0
  0
LINE
  5
16B
100
AcDbEntity
  8
0
  6
CONTINUOUS
 62
               7
100
AcDbLine
 10
40.560000000000002
 20
7.9299999999999997
 30
0.0
 11
38.43
 21
10.06
 31
0.0
  0
LINE
  5
16C
100
AcDbEntity
  8
0
  6
CONTINUOUS
 62
               7
100
AcDbLine
 10
27.559999999999999
 20
9.9299999999999997
 30
0.0
 11
25.43
 21
12.06
 31
0.0
  0
LINE
  5
16D
100
AcDbEntity
  8
0
  6
CONTINUOUS
 62
               7
100
AcDbLine
 10
25.43
 20
9.9299999999999997
 30
0.0
 11
27.559999999999999
 21
12.06
 31
0.0
  0
LINE
  5
16E
100
AcDbEntity
  8
0
  6
CONTINUOUS
 62
               7
100
AcDbLine
 10
38.43
 20
7.9400000000000004
 30
0.0
 11
40.560000000000002
 21
10.06
 31
0.0
  0
LINE
  5
16F
100
AcDbEntity
  8
0
  6
CONTINUOUS
 62
               7
100
AcDbLine
 10
24.5
 20
-60.5
 30
0.0
 11
41.5
 21
-60.5
 31
0.0
  0
LINE
  5
170
100
AcDbEntity
  8
0
  6
CONTINUOUS
 62
               7
100
AcDbLine
 10
38.43
 20
-34.060000000000002
 30
0.0
 11
40.560000000000002
 21
-31.93
 31
0.0
  0
LINE
  5
171
100
AcDbEntity
  8
0
  6
CONTINUOUS
 62
               7
100
AcDbLine
 10
40.560000000000002
 20
-34.060000000000002
 30
0.0
 11
38.43
 21
-31.93
 31
0.0
  0
LINE
  5
172
100
AcDbEntity
  8
0
  6
CONTINUOUS
 62
               7
100
AcDbLine
 10
25.43
 20
-32.060000000000002
 30
0.0
 11
27.559999999999999
 21
-29.93
 31
0.0
  0
LINE
  5
173
100
AcDbEntity
  8
0
  6
CONTINUOUS
 62
               7
100
AcDbLine
 10
27.559999999999999
 20
-32.060000000000002
 30
0.0
 11
25.43
 21
-29.93
 31
0.0
  0
LINE
  5
174
100
AcDbEntity
  8
0
  6
CONTINUOUS
 62
               7
100
AcDbLine
 10
24.0
 20
-29.850000000000001
 30
0.0
 11
24.0
 21
9.8499999999999996
 31
0.0
  0
LINE
  5
175
100
AcDbEntity
  8
0
  6
CONTINUOUS
 62
               7
100
AcDbLine
 10
24.0
 20
12.140000000000001
 30
0.0
 11
24.0
 21
25.5
 31
0.0
  0
LINE
  5
176
100
AcDbEntity
  8
0
  6
CONTINUOUS
 62
               7
100
AcDbLine
 10
42.0
 20
10.140000000000001
 30
0.0
 11
42.0
 21
25.5
 31
0.0
  0
LINE
  5
177
100
AcDbEntity
  8
0
  6
CONTINUOUS
 62
               7
100
AcDbLine
 10
42.0
 20
-31.850000000000001
 30
0.0
 11
42.0
 21
7.8499999999999996
 31
0.0
  0
LINE
  5
178
100
AcDbEntity
  8
0
  6
CONTINUOUS
 62
               7
100
AcDbLine
 10
26.0
 20
28.0
 30
0.0
 11
40.0
 21
28.0
 31
0.0
  0
LINE
  5
179
100
AcDbEntity
  8
0
  6
CONTINUOUS
 62
               7
100
AcDbLine
 10
26.0
 20
28.0
 30
0.0
 11
24.0
 21
25.5
 31
0.0
  0
LINE
  5
17A
100
AcDbEntity
  8
0
  6
CONTINUOUS
 62
               7
100
AcDbLine
 10
40.0
 20
28.0
 30
0.0
 11
42.0
 21
25.5
 31
0.0
  0
LINE
  5
17B
100
AcDbEntity
  8
0
  6
CONTINUOUS
 62
               4
100
AcDbLine
 10
28.0
 20
39.0
 30
0.0
 11
28.0
 21
63.0
 31
0.0
  0
LINE
  5
17C
100
AcDbEntity
  8
0
  6
CONTINUOUS
 62
               4
100
AcDbLine
 10
38.0
 20
39.0
 30
0.0
 11
38.0
 21
63.0
 31
0.0
  0
LINE
  5
17D
100
AcDbEntity
  8
0
  6
CONTINUOUS
 62
               7
100
AcDbLine
 10
9.0
 20
39.0
 30
0.0
 11
19.0
 21
39.0
 31
0.0
  0
LINE
  5
17E
100
AcDbEntity
  8
0
  6
CENTER
 62
               2
100
AcDbLine
 10
49.380000000000003
 20
-45.5
 30
0.0
 11
54.609999999999999
 21
-45.5
 31
0.0
  0
LINE
  5
17F
100
AcDbEntity
  8
0
  6
CONTINUOUS
 62
               7
100
AcDbLine
 10
50.07
 20
-45.799999999999997
 30
0.0
 11
53.920000000000002
 21
-45.799999999999997
 31
0.0
  0
LINE
  5
180
100
AcDbEntity
  8
0
  6
CONTINUOUS
 62
               7
100
AcDbLine
 10
50.07
 20
-45.200000000000003
 30
0.0
 11
53.920000000000002
 21
-45.200000000000003
 31
0.0
  0
LINE
  5
181
100
AcDbEntity
  8
0
  6
CONTINUOUS
 62
               7
100
AcDbLine
 10
43.0
 20
-46.5
 30
0.0
 11
46.0
 21
-46.5
 31
0.0
  0
LINE
  5
182
100
AcDbEntity
  8
0
  6
CONTINUOUS
 62
               7
100
AcDbLine
 10
43.0
 20
-40.5
 30
0.0
 11
46.0
 21
-40.5
 31
0.0
  0
LINE
  5
183
100
AcDbEntity
  8
0
  6
CONTINUOUS
 62
               7
100
AcDbLine
 10
45.5
 20
-49.5
 30
0.0
 11
45.5
 21
-46.5
 31
0.0
  0
LINE
  5
184
100
AcDbEntity
  8
0
  6
CONTINUOUS
 62
               7
100
AcDbLine
 10
58.5
 20
-49.5
 30
0.0
 11
58.5
 21
-46.5
 31
0.0
  0
LINE
  5
185
100
AcDbEntity
  8
0
  6
CONTINUOUS
 62
               7
100
AcDbLine
 10
58.0
 20
-46.5
 30
0.0
 11
61.0
 21
-46.5
 31
0.0
  0
LINE
  5
186
100
AcDbEntity
  8
0
  6
CONTINUOUS
 62
               7
100
AcDbLine
 10
58.0
 20
-40.5
 30
0.0
 11
61.0
 21
-40.5
 31
0.0
  0
LINE
  5
187
100
AcDbEntity
  8
0
  6
CONTINUOUS
 62
               7
100
AcDbLine
 10
58.5
 20
-40.5
 30
0.0
 11
58.5
 21
-37.5
 31
0.0
  0
LINE
  5
188
100
AcDbEntity
  8
0
  6
CONTINUOUS
 62
               7
100
AcDbLine
 10
45.5
 20
-40.5
 30
0.0
 11
45.5
 21
-37.5
 31
0.0
  0
LINE
  5
189
100
AcDbEntity
  8
0
  6
CENTER
 62
               2
100
AcDbLine
 10
49.5
 20
35.700000000000003
 30
0.0
 11
54.5
 21
35.700000000000003
 31
0.0
  0
LINE
  5
18A
100
AcDbEntity
  8
0
  6
CENTER
 62
               2
100
AcDbLine
 10
52.0
 20
-63.799999999999997
 30
0.0
 11
52.0
 21
84.75
 31
0.0
  0
LINE
  5
18B
100
AcDbEntity
  8
0
  6
CONTINUOUS
 62
               4
100
AcDbLine
 10
47.0
 20
63.0
 30
0.0
 11
57.0
 21
63.0
 31
0.0
  0
LINE
  5
18C
100
AcDbEntity
  8
0
  6
CONTINUOUS
 62
               7
100
AcDbLine
 10
47.0
 20
39.0
 30
0.0
 11
57.0
 21
39.0
 31
0.0
  0
LINE
  5
18D
100
AcDbEntity
  8
0
  6
CONTINUOUS
 62
               7
100
AcDbLine
 10
50.07
 20
35.399999999999999
 30
0.0
 11
53.920000000000002
 21
35.399999999999999
 31
0.0
  0
LINE
  5
18E
100
AcDbEntity
  8
0
  6
CONTINUOUS
 62
               7
100
AcDbLine
 10
50.07
 20
36.0
 30
0.0
 11
53.920000000000002
 21
36.0
 31
0.0
  0
LINE
  5
18F
100
AcDbEntity
  8
0
  6
CONTINUOUS
 62
               4
100
AcDbLine
 10
47.049999999999997
 20
63.0
 30
0.0
 11
47.049999999999997
 21
76.5
 31
0.0
  0
LINE
  5
190
100
AcDbEntity
  8
0
  6
CONTINUOUS
 62
               4
100
AcDbLine
 10
56.5
 20
72.0
 30
0.0
 11
47.5
 21
72.0
 31
0.0
  0
LINE
  5
191
100
AcDbEntity
  8
0
  6
CONTINUOUS
 62
               4
100
AcDbLine
 10
56.950000000000003
 20
67.5
 30
0.0
 11
47.049999999999997
 21
67.5
 31
0.0
  0
LINE
  5
192
100
AcDbEntity
  8
0
  6
CONTINUOUS
 62
               4
100
AcDbLine
 10
56.950000000000003
 20
63.0
 30
0.0
 11
56.950000000000003
 21
76.5
 31
0.0
  0
LINE
  5
193
100
AcDbEntity
  8
0
  6
CONTINUOUS
 62
               4
100
AcDbLine
 10
53.280000000000001
 20
83.0
 30
0.0
 11
53.280000000000001
 21
86.480000000000004
 31
0.0
  0
LINE
  5
194
100
AcDbEntity
  8
0
  6
CONTINUOUS
 62
               4
100
AcDbLine
 10
54.710000000000001
 20
83.0
 30
0.0
 11
54.710000000000001
 21
87.310000000000002
 31
0.0
  0
LINE
  5
195
100
AcDbEntity
  8
0
  6
CONTINUOUS
 62
               4
100
AcDbLine
 10
53.600000000000001
 20
91.0
 30
0.0
 11
53.600000000000001
 21
96.0
 31
0.0
  0
LINE
  5
196
100
AcDbEntity
  8
0
  6
CONTINUOUS
 62
               4
100
AcDbLine
 10
54.399999999999999
 20
91.0
 30
0.0
 11
54.399999999999999
 21
96.0
 31
0.0
  0
LINE
  5
197
100
AcDbEntity
  8
0
  6
CONTINUOUS
 62
               4
100
AcDbLine
 10
53.600000000000001
 20
96.0
 30
0.0
 11
54.399999999999999
 21
96.0
 31
0.0
  0
LINE
  5
198
100
AcDbEntity
  8
0
  6
CONTINUOUS
 62
               4
100
AcDbLine
 10
53.280000000000001
 20
91.0
 30
0.0
 11
54.710000000000001
 21
91.0
 31
0.0
  0
LINE
  5
199
100
AcDbEntity
  8
0
  6
CONTINUOUS
 62
             200
100
AcDbLine
 10
56.049999999999997
 20
88.079999999999998
 30
0.0
 11
47.950000000000003
 21
83.400000000000006
 31
0.0
  0
LINE
  5
19A
100
AcDbEntity
  8
0
  6
CONTINUOUS
 62
               4
100
AcDbLine
 10
53.280000000000001
 20
87.629999999999995
 30
0.0
 11
53.280000000000001
 21
91.0
 31
0.0
  0
LINE
  5
19B
100
AcDbEntity
  8
0
  6
CONTINUOUS
 62
               4
100
AcDbLine
 10
54.710000000000001
 20
88.459999999999994
 30
0.0
 11
54.710000000000001
 21
91.0
 31
0.0
  0
LINE
  5
19C
100
AcDbEntity
  8
0
  6
CONTINUOUS
 62
               4
100
AcDbLine
 10
47.049999999999997
 20
76.5
 30
0.0
 11
48.5
 21
76.5
 31
0.0
  0
LINE
  5
19D
100
AcDbEntity
  8
0
  6
CONTINUOUS
 62
               4
100
AcDbLine
 10
47.950000000000003
 20
72.0
 30
0.0
 11
47.950000000000003
 21
74.5
 31
0.0
  0
LINE
  5
19E
100
AcDbEntity
  8
0
  6
CONTINUOUS
 62
               4
100
AcDbLine
 10
56.049999999999997
 20
72.0
 30
0.0
 11
56.049999999999997
 21
74.5
 31
0.0
  0
LINE
  5
19F
100
AcDbEntity
  8
0
  6
CONTINUOUS
 62
               4
100
AcDbLine
 10
55.5
 20
72.489999999999995
 30
0.0
 11
55.5
 21
83.0
 31
0.0
  0
LINE
  5
1A0
100
AcDbEntity
  8
0
  6
CONTINUOUS
 62
               4
100
AcDbLine
 10
48.5
 20
72.489999999999995
 30
0.0
 11
48.5
 21
83.0
 31
0.0
  0
LINE
  5
1A1
100
AcDbEntity
  8
0
  6
CONTINUOUS
 62
               4
100
AcDbLine
 10
48.5
 20
72.489999999999995
 30
0.0
 11
55.5
 21
72.489999999999995
 31
0.0
  0
LINE
  5
1A2
100
AcDbEntity
  8
0
  6
CONTINUOUS
 62
               4
100
AcDbLine
 10
48.5
 20
76.049999999999997
 30
0.0
 11
55.5
 21
76.049999999999997
 31
0.0
  0
LINE
  5
1A3
100
AcDbEntity
  8
0
  6
CONTINUOUS
 62
               4
100
AcDbLine
 10
48.5
 20
81.5
 30
0.0
 11
55.5
 21
81.5
 31
0.0
  0
LINE
  5
1A4
100
AcDbEntity
  8
0
  6
CONTINUOUS
 62
               4
100
AcDbLine
 10
47.100000000000001
 20
83.0
 30
0.0
 11
56.899999999999999
 21
83.0
 31
0.0
  0
LINE
  5
1A5
100
AcDbEntity
  8
0
  6
CONTINUOUS
 62
               4
100
AcDbLine
 10
55.5
 20
76.5
 30
0.0
 11
56.950000000000003
 21
76.5
 31
0.0
  0
LINE
  5
1A6
100
AcDbEntity
  8
0
  6
CONTINUOUS
 62
               4
100
AcDbLine
 10
55.5
 20
75.5
 30
0.0
 11
56.049999999999997
 21
75.5
 31
0.0
  0
LINE
  5
1A7
100
AcDbEntity
  8
0
  6
CONTINUOUS
 62
               4
100
AcDbLine
 10
55.5
 20
74.5
 30
0.0
 11
56.049999999999997
 21
74.5
 31
0.0
  0
LINE
  5
1A8
100
AcDbEntity
  8
0
  6
CONTINUOUS
 62
               4
100
AcDbLine
 10
47.950000000000003
 20
75.5
 30
0.0
 11
48.5
 21
75.5
 31
0.0
  0
LINE
  5
1A9
100
AcDbEntity
  8
0
  6
CONTINUOUS
 62
               4
100
AcDbLine
 10
47.950000000000003
 20
74.5
 30
0.0
 11
48.5
 21
74.5
 31
0.0
  0
LINE
  5
1AA
100
AcDbEntity
  8
0
  6
CONTINUOUS
 62
               4
100
AcDbLine
 10
47.950000000000003
 20
75.5
 30
0.0
 11
47.950000000000003
 21
76.5
 31
0.0
  0
LINE
  5
1AB
100
AcDbEntity
  8
0
  6
CONTINUOUS
 62
               4
100
AcDbLine
 10
56.049999999999997
 20
75.5
 30
0.0
 11
56.049999999999997
 21
76.5
 31
0.0
  0
LINE
  5
1AC
100
AcDbEntity
  8
0
  6
CONTINUOUS
 62
               4
100
AcDbLine
 10
50.710000000000001
 20
86.150000000000006
 30
0.0
 11
50.710000000000001
 21
91.0
 31
0.0
  0
LINE
  5
1AD
100
AcDbEntity
  8
0
  6
CONTINUOUS
 62
               4
100
AcDbLine
 10
49.280000000000001
 20
85.319999999999993
 30
0.0
 11
49.280000000000001
 21
91.0
 31
0.0
  0
LINE
  5
1AE
100
AcDbEntity
  8
0
  6
CONTINUOUS
 62
               4
100
AcDbLine
 10
49.280000000000001
 20
91.0
 30
0.0
 11
50.710000000000001
 21
91.0
 31
0.0
  0
LINE
  5
1AF
100
AcDbEntity
  8
0
  6
CONTINUOUS
 62
               4
100
AcDbLine
 10
50.399999999999999
 20
91.0
 30
0.0
 11
50.399999999999999
 21
96.0
 31
0.0
  0
LINE
  5
1B0
100
AcDbEntity
  8
0
  6
CONTINUOUS
 62
               4
100
AcDbLine
 10
49.600000000000001
 20
91.0
 30
0.0
 11
49.600000000000001
 21
96.0
 31
0.0
  0
LINE
  5
1B1
100
AcDbEntity
  8
0
  6
CONTINUOUS
 62
               4
100
AcDbLine
 10
49.600000000000001
 20
96.0
 30
0.0
 11
50.399999999999999
 21
96.0
 31
0.0
  0
LINE
  5
1B2
100
AcDbEntity
  8
0
  6
CONTINUOUS
 62
               4
100
AcDbLine
 10
50.710000000000001
 20
83.0
 30
0.0
 11
50.710000000000001
 21
85.0
 31
0.0
  0
LINE
  5
1B3
100
AcDbEntity
  8
0
  6
CONTINUOUS
 62
               4
100
AcDbLine
 10
49.280000000000001
 20
83.0
 30
0.0
 11
49.280000000000001
 21
84.170000000000002
 31
0.0
  0
LINE
  5
1B4
100
AcDbEntity
  8
0
  6
CONTINUOUS
 62
             200
100
AcDbLine
 10
56.049999999999997
 20
89.230000000000004
 30
0.0
 11
47.950000000000003
 21
84.549999999999997
 31
0.0
  0
LINE
  5
1B5
100
AcDbEntity
  8
0
  6
CONTINUOUS
 62
               7
100
AcDbLine
 10
57.0
 20
28.0
 30
0.0
 11
57.0
 21
39.0
 31
0.0
  0
LINE
  5
1B6
100
AcDbEntity
  8
0
  6
CONTINUOUS
 62
               7
100
AcDbLine
 10
47.0
 20
28.0
 30
0.0
 11
47.0
 21
39.0
 31
0.0
  0
LINE
  5
1B7
100
AcDbEntity
  8
0
  6
CONTINUOUS
 62
               4
100
AcDbLine
 10
56.899999999999999
 20
76.5
 30
0.0
 11
56.899999999999999
 21
83.0
 31
0.0
  0
LINE
  5
1B8
100
AcDbEntity
  8
0
  6
CONTINUOUS
 62
               4
100
AcDbLine
 10
47.100000000000001
 20
76.5
 30
0.0
 11
47.100000000000001
 21
83.0
 31
0.0
  0
LINE
  5
1B9
100
AcDbEntity
  8
0
  6
CONTINUOUS
 62
               4
100
AcDbLine
 10
48.0
 20
76.5
 30
0.0
 11
48.0
 21
83.0
 31
0.0
  0
LINE
  5
1BA
100
AcDbEntity
  8
0
  6
CONTINUOUS
 62
               4
100
AcDbLine
 10
56.0
 20
76.5
 30
0.0
 11
56.0
 21
83.0
 31
0.0
  0
LINE
  5
1BB
100
AcDbEntity
  8
0
  6
CONTINUOUS
 62
               7
100
AcDbLine
 10
43.0
 20
15.5
 30
0.0
 11
61.0
 21
15.5
 31
0.0
  0
LINE
  5
1BC
100
AcDbEntity
  8
0
  6
CONTINUOUS
 62
               7
100
AcDbLine
 10
61.0
 20
-60.0
 30
0.0
 11
61.0
 21
-34.140000000000001
 31
0.0
  0
LINE
  5
1BD
100
AcDbEntity
  8
0
  6
CONTINUOUS
 62
               7
100
AcDbLine
 10
43.0
 20
-60.0
 30
0.0
 11
43.0
 21
-32.140000000000001
 31
0.0
  0
LINE
  5
1BE
100
AcDbEntity
  8
0
  6
CONTINUOUS
 62
               7
100
AcDbLine
 10
43.0
 20
25.5
 30
0.0
 11
61.0
 21
25.5
 31
0.0
  0
LINE
  5
1BF
100
AcDbEntity
  8
0
  6
CONTINUOUS
 62
               7
100
AcDbLine
 10
43.0
 20
-37.5
 30
0.0
 11
61.0
 21
-37.5
 31
0.0
  0
LINE
  5
1C0
100
AcDbEntity
  8
0
  6
CONTINUOUS
 62
               7
100
AcDbLine
 10
43.0
 20
-49.5
 30
0.0
 11
61.0
 21
-49.5
 31
0.0
  0
LINE
  5
1C1
100
AcDbEntity
  8
0
  6
CONTINUOUS
 62
               7
100
AcDbLine
 10
43.0
 20
15.300000000000001
 30
0.0
 11
61.0
 21
15.300000000000001
 31
0.0
  0
LINE
  5
1C2
100
AcDbEntity
  8
0
  6
CONTINUOUS
 62
               7
100
AcDbLine
 10
43.0
 20
-37.299999999999997
 30
0.0
 11
61.0
 21
-37.299999999999997
 31
0.0
  0
LINE
  5
1C3
100
AcDbEntity
  8
0
  6
CONTINUOUS
 62
               7
100
AcDbLine
 10
58.5
 20
12.0
 30
0.0
 11
61.0
 21
12.0
 31
0.0
  0
LINE
  5
1C4
100
AcDbEntity
  8
0
  6
CONTINUOUS
 62
               7
100
AcDbLine
 10
58.5
 20
6.0
 30
0.0
 11
61.0
 21
6.0
 31
0.0
  0
LINE
  5
1C5
100
AcDbEntity
  8
0
  6
CONTINUOUS
 62
               7
100
AcDbLine
 10
43.0
 20
-34.0
 30
0.0
 11
45.5
 21
-34.0
 31
0.0
  0
LINE
  5
1C6
100
AcDbEntity
  8
0
  6
CONTINUOUS
 62
               7
100
AcDbLine
 10
43.0
 20
-28.0
 30
0.0
 11
45.5
 21
-28.0
 31
0.0
  0
LINE
  5
1C7
100
AcDbEntity
  8
0
  6
CONTINUOUS
 62
               7
100
AcDbLine
 10
55.5
 20
-33.0
 30
0.0
 11
55.5
 21
-37.299999999999997
 31
0.0
  0
LINE
  5
1C8
100
AcDbEntity
  8
0
  6
CONTINUOUS
 62
               7
100
AcDbLine
 10
48.5
 20
11.0
 30
0.0
 11
48.5
 21
15.300000000000001
 31
0.0
  0
LINE
  5
1C9
100
AcDbEntity
  8
0
  6
CONTINUOUS
 62
               7
100
AcDbLine
 10
45.5
 20
8.0
 30
0.0
 11
43.0
 21
8.0
 31
0.0
  0
LINE
  5
1CA
100
AcDbEntity
  8
0
  6
CONTINUOUS
 62
               7
100
AcDbLine
 10
58.5
 20
-30.0
 30
0.0
 11
61.0
 21
-30.0
 31
0.0
  0
LINE
  5
1CB
100
AcDbEntity
  8
0
  6
CONTINUOUS
 62
               7
100
AcDbLine
 10
43.0
 20
-35.299999999999997
 30
0.0
 11
55.5
 21
-35.299999999999997
 31
0.0
  0
LINE
  5
1CC
100
AcDbEntity
  8
0
  6
CONTINUOUS
 62
               7
100
AcDbLine
 10
48.5
 20
13.300000000000001
 30
0.0
 11
61.0
 21
13.300000000000001
 31
0.0
  0
LINE
  5
1CD
100
AcDbEntity
  8
0
  6
CONTINUOUS
 62
               7
100
AcDbLine
 10
59.560000000000002
 20
7.9299999999999997
 30
0.0
 11
57.43
 21
10.06
 31
0.0
  0
LINE
  5
1CE
100
AcDbEntity
  8
0
  6
CONTINUOUS
 62
               7
100
AcDbLine
 10
46.560000000000002
 20
9.9299999999999997
 30
0.0
 11
44.43
 21
12.06
 31
0.0
  0
LINE
  5
1CF
100
AcDbEntity
  8
0
  6
CONTINUOUS
 62
               7
100
AcDbLine
 10
44.43
 20
9.9299999999999997
 30
0.0
 11
46.560000000000002
 21
12.06
 31
0.0
  0
LINE
  5
1D0
100
AcDbEntity
  8
0
  6
CONTINUOUS
 62
               7
100
AcDbLine
 10
57.43
 20
7.9299999999999997
 30
0.0
 11
59.560000000000002
 21
10.06
 31
0.0
  0
LINE
  5
1D1
100
AcDbEntity
  8
0
  6
CONTINUOUS
 62
               7
100
AcDbLine
 10
43.5
 20
-60.5
 30
0.0
 11
60.5
 21
-60.5
 31
0.0
  0
LINE
  5
1D2
100
AcDbEntity
  8
0
  6
CONTINUOUS
 62
               7
100
AcDbLine
 10
57.43
 20
-34.060000000000002
 30
0.0
 11
59.560000000000002
 21
-31.93
 31
0.0
  0
LINE
  5
1D3
100
AcDbEntity
  8
0
  6
CONTINUOUS
 62
               7
100
AcDbLine
 10
59.560000000000002
 20
-34.060000000000002
 30
0.0
 11
57.43
 21
-31.93
 31
0.0
  0
LINE
  5
1D4
100
AcDbEntity
  8
0
  6
CONTINUOUS
 62
               7
100
AcDbLine
 10
44.43
 20
-32.060000000000002
 30
0.0
 11
46.560000000000002
 21
-29.93
 31
0.0
  0
LINE
  5
1D5
100
AcDbEntity
  8
0
  6
CONTINUOUS
 62
               7
100
AcDbLine
 10
46.560000000000002
 20
-32.060000000000002
 30
0.0
 11
44.43
 21
-29.93
 31
0.0
  0
LINE
  5
1D6
100
AcDbEntity
  8
0
  6
CONTINUOUS
 62
               7
100
AcDbLine
 10
43.0
 20
-29.850000000000001
 30
0.0
 11
43.0
 21
9.8499999999999996
 31
0.0
  0
LINE
  5
1D7
100
AcDbEntity
  8
0
  6
CONTINUOUS
 62
               7
100
AcDbLine
 10
43.0
 20
12.140000000000001
 30
0.0
 11
43.0
 21
25.5
 31
0.0
  0
LINE
  5
1D8
100
AcDbEntity
  8
0
  6
CONTINUOUS
 62
               7
100
AcDbLine
 10
61.0
 20
10.140000000000001
 30
0.0
 11
61.0
 21
25.5
 31
0.0
  0
LINE
  5
1D9
100
AcDbEntity
  8
0
  6
CONTINUOUS
 62
               7
100
AcDbLine
 10
61.0
 20
-31.850000000000001
 30
0.0
 11
61.0
 21
7.8499999999999996
 31
0.0
  0
LINE
  5
1DA
100
AcDbEntity
  8
0
  6
CONTINUOUS
 62
               7
100
AcDbLine
 10
45.0
 20
28.0
 30
0.0
 11
59.0
 21
28.0
 31
0.0
  0
LINE
  5
1DB
100
AcDbEntity
  8
0
  6
CONTINUOUS
 62
               7
100
AcDbLine
 10
45.0
 20
28.0
 30
0.0
 11
43.0
 21
25.5
 31
0.0
  0
LINE
  5
1DC
100
AcDbEntity
  8
0
  6
CONTINUOUS
 62
               7
100
AcDbLine
 10
59.0
 20
28.0
 30
0.0
 11
61.0
 21
25.5
 31
0.0
  0
LINE
  5
1DD
100
AcDbEntity
  8
0
  6
CONTINUOUS
 62
               4
100
AcDbLine
 10
47.0
 20
39.0
 30
0.0
 11
47.0
 21
63.0
 31
0.0
  0
LINE
  5
1DE
100
AcDbEntity
  8
0
  6
CONTINUOUS
 62
               4
100
AcDbLine
 10
57.0
 20
39.0
 30
0.0
 11
57.0
 21
63.0
 31
0.0
  0
LINE
  5
1DF
100
AcDbEntity
  8
0
  6
CENTER
 62
             200
100
AcDbLine
 10
14.0
 20
-63.799999999999997
 30
0.0
 11
14.0
 21
-80.969999999999999
 31
0.0
  0
LINE
  5
1E0
100
AcDbEntity
  8
0
  6
CENTER
 62
             200
100
AcDbLine
 10
33.0
 20
-63.799999999999997
 30
0.0
 11
33.0
 21
-80.969999999999999
 31
0.0
  0
LINE
  5
1E1
100
AcDbEntity
  8
0
  6
CENTER
 62
             200
100
AcDbLine
 10
52.0
 20
-63.799999999999997
 30
0.0
 11
52.0
 21
-80.969999999999999
 31
0.0
  0
LINE
  5
1E2
100
AcDbEntity
  8
0
  6
CENTER
 62
             200
100
AcDbLine
 10
71.0
 20
-44.579999999999998
 30
0.0
 11
71.0
 21
-80.969999999999999
 31
0.0
  0
CIRCLE
  5
1E3
100
AcDbEntity
  8
0
  6
CONTINUOUS
 62
               4
100
AcDbCircle
 10
64.500015258789063
 20
-30.999984741210938
 30
0.0
 40
2.7999992370605469
  0
CIRCLE
  5
1E4
100
AcDbEntity
  8
0
  6
CONTINUOUS
 62
               4
100
AcDbCircle
 10
77.5
 20
9.0
 30
0.0
 40
2.7999992370605469
  0
CIRCLE
  5
1E5
100
AcDbEntity
  8
0
  6
CONTINUOUS
 62
               7
100
AcDbCircle
 10
0.0
 20
0.0
 30
0.0
 40
2.25
  0
CIRCLE
  5
1E6
100
AcDbEntity
  8
0
  6
CONTINUOUS
 62
               7
100
AcDbCircle
 10
0.0
 20
-23.000015258789063
 30
0.0
 40
2.25
  0
CIRCLE
  5
1E7
100
AcDbEntity
  8
0
  6
CONTINUOUS
 62
               7
100
AcDbCircle
 10
85.0
 20
0.0
 30
0.0
 40
2.25
  0
CIRCLE
  5
1E8
100
AcDbEntity
  8
0
  6
CONTINUOUS
 62
               7
100
AcDbCircle
 10
85.0
 20
-23.000015258789063
 30
0.0
 40
2.25
  0
CIRCLE
  5
1E9
100
AcDbEntity
  8
0
  6
CONTINUOUS
 62
               7
100
AcDbCircle
 10
14.0
 20
35.699996948242187
 30
0.0
 40
1.9499998092651367
  0
ARC
  5
1EA
100
AcDbEntity
  8
0
  6
CONTINUOUS
 62
               4
100
AcDbCircle
 10
18.44999084468931
 20
71.499990844689307
 30
0.0
 40
0.5000091553945082
100
AcDbArc
 50
0.0010491021158139
 51
89.998950897884399
  0
ARC
  5
1EB
100
AcDbEntity
  8
0
  6
CONTINUOUS
 62
               4
100
AcDbCircle
 10
9.5500091553106898
 20
71.499990844689307
 30
0.0
 40
0.5000091553945082
100
AcDbArc
 50
90.001049102115203
 51
179.99895089788379
  0
CIRCLE
  5
1EC
100
AcDbEntity
  8
0
  6
CONTINUOUS
 62
               7
100
AcDbCircle
 10
7.5
 20
11.0
 30
0.0
 40
2.75
  0
ARC
  5
1ED
100
AcDbEntity
  8
0
  6
CONTINUOUS
 62
               7
100
AcDbCircle
 10
20.5
 20
9.0
 30
0.0
 40
3.0
100
AcDbArc
 50
89.999999999999801
 51
269.99999999999937
  0
ARC
  5
1EE
100
AcDbEntity
  8
0
  6
CONTINUOUS
 62
               7
100
AcDbCircle
 10
7.5
 20
-31.0
 30
0.0
 40
3.0
100
AcDbArc
 50
269.99999999999937
 51
89.999999999999801
  0
ARC
  5
1EF
100
AcDbEntity
  8
0
  6
CONTINUOUS
 62
               7
100
AcDbCircle
 10
7.5
 20
11.0
 30
0.0
 40
3.0
100
AcDbArc
 50
269.99999999999937
 51
0.0
  0
ARC
  5
1F0
100
AcDbEntity
  8
0
  6
CONTINUOUS
 62
               7
100
AcDbCircle
 10
20.500007629404234
 20
-33.00000762940423
 30
0.0
 40
3.0000076294139335
100
AcDbArc
 50
90.000145710516847
 51
179.99985428948264
  0
CIRCLE
  5
1F1
100
AcDbEntity
  8
0
  6
CONTINUOUS
 62
               7
100
AcDbCircle
 10
20.500015258789063
 20
9.0
 30
0.0
 40
2.75
  0
ARC
  5
1F2
100
AcDbEntity
  8
0
  6
CONTINUOUS
 62
               7
100
AcDbCircle
 10
5.4999923706636764
 20
-60.000007629336324
 30
0.0
 40
0.4999923707218841
100
AcDbArc
 50
179.9991257291158
 51
270.00087427088317
  0
ARC
  5
1F3
100
AcDbEntity
  8
0
  6
CONTINUOUS
 62
               7
100
AcDbCircle
 10
22.500007629336324
 20
-60.000007629336324
 30
0.0
 40
0.4999923707218841
100
AcDbArc
 50
269.99912572911558
 51
0.0008742708838174
  0
CIRCLE
  5
1F4
100
AcDbEntity
  8
0
  6
CONTINUOUS
 62
               7
100
AcDbCircle
 10
20.5
 20
-33.000015258789063
 30
0.0
 40
2.75
  0
CIRCLE
  5
1F5
100
AcDbEntity
  8
0
  6
CONTINUOUS
 62
               7
100
AcDbCircle
 10
7.5000152587890625
 20
-31.000015258789063
 30
0.0
 40
2.75
  0
ARC
  5
1F6
100
AcDbEntity
  8
0
  6
CONTINUOUS
 62
               4
100
AcDbCircle
 10
62.499992370663676
 20
-52.500007629336324
 30
0.0
 40
0.4999923707218841
100
AcDbArc
 50
179.9991257291158
 51
270.00087427088317
  0
ARC
  5
1F7
100
AcDbEntity
  8
0
  6
CONTINUOUS
 62
               4
100
AcDbCircle
 10
79.5
 20
-52.5
 30
0.0
 40
0.5
100
AcDbArc
 50
269.99999999999937
 51
0.0
  0
ARC
  5
1F8
100
AcDbEntity
  8
0
  6
CONTINUOUS
 62
               4
100
AcDbCircle
 10
67.799995422460299
 20
-52.700004577539708
 30
0.0
 40
0.2999954224952177
100
AcDbArc
 50
179.99912574097422
 51
270.00087425902342
  0
ARC
  5
1F9
100
AcDbEntity
  8
0
  6
CONTINUOUS
 62
               4
100
AcDbCircle
 10
63.249992370624874
 20
-51.500007629375126
 30
0.0
 40
1.4999923706442737
100
AcDbArc
 50
179.99970857785399
 51
270.00029142214498
  0
ARC
  5
1FA
100
AcDbEntity
  8
0
  6
CONTINUOUS
 62
               4
100
AcDbCircle
 10
65.750007629375133
 20
-51.500007629375126
 30
0.0
 40
1.4999923706442737
100
AcDbArc
 50
269.99970857785354
 51
0.000291422145614
  0
ARC
  5
1FB
100
AcDbEntity
  8
0
  6
CONTINUOUS
 62
               7
100
AcDbCircle
 10
20.001567378792597
 20
28.49966203340513
 30
0.0
 40
2.5019681773329054
100
AcDbArc
 50
191.51986018159249
 51
319.35638366963815
  0
CIRCLE
  5
1FC
100
AcDbEntity
  8
0
  6
CONTINUOUS
 62
               7
100
AcDbCircle
 10
32.999984741210938
 20
-45.500015258789063
 30
0.0
 40
1.9499998092651367
  0
CIRCLE
  5
1FD
100
AcDbEntity
  8
0
  6
CONTINUOUS
 62
               7
100
AcDbCircle
 10
32.999984741210938
 20
35.699966430664063
 30
0.0
 40
1.9499998092651367
  0
ARC
  5
1FE
100
AcDbEntity
  8
0
  6
CONTINUOUS
 62
               4
100
AcDbCircle
 10
37.44999084468931
 20
71.499990844689307
 30
0.0
 40
0.50000915539451
100
AcDbArc
 50
0.0010491021158139
 51
89.998950897884001
  0
ARC
  5
1FF
100
AcDbEntity
  8
0
  6
CONTINUOUS
 62
               4
100
AcDbCircle
 10
28.549993896940723
 20
71.500006103059278
 30
0.0
 40
0.4999938969779705
100
AcDbArc
 50
89.99930063238584
 51
180.00069936761358
  0
CIRCLE
  5
200
100
AcDbEntity
  8
0
  6
CONTINUOUS
 62
               7
100
AcDbCircle
 10
26.499984741210938
 20
10.999984741210938
 30
0.0
 40
2.75
  0
ARC
  5
201
100
AcDbEntity
  8
0
  6
CONTINUOUS
 62
               7
100
AcDbCircle
 10
39.5
 20
9.0
 30
0.0
 40
3.0000000000388054
100
AcDbArc
 50
89.999999999999801
 51
269.99999999999937
  0
ARC
  5
202
100
AcDbEntity
  8
0
  6
CONTINUOUS
 62
               7
100
AcDbCircle
 10
26.5
 20
-31.0
 30
0.0
 40
3.0000000000388054
100
AcDbArc
 50
269.99999999999937
 51
89.999999999999801
  0
ARC
  5
203
100
AcDbEntity
  8
0
  6
CONTINUOUS
 62
               7
100
AcDbCircle
 10
26.499999999961194
 20
11.000000000038806
 30
0.0
 40
3.0000000000388054
100
AcDbArc
 50
270.00000000074056
 51
359.99999999925802
  0
ARC
  5
204
100
AcDbEntity
  8
0
  6
CONTINUOUS
 62
               7
100
AcDbCircle
 10
39.499992370615168
 20
-32.999992370615168
 30
0.0
 40
2.999992370624871
100
AcDbArc
 50
89.999854289112193
 51
180.00014571088721
  0
CIRCLE
  5
205
100
AcDbEntity
  8
0
  6
CONTINUOUS
 62
               7
100
AcDbCircle
 10
39.499984741210938
 20
8.9999847412109375
 30
0.0
 40
2.75
  0
ARC
  5
206
100
AcDbEntity
  8
0
  6
CONTINUOUS
 62
               7
100
AcDbCircle
 10
24.499992370663676
 20
-60.000007629336324
 30
0.0
 40
0.4999923707218841
100
AcDbArc
 50
179.9991257291158
 51
270.00087427088317
  0
ARC
  5
207
100
AcDbEntity
  8
0
  6
CONTINUOUS
 62
               7
100
AcDbCircle
 10
41.499999999767169
 20
-59.999999999767169
 30
0.0
 40
0.5000000002328306
100
AcDbArc
 50
270.0000000266798
 51
359.99999997331878
  0
CIRCLE
  5
208
100
AcDbEntity
  8
0
  6
CONTINUOUS
 62
               7
100
AcDbCircle
 10
39.499984741210938
 20
-33.0
 30
0.0
 40
2.75
  0
CIRCLE
  5
209
100
AcDbEntity
  8
0
  6
CONTINUOUS
 62
               7
100
AcDbCircle
 10
26.499984741210938
 20
-31.0
 30
0.0
 40
2.75
  0
ARC
  5
20A
100
AcDbEntity
  8
0
  6
CONTINUOUS
 62
               7
100
AcDbCircle
 10
39.001564628867058
 20
28.499651447408606
 30
0.0
 40
2.5019633687185783
100
AcDbArc
 50
191.51963521871016
 51
319.35660863252059
  0
CIRCLE
  5
20B
100
AcDbEntity
  8
0
  6
CONTINUOUS
 62
               7
100
AcDbCircle
 10
51.999984741210937
 20
-45.500015258789063
 30
0.0
 40
1.9499998092651367
  0
CIRCLE
  5
20C
100
AcDbEntity
  8
0
  6
CONTINUOUS
 62
               7
100
AcDbCircle
 10
51.999984741210937
 20
35.699966430664063
 30
0.0
 40
1.9499998092651367
  0
ARC
  5
20D
100
AcDbEntity
  8
0
  6
CONTINUOUS
 62
               4
100
AcDbCircle
 10
56.44999084468931
 20
71.499990844689307
 30
0.0
 40
0.50000915539451
100
AcDbArc
 50
0.0010491021158139
 51
89.998950897884001
  0
ARC
  5
20E
100
AcDbEntity
  8
0
  6
CONTINUOUS
 62
               4
100
AcDbCircle
 10
47.54999389694072
 20
71.500006103059278
 30
0.0
 40
0.4999938969779723
100
AcDbArc
 50
89.99930063238584
 51
180.00069936761358
  0
CIRCLE
  5
20F
100
AcDbEntity
  8
0
  6
CONTINUOUS
 62
               7
100
AcDbCircle
 10
45.499984741210938
 20
10.999984741210938
 30
0.0
 40
2.75
  0
ARC
  5
210
100
AcDbEntity
  8
0
  6
CONTINUOUS
 62
               7
100
AcDbCircle
 10
58.5
 20
9.0
 30
0.0
 40
3.0000000000388054
100
AcDbArc
 50
89.999999999999801
 51
269.99999999999937
  0
ARC
  5
211
100
AcDbEntity
  8
0
  6
CONTINUOUS
 62
               7
100
AcDbCircle
 10
45.5
 20
-31.0
 30
0.0
 40
3.0000000000388054
100
AcDbArc
 50
269.99999999999937
 51
89.999999999999801
  0
ARC
  5
212
100
AcDbEntity
  8
0
  6
CONTINUOUS
 62
               7
100
AcDbCircle
 10
45.499999999961197
 20
11.000000000038806
 30
0.0
 40
3.0000000000388054
100
AcDbArc
 50
270.00000000074044
 51
359.99999999925802
  0
ARC
  5
213
100
AcDbEntity
  8
0
  6
CONTINUOUS
 62
               7
100
AcDbCircle
 10
58.499992370615168
 20
-32.999992370615168
 30
0.0
 40
2.999992370624871
100
AcDbArc
 50
89.999854289112193
 51
180.00014571088721
  0
CIRCLE
  5
214
100
AcDbEntity
  8
0
  6
CONTINUOUS
 62
               7
100
AcDbCircle
 10
58.499984741210938
 20
8.9999847412109375
 30
0.0
 40
2.75
  0
ARC
  5
215
100
AcDbEntity
  8
0
  6
CONTINUOUS
 62
               7
100
AcDbCircle
 10
43.499992370663676
 20
-60.000007629336324
 30
0.0
 40
0.4999923707218841
100
AcDbArc
 50
179.9991257291158
 51
270.00087427088317
  0
ARC
  5
216
100
AcDbEntity
  8
0
  6
CONTINUOUS
 62
               7
100
AcDbCircle
 10
60.499999999767169
 20
-59.999999999767169
 30
0.0
 40
0.5000000002328306
100
AcDbArc
 50
270.0000000266798
 51
359.99999997331878
  0
CIRCLE
  5
217
100
AcDbEntity
  8
0
  6
CONTINUOUS
 62
               7
100
AcDbCircle
 10
58.499984741210938
 20
-33.0
 30
0.0
 40
2.75
  0
CIRCLE
  5
218
100
AcDbEntity
  8
0
  6
CONTINUOUS
 62
               7
100
AcDbCircle
 10
45.499984741210938
 20
-31.0
 30
0.0
 40
2.75
  0
ARC
  5
219
100
AcDbEntity
  8
0
  6
CONTINUOUS
 62
               7
100
AcDbCircle
 10
58.001564628867058
 20
28.499651447408606
 30
0.0
 40
2.5019633687185783
100
AcDbArc
 50
191.51963521871016
 51
319.35660863252059
  0
ENDBLK
  5
21A
100
AcDbEntity
  8
0
100
AcDbBlockEnd
  0
BLOCK
  5
21B
100
AcDbEntity
  8
0
100
AcDbBlockBegin
  2
MS_2
 70
               0
 10
0.0
 20
0.0
 30
0.0
  3
MS_2
  1

  0
LINE
  5
21C
100
AcDbEntity
  8
0
  6
CENTER
 62
               2
100
AcDbLine
 10
15.66
 20
-36.0
 30
0.0
 11
34.329999999999998
 21
-36.0
 31
0.0
  0
LINE
  5
21D
100
AcDbEntity
  8
0
  6
CENTER
 62
               2
100
AcDbLine
 10
25.0
 20
-45.329999999999998
 30
0.0
 11
25.0
 21
-26.66
 31
0.0
  0
LINE
  5
21E
100
AcDbEntity
  8
0
  6
CONTINUOUS
 62
               7
100
AcDbLine
 10
53.0
 20
-48.0
 30
0.0
 11
53.0
 21
29.0
 31
0.0
  0
LINE
  5
21F
100
AcDbEntity
  8
0
  6
CONTINUOUS
 62
               7
100
AcDbLine
 10
0.0
 20
-48.0
 30
0.0
 11
0.0
 21
29.0
 31
0.0
  0
LINE
  5
220
100
AcDbEntity
  8
0
  6
CONTINUOUS
 62
               7
100
AcDbLine
 10
0.0
 20
-48.0
 30
0.0
 11
53.0
 21
-48.0
 31
0.0
  0
LINE
  5
221
100
AcDbEntity
  8
0
  6
CONTINUOUS
 62
               7
100
AcDbLine
 10
0.0
 20
29.0
 30
0.0
 11
53.0
 21
29.0
 31
0.0
  0
LINE
  5
222
100
AcDbEntity
  8
0
  6
CENTER
 62
               2
100
AcDbLine
 10
15.66
 20
13.0
 30
0.0
 11
34.329999999999998
 21
13.0
 31
0.0
  0
LINE
  5
223
100
AcDbEntity
  8
0
  6
CENTER
 62
               2
100
AcDbLine
 10
25.0
 20
3.6600000000000001
 30
0.0
 11
25.0
 21
22.329999999999998
 31
0.0
  0
LINE
  5
224
100
AcDbEntity
  8
0
  6
CENTER
 62
               2
100
AcDbLine
 10
15.66
 20
-11.5
 30
0.0
 11
34.329999999999998
 21
-11.5
 31
0.0
  0
LINE
  5
225
100
AcDbEntity
  8
0
  6
CENTER
 62
               2
100
AcDbLine
 10
25.0
 20
-22.329999999999998
 30
0.0
 11
25.0
 21
-2.1600000000000001
 31
0.0
  0
LINE
  5
226
100
AcDbEntity
  8
0
  6
CENTER
 62
               2
100
AcDbLine
 10
40.0
 20
19.5
 30
0.0
 11
40.0
 21
26.5
 31
0.0
  0
LINE
  5
227
100
AcDbEntity
  8
0
  6
CENTER
 62
               2
100
AcDbLine
 10
36.5
 20
23.0
 30
0.0
 11
43.5
 21
23.0
 31
0.0
  0
LINE
  5
228
100
AcDbEntity
  8
0
  6
CONTINUOUS
 62
               4
100
AcDbLine
 10
50.799999999999997
 20
-53.0
 30
0.0
 11
2.2000000000000002
 21
-53.0
 31
0.0
  0
LINE
  5
229
100
AcDbEntity
  8
0
  6
CONTINUOUS
 62
               4
100
AcDbLine
 10
52.799999999999997
 20
-51.0
 30
0.0
 11
52.799999999999997
 21
-48.0
 31
0.0
  0
LINE
  5
22A
100
AcDbEntity
  8
0
  6
CONTINUOUS
 62
               4
100
AcDbLine
 10
0.2
 20
-51.0
 30
0.0
 11
0.2
 21
-48.0
 31
0.0
  0
LINE
  5
22B
100
AcDbEntity
  8
0
  6
CONTINUOUS
 62
               4
100
AcDbLine
 10
2.2000000000000002
 20
-53.0
 30
0.0
 11
0.2
 21
-51.0
 31
0.0
  0
LINE
  5
22C
100
AcDbEntity
  8
0
  6
CONTINUOUS
 62
               4
100
AcDbLine
 10
50.799999999999997
 20
-53.0
 30
0.0
 11
52.799999999999997
 21
-51.0
 31
0.0
  0
LINE
  5
22D
100
AcDbEntity
  8
0
  6
CONTINUOUS
 62
               4
100
AcDbLine
 10
52.799999999999997
 20
-51.0
 30
0.0
 11
45.5
 21
-51.0
 31
0.0
  0
LINE
  5
22E
100
AcDbEntity
  8
0
  6
CONTINUOUS
 62
               4
100
AcDbLine
 10
45.5
 20
-53.0
 30
0.0
 11
45.5
 21
-51.0
 31
0.0
  0
LINE
  5
22F
100
AcDbEntity
  8
0
  6
CONTINUOUS
 62
               4
100
AcDbLine
 10
9.5
 20
-53.0
 30
0.0
 11
9.5
 21
-48.0
 31
0.0
  0
LINE
  5
230
100
AcDbEntity
  8
0
  6
CONTINUOUS
 62
               4
100
AcDbLine
 10
3.5
 20
-53.0
 30
0.0
 11
3.5
 21
-48.0
 31
0.0
  0
LINE
  5
231
100
AcDbEntity
  8
0
  6
CONTINUOUS
 62
               4
100
AcDbLine
 10
44.0
 20
-79.0
 30
0.0
 11
28.0
 21
-79.0
 31
0.0
  0
LINE
  5
232
100
AcDbEntity
  8
0
  6
CENTER
 62
             200
100
AcDbLine
 10
36.0
 20
-80.340000000000003
 30
0.0
 11
36.0
 21
-46.880000000000003
 31
0.0
  0
LINE
  5
233
100
AcDbEntity
  8
0
  6
CONTINUOUS
 62
               4
100
AcDbLine
 10
44.0
 20
-79.0
 30
0.0
 11
44.0
 21
-77.5
 31
0.0
  0
LINE
  5
234
100
AcDbEntity
  8
0
  6
CONTINUOUS
 62
               4
100
AcDbLine
 10
44.5
 20
-75.0
 30
0.0
 11
44.5
 21
-69.0
 31
0.0
  0
LINE
  5
235
100
AcDbEntity
  8
0
  6
CONTINUOUS
 62
               4
100
AcDbLine
 10
27.5
 20
-75.0
 30
0.0
 11
27.5
 21
-69.0
 31
0.0
  0
LINE
  5
236
100
AcDbEntity
  8
0
  6
CONTINUOUS
 62
               4
100
AcDbLine
 10
28.0
 20
-79.0
 30
0.0
 11
28.0
 21
-77.5
 31
0.0
  0
LINE
  5
237
100
AcDbEntity
  8
0
  6
CONTINUOUS
 62
               4
100
AcDbLine
 10
44.0
 20
-77.5
 30
0.0
 11
28.0
 21
-77.5
 31
0.0
  0
LINE
  5
238
100
AcDbEntity
  8
0
  6
CONTINUOUS
 62
               4
100
AcDbLine
 10
44.0
 20
-75.5
 30
0.0
 11
28.0
 21
-75.5
 31
0.0
  0
LINE
  5
239
100
AcDbEntity
  8
0
  6
CONTINUOUS
 62
               4
100
AcDbLine
 10
44.5
 20
-75.0
 30
0.0
 11
27.5
 21
-75.0
 31
0.0
  0
LINE
  5
23A
100
AcDbEntity
  8
0
  6
CONTINUOUS
 62
               4
100
AcDbLine
 10
44.5
 20
-74.5
 30
0.0
 11
27.5
 21
-74.5
 31
0.0
  0
LINE
  5
23B
100
AcDbEntity
  8
0
  6
CONTINUOUS
 62
               4
100
AcDbLine
 10
44.5
 20
-69.0
 30
0.0
 11
27.5
 21
-69.0
 31
0.0
  0
LINE
  5
23C
100
AcDbEntity
  8
0
  6
CONTINUOUS
 62
               4
100
AcDbLine
 10
43.5
 20
-68.0
 30
0.0
 11
28.5
 21
-68.0
 31
0.0
  0
LINE
  5
23D
100
AcDbEntity
  8
0
  6
CONTINUOUS
 62
               4
100
AcDbLine
 10
43.5
 20
-66.0
 30
0.0
 11
28.5
 21
-66.0
 31
0.0
  0
LINE
  5
23E
100
AcDbEntity
  8
0
  6
CONTINUOUS
 62
               4
100
AcDbLine
 10
44.5
 20
-65.0
 30
0.0
 11
27.5
 21
-65.0
 31
0.0
  0
LINE
  5
23F
100
AcDbEntity
  8
0
  6
CONTINUOUS
 62
               4
100
AcDbLine
 10
44.5
 20
-54.5
 30
0.0
 11
27.5
 21
-54.5
 31
0.0
  0
LINE
  5
240
100
AcDbEntity
  8
0
  6
CONTINUOUS
 62
               4
100
AcDbLine
 10
44.5
 20
-65.0
 30
0.0
 11
44.5
 21
-54.5
 31
0.0
  0
LINE
  5
241
100
AcDbEntity
  8
0
  6
CONTINUOUS
 62
               4
100
AcDbLine
 10
27.5
 20
-65.0
 30
0.0
 11
27.5
 21
-54.5
 31
0.0
  0
LINE
  5
242
100
AcDbEntity
  8
0
  6
CONTINUOUS
 62
               4
100
AcDbLine
 10
44.5
 20
-75.0
 30
0.0
 11
44.0
 21
-75.5
 31
0.0
  0
LINE
  5
243
100
AcDbEntity
  8
0
  6
CONTINUOUS
 62
               4
100
AcDbLine
 10
28.0
 20
-75.5
 30
0.0
 11
27.5
 21
-75.0
 31
0.0
  0
LINE
  5
244
100
AcDbEntity
  8
0
  6
CONTINUOUS
 62
               4
100
AcDbLine
 10
28.5
 20
-68.0
 30
0.0
 11
28.5
 21
-66.0
 31
0.0
  0
LINE
  5
245
100
AcDbEntity
  8
0
  6
CONTINUOUS
 62
               4
100
AcDbLine
 10
43.5
 20
-68.0
 30
0.0
 11
43.5
 21
-66.0
 31
0.0
  0
LINE
  5
246
100
AcDbEntity
  8
0
  6
CONTINUOUS
 62
               4
100
AcDbLine
 10
44.5
 20
-69.0
 30
0.0
 11
43.5
 21
-68.0
 31
0.0
  0
LINE
  5
247
100
AcDbEntity
  8
0
  6
CONTINUOUS
 62
               4
100
AcDbLine
 10
43.5
 20
-66.0
 30
0.0
 11
44.5
 21
-65.0
 31
0.0
  0
LINE
  5
248
100
AcDbEntity
  8
0
  6
CONTINUOUS
 62
               4
100
AcDbLine
 10
27.5
 20
-69.0
 30
0.0
 11
28.5
 21
-68.0
 31
0.0
  0
LINE
  5
249
100
AcDbEntity
  8
0
  6
CONTINUOUS
 62
               4
100
AcDbLine
 10
28.5
 20
-66.0
 30
0.0
 11
27.5
 21
-65.0
 31
0.0
  0
LINE
  5
24A
100
AcDbEntity
  8
0
  6
CONTINUOUS
 62
               4
100
AcDbLine
 10
29.25
 20
-54.5
 30
0.0
 11
29.25
 21
-53.0
 31
0.0
  0
LINE
  5
24B
100
AcDbEntity
  8
0
  6
CONTINUOUS
 62
               4
100
AcDbLine
 10
42.75
 20
-54.5
 30
0.0
 11
42.75
 21
-53.0
 31
0.0
  0
LINE
  5
24C
100
AcDbEntity
  8
0
  6
CONTINUOUS
 62
               4
100
AcDbLine
 10
41.5
 20
-77.5
 30
0.0
 11
41.5
 21
-75.5
 31
0.0
  0
LINE
  5
24D
100
AcDbEntity
  8
0
  6
CONTINUOUS
 62
               4
100
AcDbLine
 10
30.5
 20
-77.5
 30
0.0
 11
30.5
 21
-75.5
 31
0.0
  0
LINE
  5
24E
100
AcDbEntity
  8
0
  6
CONTINUOUS
 62
               4
100
AcDbLine
 10
25.0
 20
-79.0
 30
0.0
 11
9.0
 21
-79.0
 31
0.0
  0
LINE
  5
24F
100
AcDbEntity
  8
0
  6
CENTER
 62
             200
100
AcDbLine
 10
17.0
 20
-80.340000000000003
 30
0.0
 11
17.0
 21
-46.880000000000003
 31
0.0
  0
LINE
  5
250
100
AcDbEntity
  8
0
  6
CONTINUOUS
 62
               4
100
AcDbLine
 10
25.0
 20
-79.0
 30
0.0
 11
25.0
 21
-77.5
 31
0.0
  0
LINE
  5
251
100
AcDbEntity
  8
0
  6
CONTINUOUS
 62
               4
100
AcDbLine
 10
25.5
 20
-75.0
 30
0.0
 11
25.5
 21
-69.0
 31
0.0
  0
LINE
  5
252
100
AcDbEntity
  8
0
  6
CONTINUOUS
 62
               4
100
AcDbLine
 10
8.5
 20
-75.0
 30
0.0
 11
8.5
 21
-69.0
 31
0.0
  0
LINE
  5
253
100
AcDbEntity
  8
0
  6
CONTINUOUS
 62
               4
100
AcDbLine
 10
9.0
 20
-79.0
 30
0.0
 11
9.0
 21
-77.5
 31
0.0
  0
LINE
  5
254
100
AcDbEntity
  8
0
  6
CONTINUOUS
 62
               4
100
AcDbLine
 10
25.0
 20
-77.5
 30
0.0
 11
9.0
 21
-77.5
 31
0.0
  0
LINE
  5
255
100
AcDbEntity
  8
0
  6
CONTINUOUS
 62
               4
100
AcDbLine
 10
25.0
 20
-75.5
 30
0.0
 11
9.0
 21
-75.5
 31
0.0
  0
LINE
  5
256
100
AcDbEntity
  8
0
  6
CONTINUOUS
 62
               4
100
AcDbLine
 10
25.5
 20
-75.0
 30
0.0
 11
8.5
 21
-75.0
 31
0.0
  0
LINE
  5
257
100
AcDbEntity
  8
0
  6
CONTINUOUS
 62
               4
100
AcDbLine
 10
25.5
 20
-74.5
 30
0.0
 11
8.5
 21
-74.5
 31
0.0
  0
LINE
  5
258
100
AcDbEntity
  8
0
  6
CONTINUOUS
 62
               4
100
AcDbLine
 10
25.5
 20
-69.0
 30
0.0
 11
8.5
 21
-69.0
 31
0.0
  0
LINE
  5
259
100
AcDbEntity
  8
0
  6
CONTINUOUS
 62
               4
100
AcDbLine
 10
24.5
 20
-68.0
 30
0.0
 11
9.5
 21
-68.0
 31
0.0
  0
LINE
  5
25A
100
AcDbEntity
  8
0
  6
CONTINUOUS
 62
               4
100
AcDbLine
 10
24.5
 20
-66.0
 30
0.0
 11
9.5
 21
-66.0
 31
0.0
  0
LINE
  5
25B
100
AcDbEntity
  8
0
  6
CONTINUOUS
 62
               4
100
AcDbLine
 10
25.5
 20
-65.0
 30
0.0
 11
8.5
 21
-65.0
 31
0.0
  0
LINE
  5
25C
100
AcDbEntity
  8
0
  6
CONTINUOUS
 62
               4
100
AcDbLine
 10
25.5
 20
-54.5
 30
0.0
 11
8.5
 21
-54.5
 31
0.0
  0
LINE
  5
25D
100
AcDbEntity
  8
0
  6
CONTINUOUS
 62
               4
100
AcDbLine
 10
25.5
 20
-65.0
 30
0.0
 11
25.5
 21
-54.5
 31
0.0
  0
LINE
  5
25E
100
AcDbEntity
  8
0
  6
CONTINUOUS
 62
               4
100
AcDbLine
 10
8.5
 20
-65.0
 30
0.0
 11
8.5
 21
-54.5
 31
0.0
  0
LINE
  5
25F
100
AcDbEntity
  8
0
  6
CONTINUOUS
 62
               4
100
AcDbLine
 10
25.5
 20
-75.0
 30
0.0
 11
25.0
 21
-75.5
 31
0.0
  0
LINE
  5
260
100
AcDbEntity
  8
0
  6
CONTINUOUS
 62
               4
100
AcDbLine
 10
9.0
 20
-75.5
 30
0.0
 11
8.5
 21
-75.0
 31
0.0
  0
LINE
  5
261
100
AcDbEntity
  8
0
  6
CONTINUOUS
 62
               4
100
AcDbLine
 10
9.5
 20
-68.0
 30
0.0
 11
9.5
 21
-66.0
 31
0.0
  0
LINE
  5
262
100
AcDbEntity
  8
0
  6
CONTINUOUS
 62
               4
100
AcDbLine
 10
24.5
 20
-68.0
 30
0.0
 11
24.5
 21
-66.0
 31
0.0
  0
LINE
  5
263
100
AcDbEntity
  8
0
  6
CONTINUOUS
 62
               4
100
AcDbLine
 10
25.5
 20
-69.0
 30
0.0
 11
24.5
 21
-68.0
 31
0.0
  0
LINE
  5
264
100
AcDbEntity
  8
0
  6
CONTINUOUS
 62
               4
100
AcDbLine
 10
24.5
 20
-66.0
 30
0.0
 11
25.5
 21
-65.0
 31
0.0
  0
LINE
  5
265
100
AcDbEntity
  8
0
  6
CONTINUOUS
 62
               4
100
AcDbLine
 10
8.5
 20
-69.0
 30
0.0
 11
9.5
 21
-68.0
 31
0.0
  0
LINE
  5
266
100
AcDbEntity
  8
0
  6
CONTINUOUS
 62
               4
100
AcDbLine
 10
9.5
 20
-66.0
 30
0.0
 11
8.5
 21
-65.0
 31
0.0
  0
LINE
  5
267
100
AcDbEntity
  8
0
  6
CONTINUOUS
 62
               4
100
AcDbLine
 10
10.25
 20
-54.5
 30
0.0
 11
10.25
 21
-53.0
 31
0.0
  0
LINE
  5
268
100
AcDbEntity
  8
0
  6
CONTINUOUS
 62
               4
100
AcDbLine
 10
23.75
 20
-54.5
 30
0.0
 11
23.75
 21
-53.0
 31
0.0
  0
LINE
  5
269
100
AcDbEntity
  8
0
  6
CONTINUOUS
 62
               4
100
AcDbLine
 10
22.5
 20
-77.5
 30
0.0
 11
22.5
 21
-75.5
 31
0.0
  0
LINE
  5
26A
100
AcDbEntity
  8
0
  6
CONTINUOUS
 62
               4
100
AcDbLine
 10
11.5
 20
-77.5
 30
0.0
 11
11.5
 21
-75.5
 31
0.0
  0
LINE
  5
26B
100
AcDbEntity
  8
0
  6
CONTINUOUS
 62
               4
100
AcDbLine
 10
51.25
 20
-51.5
 30
0.0
 11
51.25
 21
-51.0
 31
0.0
  0
LINE
  5
26C
100
AcDbEntity
  8
0
  6
CONTINUOUS
 62
               4
100
AcDbLine
 10
45.75
 20
-51.5
 30
0.0
 11
45.75
 21
-51.0
 31
0.0
  0
LINE
  5
26D
100
AcDbEntity
  8
0
  6
CONTINUOUS
 62
               7
100
AcDbLine
 10
53.5
 20
15.5
 30
0.0
 11
53.0
 21
15.5
 31
0.0
  0
LINE
  5
26E
100
AcDbEntity
  8
0
  6
CONTINUOUS
 62
               7
100
AcDbLine
 10
53.5
 20
-37.5
 30
0.0
 11
53.0
 21
-37.5
 31
0.0
  0
LINE
  5
26F
100
AcDbEntity
  8
0
  6
CONTINUOUS
 62
               7
100
AcDbLine
 10
53.5
 20
21.75
 30
0.0
 11
53.0
 21
21.75
 31
0.0
  0
LINE
  5
270
100
AcDbEntity
  8
0
  6
CONTINUOUS
 62
               7
100
AcDbLine
 10
53.5
 20
18.25
 30
0.0
 11
53.0
 21
18.25
 31
0.0
  0
LINE
  5
271
100
AcDbEntity
  8
0
  6
CONTINUOUS
 62
               7
100
AcDbLine
 10
85.5
 20
15.5
 30
0.0
 11
53.5
 21
15.5
 31
0.0
  0
LINE
  5
272
100
AcDbEntity
  8
0
  6
CONTINUOUS
 62
               7
100
AcDbLine
 10
53.5
 20
-60.0
 30
0.0
 11
53.5
 21
25.5
 31
0.0
  0
LINE
  5
273
100
AcDbEntity
  8
0
  6
CONTINUOUS
 62
               7
100
AcDbLine
 10
85.5
 20
-40.399999999999999
 30
0.0
 11
85.5
 21
25.5
 31
0.0
  0
LINE
  5
274
100
AcDbEntity
  8
0
  6
CONTINUOUS
 62
               7
100
AcDbLine
 10
87.5
 20
-37.5
 30
0.0
 11
53.5
 21
-37.5
 31
0.0
  0
LINE
  5
275
100
AcDbEntity
  8
0
  6
CONTINUOUS
 62
               7
100
AcDbLine
 10
87.5
 20
-49.5
 30
0.0
 11
53.5
 21
-49.5
 31
0.0
  0
LINE
  5
276
100
AcDbEntity
  8
0
  6
CONTINUOUS
 62
               7
100
AcDbLine
 10
87.5
 20
-60.0
 30
0.0
 11
87.5
 21
-48.5
 31
0.0
  0
LINE
  5
277
100
AcDbEntity
  8
0
  6
CONTINUOUS
 62
               7
100
AcDbLine
 10
90.5
 20
-35.299999999999997
 30
0.0
 11
90.5
 21
13.300000000000001
 31
0.0
  0
LINE
  5
278
100
AcDbEntity
  8
0
  6
CONTINUOUS
 62
               7
100
AcDbLine
 10
88.5
 20
-37.299999999999997
 30
0.0
 11
85.5
 21
-37.299999999999997
 31
0.0
  0
LINE
  5
279
100
AcDbEntity
  8
0
  6
CONTINUOUS
 62
               7
100
AcDbLine
 10
88.5
 20
15.300000000000001
 30
0.0
 11
85.5
 21
15.300000000000001
 31
0.0
  0
LINE
  5
27A
100
AcDbEntity
  8
0
  6
CONTINUOUS
 62
               7
100
AcDbLine
 10
90.5
 20
13.300000000000001
 30
0.0
 11
88.5
 21
15.300000000000001
 31
0.0
  0
LINE
  5
27B
100
AcDbEntity
  8
0
  6
CONTINUOUS
 62
               7
100
AcDbLine
 10
90.5
 20
-35.299999999999997
 30
0.0
 11
88.5
 21
-37.299999999999997
 31
0.0
  0
LINE
  5
27C
100
AcDbEntity
  8
0
  6
CONTINUOUS
 62
               7
100
AcDbLine
 10
87.0
 20
-60.5
 30
0.0
 11
54.0
 21
-60.5
 31
0.0
  0
LINE
  5
27D
100
AcDbEntity
  8
0
  6
CENTER
 62
               2
100
AcDbLine
 10
85.0
 20
35.700000000000003
 30
0.0
 11
82.299999999999997
 21
35.700000000000003
 31
0.0
  0
LINE
  5
27E
100
AcDbEntity
  8
0
  6
CONTINUOUS
 62
               7
100
AcDbLine
 10
84.0
 20
33.75
 30
0.0
 11
84.0
 21
35.399999999999999
 31
0.0
  0
LINE
  5
27F
100
AcDbEntity
  8
0
  6
CONTINUOUS
 62
               7
100
AcDbLine
 10
84.0
 20
33.75
 30
0.0
 11
83.0
 21
33.75
 31
0.0
  0
LINE
  5
280
100
AcDbEntity
  8
0
  6
CONTINUOUS
 62
               7
100
AcDbLine
 10
84.0
 20
37.649999999999999
 30
0.0
 11
83.0
 21
37.649999999999999
 31
0.0
  0
LINE
  5
281
100
AcDbEntity
  8
0
  6
CONTINUOUS
 62
               7
100
AcDbLine
 10
83.400000000000006
 20
35.399999999999999
 30
0.0
 11
83.400000000000006
 21
36.0
 31
0.0
  0
LINE
  5
282
100
AcDbEntity
  8
0
  6
CONTINUOUS
 62
               7
100
AcDbLine
 10
84.0
 20
35.399999999999999
 30
0.0
 11
83.400000000000006
 21
35.399999999999999
 31
0.0
  0
LINE
  5
283
100
AcDbEntity
  8
0
  6
CONTINUOUS
 62
               7
100
AcDbLine
 10
84.0
 20
36.0
 30
0.0
 11
83.400000000000006
 21
36.0
 31
0.0
  0
LINE
  5
284
100
AcDbEntity
  8
0
  6
CONTINUOUS
 62
               7
100
AcDbLine
 10
84.0
 20
36.0
 30
0.0
 11
84.0
 21
37.649999999999999
 31
0.0
  0
LINE
  5
285
100
AcDbEntity
  8
0
  6
CONTINUOUS
 62
               7
100
AcDbLine
 10
56.0
 20
39.0
 30
0.0
 11
83.0
 21
39.0
 31
0.0
  0
LINE
  5
286
100
AcDbEntity
  8
0
  6
CONTINUOUS
 62
               7
100
AcDbLine
 10
83.0
 20
28.0
 30
0.0
 11
83.0
 21
39.0
 31
0.0
  0
LINE
  5
287
100
AcDbEntity
  8
0
  6
CONTINUOUS
 62
               7
100
AcDbLine
 10
56.0
 20
28.0
 30
0.0
 11
56.0
 21
39.0
 31
0.0
  0
LINE
  5
288
100
AcDbEntity
  8
0
  6
CONTINUOUS
 62
               7
100
AcDbLine
 10
87.5
 20
-46.600000000000001
 30
0.0
 11
87.5
 21
-40.399999999999999
 31
0.0
  0
LINE
  5
289
100
AcDbEntity
  8
0
  6
CONTINUOUS
 62
               7
100
AcDbLine
 10
89.5
 20
-47.5
 30
0.0
 11
89.5
 21
-39.5
 31
0.0
  0
LINE
  5
28A
100
AcDbEntity
  8
0
  6
CONTINUOUS
 62
               7
100
AcDbLine
 10
88.5
 20
-38.5
 30
0.0
 11
89.5
 21
-39.5
 31
0.0
  0
LINE
  5
28B
100
AcDbEntity
  8
0
  6
CONTINUOUS
 62
               7
100
AcDbLine
 10
88.5
 20
-48.5
 30
0.0
 11
89.5
 21
-47.5
 31
0.0
  0
LINE
  5
28C
100
AcDbEntity
  8
0
  6
CONTINUOUS
 62
               7
100
AcDbLine
 10
88.299999999999997
 20
-46.600000000000001
 30
0.0
 11
88.299999999999997
 21
-40.399999999999999
 31
0.0
  0
LINE
  5
28D
100
AcDbEntity
  8
0
  6
CONTINUOUS
 62
               7
100
AcDbLine
 10
88.5
 20
-48.5
 30
0.0
 11
88.5
 21
-38.5
 31
0.0
  0
LINE
  5
28E
100
AcDbEntity
  8
0
  6
CONTINUOUS
 62
               7
100
AcDbLine
 10
86.5
 20
-49.5
 30
0.0
 11
86.5
 21
-48.5
 31
0.0
  0
LINE
  5
28F
100
AcDbEntity
  8
0
  6
CONTINUOUS
 62
               7
100
AcDbLine
 10
85.5
 20
-49.5
 30
0.0
 11
85.5
 21
-46.600000000000001
 31
0.0
  0
LINE
  5
290
100
AcDbEntity
  8
0
  6
CONTINUOUS
 62
               7
100
AcDbLine
 10
88.299999999999997
 20
-40.399999999999999
 30
0.0
 11
85.5
 21
-40.399999999999999
 31
0.0
  0
LINE
  5
291
100
AcDbEntity
  8
0
  6
CONTINUOUS
 62
               7
100
AcDbLine
 10
88.299999999999997
 20
-46.600000000000001
 30
0.0
 11
85.5
 21
-46.600000000000001
 31
0.0
  0
LINE
  5
292
100
AcDbEntity
  8
0
  6
CONTINUOUS
 62
               7
100
AcDbLine
 10
88.5
 20
-48.5
 30
0.0
 11
85.5
 21
-48.5
 31
0.0
  0
LINE
  5
293
100
AcDbEntity
  8
0
  6
CONTINUOUS
 62
               7
100
AcDbLine
 10
88.5
 20
-38.5
 30
0.0
 11
85.5
 21
-38.5
 31
0.0
  0
LINE
  5
294
100
AcDbEntity
  8
0
  6
CONTINUOUS
 62
               7
100
AcDbLine
 10
87.5
 20
-38.5
 30
0.0
 11
87.5
 21
-37.5
 31
0.0
  0
LINE
  5
295
100
AcDbEntity
  8
0
  6
CONTINUOUS
 62
               7
100
AcDbLine
 10
86.5
 20
-38.5
 30
0.0
 11
86.5
 21
-37.5
 31
0.0
  0
LINE
  5
296
100
AcDbEntity
  8
0
  6
CONTINUOUS
 62
               7
100
AcDbLine
 10
90.5
 20
8.0
 30
0.0
 11
88.5
 21
8.0
 31
0.0
  0
LINE
  5
297
100
AcDbEntity
  8
0
  6
CONTINUOUS
 62
               7
100
AcDbLine
 10
90.5
 20
-28.0
 30
0.0
 11
85.5
 21
-28.0
 31
0.0
  0
LINE
  5
298
100
AcDbEntity
  8
0
  6
CONTINUOUS
 62
               7
100
AcDbLine
 10
90.5
 20
-34.0
 30
0.0
 11
85.5
 21
-34.0
 31
0.0
  0
LINE
  5
299
100
AcDbEntity
  8
0
  6
CONTINUOUS
 62
               7
100
AcDbLine
 10
85.5
 20
25.5
 30
0.0
 11
53.5
 21
25.5
 31
0.0
  0
LINE
  5
29A
100
AcDbEntity
  8
0
  6
CONTINUOUS
 62
               7
100
AcDbLine
 10
85.700000000000003
 20
-60.5
 30
0.0
 11
85.700000000000003
 21
-58.0
 31
0.0
  0
LINE
  5
29B
100
AcDbEntity
  8
0
  6
CONTINUOUS
 62
               7
100
AcDbLine
 10
79.299999999999997
 20
-60.5
 30
0.0
 11
79.299999999999997
 21
-58.0
 31
0.0
  0
LINE
  5
29C
100
AcDbEntity
  8
0
  6
CONTINUOUS
 62
               7
100
AcDbLine
 10
85.700000000000003
 20
-58.0
 30
0.0
 11
79.299999999999997
 21
-58.0
 31
0.0
  0
LINE
  5
29D
100
AcDbEntity
  8
0
  6
CONTINUOUS
 62
               7
100
AcDbLine
 10
83.75
 20
-60.0
 30
0.0
 11
81.25
 21
-60.0
 31
0.0
  0
LINE
  5
29E
100
AcDbEntity
  8
0
  6
CONTINUOUS
 62
               7
100
AcDbLine
 10
85.25
 20
-58.5
 30
0.0
 11
85.25
 21
-58.0
 31
0.0
  0
LINE
  5
29F
100
AcDbEntity
  8
0
  6
CONTINUOUS
 62
               7
100
AcDbLine
 10
79.75
 20
-58.5
 30
0.0
 11
79.75
 21
-58.0
 31
0.0
  0
LINE
  5
2A0
100
AcDbEntity
  8
0
  6
CONTINUOUS
 62
               7
100
AcDbLine
 10
88.5
 20
8.0
 30
0.0
 11
88.5
 21
15.300000000000001
 31
0.0
  0
LINE
  5
2A1
100
AcDbEntity
  8
0
  6
CONTINUOUS
 62
               7
100
AcDbLine
 10
89.0
 20
8.25
 30
0.0
 11
88.5
 21
8.25
 31
0.0
  0
LINE
  5
2A2
100
AcDbEntity
  8
0
  6
CONTINUOUS
 62
               7
100
AcDbLine
 10
89.0
 20
13.75
 30
0.0
 11
88.5
 21
13.75
 31
0.0
  0
LINE
  5
2A3
100
AcDbEntity
  8
0
  6
CONTINUOUS
 62
               7
100
AcDbLine
 10
88.200000000000003
 20
-29.75
 30
0.0
 11
88.200000000000003
 21
-32.25
 31
0.0
  0
LINE
  5
2A4
100
AcDbEntity
  8
0
  6
CONTINUOUS
 62
               7
100
AcDbLine
 10
86.700000000000003
 20
-28.25
 30
0.0
 11
86.200000000000003
 21
-28.25
 31
0.0
  0
LINE
  5
2A5
100
AcDbEntity
  8
0
  6
CONTINUOUS
 62
               7
100
AcDbLine
 10
86.700000000000003
 20
-33.75
 30
0.0
 11
86.200000000000003
 21
-33.75
 31
0.0
  0
LINE
  5
2A6
100
AcDbEntity
  8
0
  6
CONTINUOUS
 62
               7
100
AcDbLine
 10
86.200000000000003
 20
-33.950000000000003
 30
0.0
 11
86.200000000000003
 21
-28.050000000000001
 31
0.0
  0
LINE
  5
2A7
100
AcDbEntity
  8
0
  6
CONTINUOUS
 62
               7
100
AcDbLine
 10
86.200000000000003
 20
-33.950000000000003
 30
0.0
 11
85.5
 21
-33.950000000000003
 31
0.0
  0
LINE
  5
2A8
100
AcDbEntity
  8
0
  6
CONTINUOUS
 62
               7
100
AcDbLine
 10
86.200000000000003
 20
-28.050000000000001
 30
0.0
 11
85.5
 21
-28.050000000000001
 31
0.0
  0
LINE
  5
2A9
100
AcDbEntity
  8
0
  6
CONTINUOUS
 62
               7
100
AcDbLine
 10
83.5
 20
28.0
 30
0.0
 11
55.5
 21
28.0
 31
0.0
  0
LINE
  5
2AA
100
AcDbEntity
  8
0
  6
CONTINUOUS
 62
               7
100
AcDbLine
 10
53.5
 20
25.5
 30
0.0
 11
55.5
 21
28.0
 31
0.0
  0
LINE
  5
2AB
100
AcDbEntity
  8
0
  6
CONTINUOUS
 62
               7
100
AcDbLine
 10
85.5
 20
25.5
 30
0.0
 11
83.5
 21
28.0
 31
0.0
  0
LINE
  5
2AC
100
AcDbEntity
  8
0
  6
CENTER
 62
               2
100
AcDbLine
 10
-5.0
 20
0.0
 30
0.0
 11
5.0
 21
0.0
 31
0.0
  0
LINE
  5
2AD
100
AcDbEntity
  8
0
  6
CENTER
 62
               2
100
AcDbLine
 10
-5.0
 20
-23.0
 30
0.0
 11
5.0
 21
-23.0
 31
0.0
  0
LINE
  5
2AE
100
AcDbEntity
  8
0
  6
CENTER
 62
             200
100
AcDbLine
 10
4.5
 20
-54.380000000000003
 30
0.0
 11
4.5
 21
-46.880000000000003
 31
0.0
  0
LINE
  5
2AF
100
AcDbEntity
  8
0
  6
CENTER
 62
             200
100
AcDbLine
 10
48.5
 20
-54.380000000000003
 30
0.0
 11
48.5
 21
-46.880000000000003
 31
0.0
  0
CIRCLE
  5
2B0
100
AcDbEntity
  8
0
  6
CONTINUOUS
 62
               2
100
AcDbCircle
 10
25.0
 20
-36.000015258789062
 30
0.0
 40
8.3310003280639648
  0
CIRCLE
  5
2B1
100
AcDbEntity
  8
0
  6
CONTINUOUS
 62
               7
100
AcDbCircle
 10
25.0
 20
-36.000015258789062
 30
0.0
 40
7.4749994277954102
  0
ARC
  5
2B2
100
AcDbEntity
  8
0
  6
CONTINUOUS
 62
               7
100
AcDbCircle
 10
53.999992370663676
 20
-60.000007629336324
 30
0.0
 40
0.4999923707218841
100
AcDbArc
 50
179.9991257291158
 51
270.00087427088317
  0
CIRCLE
  5
2B3
100
AcDbEntity
  8
0
  6
CONTINUOUS
 62
               2
100
AcDbCircle
 10
25.0
 20
13.0
 30
0.0
 40
8.3310003280639648
  0
CIRCLE
  5
2B4
100
AcDbEntity
  8
0
  6
CONTINUOUS
 62
               7
100
AcDbCircle
 10
25.0
 20
13.0
 30
0.0
 40
7.4749994277954102
  0
CIRCLE
  5
2B5
100
AcDbEntity
  8
0
  6
CONTINUOUS
 62
               2
100
AcDbCircle
 10
25.0
 20
-11.500015258789063
 30
0.0
 40
8.3310003280639648
  0
CIRCLE
  5
2B6
100
AcDbEntity
  8
0
  6
CONTINUOUS
 62
               7
100
AcDbCircle
 10
25.0
 20
-11.500015258789063
 30
0.0
 40
7.4749994277954102
  0
CIRCLE
  5
2B7
100
AcDbEntity
  8
0
  6
CONTINUOUS
 62
               7
100
AcDbCircle
 10
40.0
 20
23.0
 30
0.0
 40
2.0
  0
CIRCLE
  5
2B8
100
AcDbEntity
  8
0
  6
CONTINUOUS
 62
               2
100
AcDbCircle
 10
40.0
 20
23.0
 30
0.0
 40
2.5
  0
ARC
  5
2B9
100
AcDbEntity
  8
0
  6
CONTINUOUS
 62
               4
100
AcDbCircle
 10
49.75
 20
-51.5
 30
0.0
 40
1.5
100
AcDbArc
 50
269.99999999999937
 51
0.0
  0
ARC
  5
2BA
100
AcDbEntity
  8
0
  6
CONTINUOUS
 62
               4
100
AcDbCircle
 10
47.25
 20
-51.5
 30
0.0
 40
1.5
100
AcDbArc
 50
179.9999999999996
 51
269.99999999999937
  0
ARC
  5
2BB
100
AcDbEntity
  8
0
  6
CONTINUOUS
 62
               7
100
AcDbCircle
 10
53.999992370663676
 20
-60.000007629336324
 30
0.0
 40
0.4999923707218841
100
AcDbArc
 50
179.9991257291158
 51
270.00087427088317
  0
ARC
  5
2BC
100
AcDbEntity
  8
0
  6
CONTINUOUS
 62
               7
100
AcDbCircle
 10
87.000007629336324
 20
-60.000007629336324
 30
0.0
 40
0.4999923707218841
100
AcDbArc
 50
269.99912572911558
 51
0.0008742708838174
  0
ARC
  5
2BD
100
AcDbEntity
  8
0
  6
CONTINUOUS
 62
               7
100
AcDbCircle
 10
56.498436334684868
 20
28.499647738160043
 30
0.0
 40
2.5019616838276786
100
AcDbArc
 50
220.64331254207787
 51
348.48044360668894
  0
ARC
  5
2BE
100
AcDbEntity
  8
0
  6
CONTINUOUS
 62
               7
100
AcDbCircle
 10
81.249992370624867
 20
-58.500007629375126
 30
0.0
 40
1.4999923706442737
100
AcDbArc
 50
179.99970857785399
 51
270.00029142214527
  0
ARC
  5
2BF
100
AcDbEntity
  8
0
  6
CONTINUOUS
 62
               7
100
AcDbCircle
 10
83.750007629375133
 20
-58.500007629375126
 30
0.0
 40
1.4999923706442737
100
AcDbArc
 50
269.99970857785354
 51
0.000291422145614
  0
ARC
  5
2C0
100
AcDbEntity
  8
0
  6
CONTINUOUS
 62
               7
100
AcDbCircle
 10
88.999977111641783
 20
12.249977111641783
 30
0.0
 40
1.5000228885328397
100
AcDbArc
 50
0.0008742575435872
 51
89.999125742456215
  0
ARC
  5
2C1
100
AcDbEntity
  8
0
  6
CONTINUOUS
 62
               7
100
AcDbCircle
 10
89.000022888008971
 20
9.7499771119910292
 30
0.0
 40
1.4999771121656522
100
AcDbArc
 50
269.99912572911558
 51
0.0008742708838174
  0
ARC
  5
2C2
100
AcDbEntity
  8
0
  6
CONTINUOUS
 62
               7
100
AcDbCircle
 10
86.699998474027183
 20
-32.249998474027187
 30
0.0
 40
1.5000015259735924
100
AcDbArc
 50
270.00005828780826
 51
359.9999417121906
  0
ARC
  5
2C3
100
AcDbEntity
  8
0
  6
CONTINUOUS
 62
               7
100
AcDbCircle
 10
86.699967956480108
 20
-29.750032043519898
 30
0.0
 40
1.5000320438621522
100
AcDbArc
 50
0.0012239461540488
 51
89.998776053845887
  0
LINE
  5
2C4
100
AcDbEntity
  8
0
  6
CONTINUOUS
 62
               4
100
AcDbLine
 10
67.099999999999994
 20
72.0
 30
0.0
 11
80.674999999999983
 21
72.0
 31
0.0
  0
LINE
  5
2C5
100
AcDbEntity
  8
0
  6
CONTINUOUS
 62
               4
100
AcDbLine
 10
83.0
 20
39.0
 30
0.0
 11
83.0
 21
63.0
 31
0.0
  0
LINE
  5
2C6
100
AcDbEntity
  8
0
  6
CONTINUOUS
 62
               4
100
AcDbLine
 10
56.0
 20
39.0
 30
0.0
 11
56.0
 21
63.0
 31
0.0
  0
LINE
  5
2C7
100
AcDbEntity
  8
0
  6
CONTINUOUS
 62
               4
100
AcDbLine
 10
56.0
 20
71.5
 30
0.0
 11
56.0
 21
63.0
 31
0.0
  0
LINE
  5
2C8
100
AcDbEntity
  8
0
  6
CONTINUOUS
 62
               4
100
AcDbLine
 10
83.0
 20
67.180000000000007
 30
0.0
 11
83.0
 21
63.0
 31
0.0
  0
LINE
  5
2C9
100
AcDbEntity
  8
0
  6
CONTINUOUS
 62
               4
100
AcDbLine
 10
81.129999999999995
 20
71.705000000000013
 30
0.0
 11
82.870000000000005
 21
67.789999999999992
 31
0.0
  0
ARC
  5
2CA
100
AcDbEntity
  8
0
  6
CONTINUOUS
 62
               4
100
AcDbCircle
 10
80.674020838564047
 20
71.500099937446265
 30
0.0
 40
0.4999010215015999
100
AcDbArc
 50
24.197376208904771
 51
89.887774076864815
  0
ARC
  5
2CB
100
AcDbEntity
  8
0
  6
CONTINUOUS
 62
               4
100
AcDbCircle
 10
81.502020395360574
 20
67.179610903929301
 30
0.0
 40
1.4979796551727449
100
AcDbArc
 50
0.0148824203654679
 51
24.046309772710686
  0
LINE
  5
2CC
100
AcDbEntity
  8
0
  6
CONTINUOUS
 62
               4
100
AcDbLine
 10
67.099999999999994
 20
76.5
 30
0.0
 11
67.099999999999994
 21
72.0
 31
0.0
  0
LINE
  5
2CD
100
AcDbEntity
  8
0
  6
CONTINUOUS
 62
               4
100
AcDbLine
 10
58.5
 20
76.5
 30
0.0
 11
58.5
 21
72.0
 31
0.0
  0
LINE
  5
2CE
100
AcDbEntity
  8
0
  6
CONTINUOUS
 62
               4
100
AcDbLine
 10
58.5
 20
72.0
 30
0.0
 11
56.5
 21
72.0
 31
0.0
  0
ARC
  5
2CF
100
AcDbEntity
  8
0
  6
CONTINUOUS
 62
               4
100
AcDbCircle
 10
56.5
 20
71.5
 30
0.0
 40
0.5
100
AcDbArc
 50
89.999999999999801
 51
179.9999999999996
  0
LINE
  5
2D0
100
AcDbEntity
  8
0
  6
CONTINUOUS
 62
             200
100
AcDbLine
 10
65.814994343097709
 20
88.464464815078827
 30
0.0
 11
58.884984189578603
 21
84.46341291056342
 31
0.0
  0
LINE
  5
2D1
100
AcDbEntity
  8
0
  6
CONTINUOUS
 62
             200
100
AcDbLine
 10
65.815018891472022
 20
89.619105809934808
 30
0.0
 11
58.884989799908539
 21
85.618057246153512
 31
0.0
  0
LINE
  5
2D2
100
AcDbEntity
  8
0
  6
CONTINUOUS
 62
               4
100
AcDbLine
 10
60.385003662109369
 20
83.0
 30
0.0
 11
60.385003662109369
 21
85.329421997070313
 31
0.0
  0
LINE
  5
2D3
100
AcDbEntity
  8
0
  6
CONTINUOUS
 62
               4
100
AcDbLine
 10
61.815011596679682
 20
83.0
 30
0.0
 11
61.815011596679682
 21
86.155029296875
 31
0.0
  0
LINE
  5
2D4
100
AcDbEntity
  8
0
  6
CONTINUOUS
 62
               4
100
AcDbLine
 10
60.700006103515619
 20
96.0
 30
0.0
 11
61.500009155273432
 21
96.0
 31
0.0
  0
LINE
  5
2D5
100
AcDbEntity
  8
0
  6
CONTINUOUS
 62
               4
100
AcDbLine
 10
60.700006103515619
 20
91.0
 30
0.0
 11
60.700006103515619
 21
95.999984741210938
 31
0.0
  0
LINE
  5
2D6
100
AcDbEntity
  8
0
  6
CONTINUOUS
 62
               4
100
AcDbLine
 10
61.500009155273432
 20
91.0
 30
0.0
 11
61.500009155273432
 21
96.0
 31
0.0
  0
LINE
  5
2D7
100
AcDbEntity
  8
0
  6
CONTINUOUS
 62
               4
100
AcDbLine
 10
60.385003662109369
 20
91.0
 30
0.0
 11
61.815011596679682
 21
91.0
 31
0.0
  0
LINE
  5
2D8
100
AcDbEntity
  8
0
  6
CONTINUOUS
 62
               4
100
AcDbLine
 10
60.385003662109369
 20
86.484115600585938
 30
0.0
 11
60.385003662109369
 21
91.0
 31
0.0
  0
LINE
  5
2D9
100
AcDbEntity
  8
0
  6
CONTINUOUS
 62
               4
100
AcDbLine
 10
61.815011596679682
 20
87.309738159179688
 30
0.0
 11
61.815011596679682
 21
91.0
 31
0.0
  0
LINE
  5
2DA
100
AcDbEntity
  8
0
  6
CONTINUOUS
 62
               7
100
AcDbLine
 10
56.0
 20
39.0
 30
0.0
 11
83.0
 21
39.0
 31
0.0
  0
LINE
  5
2DB
100
AcDbEntity
  8
0
  6
CONTINUOUS
 62
               4
100
AcDbLine
 10
64.315011596679682
 20
88.75311279296875
 30
0.0
 11
64.315011596679682
 21
91.0
 31
0.0
  0
LINE
  5
2DC
100
AcDbEntity
  8
0
  6
CONTINUOUS
 62
               4
100
AcDbLine
 10
62.885003662109369
 20
87.927490234375
 30
0.0
 11
62.885003662109369
 21
91.0
 31
0.0
  0
LINE
  5
2DD
100
AcDbEntity
  8
0
  6
CONTINUOUS
 62
               4
100
AcDbLine
 10
64.315011596679682
 20
91.0
 30
0.0
 11
62.885003662109369
 21
91.0
 31
0.0
  0
LINE
  5
2DE
100
AcDbEntity
  8
0
  6
CONTINUOUS
 62
               4
100
AcDbLine
 10
62.885003662109369
 20
83.0
 30
0.0
 11
62.885003662109369
 21
86.772796630859375
 31
0.0
  0
LINE
  5
2DF
100
AcDbEntity
  8
0
  6
CONTINUOUS
 62
               4
100
AcDbLine
 10
64.315011596679682
 20
83.0
 30
0.0
 11
64.315011596679682
 21
87.598403930664063
 31
0.0
  0
LINE
  5
2E0
100
AcDbEntity
  8
0
  6
CONTINUOUS
 62
               4
100
AcDbLine
 10
64.000009155273432
 20
91.0
 30
0.0
 11
64.000009155273432
 21
96.0
 31
0.0
  0
LINE
  5
2E1
100
AcDbEntity
  8
0
  6
CONTINUOUS
 62
               4
100
AcDbLine
 10
63.200006103515619
 20
91.0
 30
0.0
 11
63.200006103515619
 21
96.0
 31
0.0
  0
LINE
  5
2E2
100
AcDbEntity
  8
0
  6
CONTINUOUS
 62
               4
100
AcDbLine
 10
64.000009155273432
 20
96.0
 30
0.0
 11
63.200006103515619
 21
96.0
 31
0.0
  0
LINE
  5
2E3
100
AcDbEntity
  8
0
  6
CONTINUOUS
 62
               4
100
AcDbLine
 10
69.150003051757807
 20
81.5
 30
0.0
 11
69.150003051757807
 21
83.0
 31
0.0
  0
LINE
  5
2E4
100
AcDbEntity
  8
0
  6
CONTINUOUS
 62
               4
100
AcDbLine
 10
67.150044511604023
 20
81.999958942901685
 30
0.0
 11
67.727396327367927
 21
82.999967647856465
 31
0.0
  0
LINE
  5
2E5
100
AcDbEntity
  8
0
  6
CONTINUOUS
 62
               4
100
AcDbLine
 10
67.150003051757807
 20
76.5
 30
0.0
 11
67.150003051757807
 21
83.0
 31
0.0
  0
LINE
  5
2E6
100
AcDbEntity
  8
0
  6
CONTINUOUS
 62
               4
100
AcDbLine
 10
68.150001302236518
 20
72.49845074175937
 30
0.0
 11
68.650000411113609
 21
76.056138825448215
 31
0.0
  0
LINE
  5
2E7
100
AcDbEntity
  8
0
  6
CONTINUOUS
 62
               4
100
AcDbLine
 10
68.650003051757807
 20
76.05615234375
 30
0.0
 11
68.650003051757807
 21
81.5
 31
0.0
  0
LINE
  5
2E8
100
AcDbEntity
  8
0
  6
CONTINUOUS
 62
               4
100
AcDbLine
 10
58.149987792968744
 20
82.0
 30
0.0
 11
58.649987792968744
 21
82.0
 31
0.0
  0
LINE
  5
2E9
100
AcDbEntity
  8
0
  6
CONTINUOUS
 62
               4
100
AcDbLine
 10
58.150003051757807
 20
82.0
 30
0.0
 11
58.150003051757807
 21
83.0
 31
0.0
  0
LINE
  5
2EA
100
AcDbEntity
  8
0
  6
CONTINUOUS
 62
               4
100
AcDbLine
 10
58.650003051757807
 20
76.5
 30
0.0
 11
58.650003051757807
 21
82.0
 31
0.0
  0
LINE
  5
2EB
100
AcDbEntity
  8
0
  6
CONTINUOUS
 62
               4
100
AcDbLine
 10
67.150000209407693
 20
72.498474151870141
 30
0.0
 11
67.099979656101453
 21
72.548494705176381
 31
0.0
  0
LINE
  5
2EC
100
AcDbEntity
  8
0
  6
CONTINUOUS
 62
               4
100
AcDbLine
 10
68.649995422363276
 20
81.5
 30
0.0
 11
69.149995422363276
 21
81.5
 31
0.0
  0
LINE
  5
2ED
100
AcDbEntity
  8
0
  6
CONTINUOUS
 62
               4
100
AcDbLine
 10
67.150003051757807
 20
73.998458862304687
 30
0.0
 11
67.150003051757807
 21
76.5
 31
0.0
  0
LINE
  5
2EE
100
AcDbEntity
  8
0
  6
CONTINUOUS
 62
               4
100
AcDbLine
 10
67.150003051757807
 20
72.498458862304688
 30
0.0
 11
68.149995422363276
 21
72.498458862304688
 31
0.0
  0
LINE
  5
2EF
100
AcDbEntity
  8
0
  6
CONTINUOUS
 62
               4
100
AcDbLine
 10
67.099999999999994
 20
73.998458862304687
 30
0.0
 11
67.150003051757807
 21
73.998458862304687
 31
0.0
  0
LINE
  5
2F0
100
AcDbEntity
  8
0
  6
CONTINUOUS
 62
               4
100
AcDbLine
 10
67.727349853515619
 20
83.0
 30
0.0
 11
69.149995422363276
 21
83.0
 31
0.0
  0
LINE
  5
2F1
100
AcDbEntity
  8
0
  6
CONTINUOUS
 62
               4
100
AcDbLine
 10
58.5
 20
76.5
 30
0.0
 11
67.150003051757807
 21
76.5
 31
0.0
  0
LINE
  5
2F2
100
AcDbEntity
  8
0
  6
CONTINUOUS
 62
               4
100
AcDbLine
 10
58.149987792968744
 20
83.0
 30
0.0
 11
67.149987792968744
 21
83.0
 31
0.0
  0
LINE
  5
2F3
100
AcDbEntity
  8
0
  6
CONTINUOUS
 62
               4
100
AcDbLine
 10
67.099999999999994
 20
76.5
 30
0.0
 11
67.099999999999994
 21
72.0
 31
0.0
  0
LINE
  5
2F4
100
AcDbEntity
  8
0
  6
CONTINUOUS
 62
               4
100
AcDbLine
 10
56.0
 20
63.0
 30
0.0
 11
82.999992370605469
 21
63.0
 31
0.0
  0
ENDBLK
  5
2F5
100
AcDbEntity
  8
0
100
AcDbBlockEnd
  0
BLOCK
  5
2F6
100
AcDbEntity
  8
0
100
AcDbBlockBegin
  2
MS_3
 70
               0
 10
0.0
 20
0.0
 30
0.0
  3
MS_3
  1

  0
LINE
  5
2F7
100
AcDbEntity
  8
0
  6
CONTINUOUS
 62
               7
100
AcDbLine
 10
62.0
 20
53.5
 30
0.0
 11
80.0
 21
53.5
 31
0.0
  0
LINE
  5
2F8
100
AcDbEntity
  8
0
  6
CONTINUOUS
 62
               4
100
AcDbLine
 10
61.700000000000003
 20
56.700000000000003
 30
0.0
 11
80.299999999999997
 21
56.700000000000003
 31
0.0
  0
LINE
  5
2F9
100
AcDbEntity
  8
0
  6
CENTER
 62
             200
100
AcDbLine
 10
71.0
 20
59.090000000000003
 30
0.0
 11
71.0
 21
51.140000000000001
 31
0.0
  0
LINE
  5
2FA
100
AcDbEntity
  8
0
  6
CONTINUOUS
 62
               4
100
AcDbLine
 10
62.0
 20
56.700000000000003
 30
0.0
 11
62.0
 21
53.5
 31
0.0
  0
LINE
  5
2FB
100
AcDbEntity
  8
0
  6
CONTINUOUS
 62
               4
100
AcDbLine
 10
80.0
 20
56.700000000000003
 30
0.0
 11
80.0
 21
53.5
 31
0.0
  0
LINE
  5
2FC
100
AcDbEntity
  8
0
  6
CONTINUOUS
 62
               4
100
AcDbLine
 10
67.299999999999997
 20
57.200000000000003
 30
0.0
 11
67.299999999999997
 21
56.700000000000003
 31
0.0
  0
LINE
  5
2FD
100
AcDbEntity
  8
0
  6
CONTINUOUS
 62
               4
100
AcDbLine
 10
61.700000000000003
 20
57.200000000000003
 30
0.0
 11
61.700000000000003
 21
56.700000000000003
 31
0.0
  0
LINE
  5
2FE
100
AcDbEntity
  8
0
  6
CONTINUOUS
 62
               4
100
AcDbLine
 10
80.299999999999997
 20
57.200000000000003
 30
0.0
 11
80.299999999999997
 21
56.700000000000003
 31
0.0
  0
LINE
  5
2FF
100
AcDbEntity
  8
0
  6
CONTINUOUS
 62
               4
100
AcDbLine
 10
74.700000000000003
 20
57.200000000000003
 30
0.0
 11
74.700000000000003
 21
56.700000000000003
 31
0.0
  0
LINE
  5
300
100
AcDbEntity
  8
0
  6
CONTINUOUS
 62
               4
100
AcDbLine
 10
63.200000000000003
 20
58.700000000000003
 30
0.0
 11
65.799999999999997
 21
58.700000000000003
 31
0.0
  0
LINE
  5
301
100
AcDbEntity
  8
0
  6
CONTINUOUS
 62
               4
100
AcDbLine
 10
76.200000000000003
 20
58.700000000000003
 30
0.0
 11
78.799999999999997
 21
58.700000000000003
 31
0.0
  0
LINE
  5
302
100
AcDbEntity
  8
0
  6
CONTINUOUS
 62
               7
100
AcDbLine
 10
-5.0
 20
53.0
 30
0.0
 11
90.0
 21
53.0
 31
0.0
  0
LINE
  5
303
100
AcDbEntity
  8
0
  6
CONTINUOUS
 62
               7
100
AcDbLine
 10
-5.0
 20
53.0
 30
0.0
 11
-5.0
 21
0.0
 31
0.0
  0
LINE
  5
304
100
AcDbEntity
  8
0
  6
CONTINUOUS
 62
               7
100
AcDbLine
 10
90.0
 20
53.0
 30
0.0
 11
90.0
 21
0.0
 31
0.0
  0
LINE
  5
305
100
AcDbEntity
  8
0
  6
CONTINUOUS
 62
               7
100
AcDbLine
 10
8.0
 20
79.5
 30
0.0
 11
5.0
 21
79.5
 31
0.0
  0
LINE
  5
306
100
AcDbEntity
  8
0
  6
CENTER
 62
               2
100
AcDbLine
 10
14.0
 20
93.810000000000002
 30
0.0
 11
14.0
 21
48.0
 31
0.0
  0
LINE
  5
307
100
AcDbEntity
  8
0
  6
CONTINUOUS
 62
               7
100
AcDbLine
 10
23.0
 20
90.0
 30
0.0
 11
23.0
 21
89.819999999999993
 31
0.0
  0
LINE
  5
308
100
AcDbEntity
  8
0
  6
CONTINUOUS
 62
               7
100
AcDbLine
 10
5.0
 20
90.0
 30
0.0
 11
5.0
 21
53.5
 31
0.0
  0
LINE
  5
309
100
AcDbEntity
  8
0
  6
CONTINUOUS
 62
               7
100
AcDbLine
 10
22.5
 20
87.5
 30
0.0
 11
5.5
 21
87.5
 31
0.0
  0
LINE
  5
30A
100
AcDbEntity
  8
0
  6
CONTINUOUS
 62
               7
100
AcDbLine
 10
20.5
 20
89.5
 30
0.0
 11
7.5
 21
89.5
 31
0.0
  0
LINE
  5
30B
100
AcDbEntity
  8
0
  6
CONTINUOUS
 62
               7
100
AcDbLine
 10
21.5
 20
88.5
 30
0.0
 11
21.5
 21
87.5
 31
0.0
  0
LINE
  5
30C
100
AcDbEntity
  8
0
  6
CONTINUOUS
 62
               7
100
AcDbLine
 10
6.5
 20
88.5
 30
0.0
 11
6.5
 21
87.5
 31
0.0
  0
LINE
  5
30D
100
AcDbEntity
  8
0
  6
CONTINUOUS
 62
               7
100
AcDbLine
 10
21.5
 20
88.5
 30
0.0
 11
20.5
 21
89.5
 31
0.0
  0
LINE
  5
30E
100
AcDbEntity
  8
0
  6
CONTINUOUS
 62
               7
100
AcDbLine
 10
7.5
 20
89.5
 30
0.0
 11
6.5
 21
88.5
 31
0.0
  0
LINE
  5
30F
100
AcDbEntity
  8
0
  6
CONTINUOUS
 62
               7
100
AcDbLine
 10
23.0
 20
53.5
 30
0.0
 11
5.0
 21
53.5
 31
0.0
  0
LINE
  5
310
100
AcDbEntity
  8
0
  6
CONTINUOUS
 62
               7
100
AcDbLine
 10
9.0600000000000005
 20
81.430000000000007
 30
0.0
 11
6.9299999999999997
 21
83.560000000000002
 31
0.0
  0
LINE
  5
311
100
AcDbEntity
  8
0
  6
CONTINUOUS
 62
               7
100
AcDbLine
 10
6.9299999999999997
 20
81.430000000000007
 30
0.0
 11
9.0600000000000005
 21
83.560000000000002
 31
0.0
  0
LINE
  5
312
100
AcDbEntity
  8
0
  6
CONTINUOUS
 62
               7
100
AcDbLine
 10
20.0
 20
59.5
 30
0.0
 11
23.0
 21
59.5
 31
0.0
  0
LINE
  5
313
100
AcDbEntity
  8
0
  6
CONTINUOUS
 62
               7
100
AcDbLine
 10
17.0
 20
56.5
 30
0.0
 11
17.0
 21
53.5
 31
0.0
  0
LINE
  5
314
100
AcDbEntity
  8
0
  6
CONTINUOUS
 62
               7
100
AcDbLine
 10
21.059999999999999
 20
57.560000000000002
 30
0.0
 11
18.940000000000001
 21
55.43
 31
0.0
  0
LINE
  5
315
100
AcDbEntity
  8
0
  6
CONTINUOUS
 62
               7
100
AcDbLine
 10
18.93
 20
57.560000000000002
 30
0.0
 11
21.059999999999999
 21
55.43
 31
0.0
  0
LINE
  5
316
100
AcDbEntity
  8
0
  6
CONTINUOUS
 62
               7
100
AcDbLine
 10
8.0
 20
85.5
 30
0.0
 11
5.0
 21
85.5
 31
0.0
  0
LINE
  5
317
100
AcDbEntity
  8
0
  6
CONTINUOUS
 62
               7
100
AcDbLine
 10
5.5
 20
90.5
 30
0.0
 11
22.5
 21
90.5
 31
0.0
  0
LINE
  5
318
100
AcDbEntity
  8
0
  6
CONTINUOUS
 62
               7
100
AcDbLine
 10
5.0
 20
88.5
 30
0.0
 11
23.25
 21
88.5
 31
0.0
  0
LINE
  5
319
100
AcDbEntity
  8
0
  6
CONTINUOUS
 62
               7
100
AcDbLine
 10
17.5
 20
90.5
 30
0.0
 11
17.5
 21
89.5
 31
0.0
  0
LINE
  5
31A
100
AcDbEntity
  8
0
  6
CONTINUOUS
 62
               7
100
AcDbLine
 10
23.25
 20
89.0
 30
0.0
 11
23.25
 21
88.5
 31
0.0
  0
LINE
  5
31B
100
AcDbEntity
  8
0
  6
CONTINUOUS
 62
               7
100
AcDbLine
 10
23.0
 20
88.5
 30
0.0
 11
23.0
 21
53.5
 31
0.0
  0
LINE
  5
31C
100
AcDbEntity
  8
0
  6
CONTINUOUS
 62
               7
100
AcDbLine
 10
-5.0
 20
0.0
 30
0.0
 11
90.0
 21
0.0
 31
0.0
  0
LINE
  5
31D
100
AcDbEntity
  8
0
  6
CONTINUOUS
 62
               4
100
AcDbLine
 10
42.0
 20
0.2
 30
0.0
 11
42.0
 21
3.3500000000000001
 31
0.0
  0
LINE
  5
31E
100
AcDbEntity
  8
0
  6
CONTINUOUS
 62
               4
100
AcDbLine
 10
24.0
 20
0.2
 30
0.0
 11
24.0
 21
3.5
 31
0.0
  0
LINE
  5
31F
100
AcDbEntity
  8
0
  6
CONTINUOUS
 62
               4
100
AcDbLine
 10
24.0
 20
52.799999999999997
 30
0.0
 11
42.0
 21
52.799999999999997
 31
0.0
  0
LINE
  5
320
100
AcDbEntity
  8
0
  6
CONTINUOUS
 62
               4
100
AcDbLine
 10
24.0
 20
0.2
 30
0.0
 11
42.0
 21
0.2
 31
0.0
  0
LINE
  5
321
100
AcDbEntity
  8
0
  6
CENTER
 62
             200
100
AcDbLine
 10
33.0
 20
-1.3799999999999999
 30
0.0
 11
33.0
 21
54.420000000000002
 31
0.0
  0
LINE
  5
322
100
AcDbEntity
  8
0
  6
CONTINUOUS
 62
               4
100
AcDbLine
 10
39.5
 20
7.5
 30
0.0
 11
42.0
 21
7.5
 31
0.0
  0
LINE
  5
323
100
AcDbEntity
  8
0
  6
CONTINUOUS
 62
               4
100
AcDbLine
 10
36.5
 20
0.2
 30
0.0
 11
36.5
 21
4.5
 31
0.0
  0
LINE
  5
324
100
AcDbEntity
  8
0
  6
CONTINUOUS
 62
               4
100
AcDbLine
 10
29.5
 20
48.5
 30
0.0
 11
29.5
 21
52.799999999999997
 31
0.0
  0
LINE
  5
325
100
AcDbEntity
  8
0
  6
CONTINUOUS
 62
               4
100
AcDbLine
 10
24.0
 20
45.5
 30
0.0
 11
26.5
 21
45.5
 31
0.0
  0
LINE
  5
326
100
AcDbEntity
  8
0
  6
CONTINUOUS
 62
               4
100
AcDbLine
 10
40.560000000000002
 20
3.4300000000000002
 30
0.0
 11
38.43
 21
5.5599999999999996
 31
0.0
  0
LINE
  5
327
100
AcDbEntity
  8
0
  6
CONTINUOUS
 62
               4
100
AcDbLine
 10
27.559999999999999
 20
47.43
 30
0.0
 11
25.43
 21
49.560000000000002
 31
0.0
  0
LINE
  5
328
100
AcDbEntity
  8
0
  6
CONTINUOUS
 62
               4
100
AcDbLine
 10
25.43
 20
47.43
 30
0.0
 11
27.559999999999999
 21
49.560000000000002
 31
0.0
  0
LINE
  5
329
100
AcDbEntity
  8
0
  6
CONTINUOUS
 62
               4
100
AcDbLine
 10
38.43
 20
3.4300000000000002
 30
0.0
 11
40.560000000000002
 21
5.5599999999999996
 31
0.0
  0
LINE
  5
32A
100
AcDbEntity
  8
0
  6
CONTINUOUS
 62
               4
100
AcDbLine
 10
42.0
 20
5.6399999999999997
 30
0.0
 11
42.0
 21
43.5
 31
0.0
  0
LINE
  5
32B
100
AcDbEntity
  8
0
  6
CONTINUOUS
 62
               4
100
AcDbLine
 10
24.0
 20
49.640000000000001
 30
0.0
 11
24.0
 21
52.799999999999997
 31
0.0
  0
LINE
  5
32C
100
AcDbEntity
  8
0
  6
CONTINUOUS
 62
               4
100
AcDbLine
 10
24.0
 20
3.5
 30
0.0
 11
26.5
 21
3.5
 31
0.0
  0
LINE
  5
32D
100
AcDbEntity
  8
0
  6
CONTINUOUS
 62
               4
100
AcDbLine
 10
24.0
 20
9.5
 30
0.0
 11
26.5
 21
9.5
 31
0.0
  0
LINE
  5
32E
100
AcDbEntity
  8
0
  6
CONTINUOUS
 62
               4
100
AcDbLine
 10
39.5
 20
43.5
 30
0.0
 11
42.0
 21
43.5
 31
0.0
  0
LINE
  5
32F
100
AcDbEntity
  8
0
  6
CONTINUOUS
 62
               4
100
AcDbLine
 10
39.5
 20
49.5
 30
0.0
 11
42.0
 21
49.5
 31
0.0
  0
LINE
  5
330
100
AcDbEntity
  8
0
  6
CONTINUOUS
 62
               4
100
AcDbLine
 10
24.0
 20
9.5
 30
0.0
 11
24.0
 21
47.350000000000001
 31
0.0
  0
LINE
  5
331
100
AcDbEntity
  8
0
  6
CONTINUOUS
 62
               4
100
AcDbLine
 10
42.0
 20
49.5
 30
0.0
 11
42.0
 21
52.799999999999997
 31
0.0
  0
LINE
  5
332
100
AcDbEntity
  8
0
  6
CONTINUOUS
 62
               4
100
AcDbLine
 10
24.0
 20
2.2000000000000002
 30
0.0
 11
36.5
 21
2.2000000000000002
 31
0.0
  0
LINE
  5
333
100
AcDbEntity
  8
0
  6
CONTINUOUS
 62
               4
100
AcDbLine
 10
29.5
 20
50.799999999999997
 30
0.0
 11
42.0
 21
50.799999999999997
 31
0.0
  0
LINE
  5
334
100
AcDbEntity
  8
0
  6
CENTER
 62
             200
100
AcDbLine
 10
23.5
 20
17.0
 30
0.0
 11
42.5
 21
17.0
 31
0.0
  0
LINE
  5
335
100
AcDbEntity
  8
0
  6
CENTER
 62
             200
100
AcDbLine
 10
23.5
 20
36.0
 30
0.0
 11
42.5
 21
36.0
 31
0.0
  0
LINE
  5
336
100
AcDbEntity
  8
0
  6
CONTINUOUS
 62
               4
100
AcDbLine
 10
23.0
 20
0.2
 30
0.0
 11
23.0
 21
3.3500000000000001
 31
0.0
  0
LINE
  5
337
100
AcDbEntity
  8
0
  6
CONTINUOUS
 62
               4
100
AcDbLine
 10
5.0
 20
0.2
 30
0.0
 11
5.0
 21
3.5
 31
0.0
  0
LINE
  5
338
100
AcDbEntity
  8
0
  6
CONTINUOUS
 62
               4
100
AcDbLine
 10
5.0
 20
52.799999999999997
 30
0.0
 11
23.0
 21
52.799999999999997
 31
0.0
  0
LINE
  5
339
100
AcDbEntity
  8
0
  6
CONTINUOUS
 62
               4
100
AcDbLine
 10
5.0
 20
0.2
 30
0.0
 11
23.0
 21
0.2
 31
0.0
  0
LINE
  5
33A
100
AcDbEntity
  8
0
  6
CENTER
 62
             200
100
AcDbLine
 10
14.0
 20
-1.3799999999999999
 30
0.0
 11
14.0
 21
54.420000000000002
 31
0.0
  0
LINE
  5
33B
100
AcDbEntity
  8
0
  6
CONTINUOUS
 62
               4
100
AcDbLine
 10
20.5
 20
7.5
 30
0.0
 11
23.0
 21
7.5
 31
0.0
  0
LINE
  5
33C
100
AcDbEntity
  8
0
  6
CONTINUOUS
 62
               4
100
AcDbLine
 10
17.5
 20
0.2
 30
0.0
 11
17.5
 21
4.5
 31
0.0
  0
LINE
  5
33D
100
AcDbEntity
  8
0
  6
CONTINUOUS
 62
               4
100
AcDbLine
 10
10.5
 20
48.5
 30
0.0
 11
10.5
 21
52.799999999999997
 31
0.0
  0
LINE
  5
33E
100
AcDbEntity
  8
0
  6
CONTINUOUS
 62
               4
100
AcDbLine
 10
5.0
 20
45.5
 30
0.0
 11
7.5
 21
45.5
 31
0.0
  0
LINE
  5
33F
100
AcDbEntity
  8
0
  6
CONTINUOUS
 62
               4
100
AcDbLine
 10
21.559999999999999
 20
3.4300000000000002
 30
0.0
 11
19.43
 21
5.5599999999999996
 31
0.0
  0
LINE
  5
340
100
AcDbEntity
  8
0
  6
CONTINUOUS
 62
               4
100
AcDbLine
 10
8.5600000000000005
 20
47.43
 30
0.0
 11
6.4299999999999997
 21
49.560000000000002
 31
0.0
  0
LINE
  5
341
100
AcDbEntity
  8
0
  6
CONTINUOUS
 62
               4
100
AcDbLine
 10
6.4299999999999997
 20
47.43
 30
0.0
 11
8.5600000000000005
 21
49.560000000000002
 31
0.0
  0
LINE
  5
342
100
AcDbEntity
  8
0
  6
CONTINUOUS
 62
               4
100
AcDbLine
 10
19.43
 20
3.4300000000000002
 30
0.0
 11
21.559999999999999
 21
5.5599999999999996
 31
0.0
  0
LINE
  5
343
100
AcDbEntity
  8
0
  6
CONTINUOUS
 62
               4
100
AcDbLine
 10
23.0
 20
5.6399999999999997
 30
0.0
 11
23.0
 21
43.5
 31
0.0
  0
LINE
  5
344
100
AcDbEntity
  8
0
  6
CONTINUOUS
 62
               4
100
AcDbLine
 10
5.0
 20
49.640000000000001
 30
0.0
 11
5.0
 21
52.799999999999997
 31
0.0
  0
LINE
  5
345
100
AcDbEntity
  8
0
  6
CONTINUOUS
 62
               4
100
AcDbLine
 10
5.0
 20
3.5
 30
0.0
 11
7.5
 21
3.5
 31
0.0
  0
LINE
  5
346
100
AcDbEntity
  8
0
  6
CONTINUOUS
 62
               4
100
AcDbLine
 10
5.0
 20
9.5
 30
0.0
 11
7.5
 21
9.5
 31
0.0
  0
LINE
  5
347
100
AcDbEntity
  8
0
  6
CONTINUOUS
 62
               4
100
AcDbLine
 10
20.5
 20
43.5
 30
0.0
 11
23.0
 21
43.5
 31
0.0
  0
LINE
  5
348
100
AcDbEntity
  8
0
  6
CONTINUOUS
 62
               4
100
AcDbLine
 10
20.5
 20
49.5
 30
0.0
 11
23.0
 21
49.5
 31
0.0
  0
LINE
  5
349
100
AcDbEntity
  8
0
  6
CONTINUOUS
 62
               4
100
AcDbLine
 10
5.0
 20
9.5
 30
0.0
 11
5.0
 21
47.350000000000001
 31
0.0
  0
LINE
  5
34A
100
AcDbEntity
  8
0
  6
CONTINUOUS
 62
               4
100
AcDbLine
 10
23.0
 20
49.5
 30
0.0
 11
23.0
 21
52.799999999999997
 31
0.0
  0
LINE
  5
34B
100
AcDbEntity
  8
0
  6
CONTINUOUS
 62
               4
100
AcDbLine
 10
5.0
 20
2.2000000000000002
 30
0.0
 11
17.5
 21
2.2000000000000002
 31
0.0
  0
LINE
  5
34C
100
AcDbEntity
  8
0
  6
CONTINUOUS
 62
               4
100
AcDbLine
 10
10.5
 20
50.799999999999997
 30
0.0
 11
23.0
 21
50.799999999999997
 31
0.0
  0
LINE
  5
34D
100
AcDbEntity
  8
0
  6
CENTER
 62
             200
100
AcDbLine
 10
4.5
 20
17.0
 30
0.0
 11
23.5
 21
17.0
 31
0.0
  0
LINE
  5
34E
100
AcDbEntity
  8
0
  6
CENTER
 62
             200
100
AcDbLine
 10
4.5
 20
36.0
 30
0.0
 11
23.5
 21
36.0
 31
0.0
  0
LINE
  5
34F
100
AcDbEntity
  8
0
  6
CONTINUOUS
 62
               4
100
AcDbLine
 10
61.0
 20
0.2
 30
0.0
 11
61.0
 21
3.3500000000000001
 31
0.0
  0
LINE
  5
350
100
AcDbEntity
  8
0
  6
CONTINUOUS
 62
               4
100
AcDbLine
 10
43.0
 20
0.2
 30
0.0
 11
43.0
 21
3.5
 31
0.0
  0
LINE
  5
351
100
AcDbEntity
  8
0
  6
CONTINUOUS
 62
               4
100
AcDbLine
 10
43.0
 20
52.799999999999997
 30
0.0
 11
61.0
 21
52.799999999999997
 31
0.0
  0
LINE
  5
352
100
AcDbEntity
  8
0
  6
CONTINUOUS
 62
               4
100
AcDbLine
 10
43.0
 20
0.2
 30
0.0
 11
61.0
 21
0.2
 31
0.0
  0
LINE
  5
353
100
AcDbEntity
  8
0
  6
CENTER
 62
             200
100
AcDbLine
 10
52.0
 20
-1.3799999999999999
 30
0.0
 11
52.0
 21
54.420000000000002
 31
0.0
  0
LINE
  5
354
100
AcDbEntity
  8
0
  6
CONTINUOUS
 62
               4
100
AcDbLine
 10
58.5
 20
7.5
 30
0.0
 11
61.0
 21
7.5
 31
0.0
  0
LINE
  5
355
100
AcDbEntity
  8
0
  6
CONTINUOUS
 62
               4
100
AcDbLine
 10
55.5
 20
0.2
 30
0.0
 11
55.5
 21
4.5
 31
0.0
  0
LINE
  5
356
100
AcDbEntity
  8
0
  6
CONTINUOUS
 62
               4
100
AcDbLine
 10
48.5
 20
48.5
 30
0.0
 11
48.5
 21
52.799999999999997
 31
0.0
  0
LINE
  5
357
100
AcDbEntity
  8
0
  6
CONTINUOUS
 62
               4
100
AcDbLine
 10
43.0
 20
45.5
 30
0.0
 11
45.5
 21
45.5
 31
0.0
  0
LINE
  5
358
100
AcDbEntity
  8
0
  6
CONTINUOUS
 62
               4
100
AcDbLine
 10
59.560000000000002
 20
3.4300000000000002
 30
0.0
 11
57.43
 21
5.5599999999999996
 31
0.0
  0
LINE
  5
359
100
AcDbEntity
  8
0
  6
CONTINUOUS
 62
               4
100
AcDbLine
 10
46.560000000000002
 20
47.43
 30
0.0
 11
44.43
 21
49.560000000000002
 31
0.0
  0
LINE
  5
35A
100
AcDbEntity
  8
0
  6
CONTINUOUS
 62
               4
100
AcDbLine
 10
44.43
 20
47.43
 30
0.0
 11
46.560000000000002
 21
49.560000000000002
 31
0.0
  0
LINE
  5
35B
100
AcDbEntity
  8
0
  6
CONTINUOUS
 62
               4
100
AcDbLine
 10
57.43
 20
3.4300000000000002
 30
0.0
 11
59.560000000000002
 21
5.5599999999999996
 31
0.0
  0
LINE
  5
35C
100
AcDbEntity
  8
0
  6
CONTINUOUS
 62
               4
100
AcDbLine
 10
61.0
 20
5.6399999999999997
 30
0.0
 11
61.0
 21
43.5
 31
0.0
  0
LINE
  5
35D
100
AcDbEntity
  8
0
  6
CONTINUOUS
 62
               4
100
AcDbLine
 10
43.0
 20
49.640000000000001
 30
0.0
 11
43.0
 21
52.799999999999997
 31
0.0
  0
LINE
  5
35E
100
AcDbEntity
  8
0
  6
CONTINUOUS
 62
               4
100
AcDbLine
 10
43.0
 20
3.5
 30
0.0
 11
45.5
 21
3.5
 31
0.0
  0
LINE
  5
35F
100
AcDbEntity
  8
0
  6
CONTINUOUS
 62
               4
100
AcDbLine
 10
43.0
 20
9.5
 30
0.0
 11
45.5
 21
9.5
 31
0.0
  0
LINE
  5
360
100
AcDbEntity
  8
0
  6
CONTINUOUS
 62
               4
100
AcDbLine
 10
58.5
 20
43.5
 30
0.0
 11
61.0
 21
43.5
 31
0.0
  0
LINE
  5
361
100
AcDbEntity
  8
0
  6
CONTINUOUS
 62
               4
100
AcDbLine
 10
58.5
 20
49.5
 30
0.0
 11
61.0
 21
49.5
 31
0.0
  0
LINE
  5
362
100
AcDbEntity
  8
0
  6
CONTINUOUS
 62
               4
100
AcDbLine
 10
43.0
 20
9.5
 30
0.0
 11
43.0
 21
47.350000000000001
 31
0.0
  0
LINE
  5
363
100
AcDbEntity
  8
0
  6
CONTINUOUS
 62
               4
100
AcDbLine
 10
61.0
 20
49.5
 30
0.0
 11
61.0
 21
52.799999999999997
 31
0.0
  0
LINE
  5
364
100
AcDbEntity
  8
0
  6
CONTINUOUS
 62
               4
100
AcDbLine
 10
43.0
 20
2.2000000000000002
 30
0.0
 11
55.5
 21
2.2000000000000002
 31
0.0
  0
LINE
  5
365
100
AcDbEntity
  8
0
  6
CONTINUOUS
 62
               4
100
AcDbLine
 10
48.5
 20
50.799999999999997
 30
0.0
 11
61.0
 21
50.799999999999997
 31
0.0
  0
LINE
  5
366
100
AcDbEntity
  8
0
  6
CENTER
 62
             200
100
AcDbLine
 10
42.5
 20
17.0
 30
0.0
 11
61.5
 21
17.0
 31
0.0
  0
LINE
  5
367
100
AcDbEntity
  8
0
  6
CENTER
 62
             200
100
AcDbLine
 10
42.5
 20
36.0
 30
0.0
 11
61.5
 21
36.0
 31
0.0
  0
LINE
  5
368
100
AcDbEntity
  8
0
  6
CONTINUOUS
 62
               4
100
AcDbLine
 10
80.0
 20
0.2
 30
0.0
 11
80.0
 21
3.3500000000000001
 31
0.0
  0
LINE
  5
369
100
AcDbEntity
  8
0
  6
CONTINUOUS
 62
               4
100
AcDbLine
 10
62.0
 20
0.2
 30
0.0
 11
62.0
 21
3.5
 31
0.0
  0
LINE
  5
36A
100
AcDbEntity
  8
0
  6
CONTINUOUS
 62
               4
100
AcDbLine
 10
62.0
 20
52.799999999999997
 30
0.0
 11
80.0
 21
52.799999999999997
 31
0.0
  0
LINE
  5
36B
100
AcDbEntity
  8
0
  6
CONTINUOUS
 62
               4
100
AcDbLine
 10
62.0
 20
0.2
 30
0.0
 11
80.0
 21
0.2
 31
0.0
  0
LINE
  5
36C
100
AcDbEntity
  8
0
  6
CENTER
 62
             200
100
AcDbLine
 10
71.0
 20
-1.3799999999999999
 30
0.0
 11
71.0
 21
54.420000000000002
 31
0.0
  0
LINE
  5
36D
100
AcDbEntity
  8
0
  6
CONTINUOUS
 62
               4
100
AcDbLine
 10
77.5
 20
7.5
 30
0.0
 11
80.0
 21
7.5
 31
0.0
  0
LINE
  5
36E
100
AcDbEntity
  8
0
  6
CONTINUOUS
 62
               4
100
AcDbLine
 10
74.5
 20
0.2
 30
0.0
 11
74.5
 21
4.5
 31
0.0
  0
LINE
  5
36F
100
AcDbEntity
  8
0
  6
CONTINUOUS
 62
               4
100
AcDbLine
 10
67.5
 20
48.5
 30
0.0
 11
67.5
 21
52.799999999999997
 31
0.0
  0
LINE
  5
370
100
AcDbEntity
  8
0
  6
CONTINUOUS
 62
               4
100
AcDbLine
 10
62.0
 20
45.5
 30
0.0
 11
64.5
 21
45.5
 31
0.0
  0
LINE
  5
371
100
AcDbEntity
  8
0
  6
CONTINUOUS
 62
               4
100
AcDbLine
 10
78.560000000000002
 20
3.4300000000000002
 30
0.0
 11
76.430000000000007
 21
5.5599999999999996
 31
0.0
  0
LINE
  5
372
100
AcDbEntity
  8
0
  6
CONTINUOUS
 62
               4
100
AcDbLine
 10
65.560000000000002
 20
47.43
 30
0.0
 11
63.43
 21
49.560000000000002
 31
0.0
  0
LINE
  5
373
100
AcDbEntity
  8
0
  6
CONTINUOUS
 62
               4
100
AcDbLine
 10
63.43
 20
47.43
 30
0.0
 11
65.560000000000002
 21
49.560000000000002
 31
0.0
  0
LINE
  5
374
100
AcDbEntity
  8
0
  6
CONTINUOUS
 62
               4
100
AcDbLine
 10
76.430000000000007
 20
3.4300000000000002
 30
0.0
 11
78.560000000000002
 21
5.5599999999999996
 31
0.0
  0
LINE
  5
375
100
AcDbEntity
  8
0
  6
CONTINUOUS
 62
               4
100
AcDbLine
 10
80.0
 20
5.6399999999999997
 30
0.0
 11
80.0
 21
43.5
 31
0.0
  0
LINE
  5
376
100
AcDbEntity
  8
0
  6
CONTINUOUS
 62
               4
100
AcDbLine
 10
62.0
 20
49.640000000000001
 30
0.0
 11
62.0
 21
52.799999999999997
 31
0.0
  0
LINE
  5
377
100
AcDbEntity
  8
0
  6
CONTINUOUS
 62
               4
100
AcDbLine
 10
62.0
 20
3.5
 30
0.0
 11
64.5
 21
3.5
 31
0.0
  0
LINE
  5
378
100
AcDbEntity
  8
0
  6
CONTINUOUS
 62
               4
100
AcDbLine
 10
62.0
 20
9.5
 30
0.0
 11
64.5
 21
9.5
 31
0.0
  0
LINE
  5
379
100
AcDbEntity
  8
0
  6
CONTINUOUS
 62
               4
100
AcDbLine
 10
77.5
 20
43.5
 30
0.0
 11
80.0
 21
43.5
 31
0.0
  0
LINE
  5
37A
100
AcDbEntity
  8
0
  6
CONTINUOUS
 62
               4
100
AcDbLine
 10
77.5
 20
49.5
 30
0.0
 11
80.0
 21
49.5
 31
0.0
  0
LINE
  5
37B
100
AcDbEntity
  8
0
  6
CONTINUOUS
 62
               4
100
AcDbLine
 10
62.0
 20
9.5
 30
0.0
 11
62.0
 21
47.350000000000001
 31
0.0
  0
LINE
  5
37C
100
AcDbEntity
  8
0
  6
CONTINUOUS
 62
               4
100
AcDbLine
 10
80.0
 20
49.5
 30
0.0
 11
80.0
 21
52.799999999999997
 31
0.0
  0
LINE
  5
37D
100
AcDbEntity
  8
0
  6
CONTINUOUS
 62
               4
100
AcDbLine
 10
62.0
 20
2.2000000000000002
 30
0.0
 11
74.5
 21
2.2000000000000002
 31
0.0
  0
LINE
  5
37E
100
AcDbEntity
  8
0
  6
CONTINUOUS
 62
               4
100
AcDbLine
 10
67.5
 20
50.799999999999997
 30
0.0
 11
80.0
 21
50.799999999999997
 31
0.0
  0
LINE
  5
37F
100
AcDbEntity
  8
0
  6
CENTER
 62
             200
100
AcDbLine
 10
61.5
 20
17.0
 30
0.0
 11
80.5
 21
17.0
 31
0.0
  0
LINE
  5
380
100
AcDbEntity
  8
0
  6
CENTER
 62
             200
100
AcDbLine
 10
61.5
 20
36.0
 30
0.0
 11
80.5
 21
36.0
 31
0.0
  0
LINE
  5
381
100
AcDbEntity
  8
0
  6
CONTINUOUS
 62
               7
100
AcDbLine
 10
46.0
 20
79.5
 30
0.0
 11
43.0
 21
79.5
 31
0.0
  0
LINE
  5
382
100
AcDbEntity
  8
0
  6
CENTER
 62
               2
100
AcDbLine
 10
52.0
 20
93.810000000000002
 30
0.0
 11
52.0
 21
48.0
 31
0.0
  0
LINE
  5
383
100
AcDbEntity
  8
0
  6
CONTINUOUS
 62
               7
100
AcDbLine
 10
61.0
 20
90.0
 30
0.0
 11
61.0
 21
89.819999999999993
 31
0.0
  0
LINE
  5
384
100
AcDbEntity
  8
0
  6
CONTINUOUS
 62
               7
100
AcDbLine
 10
43.0
 20
90.0
 30
0.0
 11
43.0
 21
53.5
 31
0.0
  0
LINE
  5
385
100
AcDbEntity
  8
0
  6
CONTINUOUS
 62
               7
100
AcDbLine
 10
60.5
 20
87.5
 30
0.0
 11
43.5
 21
87.5
 31
0.0
  0
LINE
  5
386
100
AcDbEntity
  8
0
  6
CONTINUOUS
 62
               7
100
AcDbLine
 10
61.0
 20
53.5
 30
0.0
 11
43.0
 21
53.5
 31
0.0
  0
LINE
  5
387
100
AcDbEntity
  8
0
  6
CONTINUOUS
 62
               7
100
AcDbLine
 10
47.060000000000002
 20
81.430000000000007
 30
0.0
 11
44.93
 21
83.560000000000002
 31
0.0
  0
LINE
  5
388
100
AcDbEntity
  8
0
  6
CONTINUOUS
 62
               7
100
AcDbLine
 10
44.939999999999998
 20
81.430000000000007
 30
0.0
 11
47.060000000000002
 21
83.560000000000002
 31
0.0
  0
LINE
  5
389
100
AcDbEntity
  8
0
  6
CONTINUOUS
 62
               7
100
AcDbLine
 10
58.0
 20
59.5
 30
0.0
 11
61.0
 21
59.5
 31
0.0
  0
LINE
  5
38A
100
AcDbEntity
  8
0
  6
CONTINUOUS
 62
               7
100
AcDbLine
 10
55.0
 20
56.5
 30
0.0
 11
55.0
 21
53.5
 31
0.0
  0
LINE
  5
38B
100
AcDbEntity
  8
0
  6
CONTINUOUS
 62
               7
100
AcDbLine
 10
59.060000000000002
 20
57.560000000000002
 30
0.0
 11
56.939999999999998
 21
55.43
 31
0.0
  0
LINE
  5
38C
100
AcDbEntity
  8
0
  6
CONTINUOUS
 62
               7
100
AcDbLine
 10
56.93
 20
57.560000000000002
 30
0.0
 11
59.060000000000002
 21
55.43
 31
0.0
  0
LINE
  5
38D
100
AcDbEntity
  8
0
  6
CONTINUOUS
 62
               7
100
AcDbLine
 10
46.0
 20
85.5
 30
0.0
 11
43.0
 21
85.5
 31
0.0
  0
LINE
  5
38E
100
AcDbEntity
  8
0
  6
CONTINUOUS
 62
               7
100
AcDbLine
 10
43.5
 20
90.5
 30
0.0
 11
60.5
 21
90.5
 31
0.0
  0
LINE
  5
38F
100
AcDbEntity
  8
0
  6
CONTINUOUS
 62
               7
100
AcDbLine
 10
43.0
 20
88.5
 30
0.0
 11
61.25
 21
88.5
 31
0.0
  0
LINE
  5
390
100
AcDbEntity
  8
0
  6
CONTINUOUS
 62
               7
100
AcDbLine
 10
55.5
 20
90.5
 30
0.0
 11
55.5
 21
88.5
 31
0.0
  0
LINE
  5
391
100
AcDbEntity
  8
0
  6
CONTINUOUS
 62
               7
100
AcDbLine
 10
61.25
 20
89.0
 30
0.0
 11
61.25
 21
88.5
 31
0.0
  0
LINE
  5
392
100
AcDbEntity
  8
0
  6
CONTINUOUS
 62
               7
100
AcDbLine
 10
61.0
 20
88.5
 30
0.0
 11
61.0
 21
53.5
 31
0.0
  0
LINE
  5
393
100
AcDbEntity
  8
0
  6
CONTINUOUS
 62
               7
100
AcDbLine
 10
50.049999999999997
 20
88.5
 30
0.0
 11
50.049999999999997
 21
87.5
 31
0.0
  0
LINE
  5
394
100
AcDbEntity
  8
0
  6
CONTINUOUS
 62
               7
100
AcDbLine
 10
53.950000000000003
 20
88.5
 30
0.0
 11
53.950000000000003
 21
87.5
 31
0.0
  0
LINE
  5
395
100
AcDbEntity
  8
0
  6
CONTINUOUS
 62
               7
100
AcDbLine
 10
55.75
 20
89.0
 30
0.0
 11
55.75
 21
88.5
 31
0.0
  0
LINE
  5
396
100
AcDbEntity
  8
0
  6
CONTINUOUS
 62
               7
100
AcDbLine
 10
27.0
 20
79.5
 30
0.0
 11
24.0
 21
79.5
 31
0.0
  0
LINE
  5
397
100
AcDbEntity
  8
0
  6
CENTER
 62
               2
100
AcDbLine
 10
33.0
 20
93.810000000000002
 30
0.0
 11
33.0
 21
48.0
 31
0.0
  0
LINE
  5
398
100
AcDbEntity
  8
0
  6
CONTINUOUS
 62
               7
100
AcDbLine
 10
42.0
 20
90.0
 30
0.0
 11
42.0
 21
89.819999999999993
 31
0.0
  0
LINE
  5
399
100
AcDbEntity
  8
0
  6
CONTINUOUS
 62
               7
100
AcDbLine
 10
24.0
 20
90.0
 30
0.0
 11
24.0
 21
53.5
 31
0.0
  0
LINE
  5
39A
100
AcDbEntity
  8
0
  6
CONTINUOUS
 62
               7
100
AcDbLine
 10
41.5
 20
87.5
 30
0.0
 11
24.5
 21
87.5
 31
0.0
  0
LINE
  5
39B
100
AcDbEntity
  8
0
  6
CONTINUOUS
 62
               7
100
AcDbLine
 10
42.0
 20
53.5
 30
0.0
 11
24.0
 21
53.5
 31
0.0
  0
LINE
  5
39C
100
AcDbEntity
  8
0
  6
CONTINUOUS
 62
               7
100
AcDbLine
 10
28.059999999999999
 20
81.430000000000007
 30
0.0
 11
25.93
 21
83.560000000000002
 31
0.0
  0
LINE
  5
39D
100
AcDbEntity
  8
0
  6
CONTINUOUS
 62
               7
100
AcDbLine
 10
25.940000000000001
 20
81.430000000000007
 30
0.0
 11
28.059999999999999
 21
83.560000000000002
 31
0.0
  0
LINE
  5
39E
100
AcDbEntity
  8
0
  6
CONTINUOUS
 62
               7
100
AcDbLine
 10
39.0
 20
59.5
 30
0.0
 11
42.0
 21
59.5
 31
0.0
  0
LINE
  5
39F
100
AcDbEntity
  8
0
  6
CONTINUOUS
 62
               7
100
AcDbLine
 10
36.0
 20
56.5
 30
0.0
 11
36.0
 21
53.5
 31
0.0
  0
LINE
  5
3A0
100
AcDbEntity
  8
0
  6
CONTINUOUS
 62
               7
100
AcDbLine
 10
40.060000000000002
 20
57.560000000000002
 30
0.0
 11
37.939999999999998
 21
55.43
 31
0.0
  0
LINE
  5
3A1
100
AcDbEntity
  8
0
  6
CONTINUOUS
 62
               7
100
AcDbLine
 10
37.93
 20
57.560000000000002
 30
0.0
 11
40.060000000000002
 21
55.43
 31
0.0
  0
LINE
  5
3A2
100
AcDbEntity
  8
0
  6
CONTINUOUS
 62
               7
100
AcDbLine
 10
27.0
 20
85.5
 30
0.0
 11
24.0
 21
85.5
 31
0.0
  0
LINE
  5
3A3
100
AcDbEntity
  8
0
  6
CONTINUOUS
 62
               7
100
AcDbLine
 10
24.5
 20
90.5
 30
0.0
 11
41.5
 21
90.5
 31
0.0
  0
LINE
  5
3A4
100
AcDbEntity
  8
0
  6
CONTINUOUS
 62
               7
100
AcDbLine
 10
24.0
 20
88.5
 30
0.0
 11
42.25
 21
88.5
 31
0.0
  0
LINE
  5
3A5
100
AcDbEntity
  8
0
  6
CONTINUOUS
 62
               7
100
AcDbLine
 10
36.5
 20
90.5
 30
0.0
 11
36.5
 21
88.5
 31
0.0
  0
LINE
  5
3A6
100
AcDbEntity
  8
0
  6
CONTINUOUS
 62
               7
100
AcDbLine
 10
42.25
 20
89.0
 30
0.0
 11
42.25
 21
88.5
 31
0.0
  0
LINE
  5
3A7
100
AcDbEntity
  8
0
  6
CONTINUOUS
 62
               7
100
AcDbLine
 10
42.0
 20
88.5
 30
0.0
 11
42.0
 21
53.5
 31
0.0
  0
LINE
  5
3A8
100
AcDbEntity
  8
0
  6
CONTINUOUS
 62
               7
100
AcDbLine
 10
31.050000000000001
 20
88.5
 30
0.0
 11
31.050000000000001
 21
87.5
 31
0.0
  0
LINE
  5
3A9
100
AcDbEntity
  8
0
  6
CONTINUOUS
 62
               7
100
AcDbLine
 10
34.950000000000003
 20
88.5
 30
0.0
 11
34.950000000000003
 21
87.5
 31
0.0
  0
LINE
  5
3AA
100
AcDbEntity
  8
0
  6
CONTINUOUS
 62
               7
100
AcDbLine
 10
36.75
 20
89.0
 30
0.0
 11
36.75
 21
88.5
 31
0.0
  0
LINE
  5
3AB
100
AcDbEntity
  8
0
  6
CONTINUOUS
 62
               7
100
AcDbLine
 10
62.0
 20
53.5
 30
0.0
 11
62.0
 21
53.0
 31
0.0
  0
LINE
  5
3AC
100
AcDbEntity
  8
0
  6
CONTINUOUS
 62
               7
100
AcDbLine
 10
80.0
 20
53.5
 30
0.0
 11
80.0
 21
53.0
 31
0.0
  0
LINE
  5
3AD
100
AcDbEntity
  8
0
  6
CONTINUOUS
 62
               7
100
AcDbLine
 10
5.0
 20
53.5
 30
0.0
 11
5.0
 21
53.0
 31
0.0
  0
LINE
  5
3AE
100
AcDbEntity
  8
0
  6
CONTINUOUS
 62
               7
100
AcDbLine
 10
23.0
 20
53.5
 30
0.0
 11
23.0
 21
53.0
 31
0.0
  0
LINE
  5
3AF
100
AcDbEntity
  8
0
  6
CONTINUOUS
 62
               7
100
AcDbLine
 10
43.0
 20
53.5
 30
0.0
 11
43.0
 21
53.0
 31
0.0
  0
LINE
  5
3B0
100
AcDbEntity
  8
0
  6
CONTINUOUS
 62
               7
100
AcDbLine
 10
61.0
 20
53.5
 30
0.0
 11
61.0
 21
53.0
 31
0.0
  0
LINE
  5
3B1
100
AcDbEntity
  8
0
  6
CONTINUOUS
 62
               7
100
AcDbLine
 10
24.0
 20
53.5
 30
0.0
 11
24.0
 21
53.0
 31
0.0
  0
LINE
  5
3B2
100
AcDbEntity
  8
0
  6
CONTINUOUS
 62
               7
100
AcDbLine
 10
42.0
 20
53.5
 30
0.0
 11
42.0
 21
53.0
 31
0.0
  0
LINE
  5
3B3
100
AcDbEntity
  8
0
  6
CENTER
 62
               2
100
AcDbLine
 10
0.0
 20
5.0
 30
0.0
 11
0.0
 21
-5.0
 31
0.0
  0
LINE
  5
3B4
100
AcDbEntity
  8
0
  6
CENTER
 62
               2
100
AcDbLine
 10
85.0
 20
5.0
 30
0.0
 11
85.0
 21
-5.0
 31
0.0
  0
ARC
  5
3B5
100
AcDbEntity
  8
0
  6
CONTINUOUS
 62
               4
100
AcDbCircle
 10
78.800030517202487
 20
57.200030517202492
 30
0.0
 40
1.499969483107948
100
AcDbArc
 50
359.99883430501342
 51
90.001165694985602
  0
ARC
  5
3B6
100
AcDbEntity
  8
0
  6
CONTINUOUS
 62
               4
100
AcDbCircle
 10
76.200030517829589
 20
57.199969482170424
 30
0.0
 40
1.5000305181400218
100
AcDbArc
 50
90.001165671507252
 51
179.99883432849242
  0
ARC
  5
3B7
100
AcDbEntity
  8
0
  6
CONTINUOUS
 62
               4
100
AcDbCircle
 10
65.800030517202487
 20
57.200030517202492
 30
0.0
 40
1.499969483107948
100
AcDbArc
 50
359.99883430501342
 51
90.001165694985602
  0
ARC
  5
3B8
100
AcDbEntity
  8
0
  6
CONTINUOUS
 62
               4
100
AcDbCircle
 10
63.200030517829582
 20
57.199969482170424
 30
0.0
 40
1.5000305181400218
100
AcDbArc
 50
90.001165671506996
 51
179.99883432849242
  0
ARC
  5
3B9
100
AcDbEntity
  8
0
  6
CONTINUOUS
 62
               7
100
AcDbCircle
 10
8.0
 20
82.5
 30
0.0
 40
3.0000000001552207
100
AcDbArc
 50
269.99999999999937
 51
89.999999999999801
  0
ARC
  5
3BA
100
AcDbEntity
  8
0
  6
CONTINUOUS
 62
               7
100
AcDbCircle
 10
22.500022888125386
 20
87.000022888125386
 30
0.0
 40
0.4999771123985042
100
AcDbArc
 50
359.99737709396305
 51
90.002622906035953
  0
ARC
  5
3BB
100
AcDbEntity
  8
0
  6
CONTINUOUS
 62
               7
100
AcDbCircle
 10
5.5000076299184002
 20
86.9999923700816
 30
0.0
 40
0.500007629976615
100
AcDbArc
 50
90.000874310902617
 51
179.99912568909679
  0
CIRCLE
  5
3BC
100
AcDbEntity
  8
0
  6
CONTINUOUS
 62
               7
100
AcDbCircle
 10
8.000030517578125
 20
82.500015258789063
 30
0.0
 40
2.7999992370605469
  0
ARC
  5
3BD
100
AcDbEntity
  8
0
  6
CONTINUOUS
 62
               7
100
AcDbCircle
 10
20.000015258827869
 20
56.499984741172135
 30
0.0
 40
3.0000152588666724
100
AcDbArc
 50
90.000291420663288
 51
179.99970857933619
  0
CIRCLE
  5
3BE
100
AcDbEntity
  8
0
  6
CONTINUOUS
 62
               7
100
AcDbCircle
 10
20.000030517578125
 20
56.5
 30
0.0
 40
2.7999992370605469
  0
ARC
  5
3BF
100
AcDbEntity
  8
0
  6
CONTINUOUS
 62
               7
100
AcDbCircle
 10
22.500015258556232
 20
90.000015258556232
 30
0.0
 40
0.4999847416765988
100
AcDbArc
 50
359.99825144489182
 51
90.001748555107184
  0
ARC
  5
3C0
100
AcDbEntity
  8
0
  6
CONTINUOUS
 62
               7
100
AcDbCircle
 10
5.5000152590218931
 20
89.999984740978107
 30
0.0
 40
0.5000152592547238
100
AcDbArc
 50
90.001748501746363
 51
179.99825149825307
  0
ARC
  5
3C1
100
AcDbEntity
  8
0
  6
CONTINUOUS
 62
               7
100
AcDbCircle
 10
21.750015258711453
 20
89.000015258711457
 30
0.0
 40
1.4999847413661578
100
AcDbArc
 50
359.9994171542254
 51
90.000582845773522
  0
ARC
  5
3C2
100
AcDbEntity
  8
0
  6
CONTINUOUS
 62
               7
100
AcDbCircle
 10
19.246153408710825
 20
88.997262159630623
 30
0.0
 40
1.5027427634637098
100
AcDbArc
 50
89.853339046165743
 51
160.45501621812838
  0
ARC
  5
3C3
100
AcDbEntity
  8
0
  6
CONTINUOUS
 62
               4
100
AcDbCircle
 10
39.5
 20
4.5
 30
0.0
 40
3.0
100
AcDbArc
 50
89.999999999999801
 51
179.9999999999996
  0
ARC
  5
3C4
100
AcDbEntity
  8
0
  6
CONTINUOUS
 62
               4
100
AcDbCircle
 10
26.5
 20
48.5
 30
0.0
 40
3.0
100
AcDbArc
 50
269.99999999999937
 51
0.0
  0
CIRCLE
  5
3C5
100
AcDbEntity
  8
0
  6
CONTINUOUS
 62
               4
100
AcDbCircle
 10
39.5
 20
4.5
 30
0.0
 40
2.75
  0
CIRCLE
  5
3C6
100
AcDbEntity
  8
0
  6
CONTINUOUS
 62
               4
100
AcDbCircle
 10
26.5
 20
48.5
 30
0.0
 40
2.75
  0
ARC
  5
3C7
100
AcDbEntity
  8
0
  6
CONTINUOUS
 62
               4
100
AcDbCircle
 10
26.5
 20
6.5
 30
0.0
 40
3.0
100
AcDbArc
 50
269.99999999999937
 51
89.999999999999801
  0
ARC
  5
3C8
100
AcDbEntity
  8
0
  6
CONTINUOUS
 62
               4
100
AcDbCircle
 10
39.5
 20
46.5
 30
0.0
 40
3.0
100
AcDbArc
 50
89.999999999999801
 51
269.99999999999937
  0
CIRCLE
  5
3C9
100
AcDbEntity
  8
0
  6
CONTINUOUS
 62
               4
100
AcDbCircle
 10
33.0
 20
17.0
 30
0.0
 40
4.0
  0
CIRCLE
  5
3CA
100
AcDbEntity
  8
0
  6
CONTINUOUS
 62
               4
100
AcDbCircle
 10
33.0
 20
17.0
 30
0.0
 40
5.0
  0
CIRCLE
  5
3CB
100
AcDbEntity
  8
0
  6
CONTINUOUS
 62
               4
100
AcDbCircle
 10
33.0
 20
17.0
 30
0.0
 40
8.5
  0
CIRCLE
  5
3CC
100
AcDbEntity
  8
0
  6
CONTINUOUS
 62
               4
100
AcDbCircle
 10
33.0
 20
17.0
 30
0.0
 40
8.0
  0
CIRCLE
  5
3CD
100
AcDbEntity
  8
0
  6
CONTINUOUS
 62
               4
100
AcDbCircle
 10
33.0
 20
36.0
 30
0.0
 40
8.5
  0
CIRCLE
  5
3CE
100
AcDbEntity
  8
0
  6
CONTINUOUS
 62
               4
100
AcDbCircle
 10
33.0
 20
36.0
 30
0.0
 40
8.0
  0
CIRCLE
  5
3CF
100
AcDbEntity
  8
0
  6
CONTINUOUS
 62
               4
100
AcDbCircle
 10
33.0
 20
36.0
 30
0.0
 40
5.0
  0
CIRCLE
  5
3D0
100
AcDbEntity
  8
0
  6
CONTINUOUS
 62
               4
100
AcDbCircle
 10
33.0
 20
36.0
 30
0.0
 40
4.0
  0
ARC
  5
3D1
100
AcDbEntity
  8
0
  6
CONTINUOUS
 62
               4
100
AcDbCircle
 10
20.5
 20
4.5
 30
0.0
 40
3.0
100
AcDbArc
 50
89.999999999999801
 51
179.9999999999996
  0
ARC
  5
3D2
100
AcDbEntity
  8
0
  6
CONTINUOUS
 62
               4
100
AcDbCircle
 10
7.5
 20
48.5
 30
0.0
 40
3.0
100
AcDbArc
 50
269.99999999999937
 51
0.0
  0
CIRCLE
  5
3D3
100
AcDbEntity
  8
0
  6
CONTINUOUS
 62
               4
100
AcDbCircle
 10
20.5
 20
4.5
 30
0.0
 40
2.75
  0
CIRCLE
  5
3D4
100
AcDbEntity
  8
0
  6
CONTINUOUS
 62
               4
100
AcDbCircle
 10
7.5
 20
48.5
 30
0.0
 40
2.75
  0
ARC
  5
3D5
100
AcDbEntity
  8
0
  6
CONTINUOUS
 62
               4
100
AcDbCircle
 10
7.5
 20
6.5
 30
0.0
 40
3.0
100
AcDbArc
 50
269.99999999999937
 51
89.999999999999801
  0
ARC
  5
3D6
100
AcDbEntity
  8
0
  6
CONTINUOUS
 62
               4
100
AcDbCircle
 10
20.5
 20
46.5
 30
0.0
 40
3.0
100
AcDbArc
 50
89.999999999999801
 51
269.99999999999937
  0
CIRCLE
  5
3D7
100
AcDbEntity
  8
0
  6
CONTINUOUS
 62
               4
100
AcDbCircle
 10
14.0
 20
17.0
 30
0.0
 40
4.0
  0
CIRCLE
  5
3D8
100
AcDbEntity
  8
0
  6
CONTINUOUS
 62
               4
100
AcDbCircle
 10
14.0
 20
17.0
 30
0.0
 40
5.0
  0
CIRCLE
  5
3D9
100
AcDbEntity
  8
0
  6
CONTINUOUS
 62
               4
100
AcDbCircle
 10
14.0
 20
17.0
 30
0.0
 40
8.5
  0
CIRCLE
  5
3DA
100
AcDbEntity
  8
0
  6
CONTINUOUS
 62
               4
100
AcDbCircle
 10
14.0
 20
17.0
 30
0.0
 40
8.0
  0
CIRCLE
  5
3DB
100
AcDbEntity
  8
0
  6
CONTINUOUS
 62
               4
100
AcDbCircle
 10
14.0
 20
36.0
 30
0.0
 40
8.5
  0
CIRCLE
  5
3DC
100
AcDbEntity
  8
0
  6
CONTINUOUS
 62
               4
100
AcDbCircle
 10
14.0
 20
36.0
 30
0.0
 40
8.0
  0
CIRCLE
  5
3DD
100
AcDbEntity
  8
0
  6
CONTINUOUS
 62
               4
100
AcDbCircle
 10
14.0
 20
36.0
 30
0.0
 40
5.0
  0
CIRCLE
  5
3DE
100
AcDbEntity
  8
0
  6
CONTINUOUS
 62
               4
100
AcDbCircle
 10
14.0
 20
36.0
 30
0.0
 40
4.0
  0
ARC
  5
3DF
100
AcDbEntity
  8
0
  6
CONTINUOUS
 62
               4
100
AcDbCircle
 10
58.5
 20
4.5
 30
0.0
 40
3.0
100
AcDbArc
 50
89.999999999999801
 51
179.9999999999996
  0
ARC
  5
3E0
100
AcDbEntity
  8
0
  6
CONTINUOUS
 62
               4
100
AcDbCircle
 10
45.5
 20
48.5
 30
0.0
 40
3.0
100
AcDbArc
 50
269.99999999999937
 51
0.0
  0
CIRCLE
  5
3E1
100
AcDbEntity
  8
0
  6
CONTINUOUS
 62
               4
100
AcDbCircle
 10
58.5
 20
4.5
 30
0.0
 40
2.75
  0
CIRCLE
  5
3E2
100
AcDbEntity
  8
0
  6
CONTINUOUS
 62
               4
100
AcDbCircle
 10
45.5
 20
48.5
 30
0.0
 40
2.75
  0
ARC
  5
3E3
100
AcDbEntity
  8
0
  6
CONTINUOUS
 62
               4
100
AcDbCircle
 10
45.5
 20
6.5
 30
0.0
 40
3.0
100
AcDbArc
 50
269.99999999999937
 51
89.999999999999801
  0
ARC
  5
3E4
100
AcDbEntity
  8
0
  6
CONTINUOUS
 62
               4
100
AcDbCircle
 10
58.5
 20
46.5
 30
0.0
 40
3.0
100
AcDbArc
 50
89.999999999999801
 51
269.99999999999937
  0
CIRCLE
  5
3E5
100
AcDbEntity
  8
0
  6
CONTINUOUS
 62
               4
100
AcDbCircle
 10
52.0
 20
17.0
 30
0.0
 40
4.0
  0
CIRCLE
  5
3E6
100
AcDbEntity
  8
0
  6
CONTINUOUS
 62
               4
100
AcDbCircle
 10
52.0
 20
17.0
 30
0.0
 40
5.0
  0
CIRCLE
  5
3E7
100
AcDbEntity
  8
0
  6
CONTINUOUS
 62
               4
100
AcDbCircle
 10
52.0
 20
17.0
 30
0.0
 40
8.5
  0
CIRCLE
  5
3E8
100
AcDbEntity
  8
0
  6
CONTINUOUS
 62
               4
100
AcDbCircle
 10
52.0
 20
17.0
 30
0.0
 40
8.0
  0
CIRCLE
  5
3E9
100
AcDbEntity
  8
0
  6
CONTINUOUS
 62
               4
100
AcDbCircle
 10
52.0
 20
36.0
 30
0.0
 40
8.5
  0
CIRCLE
  5
3EA
100
AcDbEntity
  8
0
  6
CONTINUOUS
 62
               4
100
AcDbCircle
 10
52.0
 20
36.0
 30
0.0
 40
8.0
  0
CIRCLE
  5
3EB
100
AcDbEntity
  8
0
  6
CONTINUOUS
 62
               4
100
AcDbCircle
 10
52.0
 20
36.0
 30
0.0
 40
5.0
  0
CIRCLE
  5
3EC
100
AcDbEntity
  8
0
  6
CONTINUOUS
 62
               4
100
AcDbCircle
 10
52.0
 20
36.0
 30
0.0
 40
4.0
  0
ARC
  5
3ED
100
AcDbEntity
  8
0
  6
CONTINUOUS
 62
               4
100
AcDbCircle
 10
77.5
 20
4.5
 30
0.0
 40
3.0
100
AcDbArc
 50
89.999999999999801
 51
179.9999999999996
  0
ARC
  5
3EE
100
AcDbEntity
  8
0
  6
CONTINUOUS
 62
               4
100
AcDbCircle
 10
64.5
 20
48.5
 30
0.0
 40
3.0
100
AcDbArc
 50
269.99999999999937
 51
0.0
  0
CIRCLE
  5
3EF
100
AcDbEntity
  8
0
  6
CONTINUOUS
 62
               4
100
AcDbCircle
 10
77.5
 20
4.5
 30
0.0
 40
2.75
  0
CIRCLE
  5
3F0
100
AcDbEntity
  8
0
  6
CONTINUOUS
 62
               4
100
AcDbCircle
 10
64.5
 20
48.5
 30
0.0
 40
2.75
  0
ARC
  5
3F1
100
AcDbEntity
  8
0
  6
CONTINUOUS
 62
               4
100
AcDbCircle
 10
64.5
 20
6.5
 30
0.0
 40
3.0
100
AcDbArc
 50
269.99999999999937
 51
89.999999999999801
  0
ARC
  5
3F2
100
AcDbEntity
  8
0
  6
CONTINUOUS
 62
               4
100
AcDbCircle
 10
77.5
 20
46.5
 30
0.0
 40
3.0
100
AcDbArc
 50
89.999999999999801
 51
269.99999999999937
  0
CIRCLE
  5
3F3
100
AcDbEntity
  8
0
  6
CONTINUOUS
 62
               4
100
AcDbCircle
 10
71.0
 20
17.0
 30
0.0
 40
4.0
  0
CIRCLE
  5
3F4
100
AcDbEntity
  8
0
  6
CONTINUOUS
 62
               4
100
AcDbCircle
 10
71.0
 20
17.0
 30
0.0
 40
5.0
  0
CIRCLE
  5
3F5
100
AcDbEntity
  8
0
  6
CONTINUOUS
 62
               4
100
AcDbCircle
 10
71.0
 20
17.0
 30
0.0
 40
8.5
  0
CIRCLE
  5
3F6
100
AcDbEntity
  8
0
  6
CONTINUOUS
 62
               4
100
AcDbCircle
 10
71.0
 20
17.0
 30
0.0
 40
8.0
  0
CIRCLE
  5
3F7
100
AcDbEntity
  8
0
  6
CONTINUOUS
 62
               4
100
AcDbCircle
 10
71.0
 20
36.0
 30
0.0
 40
8.5
  0
CIRCLE
  5
3F8
100
AcDbEntity
  8
0
  6
CONTINUOUS
 62
               4
100
AcDbCircle
 10
71.0
 20
36.0
 30
0.0
 40
8.0
  0
CIRCLE
  5
3F9
100
AcDbEntity
  8
0
  6
CONTINUOUS
 62
               4
100
AcDbCircle
 10
71.0
 20
36.0
 30
0.0
 40
5.0
  0
CIRCLE
  5
3FA
100
AcDbEntity
  8
0
  6
CONTINUOUS
 62
               4
100
AcDbCircle
 10
71.0
 20
36.0
 30
0.0
 40
4.0
  0
ARC
  5
3FB
100
AcDbEntity
  8
0
  6
CONTINUOUS
 62
               7
100
AcDbCircle
 10
46.0
 20
82.5
 30
0.0
 40
3.0000000006208816
100
AcDbArc
 50
269.99999999999937
 51
89.999999999999801
  0
ARC
  5
3FC
100
AcDbEntity
  8
0
  6
CONTINUOUS
 62
               7
100
AcDbCircle
 10
60.500038146448787
 20
87.000038146448787
 30
0.0
 40
0.4999618550064753
100
AcDbArc
 50
359.99562840544826
 51
90.004371594550761
  0
ARC
  5
3FD
100
AcDbEntity
  8
0
  6
CONTINUOUS
 62
               7
100
AcDbCircle
 10
43.500022889638785
 20
86.999977110361215
 30
0.0
 40
0.5000228901626969
100
AcDbArc
 50
90.002622839320239
 51
179.99737716067918
  0
CIRCLE
  5
3FE
100
AcDbEntity
  8
0
  6
CONTINUOUS
 62
               7
100
AcDbCircle
 10
46.00006103515625
 20
82.500015258789063
 30
0.0
 40
2.7999992370605469
  0
ARC
  5
3FF
100
AcDbEntity
  8
0
  6
CONTINUOUS
 62
               7
100
AcDbCircle
 10
58.000030517733343
 20
56.499969482266657
 30
0.0
 40
3.0000305178885656
100
AcDbArc
 50
90.000582839844427
 51
179.99941716015499
  0
CIRCLE
  5
400
100
AcDbEntity
  8
0
  6
CONTINUOUS
 62
               7
100
AcDbCircle
 10
58.00006103515625
 20
56.5
 30
0.0
 40
2.7999992370605469
  0
ARC
  5
401
100
AcDbEntity
  8
0
  6
CONTINUOUS
 62
               7
100
AcDbCircle
 10
60.500030516646802
 20
90.000030516646802
 30
0.0
 40
0.4999694842845202
100
AcDbArc
 50
359.99650283642677
 51
90.00349716357222
  0
ARC
  5
402
100
AcDbEntity
  8
0
  6
CONTINUOUS
 62
               7
100
AcDbCircle
 10
43.500030518509448
 20
89.999969481490552
 30
0.0
 40
0.5000305194407702
100
AcDbArc
 50
90.003496950128806
 51
179.9965030498706
  0
ARC
  5
403
100
AcDbEntity
  8
0
  6
CONTINUOUS
 62
               7
100
AcDbCircle
 10
59.750030517267682
 20
89.000030517267689
 30
0.0
 40
1.4999694830427566
100
AcDbArc
 50
359.99883430252282
 51
90.001165697475855
  0
ARC
  5
404
100
AcDbEntity
  8
0
  6
CONTINUOUS
 62
               7
100
AcDbCircle
 10
57.250030517888568
 20
88.999969482111439
 30
0.0
 40
1.5000305181990066
100
AcDbArc
 50
90.001165673760113
 51
179.99883432623957
  0
ARC
  5
405
100
AcDbEntity
  8
0
  6
CONTINUOUS
 62
               7
100
AcDbCircle
 10
27.0
 20
82.5
 30
0.0
 40
3.0000000006208816
100
AcDbArc
 50
269.99999999999937
 51
89.999999999999801
  0
ARC
  5
406
100
AcDbEntity
  8
0
  6
CONTINUOUS
 62
               7
100
AcDbCircle
 10
41.500038146448787
 20
87.000038146448787
 30
0.0
 40
0.4999618550064753
100
AcDbArc
 50
359.99562840544826
 51
90.004371594550761
  0
ARC
  5
407
100
AcDbEntity
  8
0
  6
CONTINUOUS
 62
               7
100
AcDbCircle
 10
24.500022889638785
 20
86.999977110361215
 30
0.0
 40
0.5000228901626969
100
AcDbArc
 50
90.002622839320239
 51
179.99737716067918
  0
CIRCLE
  5
408
100
AcDbEntity
  8
0
  6
CONTINUOUS
 62
               7
100
AcDbCircle
 10
27.00006103515625
 20
82.500015258789063
 30
0.0
 40
2.7999992370605469
  0
ARC
  5
409
100
AcDbEntity
  8
0
  6
CONTINUOUS
 62
               7
100
AcDbCircle
 10
39.000030517733343
 20
56.499969482266657
 30
0.0
 40
3.0000305178885656
100
AcDbArc
 50
90.000582839844427
 51
179.99941716015499
  0
CIRCLE
  5
40A
100
AcDbEntity
  8
0
  6
CONTINUOUS
 62
               7
100
AcDbCircle
 10
39.00006103515625
 20
56.5
 30
0.0
 40
2.7999992370605469
  0
ARC
  5
40B
100
AcDbEntity
  8
0
  6
CONTINUOUS
 62
               7
100
AcDbCircle
 10
41.500030516646802
 20
90.000030516646802
 30
0.0
 40
0.4999694842845202
100
AcDbArc
 50
359.99650283642677
 51
90.00349716357222
  0
ARC
  5
40C
100
AcDbEntity
  8
0
  6
CONTINUOUS
 62
               7
100
AcDbCircle
 10
24.500030518509448
 20
89.999969481490552
 30
0.0
 40
0.5000305194407702
100
AcDbArc
 50
90.003496950128806
 51
179.9965030498706
  0
ARC
  5
40D
100
AcDbEntity
  8
0
  6
CONTINUOUS
 62
               7
100
AcDbCircle
 10
40.750030517267682
 20
89.000030517267689
 30
0.0
 40
1.4999694830427566
100
AcDbArc
 50
359.99883430252282
 51
90.001165697475855
  0
ARC
  5
40E
100
AcDbEntity
  8
0
  6
CONTINUOUS
 62
               7
100
AcDbCircle
 10
38.250030517888568
 20
88.999969482111439
 30
0.0
 40
1.5000305181990066
100
AcDbArc
 50
90.001165673760113
 51
179.99883432623957
  0
ENDBLK
  5
40F
100
AcDbEntity
  8
0
100
AcDbBlockEnd
  0
BLOCK
  5
410
100
AcDbEntity
  8
0
100
AcDbBlockBegin
  2
MS_4
 70
               0
 10
0.0
 20
0.0
 30
0.0
  3
MS_4
  1

  0
LINE
  5
411
100
AcDbEntity
  8
0
  6
CONTINUOUS
 62
               7
100
AcDbLine
 10
-5.0
 20
-48.0
 30
0.0
 11
5.0
 21
-48.0
 31
0.0
  0
LINE
  5
412
100
AcDbEntity
  8
0
  6
CONTINUOUS
 62
               7
100
AcDbLine
 10
23.0
 20
-48.0
 30
0.0
 11
24.0
 21
-48.0
 31
0.0
  0
LINE
  5
413
100
AcDbEntity
  8
0
  6
CONTINUOUS
 62
               7
100
AcDbLine
 10
42.0
 20
-48.0
 30
0.0
 11
43.0
 21
-48.0
 31
0.0
  0
LINE
  5
414
100
AcDbEntity
  8
0
  6
CONTINUOUS
 62
               7
100
AcDbLine
 10
61.0
 20
-48.0
 30
0.0
 11
90.0
 21
-48.0
 31
0.0
  0
LINE
  5
415
100
AcDbEntity
  8
0
  6
CONTINUOUS
 62
               4
100
AcDbLine
 10
62.0
 20
26.999977561132255
 30
0.0
 11
80.0
 21
26.999977561132255
 31
0.0
  0
CIRCLE
  5
416
100
AcDbEntity
  8
0
  6
CONTINUOUS
 62
               7
100
AcDbCircle
 10
7.5
 20
-30.999969482421875
 30
0.0
 40
2.9499998092651367
  0
CIRCLE
  5
417
100
AcDbEntity
  8
0
  6
CONTINUOUS
 62
               7
100
AcDbCircle
 10
20.499984741210938
 20
9.0000152587890625
 30
0.0
 40
2.9499998092651367
  0
ARC
  5
418
100
AcDbEntity
  8
0
  6
CONTINUOUS
 62
               7
100
AcDbCircle
 10
20.000030517578125
 20
28.500076293945313
 30
0.0
 40
2.5000734329223633
100
AcDbArc
 50
191.53802865027069
 51
319.45890333229545
  0
CIRCLE
  5
419
100
AcDbEntity
  8
0
  6
CONTINUOUS
 62
               7
100
AcDbCircle
 10
7.5000152587890625
 20
-31.0
 30
0.0
 40
2.75
  0
CIRCLE
  5
41A
100
AcDbEntity
  8
0
  6
CONTINUOUS
 62
               7
100
AcDbCircle
 10
20.5
 20
-33.0
 30
0.0
 40
2.75
  0
ARC
  5
41B
100
AcDbEntity
  8
0
  6
CONTINUOUS
 62
               7
100
AcDbCircle
 10
22.5
 20
-60.000003814697266
 30
0.0
 40
0.5
100
AcDbArc
 50
270.00001798608872
 51
0.00001366037834
  0
ARC
  5
41C
100
AcDbEntity
  8
0
  6
CONTINUOUS
 62
               7
100
AcDbCircle
 10
5.5
 20
-59.999996185302734
 30
0.0
 40
0.5
100
AcDbArc
 50
180.0000359721783
 51
269.99996334457541
  0
CIRCLE
  5
41D
100
AcDbEntity
  8
0
  6
CONTINUOUS
 62
               7
100
AcDbCircle
 10
20.500015258789063
 20
9.0000152587890625
 30
0.0
 40
2.75
  0
ARC
  5
41E
100
AcDbEntity
  8
0
  6
CONTINUOUS
 62
               7
100
AcDbCircle
 10
20.5
 20
-33.0
 30
0.0
 40
3.0
100
AcDbArc
 50
89.999982013910454
 51
179.99996402782091
  0
ARC
  5
41F
100
AcDbEntity
  8
0
  6
CONTINUOUS
 62
               7
100
AcDbCircle
 10
7.5
 20
11.000015258789063
 30
0.0
 40
3.0
100
AcDbArc
 50
270.00001798608872
 51
0.00001366037834
  0
ARC
  5
420
100
AcDbEntity
  8
0
  6
CONTINUOUS
 62
               7
100
AcDbCircle
 10
7.5
 20
-31.0
 30
0.0
 40
3.0
100
AcDbArc
 50
269.99996334457541
 51
89.999982013910454
  0
ARC
  5
421
100
AcDbEntity
  8
0
  6
CONTINUOUS
 62
               7
100
AcDbCircle
 10
20.5
 20
9.0000152587890625
 30
0.0
 40
3.0
100
AcDbArc
 50
89.999982013910454
 51
269.99994604173139
  0
CIRCLE
  5
422
100
AcDbEntity
  8
0
  6
CONTINUOUS
 62
               7
100
AcDbCircle
 10
7.5
 20
11.000015258789063
 30
0.0
 40
2.75
  0
CIRCLE
  5
423
100
AcDbEntity
  8
0
  6
CONTINUOUS
 62
               7
100
AcDbCircle
 10
14.0
 20
35.70001220703125
 30
0.0
 40
1.9499998092651367
  0
CIRCLE
  5
424
100
AcDbEntity
  8
0
  6
CONTINUOUS
 62
               7
100
AcDbCircle
 10
0.0
 20
-23.0
 30
0.0
 40
2.25
  0
CIRCLE
  5
425
100
AcDbEntity
  8
0
  6
CONTINUOUS
 62
               7
100
AcDbCircle
 10
0.0
 20
0.0
 30
0.0
 40
2.25
  0
CIRCLE
  5
426
100
AcDbEntity
  8
0
  6
CONTINUOUS
 62
               4
100
AcDbCircle
 10
77.5
 20
8.9999623023431923
 30
0.0
 40
2.7999992370605469
  0
CIRCLE
  5
427
100
AcDbEntity
  8
0
  6
CONTINUOUS
 62
               4
100
AcDbCircle
 10
64.500015258789063
 20
-31.000022438867745
 30
0.0
 40
2.7999992370605469
  0
LINE
  5
428
100
AcDbEntity
  8
0
  6
CONTINUOUS
 62
               7
100
AcDbLine
 10
20.499984741210938
 20
6.0000152587890625
 30
0.0
 11
22.999984741210937
 21
6.0000152587890625
 31
0.0
  0
LINE
  5
429
100
AcDbEntity
  8
0
  6
CONTINUOUS
 62
               7
100
AcDbLine
 10
20.499984741210938
 20
12.000015258789063
 30
0.0
 11
22.999984741210937
 21
12.000015258789063
 31
0.0
  0
LINE
  5
42A
100
AcDbEntity
  8
0
  6
CONTINUOUS
 62
               7
100
AcDbLine
 10
4.9999847412109375
 20
-59.999984741210938
 30
0.0
 11
4.9999847412109375
 21
-32.565994262695312
 31
0.0
  0
LINE
  5
42B
100
AcDbEntity
  8
0
  6
CONTINUOUS
 62
               7
100
AcDbLine
 10
4.9999847412109375
 20
-29.4339599609375
 30
0.0
 11
4.9999847412109375
 21
9.73907470703125
 31
0.0
  0
LINE
  5
42C
100
AcDbEntity
  8
0
  6
CONTINUOUS
 62
               7
100
AcDbLine
 10
4.9999847412109375
 20
12.260986328125
 30
0.0
 11
4.9999847412109375
 21
25.500015258789062
 31
0.0
  0
LINE
  5
42D
100
AcDbEntity
  8
0
  6
CONTINUOUS
 62
               7
100
AcDbLine
 10
22.999984741210937
 20
-31.739013671875
 30
0.0
 11
22.999984741210937
 21
7.4339599609375
 31
0.0
  0
LINE
  5
42E
100
AcDbEntity
  8
0
  6
CONTINUOUS
 62
               7
100
AcDbLine
 10
22.999984741210937
 20
10.566055297851563
 30
0.0
 11
22.999984741210937
 21
25.500015258789062
 31
0.0
  0
LINE
  5
42F
100
AcDbEntity
  8
0
  6
CONTINUOUS
 62
               7
100
AcDbLine
 10
18.999984741210937
 20
28.000015258789063
 30
0.0
 11
18.999984741210937
 21
39.0
 31
0.0
  0
LINE
  5
430
100
AcDbEntity
  8
0
  6
CONTINUOUS
 62
               7
100
AcDbLine
 10
8.9999847412109375
 20
28.000015258789063
 30
0.0
 11
8.9999847412109375
 21
39.0
 31
0.0
  0
LINE
  5
431
100
AcDbEntity
  8
0
  6
CONTINUOUS
 62
               7
100
AcDbLine
 10
5.0000318693046211
 20
25.500006272890232
 30
0.0
 11
6.9999854180559851
 21
28.000012565080169
 31
0.0
  0
LINE
  5
432
100
AcDbEntity
  8
0
  6
CONTINUOUS
 62
               7
100
AcDbLine
 10
22.999956055790562
 20
25.500032522929814
 30
0.0
 11
21.000006509704917
 21
28.00003247585164
 31
0.0
  0
LINE
  5
433
100
AcDbEntity
  8
0
  6
CONTINUOUS
 62
               7
100
AcDbLine
 10
6.9999847412109375
 20
28.000015258789063
 30
0.0
 11
20.999984741210937
 21
28.000015258789063
 31
0.0
  0
LINE
  5
434
100
AcDbEntity
  8
0
  6
CONTINUOUS
 62
               7
100
AcDbLine
 10
8.5606744250781048
 20
-32.060657819395601
 30
0.0
 11
6.4393562635905255
 21
-29.939335187559664
 31
0.0
  0
LINE
  5
435
100
AcDbEntity
  8
0
  6
CONTINUOUS
 62
               7
100
AcDbLine
 10
6.4393526566209403
 20
-32.060636546396381
 30
0.0
 11
8.5606658113183585
 21
-29.939309086584217
 31
0.0
  0
LINE
  5
436
100
AcDbEntity
  8
0
  6
CONTINUOUS
 62
               7
100
AcDbLine
 10
21.560640588267233
 20
-34.06065948532796
 30
0.0
 11
19.439321353896048
 21
-31.939338105189563
 31
0.0
  0
LINE
  5
437
100
AcDbEntity
  8
0
  6
CONTINUOUS
 62
               7
100
AcDbLine
 10
19.439360516540546
 20
-34.060666325806778
 30
0.0
 11
21.560676532260914
 21
-31.939341548203629
 31
0.0
  0
LINE
  5
438
100
AcDbEntity
  8
0
  6
CONTINUOUS
 62
               7
100
AcDbLine
 10
21.5
 20
-46.500015258789063
 30
0.0
 11
23.0
 21
-46.500015258789063
 31
0.0
  0
LINE
  5
439
100
AcDbEntity
  8
0
  6
CONTINUOUS
 62
               7
100
AcDbLine
 10
20.5
 20
-49.500030517578125
 30
0.0
 11
20.5
 21
-48.500015258789063
 31
0.0
  0
LINE
  5
43A
100
AcDbEntity
  8
0
  6
CONTINUOUS
 62
               7
100
AcDbLine
 10
21.5
 20
-40.500015258789063
 30
0.0
 11
23.0
 21
-40.500015258789063
 31
0.0
  0
LINE
  5
43B
100
AcDbEntity
  8
0
  6
CONTINUOUS
 62
               7
100
AcDbLine
 10
20.5
 20
-38.500015258789063
 30
0.0
 11
20.5
 21
-37.500015258789063
 31
0.0
  0
LINE
  5
43C
100
AcDbEntity
  8
0
  6
CONTINUOUS
 62
               7
100
AcDbLine
 10
5.0
 20
-40.500015258789063
 30
0.0
 11
6.5
 21
-40.500015258789063
 31
0.0
  0
LINE
  5
43D
100
AcDbEntity
  8
0
  6
CONTINUOUS
 62
               7
100
AcDbLine
 10
7.5
 20
-38.500015258789063
 30
0.0
 11
7.5
 21
-37.500015258789063
 31
0.0
  0
LINE
  5
43E
100
AcDbEntity
  8
0
  6
CONTINUOUS
 62
               7
100
AcDbLine
 10
5.0
 20
-46.500015258789063
 30
0.0
 11
6.5
 21
-46.500015258789063
 31
0.0
  0
LINE
  5
43F
100
AcDbEntity
  8
0
  6
CONTINUOUS
 62
               7
100
AcDbLine
 10
7.5
 20
-49.500015258789063
 30
0.0
 11
7.5
 21
-48.500015258789063
 31
0.0
  0
LINE
  5
440
100
AcDbEntity
  8
0
  6
CONTINUOUS
 62
               7
100
AcDbLine
 10
7.4999829364314792
 20
-47.499978362668116
 30
0.0
 11
6.4999761428643978
 21
-48.499973692280037
 31
0.0
  0
LINE
  5
441
100
AcDbEntity
  8
0
  6
CONTINUOUS
 62
               7
100
AcDbLine
 10
6.5000091832262115
 20
-38.499989840378475
 30
0.0
 11
7.5000083060585894
 21
-39.499992840725099
 31
0.0
  0
LINE
  5
442
100
AcDbEntity
  8
0
  6
CONTINUOUS
 62
               7
100
AcDbLine
 10
20.499959834509355
 20
-39.49997937489934
 30
0.0
 11
21.4999598845734
 21
-38.499977386078172
 31
0.0
  0
LINE
  5
443
100
AcDbEntity
  8
0
  6
CONTINUOUS
 62
               7
100
AcDbLine
 10
21.499973856161887
 20
-48.500004544614058
 30
0.0
 11
20.499972794572386
 21
-47.500003483024557
 31
0.0
  0
LINE
  5
444
100
AcDbEntity
  8
0
  6
CONTINUOUS
 62
               7
100
AcDbLine
 10
7.5
 20
-47.500015258789063
 30
0.0
 11
7.5
 21
-39.500015258789063
 31
0.0
  0
LINE
  5
445
100
AcDbEntity
  8
0
  6
CONTINUOUS
 62
               7
100
AcDbLine
 10
20.5
 20
-47.500015258789063
 30
0.0
 11
20.5
 21
-39.500015258789063
 31
0.0
  0
LINE
  5
446
100
AcDbEntity
  8
0
  6
CONTINUOUS
 62
               7
100
AcDbLine
 10
7.5
 20
-39.500015258789063
 30
0.0
 11
20.5
 21
-39.500015258789063
 31
0.0
  0
LINE
  5
447
100
AcDbEntity
  8
0
  6
CONTINUOUS
 62
               7
100
AcDbLine
 10
20.5
 20
-47.500015258789063
 30
0.0
 11
7.5
 21
-47.500015258789063
 31
0.0
  0
LINE
  5
448
100
AcDbEntity
  8
0
  6
CONTINUOUS
 62
               7
100
AcDbLine
 10
6.5
 20
-38.500015258789063
 30
0.0
 11
21.5
 21
-38.500015258789063
 31
0.0
  0
LINE
  5
449
100
AcDbEntity
  8
0
  6
CONTINUOUS
 62
               7
100
AcDbLine
 10
6.5
 20
-48.500015258789063
 30
0.0
 11
6.5
 21
-38.500015258789063
 31
0.0
  0
LINE
  5
44A
100
AcDbEntity
  8
0
  6
CONTINUOUS
 62
               7
100
AcDbLine
 10
21.5
 20
-48.500015258789063
 30
0.0
 11
21.5
 21
-38.500015258789063
 31
0.0
  0
LINE
  5
44B
100
AcDbEntity
  8
0
  6
CONTINUOUS
 62
               7
100
AcDbLine
 10
21.5
 20
-48.500015258789063
 30
0.0
 11
6.5
 21
-48.500015258789063
 31
0.0
  0
LINE
  5
44C
100
AcDbEntity
  8
0
  6
CONTINUOUS
 62
               7
100
AcDbLine
 10
5.5
 20
-60.500003814697266
 30
0.0
 11
22.5
 21
-60.500003814697266
 31
0.0
  0
LINE
  5
44D
100
AcDbEntity
  8
0
  6
CONTINUOUS
 62
               7
100
AcDbLine
 10
19.439353058870438
 20
7.939369705349236
 30
0.0
 11
21.560682306821946
 21
10.060681250721245
 31
0.0
  0
LINE
  5
44E
100
AcDbEntity
  8
0
  6
CONTINUOUS
 62
               7
100
AcDbLine
 10
6.4393397457349693
 20
9.9393346331510202
 30
0.0
 11
8.5606621987569724
 21
12.0606527946386
 31
0.0
  0
LINE
  5
44F
100
AcDbEntity
  8
0
  6
CONTINUOUS
 62
               7
100
AcDbLine
 10
8.5607096341296938
 20
9.9393902343750824
 30
0.0
 11
6.439396162712967
 21
12.06071908379505
 31
0.0
  0
LINE
  5
450
100
AcDbEntity
  8
0
  6
CONTINUOUS
 62
               7
100
AcDbLine
 10
21.560680491686981
 20
7.9393628330544743
 30
0.0
 11
19.439355714083831
 21
10.060678848774842
 31
0.0
  0
LINE
  5
451
100
AcDbEntity
  8
0
  6
CONTINUOUS
 62
               7
100
AcDbLine
 10
10.5
 20
13.29998779296875
 30
0.0
 11
23.0
 21
13.29998779296875
 31
0.0
  0
LINE
  5
452
100
AcDbEntity
  8
0
  6
CONTINUOUS
 62
               7
100
AcDbLine
 10
5.0
 20
-35.300018310546875
 30
0.0
 11
17.5
 21
-35.300018310546875
 31
0.0
  0
LINE
  5
453
100
AcDbEntity
  8
0
  6
CONTINUOUS
 62
               7
100
AcDbLine
 10
20.5
 20
-30.0
 30
0.0
 11
23.0
 21
-30.0
 31
0.0
  0
LINE
  5
454
100
AcDbEntity
  8
0
  6
CONTINUOUS
 62
               7
100
AcDbLine
 10
7.5
 20
8.0
 30
0.0
 11
5.0
 21
8.0
 31
0.0
  0
LINE
  5
455
100
AcDbEntity
  8
0
  6
CONTINUOUS
 62
               7
100
AcDbLine
 10
10.5
 20
11.000015258789063
 30
0.0
 11
10.5
 21
15.300003051757813
 31
0.0
  0
LINE
  5
456
100
AcDbEntity
  8
0
  6
CONTINUOUS
 62
               7
100
AcDbLine
 10
17.5
 20
-33.0
 30
0.0
 11
17.5
 21
-37.300018310546875
 31
0.0
  0
LINE
  5
457
100
AcDbEntity
  8
0
  6
CONTINUOUS
 62
               7
100
AcDbLine
 10
5.0
 20
-28.000015258789063
 30
0.0
 11
7.5
 21
-28.000015258789063
 31
0.0
  0
LINE
  5
458
100
AcDbEntity
  8
0
  6
CONTINUOUS
 62
               7
100
AcDbLine
 10
5.0
 20
-34.000015258789063
 30
0.0
 11
7.5
 21
-34.000015258789063
 31
0.0
  0
LINE
  5
459
100
AcDbEntity
  8
0
  6
CONTINUOUS
 62
               7
100
AcDbLine
 10
5.0
 20
-37.300018310546875
 30
0.0
 11
23.0
 21
-37.300018310546875
 31
0.0
  0
LINE
  5
45A
100
AcDbEntity
  8
0
  6
CONTINUOUS
 62
               7
100
AcDbLine
 10
5.0
 20
15.29998779296875
 30
0.0
 11
23.0
 21
15.29998779296875
 31
0.0
  0
LINE
  5
45B
100
AcDbEntity
  8
0
  6
CONTINUOUS
 62
               7
100
AcDbLine
 10
5.0
 20
-49.500015258789063
 30
0.0
 11
23.0
 21
-49.500015258789063
 31
0.0
  0
LINE
  5
45C
100
AcDbEntity
  8
0
  6
CONTINUOUS
 62
               7
100
AcDbLine
 10
5.0
 20
-37.500015258789063
 30
0.0
 11
23.0
 21
-37.500015258789063
 31
0.0
  0
LINE
  5
45D
100
AcDbEntity
  8
0
  6
CONTINUOUS
 62
               7
100
AcDbLine
 10
5.0
 20
25.5
 30
0.0
 11
23.0
 21
25.5
 31
0.0
  0
LINE
  5
45E
100
AcDbEntity
  8
0
  6
CONTINUOUS
 62
               7
100
AcDbLine
 10
23.0
 20
-60.000011444091797
 30
0.0
 11
23.0
 21
-34.145645141601562
 31
0.0
  0
LINE
  5
45F
100
AcDbEntity
  8
0
  6
CONTINUOUS
 62
               7
100
AcDbLine
 10
5.0
 20
15.5
 30
0.0
 11
23.0
 21
15.5
 31
0.0
  0
LINE
  5
460
100
AcDbEntity
  8
0
  6
CONTINUOUS
 62
               7
100
AcDbLine
 10
12.073211669921875
 20
36.0
 30
0.0
 11
15.926788330078125
 21
36.0
 31
0.0
  0
LINE
  5
461
100
AcDbEntity
  8
0
  6
CONTINUOUS
 62
               7
100
AcDbLine
 10
12.073211669921875
 20
35.399993896484375
 30
0.0
 11
15.926788330078125
 21
35.399993896484375
 31
0.0
  0
LINE
  5
462
100
AcDbEntity
  8
0
  6
CONTINUOUS
 62
               7
100
AcDbLine
 10
9.0
 20
39.0
 30
0.0
 11
19.0
 21
39.0
 31
0.0
  0
LINE
  5
463
100
AcDbEntity
  8
0
  6
CENTER
 62
               2
100
AcDbLine
 10
14.0
 20
-61.76749384823394
 30
0.0
 11
14.0
 21
84.75506591796875
 31
0.0
  0
LINE
  5
464
100
AcDbEntity
  8
0
  6
CENTER
 62
               7
100
AcDbLine
 10
11.5
 20
35.699996948242187
 30
0.0
 11
16.5
 21
35.699996948242187
 31
0.0
  0
LINE
  5
465
100
AcDbEntity
  8
0
  6
CONTINUOUS
 62
               7
100
AcDbLine
 10
9.0
 20
29.5
 30
0.0
 11
19.0
 21
29.5
 31
0.0
  0
LINE
  5
466
100
AcDbEntity
  8
0
  6
CONTINUOUS
 62
               7
100
AcDbLine
 10
9.0
 20
38.899993896484375
 30
0.0
 11
19.0
 21
38.899993896484375
 31
0.0
  0
LINE
  5
467
100
AcDbEntity
  8
0
  6
CENTER
 62
               2
100
AcDbLine
 10
0.0
 20
-3.25
 30
0.0
 11
0.0
 21
3.25
 31
0.0
  0
LINE
  5
468
100
AcDbEntity
  8
0
  6
CENTER
 62
               2
100
AcDbLine
 10
-3.25
 20
0.0
 30
0.0
 11
3.25
 21
0.0
 31
0.0
  0
LINE
  5
469
100
AcDbEntity
  8
0
  6
CENTER
 62
               2
100
AcDbLine
 10
-3.25
 20
-23.0
 30
0.0
 11
3.25
 21
-23.0
 31
0.0
  0
LINE
  5
46A
100
AcDbEntity
  8
0
  6
CENTER
 62
               2
100
AcDbLine
 10
0.0
 20
-26.25
 30
0.0
 11
0.0
 21
-19.75
 31
0.0
  0
LINE
  5
46B
100
AcDbEntity
  8
0
  6
CONTINUOUS
 62
               7
100
AcDbLine
 10
42.0
 20
-47.0
 30
0.0
 11
43.0
 21
-47.0
 31
0.0
  0
LINE
  5
46C
100
AcDbEntity
  8
0
  6
CONTINUOUS
 62
               7
100
AcDbLine
 10
23.0
 20
-47.0
 30
0.0
 11
24.0
 21
-47.0
 31
0.0
  0
LINE
  5
46D
100
AcDbEntity
  8
0
  6
CONTINUOUS
 62
               7
100
AcDbLine
 10
90.0
 20
-48.0
 30
0.0
 11
90.0
 21
28.000015258789063
 31
0.0
  0
LINE
  5
46E
100
AcDbEntity
  8
0
  6
CONTINUOUS
 62
               7
100
AcDbLine
 10
-5.0
 20
-48.0
 30
0.0
 11
-5.0
 21
28.000015258789063
 31
0.0
  0
LINE
  5
46F
100
AcDbEntity
  8
0
  6
CONTINUOUS
 62
               4
100
AcDbLine
 10
79.762191772460938
 20
7.3499684058588173
 30
0.0
 11
80.0
 21
7.3499684058588173
 31
0.0
  0
LINE
  5
470
100
AcDbEntity
  8
0
  6
CONTINUOUS
 62
               4
100
AcDbLine
 10
79.762176513671875
 20
10.64997145761663
 30
0.0
 11
80.0
 21
10.64997145761663
 31
0.0
  0
LINE
  5
471
100
AcDbEntity
  8
0
  6
CONTINUOUS
 62
               4
100
AcDbLine
 10
62.0
 20
-32.650031594141183
 30
0.0
 11
62.237823486328125
 21
-32.650031594141183
 31
0.0
  0
LINE
  5
472
100
AcDbEntity
  8
0
  6
CONTINUOUS
 62
               4
100
AcDbLine
 10
62.0
 20
-29.35002854238337
 30
0.0
 11
62.237823486328125
 21
-29.35002854238337
 31
0.0
  0
LINE
  5
473
100
AcDbEntity
  8
0
  6
CONTINUOUS
 62
               4
100
AcDbLine
 10
62.0
 20
-38.000022438867745
 30
0.0
 11
80.0
 21
-38.000022438867745
 31
0.0
  0
LINE
  5
474
100
AcDbEntity
  8
0
  6
CONTINUOUS
 62
               4
100
AcDbLine
 10
80.0
 20
-38.000022438867745
 30
0.0
 11
80.0
 21
7.3499684058588173
 31
0.0
  0
LINE
  5
475
100
AcDbEntity
  8
0
  6
CONTINUOUS
 62
               4
100
AcDbLine
 10
80.0
 20
10.64997145761663
 30
0.0
 11
80.0
 21
26.999977561132255
 31
0.0
  0
LINE
  5
476
100
AcDbEntity
  8
0
  6
CONTINUOUS
 62
               4
100
AcDbLine
 10
62.0
 20
-29.35002854238337
 30
0.0
 11
62.0
 21
26.999977561132255
 31
0.0
  0
LINE
  5
477
100
AcDbEntity
  8
0
  6
CONTINUOUS
 62
               4
100
AcDbLine
 10
76.439426551607539
 20
10.060649453440419
 30
0.0
 11
78.560736069269296
 21
7.9393397569656372
 31
0.0
  0
LINE
  5
478
100
AcDbEntity
  8
0
  6
CONTINUOUS
 62
               4
100
AcDbLine
 10
76.439372514231763
 20
7.9392966880004678
 30
0.0
 11
78.560693000300489
 21
10.060616995255259
 31
0.0
  0
LINE
  5
479
100
AcDbEntity
  8
0
  6
CONTINUOUS
 62
               4
100
AcDbLine
 10
63.439399727569253
 20
-29.939297041763894
 30
0.0
 11
65.560720034824044
 21
-32.060617527832619
 31
0.0
  0
LINE
  5
47A
100
AcDbEntity
  8
0
  6
CONTINUOUS
 62
               4
100
AcDbLine
 10
63.43937805897167
 20
-32.060703755172653
 30
0.0
 11
65.560687755446452
 21
-29.939394237510896
 31
0.0
  0
LINE
  5
47B
100
AcDbEntity
  8
0
  6
CONTINUOUS
 62
               4
100
AcDbLine
 10
62.0
 20
-38.000022438867745
 30
0.0
 11
62.0
 21
-32.650031594141183
 31
0.0
  0
LINE
  5
47C
100
AcDbEntity
  8
0
  6
CENTER
 62
             200
100
AcDbLine
 10
71.0
 20
-40.50455243258132
 30
0.0
 11
71.0
 21
33.660736083984375
 31
0.0
  0
LINE
  5
47D
100
AcDbEntity
  8
0
  6
CONTINUOUS
 62
               7
100
AcDbLine
 10
27.999984741210937
 20
38.899993896484375
 30
0.0
 11
37.999984741210937
 21
38.899993896484375
 31
0.0
  0
LINE
  5
47E
100
AcDbEntity
  8
0
  6
CONTINUOUS
 62
               7
100
AcDbLine
 10
27.999984741210937
 20
29.5
 30
0.0
 11
37.999984741210937
 21
29.5
 31
0.0
  0
LINE
  5
47F
100
AcDbEntity
  8
0
  6
CENTER
 62
               7
100
AcDbLine
 10
30.499984741210937
 20
35.699996948242187
 30
0.0
 11
35.499984741210938
 21
35.699996948242187
 31
0.0
  0
LINE
  5
480
100
AcDbEntity
  8
0
  6
CENTER
 62
               2
100
AcDbLine
 10
32.999984741210938
 20
-61.273401504140651
 30
0.0
 11
32.999984741210938
 21
84.75506591796875
 31
0.0
  0
LINE
  5
481
100
AcDbEntity
  8
0
  6
CONTINUOUS
 62
               7
100
AcDbLine
 10
27.999984741210937
 20
39.0
 30
0.0
 11
37.999984741210937
 21
39.0
 31
0.0
  0
LINE
  5
482
100
AcDbEntity
  8
0
  6
CONTINUOUS
 62
               7
100
AcDbLine
 10
31.073196411132812
 20
35.399993896484375
 30
0.0
 11
34.926773071289063
 21
35.399993896484375
 31
0.0
  0
LINE
  5
483
100
AcDbEntity
  8
0
  6
CONTINUOUS
 62
               7
100
AcDbLine
 10
31.073196411132812
 20
36.0
 30
0.0
 11
34.926773071289063
 21
36.0
 31
0.0
  0
LINE
  5
484
100
AcDbEntity
  8
0
  6
CONTINUOUS
 62
               7
100
AcDbLine
 10
23.999984741210937
 20
15.5
 30
0.0
 11
41.999984741210938
 21
15.5
 31
0.0
  0
LINE
  5
485
100
AcDbEntity
  8
0
  6
CONTINUOUS
 62
               7
100
AcDbLine
 10
41.999984741210938
 20
-60.0
 30
0.0
 11
41.999984741210938
 21
-34.1456298828125
 31
0.0
  0
LINE
  5
486
100
AcDbEntity
  8
0
  6
CONTINUOUS
 62
               7
100
AcDbLine
 10
23.999984741210937
 20
25.5
 30
0.0
 11
41.999984741210938
 21
25.5
 31
0.0
  0
LINE
  5
487
100
AcDbEntity
  8
0
  6
CONTINUOUS
 62
               7
100
AcDbLine
 10
23.999984741210937
 20
-37.5
 30
0.0
 11
41.999984741210938
 21
-37.5
 31
0.0
  0
LINE
  5
488
100
AcDbEntity
  8
0
  6
CONTINUOUS
 62
               7
100
AcDbLine
 10
23.999984741210937
 20
-49.5
 30
0.0
 11
41.999984741210938
 21
-49.5
 31
0.0
  0
LINE
  5
489
100
AcDbEntity
  8
0
  6
CONTINUOUS
 62
               7
100
AcDbLine
 10
23.999984741210937
 20
15.29998779296875
 30
0.0
 11
41.999984741210938
 21
15.29998779296875
 31
0.0
  0
LINE
  5
48A
100
AcDbEntity
  8
0
  6
CONTINUOUS
 62
               7
100
AcDbLine
 10
23.999984741210937
 20
-37.300003051757813
 30
0.0
 11
41.999984741210938
 21
-37.300003051757813
 31
0.0
  0
LINE
  5
48B
100
AcDbEntity
  8
0
  6
CONTINUOUS
 62
               7
100
AcDbLine
 10
23.999984741210937
 20
-34.0
 30
0.0
 11
26.499984741210938
 21
-34.0
 31
0.0
  0
LINE
  5
48C
100
AcDbEntity
  8
0
  6
CONTINUOUS
 62
               7
100
AcDbLine
 10
23.999984741210937
 20
-28.0
 30
0.0
 11
26.499984741210938
 21
-28.0
 31
0.0
  0
LINE
  5
48D
100
AcDbEntity
  8
0
  6
CONTINUOUS
 62
               7
100
AcDbLine
 10
36.499984741210937
 20
-32.999984741210938
 30
0.0
 11
36.499984741210937
 21
-37.300003051757813
 31
0.0
  0
LINE
  5
48E
100
AcDbEntity
  8
0
  6
CONTINUOUS
 62
               7
100
AcDbLine
 10
29.499984741210938
 20
11.000015258789063
 30
0.0
 11
29.499984741210938
 21
15.300003051757813
 31
0.0
  0
LINE
  5
48F
100
AcDbEntity
  8
0
  6
CONTINUOUS
 62
               7
100
AcDbLine
 10
26.499984741210938
 20
8.0
 30
0.0
 11
23.999984741210937
 21
8.0
 31
0.0
  0
LINE
  5
490
100
AcDbEntity
  8
0
  6
CONTINUOUS
 62
               7
100
AcDbLine
 10
39.499984741210938
 20
-29.999984741210937
 30
0.0
 11
41.999984741210938
 21
-29.999984741210937
 31
0.0
  0
LINE
  5
491
100
AcDbEntity
  8
0
  6
CONTINUOUS
 62
               7
100
AcDbLine
 10
23.999984741210937
 20
-35.300003051757813
 30
0.0
 11
36.499984741210937
 21
-35.300003051757813
 31
0.0
  0
LINE
  5
492
100
AcDbEntity
  8
0
  6
CONTINUOUS
 62
               7
100
AcDbLine
 10
29.499984741210938
 20
13.29998779296875
 30
0.0
 11
41.999984741210938
 21
13.29998779296875
 31
0.0
  0
LINE
  5
493
100
AcDbEntity
  8
0
  6
CONTINUOUS
 62
               7
100
AcDbLine
 10
40.560655233193756
 20
7.9393549859209998
 30
0.0
 11
38.439325060782721
 21
10.06067639642697
 31
0.0
  0
LINE
  5
494
100
AcDbEntity
  8
0
  6
CONTINUOUS
 62
               7
100
AcDbLine
 10
27.560671372408535
 20
9.9393749900729631
 30
0.0
 11
25.439358575338986
 21
12.060703165140865
 31
0.0
  0
LINE
  5
495
100
AcDbEntity
  8
0
  6
CONTINUOUS
 62
               7
100
AcDbLine
 10
25.439343337080572
 20
9.9393429495685268
 30
0.0
 11
27.560665790102576
 21
12.060661111056106
 31
0.0
  0
LINE
  5
496
100
AcDbEntity
  8
0
  6
CONTINUOUS
 62
               7
100
AcDbLine
 10
38.439335638377315
 20
7.9393692753727692
 30
0.0
 11
40.560664886328823
 21
10.060680820744778
 31
0.0
  0
LINE
  5
497
100
AcDbEntity
  8
0
  6
CONTINUOUS
 62
               7
100
AcDbLine
 10
24.499984741210938
 20
-60.5
 30
0.0
 11
41.499984741210938
 21
-60.5
 31
0.0
  0
LINE
  5
498
100
AcDbEntity
  8
0
  6
CONTINUOUS
 62
               7
100
AcDbLine
 10
38.439335258025039
 20
-34.060663383346764
 30
0.0
 11
40.560651273745407
 21
-31.939338605743615
 31
0.0
  0
LINE
  5
499
100
AcDbEntity
  8
0
  6
CONTINUOUS
 62
               7
100
AcDbLine
 10
40.560634485906633
 20
-34.060660609753711
 30
0.0
 11
38.439315251535447
 21
-31.939339229615314
 31
0.0
  0
LINE
  5
49A
100
AcDbEntity
  8
0
  6
CONTINUOUS
 62
               7
100
AcDbLine
 10
25.439341917017146
 20
-32.060640368934173
 30
0.0
 11
27.560655071714564
 21
-29.939312909122009
 31
0.0
  0
LINE
  5
49B
100
AcDbEntity
  8
0
  6
CONTINUOUS
 62
               7
100
AcDbLine
 10
27.560657806999643
 20
-32.060655888218207
 30
0.0
 11
25.439339645512064
 21
-29.93933325638227
 31
0.0
  0
LINE
  5
49C
100
AcDbEntity
  8
0
  6
CENTER
 62
               2
100
AcDbLine
 10
30.383323669433594
 20
-45.5
 30
0.0
 11
35.616661071777344
 21
-45.5
 31
0.0
  0
LINE
  5
49D
100
AcDbEntity
  8
0
  6
CONTINUOUS
 62
               7
100
AcDbLine
 10
31.073207855224609
 20
-45.800003051757813
 30
0.0
 11
34.926773071289063
 21
-45.800003051757813
 31
0.0
  0
LINE
  5
49E
100
AcDbEntity
  8
0
  6
CONTINUOUS
 62
               7
100
AcDbLine
 10
31.073207855224609
 20
-45.199996948242188
 30
0.0
 11
34.926773071289063
 21
-45.199996948242188
 31
0.0
  0
LINE
  5
49F
100
AcDbEntity
  8
0
  6
CONTINUOUS
 62
               7
100
AcDbLine
 10
23.999992370605469
 20
-46.5
 30
0.0
 11
26.999992370605469
 21
-46.5
 31
0.0
  0
LINE
  5
4A0
100
AcDbEntity
  8
0
  6
CONTINUOUS
 62
               7
100
AcDbLine
 10
23.999992370605469
 20
-40.5
 30
0.0
 11
26.999992370605469
 21
-40.5
 31
0.0
  0
LINE
  5
4A1
100
AcDbEntity
  8
0
  6
CONTINUOUS
 62
               7
100
AcDbLine
 10
26.499984741210938
 20
-49.5
 30
0.0
 11
26.499984741210938
 21
-46.5
 31
0.0
  0
LINE
  5
4A2
100
AcDbEntity
  8
0
  6
CONTINUOUS
 62
               7
100
AcDbLine
 10
39.499984741210938
 20
-49.5
 30
0.0
 11
39.499984741210938
 21
-46.5
 31
0.0
  0
LINE
  5
4A3
100
AcDbEntity
  8
0
  6
CONTINUOUS
 62
               7
100
AcDbLine
 10
38.999992370605469
 20
-46.5
 30
0.0
 11
41.999992370605469
 21
-46.5
 31
0.0
  0
LINE
  5
4A4
100
AcDbEntity
  8
0
  6
CONTINUOUS
 62
               7
100
AcDbLine
 10
38.999992370605469
 20
-40.5
 30
0.0
 11
41.999992370605469
 21
-40.5
 31
0.0
  0
LINE
  5
4A5
100
AcDbEntity
  8
0
  6
CONTINUOUS
 62
               7
100
AcDbLine
 10
39.499984741210938
 20
-40.5
 30
0.0
 11
39.499984741210938
 21
-37.5
 31
0.0
  0
LINE
  5
4A6
100
AcDbEntity
  8
0
  6
CONTINUOUS
 62
               7
100
AcDbLine
 10
26.499984741210938
 20
-40.5
 30
0.0
 11
26.499984741210938
 21
-37.5
 31
0.0
  0
LINE
  5
4A7
100
AcDbEntity
  8
0
  6
CONTINUOUS
 62
               7
100
AcDbLine
 10
25.999985694885254
 20
28.0
 30
0.0
 11
39.999981880187988
 21
28.0
 31
0.0
  0
LINE
  5
4A8
100
AcDbEntity
  8
0
  6
CONTINUOUS
 62
               7
100
AcDbLine
 10
41.99994309901922
 20
25.500008342558431
 30
0.0
 11
39.999998318905455
 21
28.000002337865226
 31
0.0
  0
LINE
  5
4A9
100
AcDbEntity
  8
0
  6
CONTINUOUS
 62
               7
100
AcDbLine
 10
24.000038358181882
 20
25.499992043063685
 30
0.0
 11
25.999991906933246
 21
27.999998335253622
 31
0.0
  0
LINE
  5
4AA
100
AcDbEntity
  8
0
  6
CONTINUOUS
 62
               7
100
AcDbLine
 10
27.999984741210937
 20
28.0
 30
0.0
 11
27.999984741210937
 21
39.0
 31
0.0
  0
LINE
  5
4AB
100
AcDbEntity
  8
0
  6
CONTINUOUS
 62
               7
100
AcDbLine
 10
37.999984741210937
 20
28.0
 30
0.0
 11
37.999984741210937
 21
39.0
 31
0.0
  0
LINE
  5
4AC
100
AcDbEntity
  8
0
  6
CONTINUOUS
 62
               7
100
AcDbLine
 10
41.999984741210938
 20
10.5660400390625
 30
0.0
 11
41.999984741210938
 21
25.5
 31
0.0
  0
LINE
  5
4AD
100
AcDbEntity
  8
0
  6
CONTINUOUS
 62
               7
100
AcDbLine
 10
41.999984741210938
 20
-31.739013671875
 30
0.0
 11
41.999984741210938
 21
7.4339599609375
 31
0.0
  0
LINE
  5
4AE
100
AcDbEntity
  8
0
  6
CONTINUOUS
 62
               7
100
AcDbLine
 10
23.999984741210937
 20
12.260971069335938
 30
0.0
 11
23.999984741210937
 21
25.5
 31
0.0
  0
LINE
  5
4AF
100
AcDbEntity
  8
0
  6
CONTINUOUS
 62
               7
100
AcDbLine
 10
23.999984741210937
 20
-29.433944702148438
 30
0.0
 11
23.999984741210937
 21
9.7390594482421875
 31
0.0
  0
LINE
  5
4B0
100
AcDbEntity
  8
0
  6
CONTINUOUS
 62
               7
100
AcDbLine
 10
23.999984741210937
 20
-59.999984741210938
 30
0.0
 11
23.999984741210937
 21
-32.565994262695312
 31
0.0
  0
LINE
  5
4B1
100
AcDbEntity
  8
0
  6
CONTINUOUS
 62
               7
100
AcDbLine
 10
39.499984741210938
 20
12.0
 30
0.0
 11
41.999984741210938
 21
12.0
 31
0.0
  0
LINE
  5
4B2
100
AcDbEntity
  8
0
  6
CONTINUOUS
 62
               7
100
AcDbLine
 10
39.499984741210938
 20
6.0
 30
0.0
 11
41.999984741210938
 21
6.0
 31
0.0
  0
CIRCLE
  5
4B3
100
AcDbEntity
  8
0
  6
CONTINUOUS
 62
               7
100
AcDbCircle
 10
32.999984741210938
 20
35.70001220703125
 30
0.0
 40
1.9499998092651367
  0
CIRCLE
  5
4B4
100
AcDbEntity
  8
0
  6
CONTINUOUS
 62
               7
100
AcDbCircle
 10
26.499984741210938
 20
11.000015258789063
 30
0.0
 40
2.75
  0
ARC
  5
4B5
100
AcDbEntity
  8
0
  6
CONTINUOUS
 62
               7
100
AcDbCircle
 10
39.499984741210938
 20
9.0000152587890625
 30
0.0
 40
3.0
100
AcDbArc
 50
89.999982013910454
 51
269.99994604173139
  0
ARC
  5
4B6
100
AcDbEntity
  8
0
  6
CONTINUOUS
 62
               7
100
AcDbCircle
 10
26.499984741210938
 20
-30.999984741210938
 30
0.0
 40
3.0
100
AcDbArc
 50
269.99996334457541
 51
89.999982013910454
  0
ARC
  5
4B7
100
AcDbEntity
  8
0
  6
CONTINUOUS
 62
               7
100
AcDbCircle
 10
26.499984741210938
 20
11.000015258789063
 30
0.0
 40
3.0
100
AcDbArc
 50
270.00001798608872
 51
0.00001366037834
  0
ARC
  5
4B8
100
AcDbEntity
  8
0
  6
CONTINUOUS
 62
               7
100
AcDbCircle
 10
39.499984741210938
 20
-32.999984741210938
 30
0.0
 40
3.0
100
AcDbArc
 50
89.999982013910454
 51
179.99996402782091
  0
CIRCLE
  5
4B9
100
AcDbEntity
  8
0
  6
CONTINUOUS
 62
               7
100
AcDbCircle
 10
39.5
 20
9.0000152587890625
 30
0.0
 40
2.75
  0
ARC
  5
4BA
100
AcDbEntity
  8
0
  6
CONTINUOUS
 62
               7
100
AcDbCircle
 10
24.499984741210938
 20
-59.999984741210938
 30
0.0
 40
0.5
100
AcDbArc
 50
180.0000359721783
 51
269.99996334457541
  0
ARC
  5
4BB
100
AcDbEntity
  8
0
  6
CONTINUOUS
 62
               7
100
AcDbCircle
 10
41.499984741210938
 20
-60.0
 30
0.0
 40
0.5
100
AcDbArc
 50
270.00001798608872
 51
0.00001366037834
  0
CIRCLE
  5
4BC
100
AcDbEntity
  8
0
  6
CONTINUOUS
 62
               7
100
AcDbCircle
 10
39.499984741210938
 20
-32.999984741210938
 30
0.0
 40
2.75
  0
CIRCLE
  5
4BD
100
AcDbEntity
  8
0
  6
CONTINUOUS
 62
               7
100
AcDbCircle
 10
26.5
 20
-30.999984741210938
 30
0.0
 40
2.75
  0
CIRCLE
  5
4BE
100
AcDbEntity
  8
0
  6
CONTINUOUS
 62
               7
100
AcDbCircle
 10
32.999992370605469
 20
-45.5
 30
0.0
 40
1.9499998092651367
  0
ARC
  5
4BF
100
AcDbEntity
  8
0
  6
CONTINUOUS
 62
               7
100
AcDbCircle
 10
39.000030517578125
 20
28.50006103515625
 30
0.0
 40
2.5000734329223633
100
AcDbArc
 50
191.53802865027069
 51
319.45890333229545
  0
CIRCLE
  5
4C0
100
AcDbEntity
  8
0
  6
CONTINUOUS
 62
               7
100
AcDbCircle
 10
39.499984741210938
 20
9.0
 30
0.0
 40
2.9499998092651367
  0
CIRCLE
  5
4C1
100
AcDbEntity
  8
0
  6
CONTINUOUS
 62
               7
100
AcDbCircle
 10
26.5
 20
-30.999969482421875
 30
0.0
 40
2.9499998092651367
  0
LINE
  5
4C2
100
AcDbEntity
  8
0
  6
CONTINUOUS
 62
               7
100
AcDbLine
 10
46.999984741210937
 20
38.899993896484375
 30
0.0
 11
56.999984741210937
 21
38.899993896484375
 31
0.0
  0
LINE
  5
4C3
100
AcDbEntity
  8
0
  6
CONTINUOUS
 62
               7
100
AcDbLine
 10
46.999984741210937
 20
29.5
 30
0.0
 11
56.999984741210937
 21
29.5
 31
0.0
  0
LINE
  5
4C4
100
AcDbEntity
  8
0
  6
CENTER
 62
               7
100
AcDbLine
 10
49.499984741210938
 20
35.699996948242187
 30
0.0
 11
54.499984741210938
 21
35.699996948242187
 31
0.0
  0
LINE
  5
4C5
100
AcDbEntity
  8
0
  6
CENTER
 62
               2
100
AcDbLine
 10
51.999984741210937
 20
-61.932191296265032
 30
0.0
 11
51.999984741210937
 21
84.75506591796875
 31
0.0
  0
LINE
  5
4C6
100
AcDbEntity
  8
0
  6
CONTINUOUS
 62
               7
100
AcDbLine
 10
46.999984741210937
 20
39.0
 30
0.0
 11
56.999984741210937
 21
39.0
 31
0.0
  0
LINE
  5
4C7
100
AcDbEntity
  8
0
  6
CONTINUOUS
 62
               7
100
AcDbLine
 10
50.073196411132813
 20
35.399993896484375
 30
0.0
 11
53.926773071289062
 21
35.399993896484375
 31
0.0
  0
LINE
  5
4C8
100
AcDbEntity
  8
0
  6
CONTINUOUS
 62
               7
100
AcDbLine
 10
50.073196411132813
 20
36.0
 30
0.0
 11
53.926773071289062
 21
36.0
 31
0.0
  0
LINE
  5
4C9
100
AcDbEntity
  8
0
  6
CONTINUOUS
 62
               7
100
AcDbLine
 10
42.999984741210937
 20
15.5
 30
0.0
 11
60.999984741210937
 21
15.5
 31
0.0
  0
LINE
  5
4CA
100
AcDbEntity
  8
0
  6
CONTINUOUS
 62
               7
100
AcDbLine
 10
60.999984741210937
 20
-60.0
 30
0.0
 11
60.999984741210937
 21
-34.1456298828125
 31
0.0
  0
LINE
  5
4CB
100
AcDbEntity
  8
0
  6
CONTINUOUS
 62
               7
100
AcDbLine
 10
42.999984741210937
 20
25.5
 30
0.0
 11
60.999984741210937
 21
25.5
 31
0.0
  0
LINE
  5
4CC
100
AcDbEntity
  8
0
  6
CONTINUOUS
 62
               7
100
AcDbLine
 10
42.999984741210937
 20
-37.5
 30
0.0
 11
60.999984741210937
 21
-37.5
 31
0.0
  0
LINE
  5
4CD
100
AcDbEntity
  8
0
  6
CONTINUOUS
 62
               7
100
AcDbLine
 10
42.999984741210937
 20
-49.5
 30
0.0
 11
60.999984741210937
 21
-49.5
 31
0.0
  0
LINE
  5
4CE
100
AcDbEntity
  8
0
  6
CONTINUOUS
 62
               7
100
AcDbLine
 10
42.999984741210937
 20
15.29998779296875
 30
0.0
 11
60.999984741210937
 21
15.29998779296875
 31
0.0
  0
LINE
  5
4CF
100
AcDbEntity
  8
0
  6
CONTINUOUS
 62
               7
100
AcDbLine
 10
42.999984741210937
 20
-37.300003051757813
 30
0.0
 11
60.999984741210937
 21
-37.300003051757813
 31
0.0
  0
LINE
  5
4D0
100
AcDbEntity
  8
0
  6
CONTINUOUS
 62
               7
100
AcDbLine
 10
42.999984741210937
 20
-34.0
 30
0.0
 11
45.499984741210938
 21
-34.0
 31
0.0
  0
LINE
  5
4D1
100
AcDbEntity
  8
0
  6
CONTINUOUS
 62
               7
100
AcDbLine
 10
42.999984741210937
 20
-28.0
 30
0.0
 11
45.499984741210938
 21
-28.0
 31
0.0
  0
LINE
  5
4D2
100
AcDbEntity
  8
0
  6
CONTINUOUS
 62
               7
100
AcDbLine
 10
55.499984741210938
 20
-32.999984741210938
 30
0.0
 11
55.499984741210938
 21
-37.300003051757813
 31
0.0
  0
LINE
  5
4D3
100
AcDbEntity
  8
0
  6
CONTINUOUS
 62
               7
100
AcDbLine
 10
48.499984741210937
 20
11.000015258789063
 30
0.0
 11
48.499984741210937
 21
15.300003051757813
 31
0.0
  0
LINE
  5
4D4
100
AcDbEntity
  8
0
  6
CONTINUOUS
 62
               7
100
AcDbLine
 10
45.499984741210938
 20
8.0
 30
0.0
 11
42.999984741210937
 21
8.0
 31
0.0
  0
LINE
  5
4D5
100
AcDbEntity
  8
0
  6
CONTINUOUS
 62
               7
100
AcDbLine
 10
58.499984741210938
 20
-29.999984741210937
 30
0.0
 11
60.999984741210937
 21
-29.999984741210937
 31
0.0
  0
LINE
  5
4D6
100
AcDbEntity
  8
0
  6
CONTINUOUS
 62
               7
100
AcDbLine
 10
42.999984741210937
 20
-35.300003051757813
 30
0.0
 11
55.499984741210938
 21
-35.300003051757813
 31
0.0
  0
LINE
  5
4D7
100
AcDbEntity
  8
0
  6
CONTINUOUS
 62
               7
100
AcDbLine
 10
48.499984741210937
 20
13.29998779296875
 30
0.0
 11
60.999984741210937
 21
13.29998779296875
 31
0.0
  0
LINE
  5
4D8
100
AcDbEntity
  8
0
  6
CONTINUOUS
 62
               7
100
AcDbLine
 10
59.560655233193756
 20
7.9393549859209998
 30
0.0
 11
57.439325060782721
 21
10.06067639642697
 31
0.0
  0
LINE
  5
4D9
100
AcDbEntity
  8
0
  6
CONTINUOUS
 62
               7
100
AcDbLine
 10
46.560671372408535
 20
9.9393749900729631
 30
0.0
 11
44.439358575338986
 21
12.060703165140865
 31
0.0
  0
LINE
  5
4DA
100
AcDbEntity
  8
0
  6
CONTINUOUS
 62
               7
100
AcDbLine
 10
44.439343337080572
 20
9.9393429495685268
 30
0.0
 11
46.560665790102576
 21
12.060661111056106
 31
0.0
  0
LINE
  5
4DB
100
AcDbEntity
  8
0
  6
CONTINUOUS
 62
               7
100
AcDbLine
 10
57.439335638377315
 20
7.9393692753727692
 30
0.0
 11
59.560664886328823
 21
10.060680820744778
 31
0.0
  0
LINE
  5
4DC
100
AcDbEntity
  8
0
  6
CONTINUOUS
 62
               7
100
AcDbLine
 10
43.499984741210938
 20
-60.5
 30
0.0
 11
60.499984741210937
 21
-60.5
 31
0.0
  0
LINE
  5
4DD
100
AcDbEntity
  8
0
  6
CONTINUOUS
 62
               7
100
AcDbLine
 10
57.439335258025039
 20
-34.060663383346764
 30
0.0
 11
59.560651273745407
 21
-31.939338605743615
 31
0.0
  0
LINE
  5
4DE
100
AcDbEntity
  8
0
  6
CONTINUOUS
 62
               7
100
AcDbLine
 10
59.560634485906633
 20
-34.060660609753711
 30
0.0
 11
57.439315251535447
 21
-31.939339229615314
 31
0.0
  0
LINE
  5
4DF
100
AcDbEntity
  8
0
  6
CONTINUOUS
 62
               7
100
AcDbLine
 10
44.439341917017146
 20
-32.060640368934173
 30
0.0
 11
46.560655071714564
 21
-29.939312909122009
 31
0.0
  0
LINE
  5
4E0
100
AcDbEntity
  8
0
  6
CONTINUOUS
 62
               7
100
AcDbLine
 10
46.560657806999643
 20
-32.060655888218207
 30
0.0
 11
44.439339645512064
 21
-29.93933325638227
 31
0.0
  0
LINE
  5
4E1
100
AcDbEntity
  8
0
  6
CENTER
 62
               2
100
AcDbLine
 10
49.383323669433594
 20
-45.5
 30
0.0
 11
54.616661071777344
 21
-45.5
 31
0.0
  0
LINE
  5
4E2
100
AcDbEntity
  8
0
  6
CONTINUOUS
 62
               7
100
AcDbLine
 10
50.073207855224609
 20
-45.800003051757813
 30
0.0
 11
53.926773071289062
 21
-45.800003051757813
 31
0.0
  0
LINE
  5
4E3
100
AcDbEntity
  8
0
  6
CONTINUOUS
 62
               7
100
AcDbLine
 10
50.073207855224609
 20
-45.199996948242188
 30
0.0
 11
53.926773071289062
 21
-45.199996948242188
 31
0.0
  0
LINE
  5
4E4
100
AcDbEntity
  8
0
  6
CONTINUOUS
 62
               7
100
AcDbLine
 10
42.999992370605469
 20
-46.5
 30
0.0
 11
45.999992370605469
 21
-46.5
 31
0.0
  0
LINE
  5
4E5
100
AcDbEntity
  8
0
  6
CONTINUOUS
 62
               7
100
AcDbLine
 10
42.999992370605469
 20
-40.5
 30
0.0
 11
45.999992370605469
 21
-40.5
 31
0.0
  0
LINE
  5
4E6
100
AcDbEntity
  8
0
  6
CONTINUOUS
 62
               7
100
AcDbLine
 10
45.499984741210938
 20
-49.5
 30
0.0
 11
45.499984741210938
 21
-46.5
 31
0.0
  0
LINE
  5
4E7
100
AcDbEntity
  8
0
  6
CONTINUOUS
 62
               7
100
AcDbLine
 10
58.499984741210938
 20
-49.5
 30
0.0
 11
58.499984741210938
 21
-46.5
 31
0.0
  0
LINE
  5
4E8
100
AcDbEntity
  8
0
  6
CONTINUOUS
 62
               7
100
AcDbLine
 10
57.999992370605469
 20
-46.5
 30
0.0
 11
60.999992370605469
 21
-46.5
 31
0.0
  0
LINE
  5
4E9
100
AcDbEntity
  8
0
  6
CONTINUOUS
 62
               7
100
AcDbLine
 10
57.999992370605469
 20
-40.5
 30
0.0
 11
60.999992370605469
 21
-40.5
 31
0.0
  0
LINE
  5
4EA
100
AcDbEntity
  8
0
  6
CONTINUOUS
 62
               7
100
AcDbLine
 10
58.499984741210938
 20
-40.5
 30
0.0
 11
58.499984741210938
 21
-37.5
 31
0.0
  0
LINE
  5
4EB
100
AcDbEntity
  8
0
  6
CONTINUOUS
 62
               7
100
AcDbLine
 10
45.499984741210938
 20
-40.5
 30
0.0
 11
45.499984741210938
 21
-37.5
 31
0.0
  0
LINE
  5
4EC
100
AcDbEntity
  8
0
  6
CONTINUOUS
 62
               7
100
AcDbLine
 10
44.999985694885254
 20
28.0
 30
0.0
 11
58.999981880187988
 21
28.0
 31
0.0
  0
LINE
  5
4ED
100
AcDbEntity
  8
0
  6
CONTINUOUS
 62
               7
100
AcDbLine
 10
60.99994309901922
 20
25.500008342558431
 30
0.0
 11
58.999998318905455
 21
28.000002337865226
 31
0.0
  0
LINE
  5
4EE
100
AcDbEntity
  8
0
  6
CONTINUOUS
 62
               7
100
AcDbLine
 10
43.000038358181882
 20
25.499992043063685
 30
0.0
 11
44.999991906933246
 21
27.999998335253622
 31
0.0
  0
LINE
  5
4EF
100
AcDbEntity
  8
0
  6
CONTINUOUS
 62
               7
100
AcDbLine
 10
46.999984741210937
 20
28.0
 30
0.0
 11
46.999984741210937
 21
39.0
 31
0.0
  0
LINE
  5
4F0
100
AcDbEntity
  8
0
  6
CONTINUOUS
 62
               7
100
AcDbLine
 10
56.999984741210937
 20
28.0
 30
0.0
 11
56.999984741210937
 21
39.0
 31
0.0
  0
LINE
  5
4F1
100
AcDbEntity
  8
0
  6
CONTINUOUS
 62
               7
100
AcDbLine
 10
60.999984741210937
 20
10.5660400390625
 30
0.0
 11
60.999984741210937
 21
25.5
 31
0.0
  0
LINE
  5
4F2
100
AcDbEntity
  8
0
  6
CONTINUOUS
 62
               7
100
AcDbLine
 10
60.999984741210937
 20
-31.739013671875
 30
0.0
 11
60.999984741210937
 21
7.4339599609375
 31
0.0
  0
LINE
  5
4F3
100
AcDbEntity
  8
0
  6
CONTINUOUS
 62
               7
100
AcDbLine
 10
42.999984741210937
 20
12.260971069335938
 30
0.0
 11
42.999984741210937
 21
25.5
 31
0.0
  0
LINE
  5
4F4
100
AcDbEntity
  8
0
  6
CONTINUOUS
 62
               7
100
AcDbLine
 10
42.999984741210937
 20
-29.433944702148438
 30
0.0
 11
42.999984741210937
 21
9.7390594482421875
 31
0.0
  0
LINE
  5
4F5
100
AcDbEntity
  8
0
  6
CONTINUOUS
 62
               7
100
AcDbLine
 10
42.999984741210937
 20
-59.999984741210938
 30
0.0
 11
42.999984741210937
 21
-32.565994262695312
 31
0.0
  0
LINE
  5
4F6
100
AcDbEntity
  8
0
  6
CONTINUOUS
 62
               7
100
AcDbLine
 10
58.499984741210938
 20
12.0
 30
0.0
 11
60.999984741210937
 21
12.0
 31
0.0
  0
LINE
  5
4F7
100
AcDbEntity
  8
0
  6
CONTINUOUS
 62
               7
100
AcDbLine
 10
58.499984741210938
 20
6.0
 30
0.0
 11
60.999984741210937
 21
6.0
 31
0.0
  0
CIRCLE
  5
4F8
100
AcDbEntity
  8
0
  6
CONTINUOUS
 62
               7
100
AcDbCircle
 10
51.999984741210937
 20
35.70001220703125
 30
0.0
 40
1.9499998092651367
  0
CIRCLE
  5
4F9
100
AcDbEntity
  8
0
  6
CONTINUOUS
 62
               7
100
AcDbCircle
 10
45.499984741210938
 20
11.000015258789063
 30
0.0
 40
2.75
  0
ARC
  5
4FA
100
AcDbEntity
  8
0
  6
CONTINUOUS
 62
               7
100
AcDbCircle
 10
58.499984741210938
 20
9.0000152587890625
 30
0.0
 40
3.0
100
AcDbArc
 50
89.999982013910454
 51
269.99994604173139
  0
ARC
  5
4FB
100
AcDbEntity
  8
0
  6
CONTINUOUS
 62
               7
100
AcDbCircle
 10
45.499984741210938
 20
-30.999984741210938
 30
0.0
 40
3.0
100
AcDbArc
 50
269.99996334457541
 51
89.999982013910454
  0
ARC
  5
4FC
100
AcDbEntity
  8
0
  6
CONTINUOUS
 62
               7
100
AcDbCircle
 10
45.499984741210938
 20
11.000015258789063
 30
0.0
 40
3.0
100
AcDbArc
 50
270.00001798608872
 51
0.00001366037834
  0
ARC
  5
4FD
100
AcDbEntity
  8
0
  6
CONTINUOUS
 62
               7
100
AcDbCircle
 10
58.499984741210938
 20
-32.999984741210938
 30
0.0
 40
3.0
100
AcDbArc
 50
89.999982013910454
 51
179.99996402782091
  0
CIRCLE
  5
4FE
100
AcDbEntity
  8
0
  6
CONTINUOUS
 62
               7
100
AcDbCircle
 10
58.5
 20
9.0000152587890625
 30
0.0
 40
2.75
  0
ARC
  5
4FF
100
AcDbEntity
  8
0
  6
CONTINUOUS
 62
               7
100
AcDbCircle
 10
43.499984741210938
 20
-59.999984741210938
 30
0.0
 40
0.5
100
AcDbArc
 50
180.0000359721783
 51
269.99996334457541
  0
ARC
  5
500
100
AcDbEntity
  8
0
  6
CONTINUOUS
 62
               7
100
AcDbCircle
 10
60.499984741210937
 20
-60.0
 30
0.0
 40
0.5
100
AcDbArc
 50
270.00001798608872
 51
0.00001366037834
  0
CIRCLE
  5
501
100
AcDbEntity
  8
0
  6
CONTINUOUS
 62
               7
100
AcDbCircle
 10
58.499984741210938
 20
-32.999984741210938
 30
0.0
 40
2.75
  0
CIRCLE
  5
502
100
AcDbEntity
  8
0
  6
CONTINUOUS
 62
               7
100
AcDbCircle
 10
45.5
 20
-30.999984741210938
 30
0.0
 40
2.75
  0
CIRCLE
  5
503
100
AcDbEntity
  8
0
  6
CONTINUOUS
 62
               7
100
AcDbCircle
 10
51.999992370605469
 20
-45.5
 30
0.0
 40
1.9499998092651367
  0
ARC
  5
504
100
AcDbEntity
  8
0
  6
CONTINUOUS
 62
               7
100
AcDbCircle
 10
58.000030517578125
 20
28.50006103515625
 30
0.0
 40
2.5000734329223633
100
AcDbArc
 50
191.53802865027069
 51
319.45890333229545
  0
CIRCLE
  5
505
100
AcDbEntity
  8
0
  6
CONTINUOUS
 62
               7
100
AcDbCircle
 10
58.499984741210938
 20
9.0
 30
0.0
 40
2.9499998092651367
  0
CIRCLE
  5
506
100
AcDbEntity
  8
0
  6
CONTINUOUS
 62
               7
100
AcDbCircle
 10
45.5
 20
-30.999969482421875
 30
0.0
 40
2.9499998092651367
  0
LINE
  5
507
100
AcDbEntity
  8
0
  6
CONTINUOUS
 62
               4
100
AcDbLine
 10
56.999984741210937
 20
39.0
 30
0.0
 11
56.999984741210937
 21
63.0
 31
0.0
  0
LINE
  5
508
100
AcDbEntity
  8
0
  6
CONTINUOUS
 62
               4
100
AcDbLine
 10
46.999984741210937
 20
39.0
 30
0.0
 11
46.999984741210937
 21
63.0
 31
0.0
  0
LINE
  5
509
100
AcDbEntity
  8
0
  6
CONTINUOUS
 62
               4
100
AcDbLine
 10
37.999984741210937
 20
39.0
 30
0.0
 11
37.999984741210937
 21
63.0
 31
0.0
  0
LINE
  5
50A
100
AcDbEntity
  8
0
  6
CONTINUOUS
 62
               4
100
AcDbLine
 10
27.999984741210937
 20
39.0
 30
0.0
 11
27.999984741210937
 21
63.0
 31
0.0
  0
LINE
  5
50B
100
AcDbEntity
  8
0
  6
CONTINUOUS
 62
               4
100
AcDbLine
 10
18.999984741210937
 20
39.0
 30
0.0
 11
18.999984741210937
 21
63.0
 31
0.0
  0
LINE
  5
50C
100
AcDbEntity
  8
0
  6
CONTINUOUS
 62
               4
100
AcDbLine
 10
8.9999847412109375
 20
39.0
 30
0.0
 11
8.9999847412109375
 21
63.0
 31
0.0
  0
LINE
  5
50D
100
AcDbEntity
  8
0
  6
CONTINUOUS
 62
               4
100
AcDbLine
 10
8.9999847412109375
 20
63.0
 30
0.0
 11
18.999984741210937
 21
63.0
 31
0.0
  0
LINE
  5
50E
100
AcDbEntity
  8
0
  6
CONTINUOUS
 62
               4
100
AcDbLine
 10
9.0499847412109347
 20
63.0
 30
0.0
 11
9.0499847412109347
 21
76.5
 31
0.0
  0
LINE
  5
50F
100
AcDbEntity
  8
0
  6
CONTINUOUS
 62
               4
100
AcDbLine
 10
18.499984741210938
 20
72.0
 30
0.0
 11
9.4999847412109375
 21
72.0
 31
0.0
  0
LINE
  5
510
100
AcDbEntity
  8
0
  6
CONTINUOUS
 62
               4
100
AcDbLine
 10
18.94998474121094
 20
67.5
 30
0.0
 11
9.0499847412109347
 21
67.5
 31
0.0
  0
LINE
  5
511
100
AcDbEntity
  8
0
  6
CONTINUOUS
 62
               4
100
AcDbLine
 10
18.94998474121094
 20
63.0
 30
0.0
 11
18.94998474121094
 21
76.5
 31
0.0
  0
LINE
  5
512
100
AcDbEntity
  8
0
  6
CONTINUOUS
 62
             200
100
AcDbLine
 10
13.999984741210938
 20
85.739999999999995
 30
0.0
 11
9.9499847412109403
 21
83.400000000000006
 31
0.0
  0
LINE
  5
513
100
AcDbEntity
  8
0
  6
CONTINUOUS
 62
               4
100
AcDbLine
 10
9.0499847412109347
 20
76.5
 30
0.0
 11
10.499984741210937
 21
76.5
 31
0.0
  0
LINE
  5
514
100
AcDbEntity
  8
0
  6
CONTINUOUS
 62
               4
100
AcDbLine
 10
9.9499847412109403
 20
72.0
 30
0.0
 11
9.9499847412109403
 21
74.5
 31
0.0
  0
LINE
  5
515
100
AcDbEntity
  8
0
  6
CONTINUOUS
 62
               4
100
AcDbLine
 10
18.049984741210935
 20
72.0
 30
0.0
 11
18.049984741210935
 21
74.5
 31
0.0
  0
LINE
  5
516
100
AcDbEntity
  8
0
  6
CONTINUOUS
 62
               4
100
AcDbLine
 10
17.499984741210937
 20
72.489999999999995
 30
0.0
 11
17.499984741210937
 21
83.0
 31
0.0
  0
LINE
  5
517
100
AcDbEntity
  8
0
  6
CONTINUOUS
 62
               4
100
AcDbLine
 10
10.499984741210937
 20
72.489999999999995
 30
0.0
 11
10.499984741210937
 21
83.0
 31
0.0
  0
LINE
  5
518
100
AcDbEntity
  8
0
  6
CONTINUOUS
 62
               4
100
AcDbLine
 10
10.499984741210937
 20
72.489999999999995
 30
0.0
 11
17.499984741210937
 21
72.489999999999995
 31
0.0
  0
LINE
  5
519
100
AcDbEntity
  8
0
  6
CONTINUOUS
 62
               4
100
AcDbLine
 10
10.499984741210937
 20
76.049999999999997
 30
0.0
 11
17.499984741210937
 21
76.049999999999997
 31
0.0
  0
LINE
  5
51A
100
AcDbEntity
  8
0
  6
CONTINUOUS
 62
               4
100
AcDbLine
 10
10.499984741210937
 20
81.5
 30
0.0
 11
17.499984741210937
 21
81.5
 31
0.0
  0
LINE
  5
51B
100
AcDbEntity
  8
0
  6
CONTINUOUS
 62
               4
100
AcDbLine
 10
9.0999847412109318
 20
83.0
 30
0.0
 11
18.899984741210936
 21
83.0
 31
0.0
  0
LINE
  5
51C
100
AcDbEntity
  8
0
  6
CONTINUOUS
 62
               4
100
AcDbLine
 10
17.499984741210937
 20
76.5
 30
0.0
 11
18.94998474121094
 21
76.5
 31
0.0
  0
LINE
  5
51D
100
AcDbEntity
  8
0
  6
CONTINUOUS
 62
               4
100
AcDbLine
 10
17.499984741210937
 20
75.5
 30
0.0
 11
18.049984741210935
 21
75.5
 31
0.0
  0
LINE
  5
51E
100
AcDbEntity
  8
0
  6
CONTINUOUS
 62
               4
100
AcDbLine
 10
17.499984741210937
 20
74.5
 30
0.0
 11
18.049984741210935
 21
74.5
 31
0.0
  0
LINE
  5
51F
100
AcDbEntity
  8
0
  6
CONTINUOUS
 62
               4
100
AcDbLine
 10
9.9499847412109403
 20
75.5
 30
0.0
 11
10.499984741210937
 21
75.5
 31
0.0
  0
LINE
  5
520
100
AcDbEntity
  8
0
  6
CONTINUOUS
 62
               4
100
AcDbLine
 10
9.9499847412109403
 20
74.5
 30
0.0
 11
10.499984741210937
 21
74.5
 31
0.0
  0
LINE
  5
521
100
AcDbEntity
  8
0
  6
CONTINUOUS
 62
               4
100
AcDbLine
 10
9.9499847412109403
 20
75.5
 30
0.0
 11
9.9499847412109403
 21
76.5
 31
0.0
  0
LINE
  5
522
100
AcDbEntity
  8
0
  6
CONTINUOUS
 62
               4
100
AcDbLine
 10
18.049984741210935
 20
75.5
 30
0.0
 11
18.049984741210935
 21
76.5
 31
0.0
  0
LINE
  5
523
100
AcDbEntity
  8
0
  6
CONTINUOUS
 62
               4
100
AcDbLine
 10
12.709984741210938
 20
86.150000000000006
 30
0.0
 11
12.709984741210938
 21
91.0
 31
0.0
  0
LINE
  5
524
100
AcDbEntity
  8
0
  6
CONTINUOUS
 62
               4
100
AcDbLine
 10
11.279984741210939
 20
85.319999999999993
 30
0.0
 11
11.279984741210939
 21
91.0
 31
0.0
  0
LINE
  5
525
100
AcDbEntity
  8
0
  6
CONTINUOUS
 62
               4
100
AcDbLine
 10
11.279984741210939
 20
91.0
 30
0.0
 11
12.709984741210938
 21
91.0
 31
0.0
  0
LINE
  5
526
100
AcDbEntity
  8
0
  6
CONTINUOUS
 62
               4
100
AcDbLine
 10
12.399984741210936
 20
91.0
 30
0.0
 11
12.399984741210936
 21
96.0
 31
0.0
  0
LINE
  5
527
100
AcDbEntity
  8
0
  6
CONTINUOUS
 62
               4
100
AcDbLine
 10
11.599984741210939
 20
91.0
 30
0.0
 11
11.599984741210939
 21
96.0
 31
0.0
  0
LINE
  5
528
100
AcDbEntity
  8
0
  6
CONTINUOUS
 62
               4
100
AcDbLine
 10
11.599984741210939
 20
96.0
 30
0.0
 11
12.399984741210936
 21
96.0
 31
0.0
  0
LINE
  5
529
100
AcDbEntity
  8
0
  6
CONTINUOUS
 62
               4
100
AcDbLine
 10
12.709984741210938
 20
83.0
 30
0.0
 11
12.709984741210938
 21
85.0
 31
0.0
  0
LINE
  5
52A
100
AcDbEntity
  8
0
  6
CONTINUOUS
 62
               4
100
AcDbLine
 10
11.279984741210939
 20
83.0
 30
0.0
 11
11.279984741210939
 21
84.170000000000002
 31
0.0
  0
LINE
  5
52B
100
AcDbEntity
  8
0
  6
CONTINUOUS
 62
             200
100
AcDbLine
 10
13.999984741210938
 20
86.890000000000001
 30
0.0
 11
9.9499847412109403
 21
84.549999999999997
 31
0.0
  0
LINE
  5
52C
100
AcDbEntity
  8
0
  6
CONTINUOUS
 62
               4
100
AcDbLine
 10
18.899984741210936
 20
76.5
 30
0.0
 11
18.899984741210936
 21
83.0
 31
0.0
  0
LINE
  5
52D
100
AcDbEntity
  8
0
  6
CONTINUOUS
 62
               4
100
AcDbLine
 10
9.0999847412109318
 20
76.5
 30
0.0
 11
9.0999847412109318
 21
83.0
 31
0.0
  0
LINE
  5
52E
100
AcDbEntity
  8
0
  6
CONTINUOUS
 62
               4
100
AcDbLine
 10
9.9999847412109375
 20
76.5
 30
0.0
 11
9.9999847412109375
 21
83.0
 31
0.0
  0
LINE
  5
52F
100
AcDbEntity
  8
0
  6
CONTINUOUS
 62
               4
100
AcDbLine
 10
17.999984741210937
 20
76.5
 30
0.0
 11
17.999984741210937
 21
83.0
 31
0.0
  0
LINE
  5
530
100
AcDbEntity
  8
0
  6
CONTINUOUS
 62
               4
100
AcDbLine
 10
27.999984741210937
 20
63.0
 30
0.0
 11
37.999984741210937
 21
63.0
 31
0.0
  0
LINE
  5
531
100
AcDbEntity
  8
0
  6
CONTINUOUS
 62
               4
100
AcDbLine
 10
28.049984741210935
 20
63.0
 30
0.0
 11
28.049984741210935
 21
76.5
 31
0.0
  0
LINE
  5
532
100
AcDbEntity
  8
0
  6
CONTINUOUS
 62
               4
100
AcDbLine
 10
37.499984741210938
 20
72.0
 30
0.0
 11
28.499984741210938
 21
72.0
 31
0.0
  0
LINE
  5
533
100
AcDbEntity
  8
0
  6
CONTINUOUS
 62
               4
100
AcDbLine
 10
37.94998474121094
 20
67.5
 30
0.0
 11
28.049984741210935
 21
67.5
 31
0.0
  0
LINE
  5
534
100
AcDbEntity
  8
0
  6
CONTINUOUS
 62
               4
100
AcDbLine
 10
37.94998474121094
 20
63.0
 30
0.0
 11
37.94998474121094
 21
76.5
 31
0.0
  0
LINE
  5
535
100
AcDbEntity
  8
0
  6
CONTINUOUS
 62
               4
100
AcDbLine
 10
34.279984741210939
 20
83.0
 30
0.0
 11
34.279984741210939
 21
86.480000000000004
 31
0.0
  0
LINE
  5
536
100
AcDbEntity
  8
0
  6
CONTINUOUS
 62
               4
100
AcDbLine
 10
35.709984741210938
 20
83.0
 30
0.0
 11
35.709984741210938
 21
87.310000000000002
 31
0.0
  0
LINE
  5
537
100
AcDbEntity
  8
0
  6
CONTINUOUS
 62
               4
100
AcDbLine
 10
34.599984741210939
 20
91.0
 30
0.0
 11
34.599984741210939
 21
96.0
 31
0.0
  0
LINE
  5
538
100
AcDbEntity
  8
0
  6
CONTINUOUS
 62
               4
100
AcDbLine
 10
35.399984741210936
 20
91.0
 30
0.0
 11
35.399984741210936
 21
96.0
 31
0.0
  0
LINE
  5
539
100
AcDbEntity
  8
0
  6
CONTINUOUS
 62
               4
100
AcDbLine
 10
34.599984741210939
 20
96.0
 30
0.0
 11
35.399984741210936
 21
96.0
 31
0.0
  0
LINE
  5
53A
100
AcDbEntity
  8
0
  6
CONTINUOUS
 62
               4
100
AcDbLine
 10
34.279984741210939
 20
91.0
 30
0.0
 11
35.709984741210938
 21
91.0
 31
0.0
  0
LINE
  5
53B
100
AcDbEntity
  8
0
  6
CONTINUOUS
 62
             200
100
AcDbLine
 10
37.049984741210935
 20
88.079999999999998
 30
0.0
 11
28.94998474121094
 21
83.400000000000006
 31
0.0
  0
LINE
  5
53C
100
AcDbEntity
  8
0
  6
CONTINUOUS
 62
               4
100
AcDbLine
 10
34.279984741210939
 20
87.629999999999995
 30
0.0
 11
34.279984741210939
 21
91.0
 31
0.0
  0
LINE
  5
53D
100
AcDbEntity
  8
0
  6
CONTINUOUS
 62
               4
100
AcDbLine
 10
35.709984741210938
 20
88.459999999999994
 30
0.0
 11
35.709984741210938
 21
91.0
 31
0.0
  0
LINE
  5
53E
100
AcDbEntity
  8
0
  6
CONTINUOUS
 62
               4
100
AcDbLine
 10
28.049984741210935
 20
76.5
 30
0.0
 11
29.499984741210938
 21
76.5
 31
0.0
  0
LINE
  5
53F
100
AcDbEntity
  8
0
  6
CONTINUOUS
 62
               4
100
AcDbLine
 10
28.94998474121094
 20
72.0
 30
0.0
 11
28.94998474121094
 21
74.5
 31
0.0
  0
LINE
  5
540
100
AcDbEntity
  8
0
  6
CONTINUOUS
 62
               4
100
AcDbLine
 10
37.049984741210935
 20
72.0
 30
0.0
 11
37.049984741210935
 21
74.5
 31
0.0
  0
LINE
  5
541
100
AcDbEntity
  8
0
  6
CONTINUOUS
 62
               4
100
AcDbLine
 10
36.499984741210937
 20
72.489999999999995
 30
0.0
 11
36.499984741210937
 21
83.0
 31
0.0
  0
LINE
  5
542
100
AcDbEntity
  8
0
  6
CONTINUOUS
 62
               4
100
AcDbLine
 10
29.499984741210938
 20
72.489999999999995
 30
0.0
 11
29.499984741210938
 21
83.0
 31
0.0
  0
LINE
  5
543
100
AcDbEntity
  8
0
  6
CONTINUOUS
 62
               4
100
AcDbLine
 10
29.499984741210938
 20
72.489999999999995
 30
0.0
 11
36.499984741210937
 21
72.489999999999995
 31
0.0
  0
LINE
  5
544
100
AcDbEntity
  8
0
  6
CONTINUOUS
 62
               4
100
AcDbLine
 10
29.499984741210938
 20
76.049999999999997
 30
0.0
 11
36.499984741210937
 21
76.049999999999997
 31
0.0
  0
LINE
  5
545
100
AcDbEntity
  8
0
  6
CONTINUOUS
 62
               4
100
AcDbLine
 10
29.499984741210938
 20
81.5
 30
0.0
 11
36.499984741210937
 21
81.5
 31
0.0
  0
LINE
  5
546
100
AcDbEntity
  8
0
  6
CONTINUOUS
 62
               4
100
AcDbLine
 10
28.099984741210939
 20
83.0
 30
0.0
 11
37.899984741210936
 21
83.0
 31
0.0
  0
LINE
  5
547
100
AcDbEntity
  8
0
  6
CONTINUOUS
 62
               4
100
AcDbLine
 10
36.499984741210937
 20
76.5
 30
0.0
 11
37.94998474121094
 21
76.5
 31
0.0
  0
LINE
  5
548
100
AcDbEntity
  8
0
  6
CONTINUOUS
 62
               4
100
AcDbLine
 10
36.499984741210937
 20
75.5
 30
0.0
 11
37.049984741210935
 21
75.5
 31
0.0
  0
LINE
  5
549
100
AcDbEntity
  8
0
  6
CONTINUOUS
 62
               4
100
AcDbLine
 10
36.499984741210937
 20
74.5
 30
0.0
 11
37.049984741210935
 21
74.5
 31
0.0
  0
LINE
  5
54A
100
AcDbEntity
  8
0
  6
CONTINUOUS
 62
               4
100
AcDbLine
 10
28.94998474121094
 20
75.5
 30
0.0
 11
29.499984741210938
 21
75.5
 31
0.0
  0
LINE
  5
54B
100
AcDbEntity
  8
0
  6
CONTINUOUS
 62
               4
100
AcDbLine
 10
28.94998474121094
 20
74.5
 30
0.0
 11
29.499984741210938
 21
74.5
 31
0.0
  0
LINE
  5
54C
100
AcDbEntity
  8
0
  6
CONTINUOUS
 62
               4
100
AcDbLine
 10
28.94998474121094
 20
75.5
 30
0.0
 11
28.94998474121094
 21
76.5
 31
0.0
  0
LINE
  5
54D
100
AcDbEntity
  8
0
  6
CONTINUOUS
 62
               4
100
AcDbLine
 10
37.049984741210935
 20
75.5
 30
0.0
 11
37.049984741210935
 21
76.5
 31
0.0
  0
LINE
  5
54E
100
AcDbEntity
  8
0
  6
CONTINUOUS
 62
               4
100
AcDbLine
 10
31.709984741210938
 20
86.150000000000006
 30
0.0
 11
31.709984741210938
 21
91.0
 31
0.0
  0
LINE
  5
54F
100
AcDbEntity
  8
0
  6
CONTINUOUS
 62
               4
100
AcDbLine
 10
30.279984741210939
 20
85.319999999999993
 30
0.0
 11
30.279984741210939
 21
91.0
 31
0.0
  0
LINE
  5
550
100
AcDbEntity
  8
0
  6
CONTINUOUS
 62
               4
100
AcDbLine
 10
30.279984741210939
 20
91.0
 30
0.0
 11
31.709984741210938
 21
91.0
 31
0.0
  0
LINE
  5
551
100
AcDbEntity
  8
0
  6
CONTINUOUS
 62
               4
100
AcDbLine
 10
31.399984741210936
 20
91.0
 30
0.0
 11
31.399984741210936
 21
96.0
 31
0.0
  0
LINE
  5
552
100
AcDbEntity
  8
0
  6
CONTINUOUS
 62
               4
100
AcDbLine
 10
30.599984741210939
 20
91.0
 30
0.0
 11
30.599984741210939
 21
96.0
 31
0.0
  0
LINE
  5
553
100
AcDbEntity
  8
0
  6
CONTINUOUS
 62
               4
100
AcDbLine
 10
30.599984741210939
 20
96.0
 30
0.0
 11
31.399984741210936
 21
96.0
 31
0.0
  0
LINE
  5
554
100
AcDbEntity
  8
0
  6
CONTINUOUS
 62
               4
100
AcDbLine
 10
31.709984741210938
 20
83.0
 30
0.0
 11
31.709984741210938
 21
85.0
 31
0.0
  0
LINE
  5
555
100
AcDbEntity
  8
0
  6
CONTINUOUS
 62
               4
100
AcDbLine
 10
30.279984741210939
 20
83.0
 30
0.0
 11
30.279984741210939
 21
84.170000000000002
 31
0.0
  0
LINE
  5
556
100
AcDbEntity
  8
0
  6
CONTINUOUS
 62
             200
100
AcDbLine
 10
37.049984741210935
 20
89.230000000000004
 30
0.0
 11
28.94998474121094
 21
84.549999999999997
 31
0.0
  0
LINE
  5
557
100
AcDbEntity
  8
0
  6
CONTINUOUS
 62
               4
100
AcDbLine
 10
37.899984741210936
 20
76.5
 30
0.0
 11
37.899984741210936
 21
83.0
 31
0.0
  0
LINE
  5
558
100
AcDbEntity
  8
0
  6
CONTINUOUS
 62
               4
100
AcDbLine
 10
28.099984741210939
 20
76.5
 30
0.0
 11
28.099984741210939
 21
83.0
 31
0.0
  0
LINE
  5
559
100
AcDbEntity
  8
0
  6
CONTINUOUS
 62
               4
100
AcDbLine
 10
28.999984741210938
 20
76.5
 30
0.0
 11
28.999984741210938
 21
83.0
 31
0.0
  0
LINE
  5
55A
100
AcDbEntity
  8
0
  6
CONTINUOUS
 62
               4
100
AcDbLine
 10
36.999984741210938
 20
76.5
 30
0.0
 11
36.999984741210938
 21
83.0
 31
0.0
  0
LINE
  5
55B
100
AcDbEntity
  8
0
  6
CONTINUOUS
 62
               4
100
AcDbLine
 10
46.999984741210937
 20
63.0
 30
0.0
 11
56.999984741210937
 21
63.0
 31
0.0
  0
LINE
  5
55C
100
AcDbEntity
  8
0
  6
CONTINUOUS
 62
               4
100
AcDbLine
 10
47.049984741210935
 20
63.0
 30
0.0
 11
47.049984741210935
 21
76.5
 31
0.0
  0
LINE
  5
55D
100
AcDbEntity
  8
0
  6
CONTINUOUS
 62
               4
100
AcDbLine
 10
56.499984741210937
 20
72.0
 30
0.0
 11
47.499984741210938
 21
72.0
 31
0.0
  0
LINE
  5
55E
100
AcDbEntity
  8
0
  6
CONTINUOUS
 62
               4
100
AcDbLine
 10
56.94998474121094
 20
67.5
 30
0.0
 11
47.049984741210935
 21
67.5
 31
0.0
  0
LINE
  5
55F
100
AcDbEntity
  8
0
  6
CONTINUOUS
 62
               4
100
AcDbLine
 10
56.94998474121094
 20
63.0
 30
0.0
 11
56.94998474121094
 21
76.5
 31
0.0
  0
LINE
  5
560
100
AcDbEntity
  8
0
  6
CONTINUOUS
 62
               4
100
AcDbLine
 10
53.279984741210939
 20
83.0
 30
0.0
 11
53.279984741210939
 21
86.480000000000004
 31
0.0
  0
LINE
  5
561
100
AcDbEntity
  8
0
  6
CONTINUOUS
 62
               4
100
AcDbLine
 10
54.709984741210938
 20
83.0
 30
0.0
 11
54.709984741210938
 21
87.310000000000002
 31
0.0
  0
LINE
  5
562
100
AcDbEntity
  8
0
  6
CONTINUOUS
 62
               4
100
AcDbLine
 10
53.599984741210939
 20
91.0
 30
0.0
 11
53.599984741210939
 21
96.0
 31
0.0
  0
LINE
  5
563
100
AcDbEntity
  8
0
  6
CONTINUOUS
 62
               4
100
AcDbLine
 10
54.399984741210936
 20
91.0
 30
0.0
 11
54.399984741210936
 21
96.0
 31
0.0
  0
LINE
  5
564
100
AcDbEntity
  8
0
  6
CONTINUOUS
 62
               4
100
AcDbLine
 10
53.599984741210939
 20
96.0
 30
0.0
 11
54.399984741210936
 21
96.0
 31
0.0
  0
LINE
  5
565
100
AcDbEntity
  8
0
  6
CONTINUOUS
 62
               4
100
AcDbLine
 10
53.279984741210939
 20
91.0
 30
0.0
 11
54.709984741210938
 21
91.0
 31
0.0
  0
LINE
  5
566
100
AcDbEntity
  8
0
  6
CONTINUOUS
 62
             200
100
AcDbLine
 10
56.049984741210935
 20
88.079999999999998
 30
0.0
 11
47.94998474121094
 21
83.400000000000006
 31
0.0
  0
LINE
  5
567
100
AcDbEntity
  8
0
  6
CONTINUOUS
 62
               4
100
AcDbLine
 10
53.279984741210939
 20
87.629999999999995
 30
0.0
 11
53.279984741210939
 21
91.0
 31
0.0
  0
LINE
  5
568
100
AcDbEntity
  8
0
  6
CONTINUOUS
 62
               4
100
AcDbLine
 10
54.709984741210938
 20
88.459999999999994
 30
0.0
 11
54.709984741210938
 21
91.0
 31
0.0
  0
LINE
  5
569
100
AcDbEntity
  8
0
  6
CONTINUOUS
 62
               4
100
AcDbLine
 10
47.049984741210935
 20
76.5
 30
0.0
 11
48.499984741210937
 21
76.5
 31
0.0
  0
LINE
  5
56A
100
AcDbEntity
  8
0
  6
CONTINUOUS
 62
               4
100
AcDbLine
 10
47.94998474121094
 20
72.0
 30
0.0
 11
47.94998474121094
 21
74.5
 31
0.0
  0
LINE
  5
56B
100
AcDbEntity
  8
0
  6
CONTINUOUS
 62
               4
100
AcDbLine
 10
56.049984741210935
 20
72.0
 30
0.0
 11
56.049984741210935
 21
74.5
 31
0.0
  0
LINE
  5
56C
100
AcDbEntity
  8
0
  6
CONTINUOUS
 62
               4
100
AcDbLine
 10
55.499984741210938
 20
72.489999999999995
 30
0.0
 11
55.499984741210938
 21
83.0
 31
0.0
  0
LINE
  5
56D
100
AcDbEntity
  8
0
  6
CONTINUOUS
 62
               4
100
AcDbLine
 10
48.499984741210937
 20
72.489999999999995
 30
0.0
 11
48.499984741210937
 21
83.0
 31
0.0
  0
LINE
  5
56E
100
AcDbEntity
  8
0
  6
CONTINUOUS
 62
               4
100
AcDbLine
 10
48.499984741210937
 20
72.489999999999995
 30
0.0
 11
55.499984741210938
 21
72.489999999999995
 31
0.0
  0
LINE
  5
56F
100
AcDbEntity
  8
0
  6
CONTINUOUS
 62
               4
100
AcDbLine
 10
48.499984741210937
 20
76.049999999999997
 30
0.0
 11
55.499984741210938
 21
76.049999999999997
 31
0.0
  0
LINE
  5
570
100
AcDbEntity
  8
0
  6
CONTINUOUS
 62
               4
100
AcDbLine
 10
48.499984741210937
 20
81.5
 30
0.0
 11
55.499984741210938
 21
81.5
 31
0.0
  0
LINE
  5
571
100
AcDbEntity
  8
0
  6
CONTINUOUS
 62
               4
100
AcDbLine
 10
47.099984741210939
 20
83.0
 30
0.0
 11
56.899984741210936
 21
83.0
 31
0.0
  0
LINE
  5
572
100
AcDbEntity
  8
0
  6
CONTINUOUS
 62
               4
100
AcDbLine
 10
55.499984741210938
 20
76.5
 30
0.0
 11
56.94998474121094
 21
76.5
 31
0.0
  0
LINE
  5
573
100
AcDbEntity
  8
0
  6
CONTINUOUS
 62
               4
100
AcDbLine
 10
55.499984741210938
 20
75.5
 30
0.0
 11
56.049984741210935
 21
75.5
 31
0.0
  0
LINE
  5
574
100
AcDbEntity
  8
0
  6
CONTINUOUS
 62
               4
100
AcDbLine
 10
55.499984741210938
 20
74.5
 30
0.0
 11
56.049984741210935
 21
74.5
 31
0.0
  0
LINE
  5
575
100
AcDbEntity
  8
0
  6
CONTINUOUS
 62
               4
100
AcDbLine
 10
47.94998474121094
 20
75.5
 30
0.0
 11
48.499984741210937
 21
75.5
 31
0.0
  0
LINE
  5
576
100
AcDbEntity
  8
0
  6
CONTINUOUS
 62
               4
100
AcDbLine
 10
47.94998474121094
 20
74.5
 30
0.0
 11
48.499984741210937
 21
74.5
 31
0.0
  0
LINE
  5
577
100
AcDbEntity
  8
0
  6
CONTINUOUS
 62
               4
100
AcDbLine
 10
47.94998474121094
 20
75.5
 30
0.0
 11
47.94998474121094
 21
76.5
 31
0.0
  0
LINE
  5
578
100
AcDbEntity
  8
0
  6
CONTINUOUS
 62
               4
100
AcDbLine
 10
56.049984741210935
 20
75.5
 30
0.0
 11
56.049984741210935
 21
76.5
 31
0.0
  0
LINE
  5
579
100
AcDbEntity
  8
0
  6
CONTINUOUS
 62
               4
100
AcDbLine
 10
50.709984741210938
 20
86.150000000000006
 30
0.0
 11
50.709984741210938
 21
91.0
 31
0.0
  0
LINE
  5
57A
100
AcDbEntity
  8
0
  6
CONTINUOUS
 62
               4
100
AcDbLine
 10
49.279984741210939
 20
85.319999999999993
 30
0.0
 11
49.279984741210939
 21
91.0
 31
0.0
  0
LINE
  5
57B
100
AcDbEntity
  8
0
  6
CONTINUOUS
 62
               4
100
AcDbLine
 10
49.279984741210939
 20
91.0
 30
0.0
 11
50.709984741210938
 21
91.0
 31
0.0
  0
LINE
  5
57C
100
AcDbEntity
  8
0
  6
CONTINUOUS
 62
               4
100
AcDbLine
 10
50.399984741210936
 20
91.0
 30
0.0
 11
50.399984741210936
 21
96.0
 31
0.0
  0
LINE
  5
57D
100
AcDbEntity
  8
0
  6
CONTINUOUS
 62
               4
100
AcDbLine
 10
49.599984741210939
 20
91.0
 30
0.0
 11
49.599984741210939
 21
96.0
 31
0.0
  0
LINE
  5
57E
100
AcDbEntity
  8
0
  6
CONTINUOUS
 62
               4
100
AcDbLine
 10
49.599984741210939
 20
96.0
 30
0.0
 11
50.399984741210936
 21
96.0
 31
0.0
  0
LINE
  5
57F
100
AcDbEntity
  8
0
  6
CONTINUOUS
 62
               4
100
AcDbLine
 10
50.709984741210938
 20
83.0
 30
0.0
 11
50.709984741210938
 21
85.0
 31
0.0
  0
LINE
  5
580
100
AcDbEntity
  8
0
  6
CONTINUOUS
 62
               4
100
AcDbLine
 10
49.279984741210939
 20
83.0
 30
0.0
 11
49.279984741210939
 21
84.170000000000002
 31
0.0
  0
LINE
  5
581
100
AcDbEntity
  8
0
  6
CONTINUOUS
 62
             200
100
AcDbLine
 10
56.049984741210935
 20
89.230000000000004
 30
0.0
 11
47.94998474121094
 21
84.549999999999997
 31
0.0
  0
LINE
  5
582
100
AcDbEntity
  8
0
  6
CONTINUOUS
 62
               4
100
AcDbLine
 10
56.899984741210936
 20
76.5
 30
0.0
 11
56.899984741210936
 21
83.0
 31
0.0
  0
LINE
  5
583
100
AcDbEntity
  8
0
  6
CONTINUOUS
 62
               4
100
AcDbLine
 10
47.099984741210939
 20
76.5
 30
0.0
 11
47.099984741210939
 21
83.0
 31
0.0
  0
LINE
  5
584
100
AcDbEntity
  8
0
  6
CONTINUOUS
 62
               4
100
AcDbLine
 10
47.999984741210938
 20
76.5
 30
0.0
 11
47.999984741210938
 21
83.0
 31
0.0
  0
LINE
  5
585
100
AcDbEntity
  8
0
  6
CONTINUOUS
 62
               4
100
AcDbLine
 10
55.999984741210937
 20
76.5
 30
0.0
 11
55.999984741210937
 21
83.0
 31
0.0
  0
ARC
  5
586
100
AcDbEntity
  8
0
  6
CONTINUOUS
 62
               4
100
AcDbCircle
 10
18.449975585900248
 20
71.499990844689307
 30
0.0
 40
0.5000091553945082
100
AcDbArc
 50
0.0010491021158139
 51
89.998950897884399
  0
ARC
  5
587
100
AcDbEntity
  8
0
  6
CONTINUOUS
 62
               4
100
AcDbCircle
 10
9.5499938965216273
 20
71.499990844689307
 30
0.0
 40
0.5000091553945082
100
AcDbArc
 50
90.001049102115203
 51
179.99895089788379
  0
ARC
  5
588
100
AcDbEntity
  8
0
  6
CONTINUOUS
 62
               4
100
AcDbCircle
 10
37.449975585900248
 20
71.499990844689307
 30
0.0
 40
0.50000915539451
100
AcDbArc
 50
0.0010491021158139
 51
89.998950897884001
  0
ARC
  5
589
100
AcDbEntity
  8
0
  6
CONTINUOUS
 62
               4
100
AcDbCircle
 10
28.549978638151657
 20
71.500006103059278
 30
0.0
 40
0.4999938969779705
100
AcDbArc
 50
89.99930063238584
 51
180.00069936761358
  0
ARC
  5
58A
100
AcDbEntity
  8
0
  6
CONTINUOUS
 62
               4
100
AcDbCircle
 10
56.449975585900248
 20
71.499990844689307
 30
0.0
 40
0.50000915539451
100
AcDbArc
 50
0.0010491021158139
 51
89.998950897884001
  0
ARC
  5
58B
100
AcDbEntity
  8
0
  6
CONTINUOUS
 62
               4
100
AcDbCircle
 10
47.549978638151657
 20
71.500006103059278
 30
0.0
 40
0.4999938969779723
100
AcDbArc
 50
89.99930063238584
 51
180.00069936761358
  0
ARC
  5
58C
100
AcDbEntity
  8
0
  6
CONTINUOUS
 62
               4
100
AcDbCircle
 10
65.750007629375133
 20
-51.500007629375119
 30
0.0
 40
1.4999923706442737
100
AcDbArc
 50
269.99970857785354
 51
0.000291422145614
  0
ARC
  5
58D
100
AcDbEntity
  8
0
  6
CONTINUOUS
 62
               4
100
AcDbCircle
 10
63.249992370624874
 20
-51.500007629375119
 30
0.0
 40
1.4999923706442737
100
AcDbArc
 50
179.99970857785399
 51
270.00029142214498
  0
ARC
  5
58E
100
AcDbEntity
  8
0
  6
CONTINUOUS
 62
               4
100
AcDbCircle
 10
67.799995422460299
 20
-52.700004577539715
 30
0.0
 40
0.2999954224952177
100
AcDbArc
 50
179.99912574097422
 51
270.00087425902342
  0
ARC
  5
58F
100
AcDbEntity
  8
0
  6
CONTINUOUS
 62
               4
100
AcDbCircle
 10
79.5
 20
-52.5
 30
0.0
 40
0.5
100
AcDbArc
 50
269.99999999999937
 51
0.0
  0
LINE
  5
590
100
AcDbEntity
  8
0
  6
CONTINUOUS
 62
               4
100
AcDbLine
 10
41.5
 20
-75.0
 30
0.0
 11
24.5
 21
-75.0
 31
0.0
  0
ARC
  5
591
100
AcDbEntity
  8
0
  6
CONTINUOUS
 62
               4
100
AcDbCircle
 10
62.499992370663676
 20
-52.500007629336324
 30
0.0
 40
0.4999923707218841
100
AcDbArc
 50
179.9991257291158
 51
270.00087427088317
  0
LINE
  5
592
100
AcDbEntity
  8
0
  6
CENTER
 62
             200
100
AcDbLine
 10
71.0
 20
-44.579999999999984
 30
0.0
 11
71.0
 21
-80.970000000000027
 31
0.0
  0
LINE
  5
593
100
AcDbEntity
  8
0
  6
CONTINUOUS
 62
               4
100
AcDbLine
 10
41.0
 20
-75.5
 30
0.0
 11
25.0
 21
-75.5
 31
0.0
  0
LINE
  5
594
100
AcDbEntity
  8
0
  6
CENTER
 62
             200
100
AcDbLine
 10
52.0
 20
-60.5
 30
0.0
 11
52.0
 21
-80.970000000000027
 31
0.0
  0
LINE
  5
595
100
AcDbEntity
  8
0
  6
CENTER
 62
             200
100
AcDbLine
 10
33.0
 20
-60.5
 30
0.0
 11
33.0
 21
-80.970000000000027
 31
0.0
  0
LINE
  5
596
100
AcDbEntity
  8
0
  6
CENTER
 62
             200
100
AcDbLine
 10
14.0
 20
-60.500003814697266
 30
0.0
 11
14.0
 21
-80.970000000000027
 31
0.0
  0
LINE
  5
597
100
AcDbEntity
  8
0
  6
CONTINUOUS
 62
               4
100
AcDbLine
 10
41.0
 20
-77.5
 30
0.0
 11
25.0
 21
-77.5
 31
0.0
  0
LINE
  5
598
100
AcDbEntity
  8
0
  6
CONTINUOUS
 62
               4
100
AcDbLine
 10
25.0
 20
-79.0
 30
0.0
 11
25.0
 21
-77.5
 31
0.0
  0
LINE
  5
599
100
AcDbEntity
  8
0
  6
CONTINUOUS
 62
               4
100
AcDbLine
 10
38.5
 20
-77.5
 30
0.0
 11
38.5
 21
-75.5
 31
0.0
  0
LINE
  5
59A
100
AcDbEntity
  8
0
  6
CONTINUOUS
 62
               4
100
AcDbLine
 10
24.5
 20
-75.0
 30
0.0
 11
24.5
 21
-69.0
 31
0.0
  0
LINE
  5
59B
100
AcDbEntity
  8
0
  6
CONTINUOUS
 62
               4
100
AcDbLine
 10
25.5
 20
-66.0
 30
0.0
 11
24.5
 21
-65.0
 31
0.0
  0
LINE
  5
59C
100
AcDbEntity
  8
0
  6
CONTINUOUS
 62
               4
100
AcDbLine
 10
24.5
 20
-69.0
 30
0.0
 11
25.5
 21
-68.0
 31
0.0
  0
LINE
  5
59D
100
AcDbEntity
  8
0
  6
CONTINUOUS
 62
               4
100
AcDbLine
 10
41.5
 20
-75.0
 30
0.0
 11
41.5
 21
-69.0
 31
0.0
  0
LINE
  5
59E
100
AcDbEntity
  8
0
  6
CONTINUOUS
 62
               4
100
AcDbLine
 10
40.5
 20
-66.0
 30
0.0
 11
41.5
 21
-65.0
 31
0.0
  0
LINE
  5
59F
100
AcDbEntity
  8
0
  6
CONTINUOUS
 62
               4
100
AcDbLine
 10
41.5
 20
-69.0
 30
0.0
 11
40.5
 21
-68.0
 31
0.0
  0
LINE
  5
5A0
100
AcDbEntity
  8
0
  6
CONTINUOUS
 62
               4
100
AcDbLine
 10
40.5
 20
-68.0
 30
0.0
 11
40.5
 21
-66.0
 31
0.0
  0
LINE
  5
5A1
100
AcDbEntity
  8
0
  6
CONTINUOUS
 62
               4
100
AcDbLine
 10
25.5
 20
-68.0
 30
0.0
 11
25.5
 21
-66.0
 31
0.0
  0
LINE
  5
5A2
100
AcDbEntity
  8
0
  6
CONTINUOUS
 62
               4
100
AcDbLine
 10
25.0
 20
-75.5
 30
0.0
 11
24.5
 21
-75.0
 31
0.0
  0
LINE
  5
5A3
100
AcDbEntity
  8
0
  6
CONTINUOUS
 62
               4
100
AcDbLine
 10
41.5
 20
-75.0
 30
0.0
 11
41.0
 21
-75.5
 31
0.0
  0
LINE
  5
5A4
100
AcDbEntity
  8
0
  6
CONTINUOUS
 62
               4
100
AcDbLine
 10
24.5
 20
-65.0
 30
0.0
 11
24.5
 21
-60.5
 31
0.0
  0
LINE
  5
5A5
100
AcDbEntity
  8
0
  6
CONTINUOUS
 62
               4
100
AcDbLine
 10
41.5
 20
-65.0
 30
0.0
 11
41.5
 21
-60.5
 31
0.0
  0
LINE
  5
5A6
100
AcDbEntity
  8
0
  6
CONTINUOUS
 62
               4
100
AcDbLine
 10
41.5
 20
-65.0
 30
0.0
 11
24.5
 21
-65.0
 31
0.0
  0
LINE
  5
5A7
100
AcDbEntity
  8
0
  6
CONTINUOUS
 62
               4
100
AcDbLine
 10
40.5
 20
-66.0
 30
0.0
 11
25.5
 21
-66.0
 31
0.0
  0
LINE
  5
5A8
100
AcDbEntity
  8
0
  6
CONTINUOUS
 62
               4
100
AcDbLine
 10
40.5
 20
-68.0
 30
0.0
 11
25.5
 21
-68.0
 31
0.0
  0
LINE
  5
5A9
100
AcDbEntity
  8
0
  6
CONTINUOUS
 62
               4
100
AcDbLine
 10
41.5
 20
-69.0
 30
0.0
 11
24.5
 21
-69.0
 31
0.0
  0
LINE
  5
5AA
100
AcDbEntity
  8
0
  6
CONTINUOUS
 62
               4
100
AcDbLine
 10
41.5
 20
-74.5
 30
0.0
 11
24.5
 21
-74.5
 31
0.0
  0
LINE
  5
5AB
100
AcDbEntity
  8
0
  6
CONTINUOUS
 62
               4
100
AcDbLine
 10
22.0
 20
-79.0
 30
0.0
 11
6.0
 21
-79.0
 31
0.0
  0
LINE
  5
5AC
100
AcDbEntity
  8
0
  6
CONTINUOUS
 62
               4
100
AcDbLine
 10
80.0
 20
-52.5
 30
0.0
 11
80.0
 21
-48.0
 31
0.0
  0
LINE
  5
5AD
100
AcDbEntity
  8
0
  6
CONTINUOUS
 62
               4
100
AcDbLine
 10
62.0
 20
-52.5
 30
0.0
 11
62.0
 21
-52.319999999999993
 31
0.0
  0
LINE
  5
5AE
100
AcDbEntity
  8
0
  6
CONTINUOUS
 62
               4
100
AcDbLine
 10
79.5
 20
-53.0
 30
0.0
 11
62.5
 21
-53.0
 31
0.0
  0
LINE
  5
5AF
100
AcDbEntity
  8
0
  6
CONTINUOUS
 62
               4
100
AcDbLine
 10
67.5
 20
-52.699999999999989
 30
0.0
 11
67.5
 21
-51.0
 31
0.0
  0
LINE
  5
5B0
100
AcDbEntity
  8
0
  6
CONTINUOUS
 62
               4
100
AcDbLine
 10
80.0
 20
-51.0
 30
0.0
 11
61.75
 21
-51.0
 31
0.0
  0
LINE
  5
5B1
100
AcDbEntity
  8
0
  6
CONTINUOUS
 62
               4
100
AcDbLine
 10
22.0
 20
-79.0
 30
0.0
 11
22.0
 21
-77.5
 31
0.0
  0
LINE
  5
5B2
100
AcDbEntity
  8
0
  6
CONTINUOUS
 62
               4
100
AcDbLine
 10
22.5
 20
-75.0
 30
0.0
 11
22.5
 21
-69.0
 31
0.0
  0
LINE
  5
5B3
100
AcDbEntity
  8
0
  6
CONTINUOUS
 62
               4
100
AcDbLine
 10
5.5
 20
-75.0
 30
0.0
 11
5.5
 21
-69.0
 31
0.0
  0
LINE
  5
5B4
100
AcDbEntity
  8
0
  6
CONTINUOUS
 62
               4
100
AcDbLine
 10
6.0
 20
-79.0
 30
0.0
 11
6.0
 21
-77.5
 31
0.0
  0
LINE
  5
5B5
100
AcDbEntity
  8
0
  6
CONTINUOUS
 62
               4
100
AcDbLine
 10
22.0
 20
-77.5
 30
0.0
 11
6.0
 21
-77.5
 31
0.0
  0
LINE
  5
5B6
100
AcDbEntity
  8
0
  6
CONTINUOUS
 62
               4
100
AcDbLine
 10
22.0
 20
-75.5
 30
0.0
 11
6.0
 21
-75.5
 31
0.0
  0
LINE
  5
5B7
100
AcDbEntity
  8
0
  6
CONTINUOUS
 62
               4
100
AcDbLine
 10
22.5
 20
-75.0
 30
0.0
 11
5.5
 21
-75.0
 31
0.0
  0
LINE
  5
5B8
100
AcDbEntity
  8
0
  6
CONTINUOUS
 62
               4
100
AcDbLine
 10
22.5
 20
-74.5
 30
0.0
 11
5.5
 21
-74.5
 31
0.0
  0
LINE
  5
5B9
100
AcDbEntity
  8
0
  6
CONTINUOUS
 62
               4
100
AcDbLine
 10
22.5
 20
-69.0
 30
0.0
 11
5.5
 21
-69.0
 31
0.0
  0
LINE
  5
5BA
100
AcDbEntity
  8
0
  6
CONTINUOUS
 62
               4
100
AcDbLine
 10
21.5
 20
-68.0
 30
0.0
 11
6.5
 21
-68.0
 31
0.0
  0
LINE
  5
5BB
100
AcDbEntity
  8
0
  6
CONTINUOUS
 62
               4
100
AcDbLine
 10
21.5
 20
-66.0
 30
0.0
 11
6.5
 21
-66.0
 31
0.0
  0
LINE
  5
5BC
100
AcDbEntity
  8
0
  6
CONTINUOUS
 62
               4
100
AcDbLine
 10
22.5
 20
-65.0
 30
0.0
 11
5.5
 21
-65.0
 31
0.0
  0
LINE
  5
5BD
100
AcDbEntity
  8
0
  6
CONTINUOUS
 62
               4
100
AcDbLine
 10
79.5
 20
-54.5
 30
0.0
 11
62.5
 21
-54.5
 31
0.0
  0
LINE
  5
5BE
100
AcDbEntity
  8
0
  6
CONTINUOUS
 62
               4
100
AcDbLine
 10
22.5
 20
-65.0
 30
0.0
 11
22.5
 21
-60.5
 31
0.0
  0
LINE
  5
5BF
100
AcDbEntity
  8
0
  6
CONTINUOUS
 62
               4
100
AcDbLine
 10
5.5
 20
-65.0
 30
0.0
 11
5.5
 21
-60.5
 31
0.0
  0
LINE
  5
5C0
100
AcDbEntity
  8
0
  6
CONTINUOUS
 62
               4
100
AcDbLine
 10
22.5
 20
-75.0
 30
0.0
 11
22.0
 21
-75.5
 31
0.0
  0
LINE
  5
5C1
100
AcDbEntity
  8
0
  6
CONTINUOUS
 62
               4
100
AcDbLine
 10
6.0
 20
-75.5
 30
0.0
 11
5.5
 21
-75.0
 31
0.0
  0
LINE
  5
5C2
100
AcDbEntity
  8
0
  6
CONTINUOUS
 62
               4
100
AcDbLine
 10
6.5
 20
-68.0
 30
0.0
 11
6.5
 21
-66.0
 31
0.0
  0
LINE
  5
5C3
100
AcDbEntity
  8
0
  6
CONTINUOUS
 62
               4
100
AcDbLine
 10
21.5
 20
-68.0
 30
0.0
 11
21.5
 21
-66.0
 31
0.0
  0
LINE
  5
5C4
100
AcDbEntity
  8
0
  6
CONTINUOUS
 62
               4
100
AcDbLine
 10
22.5
 20
-69.0
 30
0.0
 11
21.5
 21
-68.0
 31
0.0
  0
LINE
  5
5C5
100
AcDbEntity
  8
0
  6
CONTINUOUS
 62
               4
100
AcDbLine
 10
21.5
 20
-66.0
 30
0.0
 11
22.5
 21
-65.0
 31
0.0
  0
LINE
  5
5C6
100
AcDbEntity
  8
0
  6
CONTINUOUS
 62
               4
100
AcDbLine
 10
5.5
 20
-69.0
 30
0.0
 11
6.5
 21
-68.0
 31
0.0
  0
LINE
  5
5C7
100
AcDbEntity
  8
0
  6
CONTINUOUS
 62
               4
100
AcDbLine
 10
6.5
 20
-66.0
 30
0.0
 11
5.5
 21
-65.0
 31
0.0
  0
LINE
  5
5C8
100
AcDbEntity
  8
0
  6
CONTINUOUS
 62
               4
100
AcDbLine
 10
64.25
 20
-54.5
 30
0.0
 11
64.25
 21
-53.0
 31
0.0
  0
LINE
  5
5C9
100
AcDbEntity
  8
0
  6
CONTINUOUS
 62
               4
100
AcDbLine
 10
77.75
 20
-54.5
 30
0.0
 11
77.75
 21
-53.0
 31
0.0
  0
LINE
  5
5CA
100
AcDbEntity
  8
0
  6
CONTINUOUS
 62
               4
100
AcDbLine
 10
19.5
 20
-77.5
 30
0.0
 11
19.5
 21
-75.5
 31
0.0
  0
LINE
  5
5CB
100
AcDbEntity
  8
0
  6
CONTINUOUS
 62
               4
100
AcDbLine
 10
8.5
 20
-77.5
 30
0.0
 11
8.5
 21
-75.5
 31
0.0
  0
LINE
  5
5CC
100
AcDbEntity
  8
0
  6
CONTINUOUS
 62
               4
100
AcDbLine
 10
67.25
 20
-51.5
 30
0.0
 11
67.25
 21
-51.0
 31
0.0
  0
LINE
  5
5CD
100
AcDbEntity
  8
0
  6
CONTINUOUS
 62
               4
100
AcDbLine
 10
61.75
 20
-51.5
 30
0.0
 11
61.75
 21
-51.0
 31
0.0
  0
LINE
  5
5CE
100
AcDbEntity
  8
0
  6
CONTINUOUS
 62
               4
100
AcDbLine
 10
62.0
 20
-51.0
 30
0.0
 11
62.0
 21
-48.0
 31
0.0
  0
LINE
  5
5CF
100
AcDbEntity
  8
0
  6
CONTINUOUS
 62
               4
100
AcDbLine
 10
65.5
 20
-77.5
 30
0.0
 11
65.5
 21
-75.5
 31
0.0
  0
LINE
  5
5D0
100
AcDbEntity
  8
0
  6
CONTINUOUS
 62
               4
100
AcDbLine
 10
79.0
 20
-79.0
 30
0.0
 11
63.0
 21
-79.0
 31
0.0
  0
LINE
  5
5D1
100
AcDbEntity
  8
0
  6
CONTINUOUS
 62
               4
100
AcDbLine
 10
79.0
 20
-79.0
 30
0.0
 11
79.0
 21
-77.5
 31
0.0
  0
LINE
  5
5D2
100
AcDbEntity
  8
0
  6
CONTINUOUS
 62
               4
100
AcDbLine
 10
79.5
 20
-75.0
 30
0.0
 11
79.5
 21
-69.0
 31
0.0
  0
LINE
  5
5D3
100
AcDbEntity
  8
0
  6
CONTINUOUS
 62
               4
100
AcDbLine
 10
62.5
 20
-75.0
 30
0.0
 11
62.5
 21
-69.0
 31
0.0
  0
LINE
  5
5D4
100
AcDbEntity
  8
0
  6
CONTINUOUS
 62
               4
100
AcDbLine
 10
63.0
 20
-79.0
 30
0.0
 11
63.0
 21
-77.5
 31
0.0
  0
LINE
  5
5D5
100
AcDbEntity
  8
0
  6
CONTINUOUS
 62
               4
100
AcDbLine
 10
79.0
 20
-77.5
 30
0.0
 11
63.0
 21
-77.5
 31
0.0
  0
LINE
  5
5D6
100
AcDbEntity
  8
0
  6
CONTINUOUS
 62
               4
100
AcDbLine
 10
79.0
 20
-75.5
 30
0.0
 11
63.0
 21
-75.5
 31
0.0
  0
LINE
  5
5D7
100
AcDbEntity
  8
0
  6
CONTINUOUS
 62
               4
100
AcDbLine
 10
79.5
 20
-75.0
 30
0.0
 11
62.5
 21
-75.0
 31
0.0
  0
LINE
  5
5D8
100
AcDbEntity
  8
0
  6
CONTINUOUS
 62
               4
100
AcDbLine
 10
79.5
 20
-74.5
 30
0.0
 11
62.5
 21
-74.5
 31
0.0
  0
LINE
  5
5D9
100
AcDbEntity
  8
0
  6
CONTINUOUS
 62
               4
100
AcDbLine
 10
79.5
 20
-69.0
 30
0.0
 11
62.5
 21
-69.0
 31
0.0
  0
LINE
  5
5DA
100
AcDbEntity
  8
0
  6
CONTINUOUS
 62
               4
100
AcDbLine
 10
78.5
 20
-68.0
 30
0.0
 11
63.5
 21
-68.0
 31
0.0
  0
LINE
  5
5DB
100
AcDbEntity
  8
0
  6
CONTINUOUS
 62
               4
100
AcDbLine
 10
78.5
 20
-66.0
 30
0.0
 11
63.5
 21
-66.0
 31
0.0
  0
LINE
  5
5DC
100
AcDbEntity
  8
0
  6
CONTINUOUS
 62
               4
100
AcDbLine
 10
79.5
 20
-65.0
 30
0.0
 11
62.5
 21
-65.0
 31
0.0
  0
LINE
  5
5DD
100
AcDbEntity
  8
0
  6
CONTINUOUS
 62
               4
100
AcDbLine
 10
79.5
 20
-65.0
 30
0.0
 11
79.5
 21
-54.5
 31
0.0
  0
LINE
  5
5DE
100
AcDbEntity
  8
0
  6
CONTINUOUS
 62
               4
100
AcDbLine
 10
62.5
 20
-65.0
 30
0.0
 11
62.5
 21
-54.5
 31
0.0
  0
LINE
  5
5DF
100
AcDbEntity
  8
0
  6
CONTINUOUS
 62
               4
100
AcDbLine
 10
79.5
 20
-75.0
 30
0.0
 11
79.0
 21
-75.5
 31
0.0
  0
LINE
  5
5E0
100
AcDbEntity
  8
0
  6
CONTINUOUS
 62
               4
100
AcDbLine
 10
63.0
 20
-75.5
 30
0.0
 11
62.5
 21
-75.0
 31
0.0
  0
LINE
  5
5E1
100
AcDbEntity
  8
0
  6
CONTINUOUS
 62
               4
100
AcDbLine
 10
63.5
 20
-68.0
 30
0.0
 11
63.5
 21
-66.0
 31
0.0
  0
LINE
  5
5E2
100
AcDbEntity
  8
0
  6
CONTINUOUS
 62
               4
100
AcDbLine
 10
78.5
 20
-68.0
 30
0.0
 11
78.5
 21
-66.0
 31
0.0
  0
LINE
  5
5E3
100
AcDbEntity
  8
0
  6
CONTINUOUS
 62
               4
100
AcDbLine
 10
79.5
 20
-69.0
 30
0.0
 11
78.5
 21
-68.0
 31
0.0
  0
LINE
  5
5E4
100
AcDbEntity
  8
0
  6
CONTINUOUS
 62
               4
100
AcDbLine
 10
78.5
 20
-66.0
 30
0.0
 11
79.5
 21
-65.0
 31
0.0
  0
LINE
  5
5E5
100
AcDbEntity
  8
0
  6
CONTINUOUS
 62
               4
100
AcDbLine
 10
62.5
 20
-69.0
 30
0.0
 11
63.5
 21
-68.0
 31
0.0
  0
LINE
  5
5E6
100
AcDbEntity
  8
0
  6
CONTINUOUS
 62
               4
100
AcDbLine
 10
63.5
 20
-66.0
 30
0.0
 11
62.5
 21
-65.0
 31
0.0
  0
LINE
  5
5E7
100
AcDbEntity
  8
0
  6
CONTINUOUS
 62
               4
100
AcDbLine
 10
76.5
 20
-77.5
 30
0.0
 11
76.5
 21
-75.5
 31
0.0
  0
LINE
  5
5E8
100
AcDbEntity
  8
0
  6
CONTINUOUS
 62
               4
100
AcDbLine
 10
46.5
 20
-77.5
 30
0.0
 11
46.5
 21
-75.5
 31
0.0
  0
LINE
  5
5E9
100
AcDbEntity
  8
0
  6
CONTINUOUS
 62
               4
100
AcDbLine
 10
60.0
 20
-79.0
 30
0.0
 11
44.0
 21
-79.0
 31
0.0
  0
LINE
  5
5EA
100
AcDbEntity
  8
0
  6
CONTINUOUS
 62
               4
100
AcDbLine
 10
60.0
 20
-79.0
 30
0.0
 11
60.0
 21
-77.5
 31
0.0
  0
LINE
  5
5EB
100
AcDbEntity
  8
0
  6
CONTINUOUS
 62
               4
100
AcDbLine
 10
60.5
 20
-75.0
 30
0.0
 11
60.5
 21
-69.0
 31
0.0
  0
LINE
  5
5EC
100
AcDbEntity
  8
0
  6
CONTINUOUS
 62
               4
100
AcDbLine
 10
43.5
 20
-75.0
 30
0.0
 11
43.5
 21
-69.0
 31
0.0
  0
LINE
  5
5ED
100
AcDbEntity
  8
0
  6
CONTINUOUS
 62
               4
100
AcDbLine
 10
44.0
 20
-79.0
 30
0.0
 11
44.0
 21
-77.5
 31
0.0
  0
LINE
  5
5EE
100
AcDbEntity
  8
0
  6
CONTINUOUS
 62
               4
100
AcDbLine
 10
60.0
 20
-77.5
 30
0.0
 11
44.0
 21
-77.5
 31
0.0
  0
LINE
  5
5EF
100
AcDbEntity
  8
0
  6
CONTINUOUS
 62
               4
100
AcDbLine
 10
60.0
 20
-75.5
 30
0.0
 11
44.0
 21
-75.5
 31
0.0
  0
LINE
  5
5F0
100
AcDbEntity
  8
0
  6
CONTINUOUS
 62
               4
100
AcDbLine
 10
60.5
 20
-75.0
 30
0.0
 11
43.5
 21
-75.0
 31
0.0
  0
LINE
  5
5F1
100
AcDbEntity
  8
0
  6
CONTINUOUS
 62
               4
100
AcDbLine
 10
60.5
 20
-74.5
 30
0.0
 11
43.5
 21
-74.5
 31
0.0
  0
LINE
  5
5F2
100
AcDbEntity
  8
0
  6
CONTINUOUS
 62
               4
100
AcDbLine
 10
60.5
 20
-69.0
 30
0.0
 11
43.5
 21
-69.0
 31
0.0
  0
LINE
  5
5F3
100
AcDbEntity
  8
0
  6
CONTINUOUS
 62
               4
100
AcDbLine
 10
59.5
 20
-68.0
 30
0.0
 11
44.5
 21
-68.0
 31
0.0
  0
LINE
  5
5F4
100
AcDbEntity
  8
0
  6
CONTINUOUS
 62
               4
100
AcDbLine
 10
59.5
 20
-66.0
 30
0.0
 11
44.5
 21
-66.0
 31
0.0
  0
LINE
  5
5F5
100
AcDbEntity
  8
0
  6
CONTINUOUS
 62
               4
100
AcDbLine
 10
60.5
 20
-65.0
 30
0.0
 11
43.5
 21
-65.0
 31
0.0
  0
LINE
  5
5F6
100
AcDbEntity
  8
0
  6
CONTINUOUS
 62
               4
100
AcDbLine
 10
60.5
 20
-65.0
 30
0.0
 11
60.5
 21
-60.5
 31
0.0
  0
LINE
  5
5F7
100
AcDbEntity
  8
0
  6
CONTINUOUS
 62
               4
100
AcDbLine
 10
43.5
 20
-65.0
 30
0.0
 11
43.5
 21
-60.5
 31
0.0
  0
LINE
  5
5F8
100
AcDbEntity
  8
0
  6
CONTINUOUS
 62
               4
100
AcDbLine
 10
60.5
 20
-75.0
 30
0.0
 11
60.0
 21
-75.5
 31
0.0
  0
LINE
  5
5F9
100
AcDbEntity
  8
0
  6
CONTINUOUS
 62
               4
100
AcDbLine
 10
44.0
 20
-75.5
 30
0.0
 11
43.5
 21
-75.0
 31
0.0
  0
LINE
  5
5FA
100
AcDbEntity
  8
0
  6
CONTINUOUS
 62
               4
100
AcDbLine
 10
44.5
 20
-68.0
 30
0.0
 11
44.5
 21
-66.0
 31
0.0
  0
LINE
  5
5FB
100
AcDbEntity
  8
0
  6
CONTINUOUS
 62
               4
100
AcDbLine
 10
59.5
 20
-68.0
 30
0.0
 11
59.5
 21
-66.0
 31
0.0
  0
LINE
  5
5FC
100
AcDbEntity
  8
0
  6
CONTINUOUS
 62
               4
100
AcDbLine
 10
60.5
 20
-69.0
 30
0.0
 11
59.5
 21
-68.0
 31
0.0
  0
LINE
  5
5FD
100
AcDbEntity
  8
0
  6
CONTINUOUS
 62
               4
100
AcDbLine
 10
59.5
 20
-66.0
 30
0.0
 11
60.5
 21
-65.0
 31
0.0
  0
LINE
  5
5FE
100
AcDbEntity
  8
0
  6
CONTINUOUS
 62
               4
100
AcDbLine
 10
43.5
 20
-69.0
 30
0.0
 11
44.5
 21
-68.0
 31
0.0
  0
LINE
  5
5FF
100
AcDbEntity
  8
0
  6
CONTINUOUS
 62
               4
100
AcDbLine
 10
44.5
 20
-66.0
 30
0.0
 11
43.5
 21
-65.0
 31
0.0
  0
LINE
  5
600
100
AcDbEntity
  8
0
  6
CONTINUOUS
 62
               4
100
AcDbLine
 10
57.5
 20
-77.5
 30
0.0
 11
57.5
 21
-75.5
 31
0.0
  0
LINE
  5
601
100
AcDbEntity
  8
0
  6
CONTINUOUS
 62
               4
100
AcDbLine
 10
27.5
 20
-77.5
 30
0.0
 11
27.5
 21
-75.5
 31
0.0
  0
LINE
  5
602
100
AcDbEntity
  8
0
  6
CONTINUOUS
 62
               4
100
AcDbLine
 10
41.0
 20
-79.0
 30
0.0
 11
25.0
 21
-79.0
 31
0.0
  0
LINE
  5
603
100
AcDbEntity
  8
0
  6
CONTINUOUS
 62
               4
100
AcDbLine
 10
41.0
 20
-79.0
 30
0.0
 11
41.0
 21
-77.5
 31
0.0
  0
LINE
  5
604
100
AcDbEntity
  8
0
  6
CONTINUOUS
 62
               7
100
AcDbLine
 10
-5.0
 20
28.0
 30
0.0
 11
6.9999753662506237
 21
28.0
 31
0.0
  0
LINE
  5
605
100
AcDbEntity
  8
0
  6
CONTINUOUS
 62
               7
100
AcDbLine
 10
21.000032489731304
 20
28.0
 30
0.0
 11
25.999993238696064
 21
28.0
 31
0.0
  0
LINE
  5
606
100
AcDbEntity
  8
0
  6
CONTINUOUS
 62
               7
100
AcDbLine
 10
39.999981880187988
 20
28.0
 30
0.0
 11
44.999993238696064
 21
28.0
 31
0.0
  0
LINE
  5
607
100
AcDbEntity
  8
0
  6
CONTINUOUS
 62
               7
100
AcDbLine
 10
58.999998318905455
 20
28.000002337865226
 30
0.0
 11
90.0
 21
28.000002337865226
 31
0.0
  0
LINE
  5
608
100
AcDbEntity
  8
0
  6
CONTINUOUS
 62
               7
100
AcDbLine
 10
3.25
 20
1.0000152587890625
 30
0.0
 11
3.2499542236328125
 21
1.0000152587890625
 31
0.0
  0
CIRCLE
  5
609
100
AcDbEntity
  8
0
  6
CONTINUOUS
 62
               7
100
AcDbCircle
 10
85.0
 20
0.0
 30
0.0
 40
2.25
  0
LINE
  5
60A
100
AcDbEntity
  8
0
  6
CENTER
 62
               2
100
AcDbLine
 10
85.0
 20
-3.25
 30
0.0
 11
85.0
 21
3.25
 31
0.0
  0
LINE
  5
60B
100
AcDbEntity
  8
0
  6
CENTER
 62
               2
100
AcDbLine
 10
81.75
 20
0.0
 30
0.0
 11
88.25
 21
0.0
 31
0.0
  0
CIRCLE
  5
60C
100
AcDbEntity
  8
0
  6
CONTINUOUS
 62
               7
100
AcDbCircle
 10
85.0
 20
-23.0
 30
0.0
 40
2.25
  0
LINE
  5
60D
100
AcDbEntity
  8
0
  6
CENTER
 62
               2
100
AcDbLine
 10
81.75
 20
-23.0
 30
0.0
 11
88.25
 21
-23.0
 31
0.0
  0
LINE
  5
60E
100
AcDbEntity
  8
0
  6
CENTER
 62
               2
100
AcDbLine
 10
85.0
 20
-26.25
 30
0.0
 11
85.0
 21
-19.75
 31
0.0
  0
ENDBLK
  5
60F
100
AcDbEntity
  8
0
100
AcDbBlockEnd
  0
BLOCK
  5
610
100
AcDbEntity
  8
0
100
AcDbBlockBegin
  2
MS_5
 70
               0
 10
0.0
 20
0.0
 30
0.0
  3
MS_5
  1

  0
LINE
  5
611
100
AcDbEntity
  8
0
  6
CONTINUOUS
 62
               7
100
AcDbLine
 10
53.499997527443952
 20
22.749984741210824
 30
0.0
 11
52.999997527443952
 21
22.749984703461905
 31
0.0
  0
LINE
  5
612
100
AcDbEntity
  8
0
  6
CONTINUOUS
 62
               7
100
AcDbLine
 10
53.500002000694195
 20
-36.500015258789006
 30
0.0
 11
53.000002000694195
 21
-36.500015296537924
 31
0.0
  0
LINE
  5
613
100
AcDbEntity
  8
0
  6
CONTINUOUS
 62
               7
100
AcDbLine
 10
85.5
 20
15.5
 30
0.0
 11
53.5
 21
15.5
 31
0.0
  0
LINE
  5
614
100
AcDbEntity
  8
0
  6
CONTINUOUS
 62
               7
100
AcDbLine
 10
53.5
 20
-60.000011444091797
 30
0.0
 11
53.5
 21
25.5
 31
0.0
  0
LINE
  5
615
100
AcDbEntity
  8
0
  6
CONTINUOUS
 62
               7
100
AcDbLine
 10
85.5
 20
-40.500015258789063
 30
0.0
 11
85.5
 21
25.5
 31
0.0
  0
LINE
  5
616
100
AcDbEntity
  8
0
  6
CONTINUOUS
 62
               7
100
AcDbLine
 10
87.5
 20
-37.500015258789063
 30
0.0
 11
53.5
 21
-37.500015258789063
 31
0.0
  0
LINE
  5
617
100
AcDbEntity
  8
0
  6
CONTINUOUS
 62
               7
100
AcDbLine
 10
87.5
 20
-49.500015258789063
 30
0.0
 11
53.5
 21
-49.500015258789063
 31
0.0
  0
LINE
  5
618
100
AcDbEntity
  8
0
  6
CONTINUOUS
 62
               7
100
AcDbLine
 10
87.5
 20
-60.000011444091797
 30
0.0
 11
87.5
 21
-48.500015258789063
 31
0.0
  0
LINE
  5
619
100
AcDbEntity
  8
0
  6
CONTINUOUS
 62
               7
100
AcDbLine
 10
90.5
 20
-35.300018310546875
 30
0.0
 11
90.5
 21
13.29998779296875
 31
0.0
  0
LINE
  5
61A
100
AcDbEntity
  8
0
  6
CONTINUOUS
 62
               7
100
AcDbLine
 10
88.5
 20
-37.300018310546875
 30
0.0
 11
85.5
 21
-37.300018310546875
 31
0.0
  0
LINE
  5
61B
100
AcDbEntity
  8
0
  6
CONTINUOUS
 62
               7
100
AcDbLine
 10
88.5
 20
15.29998779296875
 30
0.0
 11
85.5
 21
15.29998779296875
 31
0.0
  0
LINE
  5
61C
100
AcDbEntity
  8
0
  6
CONTINUOUS
 62
               7
100
AcDbLine
 10
90.499992918772477
 20
13.300001180146864
 30
0.0
 11
88.500007485719834
 21
15.299998582852822
 31
0.0
  0
LINE
  5
61D
100
AcDbEntity
  8
0
  6
CONTINUOUS
 62
               7
100
AcDbLine
 10
90.500015357762095
 20
-35.300007575715426
 30
0.0
 11
88.499998567454895
 21
-37.300016610952298
 31
0.0
  0
LINE
  5
61E
100
AcDbEntity
  8
0
  6
CONTINUOUS
 62
               7
100
AcDbLine
 10
87.0
 20
-60.500003814697266
 30
0.0
 11
54.0
 21
-60.500003814697266
 31
0.0
  0
LINE
  5
61F
100
AcDbEntity
  8
0
  6
CENTER
 62
               7
100
AcDbLine
 10
85.0
 20
35.699996948242187
 30
0.0
 11
82.299995422363281
 21
35.699996948242187
 31
0.0
  0
LINE
  5
620
100
AcDbEntity
  8
0
  6
CONTINUOUS
 62
               7
100
AcDbLine
 10
83.0
 20
38.899993896484375
 30
0.0
 11
56.0
 21
38.899993896484375
 31
0.0
  0
LINE
  5
621
100
AcDbEntity
  8
0
  6
CONTINUOUS
 62
               7
100
AcDbLine
 10
84.0
 20
33.75
 30
0.0
 11
84.0
 21
35.399993896484375
 31
0.0
  0
LINE
  5
622
100
AcDbEntity
  8
0
  6
CONTINUOUS
 62
               7
100
AcDbLine
 10
84.0
 20
33.75
 30
0.0
 11
83.0
 21
33.75
 31
0.0
  0
LINE
  5
623
100
AcDbEntity
  8
0
  6
CONTINUOUS
 62
               7
100
AcDbLine
 10
84.0
 20
37.649993896484375
 30
0.0
 11
83.0
 21
37.649993896484375
 31
0.0
  0
LINE
  5
624
100
AcDbEntity
  8
0
  6
CONTINUOUS
 62
               7
100
AcDbLine
 10
83.399993896484375
 20
35.399993896484375
 30
0.0
 11
83.399993896484375
 21
36.0
 31
0.0
  0
LINE
  5
625
100
AcDbEntity
  8
0
  6
CONTINUOUS
 62
               7
100
AcDbLine
 10
84.0
 20
35.399993896484375
 30
0.0
 11
83.399993896484375
 21
35.399993896484375
 31
0.0
  0
LINE
  5
626
100
AcDbEntity
  8
0
  6
CONTINUOUS
 62
               7
100
AcDbLine
 10
84.0
 20
36.0
 30
0.0
 11
83.399993896484375
 21
36.0
 31
0.0
  0
LINE
  5
627
100
AcDbEntity
  8
0
  6
CONTINUOUS
 62
               7
100
AcDbLine
 10
84.0
 20
36.0
 30
0.0
 11
84.0
 21
37.649993896484375
 31
0.0
  0
LINE
  5
628
100
AcDbEntity
  8
0
  6
CONTINUOUS
 62
               7
100
AcDbLine
 10
83.0
 20
28.0
 30
0.0
 11
83.0
 21
39.0
 31
0.0
  0
LINE
  5
629
100
AcDbEntity
  8
0
  6
CONTINUOUS
 62
               7
100
AcDbLine
 10
56.0
 20
28.0
 30
0.0
 11
56.0
 21
39.0
 31
0.0
  0
LINE
  5
62A
100
AcDbEntity
  8
0
  6
CONTINUOUS
 62
               7
100
AcDbLine
 10
87.5
 20
-46.600006103515625
 30
0.0
 11
87.5
 21
-40.400009155273438
 31
0.0
  0
LINE
  5
62B
100
AcDbEntity
  8
0
  6
CONTINUOUS
 62
               7
100
AcDbLine
 10
89.5
 20
-47.500015258789063
 30
0.0
 11
89.5
 21
-39.500015258789063
 31
0.0
  0
LINE
  5
62C
100
AcDbEntity
  8
0
  6
CONTINUOUS
 62
               7
100
AcDbLine
 10
88.499959784086968
 20
-38.500037634963519
 30
0.0
 11
89.499973574047544
 21
-39.50004763166271
 31
0.0
  0
LINE
  5
62D
100
AcDbEntity
  8
0
  6
CONTINUOUS
 62
               7
100
AcDbLine
 10
88.500075266929343
 20
-48.500071092629582
 30
0.0
 11
89.500051124829952
 21
-47.50007997782086
 31
0.0
  0
LINE
  5
62E
100
AcDbEntity
  8
0
  6
CONTINUOUS
 62
               7
100
AcDbLine
 10
88.300003051757813
 20
-46.600006103515625
 30
0.0
 11
88.300003051757813
 21
-40.400009155273438
 31
0.0
  0
LINE
  5
62F
100
AcDbEntity
  8
0
  6
CONTINUOUS
 62
               7
100
AcDbLine
 10
88.5
 20
-48.500015258789063
 30
0.0
 11
88.5
 21
-38.500015258789063
 31
0.0
  0
LINE
  5
630
100
AcDbEntity
  8
0
  6
CONTINUOUS
 62
               7
100
AcDbLine
 10
87.5
 20
-46.500015258789063
 30
0.0
 11
85.5
 21
-46.500015258789063
 31
0.0
  0
LINE
  5
631
100
AcDbEntity
  8
0
  6
CONTINUOUS
 62
               7
100
AcDbLine
 10
87.5
 20
-40.500015258789063
 30
0.0
 11
85.5
 21
-40.500015258789063
 31
0.0
  0
LINE
  5
632
100
AcDbEntity
  8
0
  6
CONTINUOUS
 62
               7
100
AcDbLine
 10
86.5
 20
-49.500015258789063
 30
0.0
 11
86.5
 21
-48.500015258789063
 31
0.0
  0
LINE
  5
633
100
AcDbEntity
  8
0
  6
CONTINUOUS
 62
               7
100
AcDbLine
 10
85.5
 20
-49.500015258789063
 30
0.0
 11
85.5
 21
-46.500015258789063
 31
0.0
  0
LINE
  5
634
100
AcDbEntity
  8
0
  6
CONTINUOUS
 62
               7
100
AcDbLine
 10
86.5
 20
-40.500015258789063
 30
0.0
 11
86.5
 21
-40.400009155273438
 31
0.0
  0
LINE
  5
635
100
AcDbEntity
  8
0
  6
CONTINUOUS
 62
               7
100
AcDbLine
 10
85.599998474121094
 20
-48.500015258789063
 30
0.0
 11
85.599998474121094
 21
-46.600006103515625
 31
0.0
  0
LINE
  5
636
100
AcDbEntity
  8
0
  6
CONTINUOUS
 62
               7
100
AcDbLine
 10
88.300003051757813
 20
-40.400009155273438
 30
0.0
 11
85.600006103515625
 21
-40.400009155273438
 31
0.0
  0
LINE
  5
637
100
AcDbEntity
  8
0
  6
CONTINUOUS
 62
               7
100
AcDbLine
 10
88.300003051757813
 20
-46.600006103515625
 30
0.0
 11
85.600006103515625
 21
-46.600006103515625
 31
0.0
  0
LINE
  5
638
100
AcDbEntity
  8
0
  6
CONTINUOUS
 62
               7
100
AcDbLine
 10
85.599998474121094
 20
-40.400009155273438
 30
0.0
 11
85.599998474121094
 21
-38.500015258789063
 31
0.0
  0
LINE
  5
639
100
AcDbEntity
  8
0
  6
CONTINUOUS
 62
               7
100
AcDbLine
 10
88.5
 20
-48.500015258789063
 30
0.0
 11
85.600006103515625
 21
-48.500015258789063
 31
0.0
  0
LINE
  5
63A
100
AcDbEntity
  8
0
  6
CONTINUOUS
 62
               7
100
AcDbLine
 10
88.5
 20
-38.500015258789063
 30
0.0
 11
85.600006103515625
 21
-38.500015258789063
 31
0.0
  0
LINE
  5
63B
100
AcDbEntity
  8
0
  6
CONTINUOUS
 62
               7
100
AcDbLine
 10
87.5
 20
-38.500015258789063
 30
0.0
 11
87.5
 21
-37.500015258789063
 31
0.0
  0
LINE
  5
63C
100
AcDbEntity
  8
0
  6
CONTINUOUS
 62
               7
100
AcDbLine
 10
86.5
 20
-46.600006103515625
 30
0.0
 11
86.5
 21
-46.500015258789063
 31
0.0
  0
LINE
  5
63D
100
AcDbEntity
  8
0
  6
CONTINUOUS
 62
               7
100
AcDbLine
 10
86.5
 20
-38.500015258789063
 30
0.0
 11
86.5
 21
-37.500015258789063
 31
0.0
  0
LINE
  5
63E
100
AcDbEntity
  8
0
  6
CONTINUOUS
 62
               7
100
AcDbLine
 10
90.5
 20
7.9999847412109375
 30
0.0
 11
88.5
 21
7.9999847412109375
 31
0.0
  0
LINE
  5
63F
100
AcDbEntity
  8
0
  6
CONTINUOUS
 62
               7
100
AcDbLine
 10
90.5
 20
-28.000015258789063
 30
0.0
 11
85.5
 21
-28.000015258789063
 31
0.0
  0
LINE
  5
640
100
AcDbEntity
  8
0
  6
CONTINUOUS
 62
               7
100
AcDbLine
 10
90.5
 20
-34.000015258789063
 30
0.0
 11
85.5
 21
-34.000015258789063
 31
0.0
  0
LINE
  5
641
100
AcDbEntity
  8
0
  6
CONTINUOUS
 62
               7
100
AcDbLine
 10
85.5
 20
25.5
 30
0.0
 11
53.5
 21
25.5
 31
0.0
  0
LINE
  5
642
100
AcDbEntity
  8
0
  6
CONTINUOUS
 62
               7
100
AcDbLine
 10
85.699996948242188
 20
-60.500003814697266
 30
0.0
 11
85.699996948242188
 21
-58.000003814697266
 31
0.0
  0
LINE
  5
643
100
AcDbEntity
  8
0
  6
CONTINUOUS
 62
               7
100
AcDbLine
 10
79.300003051757813
 20
-60.500003814697266
 30
0.0
 11
79.300003051757813
 21
-58.000003814697266
 31
0.0
  0
LINE
  5
644
100
AcDbEntity
  8
0
  6
CONTINUOUS
 62
               7
100
AcDbLine
 10
85.699996948242188
 20
-58.000003814697266
 30
0.0
 11
79.300003051757813
 21
-58.000003814697266
 31
0.0
  0
LINE
  5
645
100
AcDbEntity
  8
0
  6
CONTINUOUS
 62
               7
100
AcDbLine
 10
83.75
 20
-60.000003814697266
 30
0.0
 11
81.25
 21
-60.000003814697266
 31
0.0
  0
LINE
  5
646
100
AcDbEntity
  8
0
  6
CONTINUOUS
 62
               7
100
AcDbLine
 10
85.25
 20
-58.500003814697266
 30
0.0
 11
85.25
 21
-58.000003814697266
 31
0.0
  0
LINE
  5
647
100
AcDbEntity
  8
0
  6
CONTINUOUS
 62
               7
100
AcDbLine
 10
79.75
 20
-58.500003814697266
 30
0.0
 11
79.75
 21
-58.000003814697266
 31
0.0
  0
LINE
  5
648
100
AcDbEntity
  8
0
  6
CONTINUOUS
 62
               7
100
AcDbLine
 10
88.5
 20
7.9999847412109375
 30
0.0
 11
88.5
 21
15.29998779296875
 31
0.0
  0
LINE
  5
649
100
AcDbEntity
  8
0
  6
CONTINUOUS
 62
               7
100
AcDbLine
 10
89.0
 20
8.249969482421875
 30
0.0
 11
88.5
 21
8.249969482421875
 31
0.0
  0
LINE
  5
64A
100
AcDbEntity
  8
0
  6
CONTINUOUS
 62
               7
100
AcDbLine
 10
89.0
 20
13.749969482421875
 30
0.0
 11
88.5
 21
13.749969482421875
 31
0.0
  0
LINE
  5
64B
100
AcDbEntity
  8
0
  6
CONTINUOUS
 62
               7
100
AcDbLine
 10
57.0
 20
29.5
 30
0.0
 11
56.0
 21
29.5
 31
0.0
  0
LINE
  5
64C
100
AcDbEntity
  8
0
  6
CONTINUOUS
 62
               7
100
AcDbLine
 10
57.0
 20
28.0
 30
0.0
 11
57.0
 21
29.5
 31
0.0
  0
LINE
  5
64D
100
AcDbEntity
  8
0
  6
CONTINUOUS
 62
               7
100
AcDbLine
 10
78.699996948242188
 20
29.5
 30
0.0
 11
59.5
 21
29.5
 31
0.0
  0
LINE
  5
64E
100
AcDbEntity
  8
0
  6
CONTINUOUS
 62
               7
100
AcDbLine
 10
59.5
 20
28.0
 30
0.0
 11
59.5
 21
29.5
 31
0.0
  0
LINE
  5
64F
100
AcDbEntity
  8
0
  6
CONTINUOUS
 62
               7
100
AcDbLine
 10
78.699996948242188
 20
28.0
 30
0.0
 11
78.699996948242188
 21
29.5
 31
0.0
  0
LINE
  5
650
100
AcDbEntity
  8
0
  6
CONTINUOUS
 62
               7
100
AcDbLine
 10
81.699996948242188
 20
28.0
 30
0.0
 11
81.699996948242188
 21
29.5
 31
0.0
  0
LINE
  5
651
100
AcDbEntity
  8
0
  6
CONTINUOUS
 62
               7
100
AcDbLine
 10
83.0
 20
29.5
 30
0.0
 11
81.699996948242188
 21
29.5
 31
0.0
  0
LINE
  5
652
100
AcDbEntity
  8
0
  6
CONTINUOUS
 62
               7
100
AcDbLine
 10
86.700000762939453
 20
-33.750015258789062
 30
0.0
 11
86.200000762939453
 21
-33.750015258789062
 31
0.0
  0
LINE
  5
653
100
AcDbEntity
  8
0
  6
CONTINUOUS
 62
               7
100
AcDbLine
 10
88.200000762939453
 20
-32.250015258789063
 30
0.0
 11
88.200000762939453
 21
-29.750015258789062
 31
0.0
  0
LINE
  5
654
100
AcDbEntity
  8
0
  6
CONTINUOUS
 62
               7
100
AcDbLine
 10
86.200000762939453
 20
-33.95001220703125
 30
0.0
 11
86.200000762939453
 21
-28.050018310546875
 31
0.0
  0
LINE
  5
655
100
AcDbEntity
  8
0
  6
CONTINUOUS
 62
               7
100
AcDbLine
 10
86.200000762939453
 20
-28.050018310546875
 30
0.0
 11
85.5
 21
-28.050018310546875
 31
0.0
  0
LINE
  5
656
100
AcDbEntity
  8
0
  6
CONTINUOUS
 62
               7
100
AcDbLine
 10
86.200000762939453
 20
-33.95001220703125
 30
0.0
 11
85.5
 21
-33.95001220703125
 31
0.0
  0
LINE
  5
657
100
AcDbEntity
  8
0
  6
CONTINUOUS
 62
               7
100
AcDbLine
 10
86.700000762939453
 20
-28.250015258789063
 30
0.0
 11
86.200000762939453
 21
-28.250015258789063
 31
0.0
  0
LINE
  5
658
100
AcDbEntity
  8
0
  6
CONTINUOUS
 62
               7
100
AcDbLine
 10
85.500003248125722
 20
-31.697052469534469
 30
0.0
 11
86.200000070789429
 21
-31.29290918427705
 31
0.0
  0
LINE
  5
659
100
AcDbEntity
  8
0
  6
CONTINUOUS
 62
               7
100
AcDbLine
 10
85.500003684112926
 20
-30.707127705613857
 30
0.0
 11
86.200002158589086
 21
-30.302983466682235
 31
0.0
  0
ARC
  5
65A
100
AcDbEntity
  8
0
  6
CONTINUOUS
 62
               7
100
AcDbCircle
 10
54.0
 20
-60.000003814697266
 30
0.0
 40
0.5
100
AcDbArc
 50
180.0000359721783
 51
270.00007262760209
  0
ARC
  5
65B
100
AcDbEntity
  8
0
  6
CONTINUOUS
 62
               7
100
AcDbCircle
 10
87.0
 20
-60.000003814697266
 30
0.0
 40
0.5
100
AcDbArc
 50
270.00007262760209
 51
0.0000409811350201
  0
ARC
  5
65C
100
AcDbEntity
  8
0
  6
CONTINUOUS
 62
               7
100
AcDbCircle
 10
56.499969482421875
 20
28.50006103515625
 30
0.0
 40
2.5000734329223633
100
AcDbArc
 50
220.54021397943868
 51
348.46195609548801
  0
ARC
  5
65D
100
AcDbEntity
  8
0
  6
CONTINUOUS
 62
               7
100
AcDbCircle
 10
81.25
 20
-58.500003814697266
 30
0.0
 40
1.5
100
AcDbArc
 50
179.99998133066492
 51
270.00001798608872
  0
ARC
  5
65E
100
AcDbEntity
  8
0
  6
CONTINUOUS
 62
               7
100
AcDbCircle
 10
83.75
 20
-58.500003814697266
 30
0.0
 40
1.5
100
AcDbArc
 50
270.00001798608872
 51
0.0
  0
ARC
  5
65F
100
AcDbEntity
  8
0
  6
CONTINUOUS
 62
               7
100
AcDbCircle
 10
89.0
 20
12.249969482421875
 30
0.0
 40
1.5
100
AcDbArc
 50
0.0
 51
89.999982013910454
  0
ARC
  5
660
100
AcDbEntity
  8
0
  6
CONTINUOUS
 62
               7
100
AcDbCircle
 10
89.0
 20
9.749969482421875
 30
0.0
 40
1.5
100
AcDbArc
 50
270.00001798608872
 51
0.0
  0
ARC
  5
661
100
AcDbEntity
  8
0
  6
CONTINUOUS
 62
               7
100
AcDbCircle
 10
86.700000762939453
 20
-32.250015258789063
 30
0.0
 40
1.5
100
AcDbArc
 50
270.00001798608872
 51
0.0
  0
ARC
  5
662
100
AcDbEntity
  8
0
  6
CONTINUOUS
 62
               7
100
AcDbCircle
 10
86.700000762939453
 20
-29.750015258789062
 30
0.0
 40
1.5
100
AcDbArc
 50
0.0
 51
89.999982013910454
  0
LINE
  5
663
100
AcDbEntity
  8
0
  6
CONTINUOUS
 62
               7
100
AcDbLine
 10
83.5
 20
28.0
 30
0.0
 11
55.5
 21
28.0
 31
0.0
  0
LINE
  5
664
100
AcDbEntity
  8
0
  6
CONTINUOUS
 62
               7
100
AcDbLine
 10
53.499997703080226
 20
25.500014234840819
 30
0.0
 11
55.500001802391125
 21
28.000019358979443
 31
0.0
  0
LINE
  5
665
100
AcDbEntity
  8
0
  6
CONTINUOUS
 62
               7
100
AcDbLine
 10
85.500003716490937
 20
25.50000470275063
 30
0.0
 11
83.499999617180038
 21
28.000009826889254
 31
0.0
  0
CIRCLE
  5
666
100
AcDbEntity
  8
0
  6
CONTINUOUS
 62
               2
100
AcDbCircle
 10
25.000015258789063
 20
12.999984741210938
 30
0.0
 40
8.3310003280639648
  0
CIRCLE
  5
667
100
AcDbEntity
  8
0
  6
CONTINUOUS
 62
               2
100
AcDbCircle
 10
25.0
 20
-11.50006103515625
 30
0.0
 40
8.3310003280639648
  0
CIRCLE
  5
668
100
AcDbEntity
  8
0
  6
CONTINUOUS
 62
               2
100
AcDbCircle
 10
25.0
 20
-36.0
 30
0.0
 40
8.3310003280639648
  0
CIRCLE
  5
669
100
AcDbEntity
  8
0
  6
CONTINUOUS
 62
               7
100
AcDbCircle
 10
25.000015258789063
 20
12.999984741210938
 30
0.0
 40
7.4750003814697266
  0
CIRCLE
  5
66A
100
AcDbEntity
  8
0
  6
CONTINUOUS
 62
               7
100
AcDbCircle
 10
25.0
 20
-11.50006103515625
 30
0.0
 40
7.4750003814697266
  0
CIRCLE
  5
66B
100
AcDbEntity
  8
0
  6
CONTINUOUS
 62
               7
100
AcDbCircle
 10
25.0
 20
-36.0
 30
0.0
 40
7.4750003814697266
  0
LINE
  5
66C
100
AcDbEntity
  8
0
  6
CONTINUOUS
 62
               7
100
AcDbLine
 10
53.0
 20
28.0
 30
0.0
 11
53.0
 21
-48.0
 31
0.0
  0
LINE
  5
66D
100
AcDbEntity
  8
0
  6
CONTINUOUS
 62
               7
100
AcDbLine
 10
0.0
 20
16.499954223632812
 30
0.0
 11
0.0
 21
28.0
 31
0.0
  0
LINE
  5
66E
100
AcDbEntity
  8
0
  6
CENTER
 62
               2
100
AcDbLine
 10
25.0
 20
-50.84747314453125
 30
0.0
 11
25.0
 21
25.014975455664683
 31
0.0
  0
LINE
  5
66F
100
AcDbEntity
  8
0
  6
CONTINUOUS
 62
               7
100
AcDbLine
 10
53.0
 20
-48.0
 30
0.0
 11
0.0
 21
-48.0
 31
0.0
  0
LINE
  5
670
100
AcDbEntity
  8
0
  6
CONTINUOUS
 62
               7
100
AcDbLine
 10
6.0
 20
10.499954223632812
 30
0.0
 11
6.0
 21
-34.500045776367188
 31
0.0
  0
LINE
  5
671
100
AcDbEntity
  8
0
  6
CONTINUOUS
 62
               7
100
AcDbLine
 10
6.0000050918661714
 20
10.499945759898822
 30
0.0
 11
-0.0000012776708331
 21
16.499952129435826
 31
0.0
  0
LINE
  5
672
100
AcDbEntity
  8
0
  6
CONTINUOUS
 62
               7
100
AcDbLine
 10
6.0000084636139945
 20
-34.500033902322684
 30
0.0
 11
0.00000209407699
 21
-40.500040271859689
 31
0.0
  0
LINE
  5
673
100
AcDbEntity
  8
0
  6
CONTINUOUS
 62
               7
100
AcDbLine
 10
0.0
 20
-40.500045776367188
 30
0.0
 11
0.0
 21
-48.0
 31
0.0
  0
LINE
  5
674
100
AcDbEntity
  8
0
  6
CENTER
 62
               2
100
AcDbLine
 10
13.572891235351562
 20
-36.0
 30
0.0
 11
36.079940795898437
 21
-36.0
 31
0.0
  0
LINE
  5
675
100
AcDbEntity
  8
0
  6
CENTER
 62
               2
100
AcDbLine
 10
13.68023681640625
 20
-11.5
 30
0.0
 11
36.079940795898437
 21
-11.5
 31
0.0
  0
LINE
  5
676
100
AcDbEntity
  8
0
  6
CENTER
 62
               2
100
AcDbLine
 10
13.68023681640625
 20
13.0
 30
0.0
 11
36.079940795898437
 21
13.0
 31
0.0
  0
LINE
  5
677
100
AcDbEntity
  8
0
  6
CONTINUOUS
 62
               7
100
AcDbLine
 10
56.0
 20
39.0
 30
0.0
 11
83.0
 21
39.0
 31
0.0
  0
LINE
  5
678
100
AcDbEntity
  8
0
  6
CONTINUOUS
 62
               4
100
AcDbLine
 10
56.0
 20
39.0
 30
0.0
 11
56.0
 21
63.0
 31
0.0
  0
LINE
  5
679
100
AcDbEntity
  8
0
  6
CONTINUOUS
 62
               4
100
AcDbLine
 10
83.0
 20
39.0
 30
0.0
 11
83.0
 21
63.0
 31
0.0
  0
LINE
  5
67A
100
AcDbEntity
  8
0
  6
CONTINUOUS
 62
               4
100
AcDbLine
 10
67.099999999999994
 20
72.0
 30
0.0
 11
80.674999999999983
 21
72.0
 31
0.0
  0
LINE
  5
67B
100
AcDbEntity
  8
0
  6
CONTINUOUS
 62
               4
100
AcDbLine
 10
56.0
 20
71.5
 30
0.0
 11
56.0
 21
63.0
 31
0.0
  0
LINE
  5
67C
100
AcDbEntity
  8
0
  6
CONTINUOUS
 62
               4
100
AcDbLine
 10
83.0
 20
67.180000000000007
 30
0.0
 11
83.0
 21
63.0
 31
0.0
  0
LINE
  5
67D
100
AcDbEntity
  8
0
  6
CONTINUOUS
 62
               4
100
AcDbLine
 10
81.129999999999995
 20
71.705000000000013
 30
0.0
 11
82.870000000000005
 21
67.789999999999992
 31
0.0
  0
ARC
  5
67E
100
AcDbEntity
  8
0
  6
CONTINUOUS
 62
               4
100
AcDbCircle
 10
80.674020838564047
 20
71.500099937446265
 30
0.0
 40
0.4999010215015999
100
AcDbArc
 50
24.197376208904771
 51
89.887774076864815
  0
ARC
  5
67F
100
AcDbEntity
  8
0
  6
CONTINUOUS
 62
               4
100
AcDbCircle
 10
81.502020395360574
 20
67.179610903929301
 30
0.0
 40
1.4979796551727449
100
AcDbArc
 50
0.0148824203654679
 51
24.046309772710686
  0
LINE
  5
680
100
AcDbEntity
  8
0
  6
CONTINUOUS
 62
               4
100
AcDbLine
 10
58.5
 20
76.5
 30
0.0
 11
58.5
 21
72.0
 31
0.0
  0
LINE
  5
681
100
AcDbEntity
  8
0
  6
CONTINUOUS
 62
               4
100
AcDbLine
 10
58.5
 20
72.0
 30
0.0
 11
56.5
 21
72.0
 31
0.0
  0
ARC
  5
682
100
AcDbEntity
  8
0
  6
CONTINUOUS
 62
               4
100
AcDbCircle
 10
56.5
 20
71.5
 30
0.0
 40
0.5
100
AcDbArc
 50
89.999999999999801
 51
179.9999999999996
  0
LINE
  5
683
100
AcDbEntity
  8
0
  6
CONTINUOUS
 62
             200
100
AcDbLine
 10
65.814994343097709
 20
88.464464815078827
 30
0.0
 11
58.884984189578603
 21
84.46341291056342
 31
0.0
  0
LINE
  5
684
100
AcDbEntity
  8
0
  6
CONTINUOUS
 62
             200
100
AcDbLine
 10
65.815018891472022
 20
89.619105809934808
 30
0.0
 11
58.884989799908539
 21
85.618057246153512
 31
0.0
  0
LINE
  5
685
100
AcDbEntity
  8
0
  6
CONTINUOUS
 62
               4
100
AcDbLine
 10
60.385003662109369
 20
83.0
 30
0.0
 11
60.385003662109369
 21
85.329421997070313
 31
0.0
  0
LINE
  5
686
100
AcDbEntity
  8
0
  6
CONTINUOUS
 62
               4
100
AcDbLine
 10
61.815011596679682
 20
83.0
 30
0.0
 11
61.815011596679682
 21
86.155029296875
 31
0.0
  0
LINE
  5
687
100
AcDbEntity
  8
0
  6
CONTINUOUS
 62
               4
100
AcDbLine
 10
60.700006103515619
 20
96.0
 30
0.0
 11
61.500009155273432
 21
96.0
 31
0.0
  0
LINE
  5
688
100
AcDbEntity
  8
0
  6
CONTINUOUS
 62
               4
100
AcDbLine
 10
60.700006103515619
 20
91.0
 30
0.0
 11
60.700006103515619
 21
95.999984741210938
 31
0.0
  0
LINE
  5
689
100
AcDbEntity
  8
0
  6
CONTINUOUS
 62
               4
100
AcDbLine
 10
61.500009155273432
 20
91.0
 30
0.0
 11
61.500009155273432
 21
96.0
 31
0.0
  0
LINE
  5
68A
100
AcDbEntity
  8
0
  6
CONTINUOUS
 62
               4
100
AcDbLine
 10
60.385003662109369
 20
91.0
 30
0.0
 11
61.815011596679682
 21
91.0
 31
0.0
  0
LINE
  5
68B
100
AcDbEntity
  8
0
  6
CONTINUOUS
 62
               4
100
AcDbLine
 10
60.385003662109369
 20
86.484115600585938
 30
0.0
 11
60.385003662109369
 21
91.0
 31
0.0
  0
LINE
  5
68C
100
AcDbEntity
  8
0
  6
CONTINUOUS
 62
               4
100
AcDbLine
 10
61.815011596679682
 20
87.309738159179688
 30
0.0
 11
61.815011596679682
 21
91.0
 31
0.0
  0
LINE
  5
68D
100
AcDbEntity
  8
0
  6
CONTINUOUS
 62
               4
100
AcDbLine
 10
64.315011596679682
 20
88.75311279296875
 30
0.0
 11
64.315011596679682
 21
91.0
 31
0.0
  0
LINE
  5
68E
100
AcDbEntity
  8
0
  6
CONTINUOUS
 62
               4
100
AcDbLine
 10
62.885003662109369
 20
87.927490234375
 30
0.0
 11
62.885003662109369
 21
91.0
 31
0.0
  0
LINE
  5
68F
100
AcDbEntity
  8
0
  6
CONTINUOUS
 62
               4
100
AcDbLine
 10
64.315011596679682
 20
91.0
 30
0.0
 11
62.885003662109369
 21
91.0
 31
0.0
  0
LINE
  5
690
100
AcDbEntity
  8
0
  6
CONTINUOUS
 62
               4
100
AcDbLine
 10
62.885003662109369
 20
83.0
 30
0.0
 11
62.885003662109369
 21
86.772796630859375
 31
0.0
  0
LINE
  5
691
100
AcDbEntity
  8
0
  6
CONTINUOUS
 62
               4
100
AcDbLine
 10
64.315011596679682
 20
83.0
 30
0.0
 11
64.315011596679682
 21
87.598403930664063
 31
0.0
  0
LINE
  5
692
100
AcDbEntity
  8
0
  6
CONTINUOUS
 62
               4
100
AcDbLine
 10
64.000009155273432
 20
91.0
 30
0.0
 11
64.000009155273432
 21
96.0
 31
0.0
  0
LINE
  5
693
100
AcDbEntity
  8
0
  6
CONTINUOUS
 62
               4
100
AcDbLine
 10
63.200006103515619
 20
91.0
 30
0.0
 11
63.200006103515619
 21
96.0
 31
0.0
  0
LINE
  5
694
100
AcDbEntity
  8
0
  6
CONTINUOUS
 62
               4
100
AcDbLine
 10
64.000009155273432
 20
96.0
 30
0.0
 11
63.200006103515619
 21
96.0
 31
0.0
  0
LINE
  5
695
100
AcDbEntity
  8
0
  6
CONTINUOUS
 62
               4
100
AcDbLine
 10
69.150003051757807
 20
81.5
 30
0.0
 11
69.150003051757807
 21
83.0
 31
0.0
  0
LINE
  5
696
100
AcDbEntity
  8
0
  6
CONTINUOUS
 62
               4
100
AcDbLine
 10
67.150044511604023
 20
81.999958942901685
 30
0.0
 11
67.727396327367927
 21
82.999967647856465
 31
0.0
  0
LINE
  5
697
100
AcDbEntity
  8
0
  6
CONTINUOUS
 62
               4
100
AcDbLine
 10
67.150003051757807
 20
76.5
 30
0.0
 11
67.150003051757807
 21
83.0
 31
0.0
  0
LINE
  5
698
100
AcDbEntity
  8
0
  6
CONTINUOUS
 62
               4
100
AcDbLine
 10
68.150001302236518
 20
72.49845074175937
 30
0.0
 11
68.650000411113609
 21
76.056138825448215
 31
0.0
  0
LINE
  5
699
100
AcDbEntity
  8
0
  6
CONTINUOUS
 62
               4
100
AcDbLine
 10
68.650003051757807
 20
76.05615234375
 30
0.0
 11
68.650003051757807
 21
81.5
 31
0.0
  0
LINE
  5
69A
100
AcDbEntity
  8
0
  6
CONTINUOUS
 62
               4
100
AcDbLine
 10
58.149987792968744
 20
82.0
 30
0.0
 11
58.649987792968744
 21
82.0
 31
0.0
  0
LINE
  5
69B
100
AcDbEntity
  8
0
  6
CONTINUOUS
 62
               4
100
AcDbLine
 10
58.150003051757807
 20
82.0
 30
0.0
 11
58.150003051757807
 21
83.0
 31
0.0
  0
LINE
  5
69C
100
AcDbEntity
  8
0
  6
CONTINUOUS
 62
               4
100
AcDbLine
 10
58.650003051757807
 20
76.5
 30
0.0
 11
58.650003051757807
 21
82.0
 31
0.0
  0
LINE
  5
69D
100
AcDbEntity
  8
0
  6
CONTINUOUS
 62
               4
100
AcDbLine
 10
67.150000209407693
 20
72.498474151870141
 30
0.0
 11
67.099979656101453
 21
72.548494705176381
 31
0.0
  0
LINE
  5
69E
100
AcDbEntity
  8
0
  6
CONTINUOUS
 62
               4
100
AcDbLine
 10
68.649995422363276
 20
81.5
 30
0.0
 11
69.149995422363276
 21
81.5
 31
0.0
  0
LINE
  5
69F
100
AcDbEntity
  8
0
  6
CONTINUOUS
 62
               4
100
AcDbLine
 10
67.150003051757807
 20
73.998458862304687
 30
0.0
 11
67.150003051757807
 21
76.5
 31
0.0
  0
LINE
  5
6A0
100
AcDbEntity
  8
0
  6
CONTINUOUS
 62
               4
100
AcDbLine
 10
67.150003051757807
 20
72.498458862304688
 30
0.0
 11
68.149995422363276
 21
72.498458862304688
 31
0.0
  0
LINE
  5
6A1
100
AcDbEntity
  8
0
  6
CONTINUOUS
 62
               4
100
AcDbLine
 10
67.099999999999994
 20
73.998458862304687
 30
0.0
 11
67.150003051757807
 21
73.998458862304687
 31
0.0
  0
LINE
  5
6A2
100
AcDbEntity
  8
0
  6
CONTINUOUS
 62
               4
100
AcDbLine
 10
67.727349853515619
 20
83.0
 30
0.0
 11
69.149995422363276
 21
83.0
 31
0.0
  0
LINE
  5
6A3
100
AcDbEntity
  8
0
  6
CONTINUOUS
 62
               4
100
AcDbLine
 10
58.5
 20
76.5
 30
0.0
 11
67.150003051757807
 21
76.5
 31
0.0
  0
LINE
  5
6A4
100
AcDbEntity
  8
0
  6
CONTINUOUS
 62
               4
100
AcDbLine
 10
58.149987792968744
 20
83.0
 30
0.0
 11
67.149987792968744
 21
83.0
 31
0.0
  0
LINE
  5
6A5
100
AcDbEntity
  8
0
  6
CONTINUOUS
 62
               4
100
AcDbLine
 10
67.099999999999994
 20
76.5
 30
0.0
 11
67.099999999999994
 21
72.0
 31
0.0
  0
LINE
  5
6A6
100
AcDbEntity
  8
0
  6
CONTINUOUS
 62
               4
100
AcDbLine
 10
56.0
 20
63.0
 30
0.0
 11
82.999992370605469
 21
63.0
 31
0.0
  0
LINE
  5
6A7
100
AcDbEntity
  8
0
  6
CENTER
 62
             200
100
AcDbLine
 10
48.5
 20
-54.379999999999995
 30
0.0
 11
48.5
 21
-46.879999999999995
 31
0.0
  0
LINE
  5
6A8
100
AcDbEntity
  8
0
  6
CENTER
 62
             200
100
AcDbLine
 10
4.5
 20
-54.379999999999995
 30
0.0
 11
4.5
 21
-46.879999999999995
 31
0.0
  0
LINE
  5
6A9
100
AcDbEntity
  8
0
  6
CENTER
 62
             200
100
AcDbLine
 10
17.0
 20
-80.340000000000032
 30
0.0
 11
17.0
 21
-46.879999999999995
 31
0.0
  0
LINE
  5
6AA
100
AcDbEntity
  8
0
  6
CENTER
 62
             200
100
AcDbLine
 10
36.0
 20
-80.340000000000032
 30
0.0
 11
36.0
 21
-46.879999999999995
 31
0.0
  0
LINE
  5
6AB
100
AcDbEntity
  8
0
  6
CONTINUOUS
 62
               4
100
AcDbLine
 10
3.5
 20
-53.0
 30
0.0
 11
3.5
 21
-48.0
 31
0.0
  0
LINE
  5
6AC
100
AcDbEntity
  8
0
  6
CONTINUOUS
 62
               4
100
AcDbLine
 10
9.5
 20
-53.0
 30
0.0
 11
9.5
 21
-48.0
 31
0.0
  0
LINE
  5
6AD
100
AcDbEntity
  8
0
  6
CONTINUOUS
 62
               4
100
AcDbLine
 10
0.1999999999999886
 20
-51.0
 30
0.0
 11
0.1999999999999886
 21
-48.0
 31
0.0
  0
LINE
  5
6AE
100
AcDbEntity
  8
0
  6
CONTINUOUS
 62
               4
100
AcDbLine
 10
52.800000000000011
 20
-51.0
 30
0.0
 11
52.800000000000011
 21
-48.0
 31
0.0
  0
LINE
  5
6AF
100
AcDbEntity
  8
0
  6
CONTINUOUS
 62
               4
100
AcDbLine
 10
50.800000000000011
 20
-53.0
 30
0.0
 11
2.1999999999999886
 21
-53.0
 31
0.0
  0
LINE
  5
6B0
100
AcDbEntity
  8
0
  6
CONTINUOUS
 62
               4
100
AcDbLine
 10
2.1999999999999886
 20
-53.0
 30
0.0
 11
0.1999999999999886
 21
-51.0
 31
0.0
  0
LINE
  5
6B1
100
AcDbEntity
  8
0
  6
CONTINUOUS
 62
               4
100
AcDbLine
 10
50.800000000000011
 20
-53.0
 30
0.0
 11
52.800000000000011
 21
-51.0
 31
0.0
  0
LINE
  5
6B2
100
AcDbEntity
  8
0
  6
CONTINUOUS
 62
               4
100
AcDbLine
 10
52.800000000000011
 20
-51.0
 30
0.0
 11
45.5
 21
-51.0
 31
0.0
  0
LINE
  5
6B3
100
AcDbEntity
  8
0
  6
CONTINUOUS
 62
               4
100
AcDbLine
 10
45.5
 20
-53.0
 30
0.0
 11
45.5
 21
-51.0
 31
0.0
  0
LINE
  5
6B4
100
AcDbEntity
  8
0
  6
CONTINUOUS
 62
               4
100
AcDbLine
 10
44.0
 20
-79.0
 30
0.0
 11
28.0
 21
-79.0
 31
0.0
  0
LINE
  5
6B5
100
AcDbEntity
  8
0
  6
CONTINUOUS
 62
               4
100
AcDbLine
 10
44.0
 20
-79.0
 30
0.0
 11
44.0
 21
-77.5
 31
0.0
  0
LINE
  5
6B6
100
AcDbEntity
  8
0
  6
CONTINUOUS
 62
               4
100
AcDbLine
 10
44.5
 20
-75.0
 30
0.0
 11
44.5
 21
-69.0
 31
0.0
  0
LINE
  5
6B7
100
AcDbEntity
  8
0
  6
CONTINUOUS
 62
               4
100
AcDbLine
 10
27.5
 20
-75.0
 30
0.0
 11
27.5
 21
-69.0
 31
0.0
  0
LINE
  5
6B8
100
AcDbEntity
  8
0
  6
CONTINUOUS
 62
               4
100
AcDbLine
 10
28.0
 20
-79.0
 30
0.0
 11
28.0
 21
-77.5
 31
0.0
  0
LINE
  5
6B9
100
AcDbEntity
  8
0
  6
CONTINUOUS
 62
               4
100
AcDbLine
 10
44.0
 20
-77.5
 30
0.0
 11
28.0
 21
-77.5
 31
0.0
  0
LINE
  5
6BA
100
AcDbEntity
  8
0
  6
CONTINUOUS
 62
               4
100
AcDbLine
 10
44.0
 20
-75.5
 30
0.0
 11
28.0
 21
-75.5
 31
0.0
  0
LINE
  5
6BB
100
AcDbEntity
  8
0
  6
CONTINUOUS
 62
               4
100
AcDbLine
 10
44.5
 20
-75.0
 30
0.0
 11
27.5
 21
-75.0
 31
0.0
  0
LINE
  5
6BC
100
AcDbEntity
  8
0
  6
CONTINUOUS
 62
               4
100
AcDbLine
 10
44.5
 20
-74.5
 30
0.0
 11
27.5
 21
-74.5
 31
0.0
  0
LINE
  5
6BD
100
AcDbEntity
  8
0
  6
CONTINUOUS
 62
               4
100
AcDbLine
 10
44.5
 20
-69.0
 30
0.0
 11
27.5
 21
-69.0
 31
0.0
  0
LINE
  5
6BE
100
AcDbEntity
  8
0
  6
CONTINUOUS
 62
               4
100
AcDbLine
 10
43.5
 20
-68.0
 30
0.0
 11
28.5
 21
-68.0
 31
0.0
  0
LINE
  5
6BF
100
AcDbEntity
  8
0
  6
CONTINUOUS
 62
               4
100
AcDbLine
 10
43.5
 20
-66.0
 30
0.0
 11
28.5
 21
-66.0
 31
0.0
  0
LINE
  5
6C0
100
AcDbEntity
  8
0
  6
CONTINUOUS
 62
               4
100
AcDbLine
 10
44.5
 20
-65.0
 30
0.0
 11
27.5
 21
-65.0
 31
0.0
  0
LINE
  5
6C1
100
AcDbEntity
  8
0
  6
CONTINUOUS
 62
               4
100
AcDbLine
 10
44.5
 20
-54.5
 30
0.0
 11
27.5
 21
-54.5
 31
0.0
  0
LINE
  5
6C2
100
AcDbEntity
  8
0
  6
CONTINUOUS
 62
               4
100
AcDbLine
 10
44.5
 20
-65.0
 30
0.0
 11
44.5
 21
-54.5
 31
0.0
  0
LINE
  5
6C3
100
AcDbEntity
  8
0
  6
CONTINUOUS
 62
               4
100
AcDbLine
 10
27.5
 20
-65.0
 30
0.0
 11
27.5
 21
-54.5
 31
0.0
  0
LINE
  5
6C4
100
AcDbEntity
  8
0
  6
CONTINUOUS
 62
               4
100
AcDbLine
 10
44.5
 20
-75.0
 30
0.0
 11
44.0
 21
-75.5
 31
0.0
  0
LINE
  5
6C5
100
AcDbEntity
  8
0
  6
CONTINUOUS
 62
               4
100
AcDbLine
 10
28.0
 20
-75.5
 30
0.0
 11
27.5
 21
-75.0
 31
0.0
  0
LINE
  5
6C6
100
AcDbEntity
  8
0
  6
CONTINUOUS
 62
               4
100
AcDbLine
 10
28.5
 20
-68.0
 30
0.0
 11
28.5
 21
-66.0
 31
0.0
  0
LINE
  5
6C7
100
AcDbEntity
  8
0
  6
CONTINUOUS
 62
               4
100
AcDbLine
 10
43.5
 20
-68.0
 30
0.0
 11
43.5
 21
-66.0
 31
0.0
  0
LINE
  5
6C8
100
AcDbEntity
  8
0
  6
CONTINUOUS
 62
               4
100
AcDbLine
 10
44.5
 20
-69.0
 30
0.0
 11
43.5
 21
-68.0
 31
0.0
  0
LINE
  5
6C9
100
AcDbEntity
  8
0
  6
CONTINUOUS
 62
               4
100
AcDbLine
 10
43.5
 20
-66.0
 30
0.0
 11
44.5
 21
-65.0
 31
0.0
  0
LINE
  5
6CA
100
AcDbEntity
  8
0
  6
CONTINUOUS
 62
               4
100
AcDbLine
 10
27.5
 20
-69.0
 30
0.0
 11
28.5
 21
-68.0
 31
0.0
  0
LINE
  5
6CB
100
AcDbEntity
  8
0
  6
CONTINUOUS
 62
               4
100
AcDbLine
 10
28.5
 20
-66.0
 30
0.0
 11
27.5
 21
-65.0
 31
0.0
  0
LINE
  5
6CC
100
AcDbEntity
  8
0
  6
CONTINUOUS
 62
               4
100
AcDbLine
 10
29.25
 20
-54.5
 30
0.0
 11
29.25
 21
-53.0
 31
0.0
  0
LINE
  5
6CD
100
AcDbEntity
  8
0
  6
CONTINUOUS
 62
               4
100
AcDbLine
 10
42.75
 20
-54.5
 30
0.0
 11
42.75
 21
-53.0
 31
0.0
  0
LINE
  5
6CE
100
AcDbEntity
  8
0
  6
CONTINUOUS
 62
               4
100
AcDbLine
 10
41.5
 20
-77.5
 30
0.0
 11
41.5
 21
-75.5
 31
0.0
  0
LINE
  5
6CF
100
AcDbEntity
  8
0
  6
CONTINUOUS
 62
               4
100
AcDbLine
 10
30.5
 20
-77.5
 30
0.0
 11
30.5
 21
-75.5
 31
0.0
  0
LINE
  5
6D0
100
AcDbEntity
  8
0
  6
CONTINUOUS
 62
               4
100
AcDbLine
 10
25.0
 20
-79.0
 30
0.0
 11
9.0
 21
-79.0
 31
0.0
  0
LINE
  5
6D1
100
AcDbEntity
  8
0
  6
CONTINUOUS
 62
               4
100
AcDbLine
 10
25.0
 20
-79.0
 30
0.0
 11
25.0
 21
-77.5
 31
0.0
  0
LINE
  5
6D2
100
AcDbEntity
  8
0
  6
CONTINUOUS
 62
               4
100
AcDbLine
 10
25.5
 20
-75.0
 30
0.0
 11
25.5
 21
-69.0
 31
0.0
  0
LINE
  5
6D3
100
AcDbEntity
  8
0
  6
CONTINUOUS
 62
               4
100
AcDbLine
 10
8.5
 20
-75.0
 30
0.0
 11
8.5
 21
-69.0
 31
0.0
  0
LINE
  5
6D4
100
AcDbEntity
  8
0
  6
CONTINUOUS
 62
               4
100
AcDbLine
 10
9.0
 20
-79.0
 30
0.0
 11
9.0
 21
-77.5
 31
0.0
  0
LINE
  5
6D5
100
AcDbEntity
  8
0
  6
CONTINUOUS
 62
               4
100
AcDbLine
 10
25.0
 20
-77.5
 30
0.0
 11
9.0
 21
-77.5
 31
0.0
  0
LINE
  5
6D6
100
AcDbEntity
  8
0
  6
CONTINUOUS
 62
               4
100
AcDbLine
 10
25.0
 20
-75.5
 30
0.0
 11
9.0
 21
-75.5
 31
0.0
  0
LINE
  5
6D7
100
AcDbEntity
  8
0
  6
CONTINUOUS
 62
               4
100
AcDbLine
 10
25.5
 20
-75.0
 30
0.0
 11
8.5
 21
-75.0
 31
0.0
  0
LINE
  5
6D8
100
AcDbEntity
  8
0
  6
CONTINUOUS
 62
               4
100
AcDbLine
 10
25.5
 20
-74.5
 30
0.0
 11
8.5
 21
-74.5
 31
0.0
  0
LINE
  5
6D9
100
AcDbEntity
  8
0
  6
CONTINUOUS
 62
               4
100
AcDbLine
 10
25.5
 20
-69.0
 30
0.0
 11
8.5
 21
-69.0
 31
0.0
  0
LINE
  5
6DA
100
AcDbEntity
  8
0
  6
CONTINUOUS
 62
               4
100
AcDbLine
 10
24.5
 20
-68.0
 30
0.0
 11
9.5
 21
-68.0
 31
0.0
  0
LINE
  5
6DB
100
AcDbEntity
  8
0
  6
CONTINUOUS
 62
               4
100
AcDbLine
 10
24.5
 20
-66.0
 30
0.0
 11
9.5
 21
-66.0
 31
0.0
  0
LINE
  5
6DC
100
AcDbEntity
  8
0
  6
CONTINUOUS
 62
               4
100
AcDbLine
 10
25.5
 20
-65.0
 30
0.0
 11
8.5
 21
-65.0
 31
0.0
  0
LINE
  5
6DD
100
AcDbEntity
  8
0
  6
CONTINUOUS
 62
               4
100
AcDbLine
 10
25.5
 20
-54.5
 30
0.0
 11
8.5
 21
-54.5
 31
0.0
  0
LINE
  5
6DE
100
AcDbEntity
  8
0
  6
CONTINUOUS
 62
               4
100
AcDbLine
 10
25.5
 20
-65.0
 30
0.0
 11
25.5
 21
-54.5
 31
0.0
  0
LINE
  5
6DF
100
AcDbEntity
  8
0
  6
CONTINUOUS
 62
               4
100
AcDbLine
 10
8.5
 20
-65.0
 30
0.0
 11
8.5
 21
-54.5
 31
0.0
  0
LINE
  5
6E0
100
AcDbEntity
  8
0
  6
CONTINUOUS
 62
               4
100
AcDbLine
 10
25.5
 20
-75.0
 30
0.0
 11
25.0
 21
-75.5
 31
0.0
  0
LINE
  5
6E1
100
AcDbEntity
  8
0
  6
CONTINUOUS
 62
               4
100
AcDbLine
 10
9.0
 20
-75.5
 30
0.0
 11
8.5
 21
-75.0
 31
0.0
  0
LINE
  5
6E2
100
AcDbEntity
  8
0
  6
CONTINUOUS
 62
               4
100
AcDbLine
 10
9.5
 20
-68.0
 30
0.0
 11
9.5
 21
-66.0
 31
0.0
  0
LINE
  5
6E3
100
AcDbEntity
  8
0
  6
CONTINUOUS
 62
               4
100
AcDbLine
 10
24.5
 20
-68.0
 30
0.0
 11
24.5
 21
-66.0
 31
0.0
  0
LINE
  5
6E4
100
AcDbEntity
  8
0
  6
CONTINUOUS
 62
               4
100
AcDbLine
 10
25.5
 20
-69.0
 30
0.0
 11
24.5
 21
-68.0
 31
0.0
  0
LINE
  5
6E5
100
AcDbEntity
  8
0
  6
CONTINUOUS
 62
               4
100
AcDbLine
 10
24.5
 20
-66.0
 30
0.0
 11
25.5
 21
-65.0
 31
0.0
  0
LINE
  5
6E6
100
AcDbEntity
  8
0
  6
CONTINUOUS
 62
               4
100
AcDbLine
 10
8.5
 20
-69.0
 30
0.0
 11
9.5
 21
-68.0
 31
0.0
  0
LINE
  5
6E7
100
AcDbEntity
  8
0
  6
CONTINUOUS
 62
               4
100
AcDbLine
 10
9.5
 20
-66.0
 30
0.0
 11
8.5
 21
-65.0
 31
0.0
  0
LINE
  5
6E8
100
AcDbEntity
  8
0
  6
CONTINUOUS
 62
               4
100
AcDbLine
 10
10.25
 20
-54.5
 30
0.0
 11
10.25
 21
-53.0
 31
0.0
  0
LINE
  5
6E9
100
AcDbEntity
  8
0
  6
CONTINUOUS
 62
               4
100
AcDbLine
 10
23.75
 20
-54.5
 30
0.0
 11
23.75
 21
-53.0
 31
0.0
  0
LINE
  5
6EA
100
AcDbEntity
  8
0
  6
CONTINUOUS
 62
               4
100
AcDbLine
 10
22.5
 20
-77.5
 30
0.0
 11
22.5
 21
-75.5
 31
0.0
  0
LINE
  5
6EB
100
AcDbEntity
  8
0
  6
CONTINUOUS
 62
               4
100
AcDbLine
 10
11.5
 20
-77.5
 30
0.0
 11
11.5
 21
-75.5
 31
0.0
  0
LINE
  5
6EC
100
AcDbEntity
  8
0
  6
CONTINUOUS
 62
               4
100
AcDbLine
 10
51.25
 20
-51.5
 30
0.0
 11
51.25
 21
-51.0
 31
0.0
  0
LINE
  5
6ED
100
AcDbEntity
  8
0
  6
CONTINUOUS
 62
               4
100
AcDbLine
 10
45.75
 20
-51.5
 30
0.0
 11
45.75
 21
-51.0
 31
0.0
  0
ARC
  5
6EE
100
AcDbEntity
  8
0
  6
CONTINUOUS
 62
               4
100
AcDbCircle
 10
49.75
 20
-51.5
 30
0.0
 40
1.5
100
AcDbArc
 50
269.99999999999937
 51
0.0
  0
ARC
  5
6EF
100
AcDbEntity
  8
0
  6
CONTINUOUS
 62
               4
100
AcDbCircle
 10
47.25
 20
-51.5
 30
0.0
 40
1.5
100
AcDbArc
 50
179.9999999999996
 51
269.99999999999937
  0
CIRCLE
  5
6F0
100
AcDbEntity
  8
0
  6
CONTINUOUS
 62
               2
100
AcDbCircle
 10
45.0
 20
17.0
 30
0.0
 40
2.5
  0
LINE
  5
6F1
100
AcDbEntity
  8
0
  6
CENTER
 62
               2
100
AcDbLine
 10
41.5
 20
17.0
 30
0.0
 11
48.5
 21
17.0
 31
0.0
  0
LINE
  5
6F2
100
AcDbEntity
  8
0
  6
CENTER
 62
               2
100
AcDbLine
 10
45.0
 20
13.5
 30
0.0
 11
45.0
 21
20.5
 31
0.0
  0
CIRCLE
  5
6F3
100
AcDbEntity
  8
0
  6
CONTINUOUS
 62
               7
100
AcDbCircle
 10
45.0
 20
17.0
 30
0.0
 40
2.0
  0
CIRCLE
  5
6F4
100
AcDbEntity
  8
0
  6
CONTINUOUS
 62
               2
100
AcDbCircle
 10
11.0
 20
21.999984741210937
 30
0.0
 40
2.5
  0
LINE
  5
6F5
100
AcDbEntity
  8
0
  6
CENTER
 62
               2
100
AcDbLine
 10
7.5
 20
21.999984741210937
 30
0.0
 11
14.5
 21
21.999984741210937
 31
0.0
  0
CIRCLE
  5
6F6
100
AcDbEntity
  8
0
  6
CONTINUOUS
 62
               7
100
AcDbCircle
 10
11.0
 20
21.999984741210937
 30
0.0
 40
2.0
  0
LINE
  5
6F7
100
AcDbEntity
  8
0
  6
CENTER
 62
               2
100
AcDbLine
 10
11.0
 20
18.499984741210938
 30
0.0
 11
11.0
 21
25.499984741210937
 31
0.0
  0
LINE
  5
6F8
100
AcDbEntity
  8
0
  6
CONTINUOUS
 62
               7
100
AcDbLine
 10
53.0
 20
28.0
 30
0.0
 11
0.0
 21
28.0
 31
0.0
  0
LINE
  5
6F9
100
AcDbEntity
  8
0
  6
CENTER
 62
               2
100
AcDbLine
 10
-7.5
 20
0.0
 30
0.0
 11
7.5
 21
0.0
 31
0.0
  0
LINE
  5
6FA
100
AcDbEntity
  8
0
  6
CENTER
 62
               2
100
AcDbLine
 10
-7.5
 20
-23.0
 30
0.0
 11
7.5
 21
-23.0
 31
0.0
  0
ENDBLK
  5
6FB
100
AcDbEntity
  8
0
100
AcDbBlockEnd
  0
BLOCK
  5
6FC
100
AcDbEntity
  8
0
100
AcDbBlockBegin
  2
MS_6
 70
               0
 10
0.0
 20
0.0
 30
0.0
  3
MS_6
  1

  0
LINE
  5
6FD
100
AcDbEntity
  8
0
  6
CONTINUOUS
 62
               4
100
AcDbLine
 10
-1.25
 20
-5.0
 30
0.0
 11
1.25
 21
-5.0
 31
0.0
  0
LINE
  5
6FE
100
AcDbEntity
  8
0
  6
CONTINUOUS
 62
               4
100
AcDbLine
 10
-2.75
 20
-3.5
 30
0.0
 11
-2.75
 21
-3.0
 31
0.0
  0
LINE
  5
6FF
100
AcDbEntity
  8
0
  6
CONTINUOUS
 62
               4
100
AcDbLine
 10
2.75
 20
-3.5
 30
0.0
 11
2.75
 21
-3.0
 31
0.0
  0
LINE
  5
700
100
AcDbEntity
  8
0
  6
CONTINUOUS
 62
               4
100
AcDbLine
 10
-2.75
 20
-3.0
 30
0.0
 11
15.5
 21
-3.0
 31
0.0
  0
LINE
  5
701
100
AcDbEntity
  8
0
  6
CONTINUOUS
 62
               4
100
AcDbLine
 10
-2.5
 20
-7.0
 30
0.0
 11
15.5
 21
-7.0
 31
0.0
  0
LINE
  5
702
100
AcDbEntity
  8
0
  6
CONTINUOUS
 62
               4
100
AcDbLine
 10
-2.0
 20
-12.0
 30
0.0
 11
15.0
 21
-12.0
 31
0.0
  0
LINE
  5
703
100
AcDbEntity
  8
0
  6
CONTINUOUS
 62
               4
100
AcDbLine
 10
-2.5
 20
0.0
 30
0.0
 11
-2.5
 21
-3.0
 31
0.0
  0
LINE
  5
704
100
AcDbEntity
  8
0
  6
CONTINUOUS
 62
               4
100
AcDbLine
 10
15.5
 20
0.0
 30
0.0
 11
15.5
 21
-11.5
 31
0.0
  0
LINE
  5
705
100
AcDbEntity
  8
0
  6
CONTINUOUS
 62
               4
100
AcDbLine
 10
3.0
 20
-3.0
 30
0.0
 11
3.0
 21
-7.0
 31
0.0
  0
LINE
  5
706
100
AcDbEntity
  8
0
  6
CONTINUOUS
 62
               4
100
AcDbLine
 10
-2.5
 20
-4.3199999999999932
 30
0.0
 11
-2.5
 21
-11.5
 31
0.0
  0
LINE
  5
707
100
AcDbEntity
  8
0
  6
CENTER
 62
             200
100
AcDbLine
 10
6.5
 20
5.539999999999992
 30
0.0
 11
6.5
 21
-19.22999999999999
 31
0.0
  0
ARC
  5
708
100
AcDbEntity
  8
0
  6
CONTINUOUS
 62
               4
100
AcDbCircle
 10
1.2499771116417833
 20
-3.4999771116417833
 30
0.0
 40
1.5000228885328397
100
AcDbArc
 50
270.00087425754299
 51
359.99912574245559
  0
ARC
  5
709
100
AcDbEntity
  8
0
  6
CONTINUOUS
 62
               4
100
AcDbCircle
 10
-1.2500228880089708
 20
-3.5000228880089708
 30
0.0
 40
1.4999771121656522
100
AcDbArc
 50
179.9991257291158
 51
270.00087427088317
  0
ARC
  5
70A
100
AcDbEntity
  8
0
  6
CONTINUOUS
 62
               4
100
AcDbCircle
 10
-2.0
 20
-11.5
 30
0.0
 40
0.5
100
AcDbArc
 50
179.9999999999996
 51
269.99999999999937
  0
ARC
  5
70B
100
AcDbEntity
  8
0
  6
CONTINUOUS
 62
               4
100
AcDbCircle
 10
15.0
 20
-11.5
 30
0.0
 40
0.5
100
AcDbArc
 50
269.99999999999937
 51
0.0
  0
ENDBLK
  5
70C
100
AcDbEntity
  8
0
100
AcDbBlockEnd
  0
BLOCK
  5
70D
100
AcDbEntity
  8
0
100
AcDbBlockBegin
  2
MS_7
 70
               0
 10
0.0
 20
0.0
 30
0.0
  3
MS_7
  1

  0
LINE
  5
70E
100
AcDbEntity
  8
0
  6
CONTINUOUS
 62
               4
100
AcDbLine
 10
-31.5
 20
-5.0000000000000284
 30
0.0
 11
-31.5
 21
-7.0000000000000284
 31
0.0
  0
LINE
  5
70F
100
AcDbEntity
  8
0
  6
CONTINUOUS
 62
               4
100
AcDbLine
 10
-12.5
 20
-5.0
 30
0.0
 11
-12.5
 21
-7.0
 31
0.0
  0
LINE
  5
710
100
AcDbEntity
  8
0
  6
CONTINUOUS
 62
               4
100
AcDbLine
 10
1.2499732971191406
 20
-5.0
 30
0.0
 11
-1.2500267028808594
 21
-5.0
 31
0.0
  0
LINE
  5
711
100
AcDbEntity
  8
0
  6
CONTINUOUS
 62
               4
100
AcDbLine
 10
-31.5
 20
-5.0000000000000284
 30
0.0
 11
-12.5
 21
-5.0
 31
0.0
  0
LINE
  5
712
100
AcDbEntity
  8
0
  6
CONTINUOUS
 62
               4
100
AcDbLine
 10
-12.5
 20
-7.0
 30
0.0
 11
2.2999916076660156
 21
-7.0
 31
0.0
  0
ARC
  5
713
100
AcDbEntity
  8
0
  6
CONTINUOUS
 62
               4
100
AcDbCircle
 10
-23.0
 20
-11.500015258789091
 30
0.0
 40
0.5
100
AcDbArc
 50
-89.999999999999744
 51
0.0000000000000509
  0
ARC
  5
714
100
AcDbEntity
  8
0
  6
CONTINUOUS
 62
               4
100
AcDbCircle
 10
-21.0
 20
-11.500015258789091
 30
0.0
 40
0.5
100
AcDbArc
 50
179.99999999999966
 51
269.99999999999943
  0
LINE
  5
715
100
AcDbEntity
  8
0
  6
CONTINUOUS
 62
               4
100
AcDbLine
 10
-21.0
 20
-12.000015258789091
 30
0.0
 11
-4.0000114440917969
 21
-12.000015258789063
 31
0.0
  0
LINE
  5
716
100
AcDbEntity
  8
0
  6
CONTINUOUS
 62
               4
100
AcDbLine
 10
-22.5
 20
-5.0000000000000284
 30
0.0
 11
-22.5
 21
-11.500015258789091
 31
0.0
  0
LINE
  5
717
100
AcDbEntity
  8
0
  6
CONTINUOUS
 62
               4
100
AcDbLine
 10
-21.5
 20
-5.0000000000000284
 30
0.0
 11
-21.5
 21
-11.500015258789091
 31
0.0
  0
LINE
  5
718
100
AcDbEntity
  8
0
  6
CONTINUOUS
 62
               4
100
AcDbLine
 10
-39.049999237060547
 20
-0.6999969482422159
 30
0.0
 11
-39.049999237060547
 21
-0.0000000000000284
 31
0.0
  0
LINE
  5
719
100
AcDbEntity
  8
0
  6
CONTINUOUS
 62
               4
100
AcDbLine
 10
-44.949993133544922
 20
-0.6999969482422159
 30
0.0
 11
-44.949993133544922
 21
-0.0000000000000284
 31
0.0
  0
LINE
  5
71A
100
AcDbEntity
  8
0
  6
CONTINUOUS
 62
               4
100
AcDbLine
 10
-44.949993133544922
 20
-0.6999969482422159
 30
0.0
 11
-39.049999237060547
 21
-0.6999969482422159
 31
0.0
  0
ARC
  5
71B
100
AcDbEntity
  8
0
  6
CONTINUOUS
 62
               4
100
AcDbCircle
 10
-40.750011444091797
 20
-1.1999816894531534
 30
0.0
 40
1.5
100
AcDbArc
 50
270.00001798608849
 51
359.99998201390991
  0
ARC
  5
71C
100
AcDbEntity
  8
0
  6
CONTINUOUS
 62
               4
100
AcDbCircle
 10
-43.249996185302734
 20
-1.1999816894531534
 30
0.0
 40
1.5
100
AcDbArc
 50
179.99990870306226
 51
269.99994604173236
  0
LINE
  5
71D
100
AcDbEntity
  8
0
  6
CONTINUOUS
 62
               4
100
AcDbLine
 10
-44.749980926513672
 20
-1.1999969482422159
 30
0.0
 11
-44.749980926513672
 21
-0.6999969482422159
 31
0.0
  0
LINE
  5
71E
100
AcDbEntity
  8
0
  6
CONTINUOUS
 62
               4
100
AcDbLine
 10
-39.249996185302734
 20
-1.1999969482422159
 30
0.0
 11
-39.249996185302734
 21
-0.6999969482422159
 31
0.0
  0
LINE
  5
71F
100
AcDbEntity
  8
0
  6
CONTINUOUS
 62
               4
100
AcDbLine
 10
-40.749996185302734
 20
-2.6999816894531534
 30
0.0
 11
-43.249996185302734
 21
-2.6999816894531534
 31
0.0
  0
ARC
  5
720
100
AcDbEntity
  8
0
  6
CONTINUOUS
 62
               4
100
AcDbCircle
 10
-1.2500267028808594
 20
-3.5
 30
0.0
 40
1.5
100
AcDbArc
 50
180.00001798608898
 51
269.99999999999943
  0
ARC
  5
721
100
AcDbEntity
  8
0
  6
CONTINUOUS
 62
               4
100
AcDbCircle
 10
1.2499732971191406
 20
-3.5
 30
0.0
 40
1.5
100
AcDbArc
 50
269.99999999999943
 51
359.99998201390991
  0
ARC
  5
722
100
AcDbEntity
  8
0
  6
CONTINUOUS
 62
               4
100
AcDbCircle
 10
-39.999996185302734
 20
-11.500015258789091
 30
0.0
 40
0.5
100
AcDbArc
 50
179.99996334457563
 51
269.99999999999943
  0
ARC
  5
723
100
AcDbEntity
  8
0
  6
CONTINUOUS
 62
               4
100
AcDbCircle
 10
-4.0000114440917969
 20
-11.500015258789063
 30
0.0
 40
0.5
100
AcDbArc
 50
269.99999999999943
 51
359.99998201390991
  0
LINE
  5
724
100
AcDbEntity
  8
0
  6
CONTINUOUS
 62
               4
100
AcDbLine
 10
2.7499732971191406
 20
-3.5
 30
0.0
 11
2.7499732971191406
 21
-3.0
 31
0.0
  0
LINE
  5
725
100
AcDbEntity
  8
0
  6
CONTINUOUS
 62
               4
100
AcDbLine
 10
-2.7500267028808594
 20
-3.5
 30
0.0
 11
-2.7500267028808594
 21
-3.0
 31
0.0
  0
LINE
  5
726
100
AcDbEntity
  8
0
  6
CONTINUOUS
 62
               4
100
AcDbLine
 10
-3.0000114440917969
 20
-3.0
 30
0.0
 11
4.2999916076660156
 21
-3.0
 31
0.0
  0
LINE
  5
727
100
AcDbEntity
  8
0
  6
CONTINUOUS
 62
               4
100
AcDbLine
 10
-44.999996185302734
 20
-7.0000000000000284
 30
0.0
 11
-44.999996185302734
 21
-0.0000000000000284
 31
0.0
  0
LINE
  5
728
100
AcDbEntity
  8
0
  6
CONTINUOUS
 62
               4
100
AcDbLine
 10
-38.999996185302734
 20
-7.0000000000000284
 30
0.0
 11
-38.999996185302734
 21
-0.0000000000000284
 31
0.0
  0
LINE
  5
729
100
AcDbEntity
  8
0
  6
CONTINUOUS
 62
               4
100
AcDbLine
 10
-3.0000114440917969
 20
-7.0
 30
0.0
 11
-3.0000114440917969
 21
-3.0
 31
0.0
  0
LINE
  5
72A
100
AcDbEntity
  8
0
  6
CONTINUOUS
 62
               4
100
AcDbLine
 10
-46.299984344614131
 20
-6.9999897889338456
 30
0.0
 11
-48.299993379851003
 21
-4.9999729986266459
 31
0.0
  0
LINE
  5
72B
100
AcDbEntity
  8
0
  6
CONTINUOUS
 62
               4
100
AcDbLine
 10
2.3000178781067007
 20
-7.0000035544026105
 30
0.0
 11
4.3000152808126586
 21
-5.0000181213499673
 31
0.0
  0
LINE
  5
72C
100
AcDbEntity
  8
0
  6
CONTINUOUS
 62
               4
100
AcDbLine
 10
4.2999916076660156
 20
-5.0000181213499673
 30
0.0
 11
4.2999916076660156
 21
0.0
 31
0.0
  0
LINE
  5
72D
100
AcDbEntity
  8
0
  6
CONTINUOUS
 62
               4
100
AcDbLine
 10
-48.299983978271484
 20
-4.9999824002426294
 30
0.0
 11
-48.299983978271484
 21
-0.0000000000000284
 31
0.0
  0
LINE
  5
72E
100
AcDbEntity
  8
0
  6
CONTINUOUS
 62
               4
100
AcDbLine
 10
-46.299983978271484
 20
-7.0000000000000284
 30
0.0
 11
-31.5
 21
-7.0000000000000284
 31
0.0
  0
LINE
  5
72F
100
AcDbEntity
  8
0
  6
CONTINUOUS
 62
               4
100
AcDbLine
 10
-48.299983978271484
 20
-0.0000000000000284
 30
0.0
 11
4.2999916076660156
 21
0.0
 31
0.0
  0
LINE
  5
730
100
AcDbEntity
  8
0
  6
CENTER
 62
             200
100
AcDbLine
 10
-12.5
 20
-13.78564453125
 30
0.0
 11
-12.5
 21
-3.097412109375
 31
0.0
  0
LINE
  5
731
100
AcDbEntity
  8
0
  6
CENTER
 62
             200
100
AcDbLine
 10
-31.5
 20
-13.785644531250028
 30
0.0
 11
-31.5
 21
-3.0974121093750284
 31
0.0
  0
LINE
  5
732
100
AcDbEntity
  8
0
  6
CONTINUOUS
 62
               4
100
AcDbLine
 10
-40.499996185302734
 20
-11.500015258789091
 30
0.0
 11
-40.499996185302734
 21
-7.0000000000000284
 31
0.0
  0
LINE
  5
733
100
AcDbEntity
  8
0
  6
CONTINUOUS
 62
               4
100
AcDbLine
 10
-3.5000114440917969
 20
-11.500015258789063
 30
0.0
 11
-3.5000114440917969
 21
-7.0
 31
0.0
  0
LINE
  5
734
100
AcDbEntity
  8
0
  6
CONTINUOUS
 62
               4
100
AcDbLine
 10
-39.999996185302734
 20
-12.000015258789091
 30
0.0
 11
-23.0
 21
-12.000015258789091
 31
0.0
  0
ENDBLK
  5
735
100
AcDbEntity
  8
0
100
AcDbBlockEnd
  0
BLOCK
  5
736
100
AcDbEntity
  8
0
100
AcDbBlockBegin
  2
MS_8
 70
               0
 10
0.0
 20
0.0
 30
0.0
  3
MS_8
  1

  0
LINE
  5
737
100
AcDbEntity
  8
0
  6
CENTER
 62
             200
100
AcDbLine
 10
6.5
 20
-50.460000000000001
 30
0.0
 11
6.5
 21
6.7600000000000051
 31
0.0
  0
LINE
  5
738
100
AcDbEntity
  8
0
  6
CONTINUOUS
 62
               4
100
AcDbLine
 10
-2.5
 20
4.2999999999999972
 30
0.0
 11
15.5
 21
4.2999999999999972
 31
0.0
  0
LINE
  5
739
100
AcDbEntity
  8
0
  6
CONTINUOUS
 62
               4
100
AcDbLine
 10
-2.5
 20
-48.299999999999997
 30
0.0
 11
15.5
 21
-48.299999999999997
 31
0.0
  0
LINE
  5
73A
100
AcDbEntity
  8
0
  6
CONTINUOUS
 62
               4
100
AcDbLine
 10
13.0
 20
1.0
 30
0.0
 11
15.5
 21
1.0
 31
0.0
  0
LINE
  5
73B
100
AcDbEntity
  8
0
  6
CONTINUOUS
 62
               4
100
AcDbLine
 10
13.0
 20
-5.0
 30
0.0
 11
15.5
 21
-5.0
 31
0.0
  0
LINE
  5
73C
100
AcDbEntity
  8
0
  6
CONTINUOUS
 62
               4
100
AcDbLine
 10
-2.5
 20
-45.0
 30
0.0
 11
0.0
 21
-45.0
 31
0.0
  0
LINE
  5
73D
100
AcDbEntity
  8
0
  6
CONTINUOUS
 62
               4
100
AcDbLine
 10
-2.5
 20
-39.0
 30
0.0
 11
0.0
 21
-39.0
 31
0.0
  0
LINE
  5
73E
100
AcDbEntity
  8
0
  6
CONTINUOUS
 62
               4
100
AcDbLine
 10
3.0
 20
0.0
 30
0.0
 11
3.0
 21
4.2999999999999972
 31
0.0
  0
LINE
  5
73F
100
AcDbEntity
  8
0
  6
CONTINUOUS
 62
               4
100
AcDbLine
 10
0.0
 20
-3.0
 30
0.0
 11
-2.5
 21
-3.0
 31
0.0
  0
LINE
  5
740
100
AcDbEntity
  8
0
  6
CONTINUOUS
 62
               4
100
AcDbLine
 10
-2.5
 20
-46.299999999999997
 30
0.0
 11
10.0
 21
-46.299999999999997
 31
0.0
  0
LINE
  5
741
100
AcDbEntity
  8
0
  6
CONTINUOUS
 62
               4
100
AcDbLine
 10
3.0
 20
2.2999999999999972
 30
0.0
 11
15.5
 21
2.2999999999999972
 31
0.0
  0
LINE
  5
742
100
AcDbEntity
  8
0
  6
CONTINUOUS
 62
               4
100
AcDbLine
 10
15.5
 20
-48.299999999999997
 30
0.0
 11
15.5
 21
-45.259999999999998
 31
0.0
  0
LINE
  5
743
100
AcDbEntity
  8
0
  6
CONTINUOUS
 62
               4
100
AcDbLine
 10
-2.5
 20
-48.299999999999997
 30
0.0
 11
-2.5
 21
-45.0
 31
0.0
  0
LINE
  5
744
100
AcDbEntity
  8
0
  6
CENTER
 62
             200
100
AcDbLine
 10
-3.5
 20
-12.5
 30
0.0
 11
16.5
 21
-12.5
 31
0.0
  0
LINE
  5
745
100
AcDbEntity
  8
0
  6
CENTER
 62
             200
100
AcDbLine
 10
-3.5
 20
-31.5
 30
0.0
 11
16.5
 21
-31.5
 31
0.0
  0
LINE
  5
746
100
AcDbEntity
  8
0
  6
CONTINUOUS
 62
               4
100
AcDbLine
 10
13.0
 20
-41.0
 30
0.0
 11
15.5
 21
-41.0
 31
0.0
  0
LINE
  5
747
100
AcDbEntity
  8
0
  6
CONTINUOUS
 62
               4
100
AcDbLine
 10
10.0
 20
-44.0
 30
0.0
 11
10.0
 21
-48.299999999999997
 31
0.0
  0
LINE
  5
748
100
AcDbEntity
  8
0
  6
CONTINUOUS
 62
               4
100
AcDbLine
 10
11.92999999999995
 20
-45.060000000000002
 30
0.0
 11
14.059999999999945
 21
-42.93
 31
0.0
  0
LINE
  5
749
100
AcDbEntity
  8
0
  6
CONTINUOUS
 62
               4
100
AcDbLine
 10
11.92999999999995
 20
-42.93
 30
0.0
 11
14.059999999999945
 21
-45.060000000000002
 31
0.0
  0
LINE
  5
74A
100
AcDbEntity
  8
0
  6
CONTINUOUS
 62
               4
100
AcDbLine
 10
-1.0599999999999454
 20
-1.0600000000000023
 30
0.0
 11
1.0599999999999454
 21
1.0600000000000023
 31
0.0
  0
LINE
  5
74B
100
AcDbEntity
  8
0
  6
CONTINUOUS
 62
               4
100
AcDbLine
 10
-1.0599999999999454
 20
1.0600000000000023
 30
0.0
 11
1.0599999999999454
 21
-1.0600000000000023
 31
0.0
  0
LINE
  5
74C
100
AcDbEntity
  8
0
  6
CONTINUOUS
 62
               4
100
AcDbLine
 10
-2.5
 20
-39.0
 30
0.0
 11
-2.5
 21
-1.2600000000000051
 31
0.0
  0
LINE
  5
74D
100
AcDbEntity
  8
0
  6
CONTINUOUS
 62
               4
100
AcDbLine
 10
15.5
 20
1.0
 30
0.0
 11
15.5
 21
4.2999999999999972
 31
0.0
  0
LINE
  5
74E
100
AcDbEntity
  8
0
  6
CONTINUOUS
 62
               4
100
AcDbLine
 10
-2.5
 20
1.2600000000000051
 30
0.0
 11
-2.5
 21
4.2999999999999972
 31
0.0
  0
LINE
  5
74F
100
AcDbEntity
  8
0
  6
CONTINUOUS
 62
               4
100
AcDbLine
 10
15.5
 20
-42.729999999999997
 30
0.0
 11
15.5
 21
-5.0
 31
0.0
  0
ARC
  5
750
100
AcDbEntity
  8
0
  6
CONTINUOUS
 62
               4
100
AcDbCircle
 10
13.0
 20
-2.0
 30
0.0
 40
3.0
100
AcDbArc
 50
89.999999999999801
 51
269.99999999999937
  0
ARC
  5
751
100
AcDbEntity
  8
0
  6
CONTINUOUS
 62
               4
100
AcDbCircle
 10
0.0
 20
-42.0
 30
0.0
 40
3.0
100
AcDbArc
 50
269.99999999999937
 51
89.999999999999801
  0
ARC
  5
752
100
AcDbEntity
  8
0
  6
CONTINUOUS
 62
               4
100
AcDbCircle
 10
0.0
 20
0.0
 30
0.0
 40
3.0
100
AcDbArc
 50
269.99999999999937
 51
0.0
  0
CIRCLE
  5
753
100
AcDbEntity
  8
0
  6
CONTINUOUS
 62
               4
100
AcDbCircle
 10
6.4950000000000045
 20
-12.500029317599896
 30
0.0
 40
8.9965920995317497
  0
CIRCLE
  5
754
100
AcDbEntity
  8
0
  6
CONTINUOUS
 62
               4
100
AcDbCircle
 10
6.4950000000000045
 20
-31.500031716792165
 30
0.0
 40
9.005282811455281
  0
CIRCLE
  5
755
100
AcDbEntity
  8
0
  6
CONTINUOUS
 62
               4
100
AcDbCircle
 10
6.5
 20
-12.500030517578125
 30
0.0
 40
5.6799993515014648
  0
CIRCLE
  5
756
100
AcDbEntity
  8
0
  6
CONTINUOUS
 62
             200
100
AcDbCircle
 10
6.5
 20
-12.500030517578125
 30
0.0
 40
6.5
  0
CIRCLE
  5
757
100
AcDbEntity
  8
0
  6
CONTINUOUS
 62
             200
100
AcDbCircle
 10
6.5
 20
-31.500030517578125
 30
0.0
 40
6.5
  0
CIRCLE
  5
758
100
AcDbEntity
  8
0
  6
CONTINUOUS
 62
               4
100
AcDbCircle
 10
6.5
 20
-31.500030517578125
 30
0.0
 40
5.6799993515014648
  0
ARC
  5
759
100
AcDbEntity
  8
0
  6
CONTINUOUS
 62
               4
100
AcDbCircle
 10
13.0
 20
-44.0
 30
0.0
 40
3.0
100
AcDbArc
 50
89.999999999999801
 51
179.9999999999996
  0
CIRCLE
  5
75A
100
AcDbEntity
  8
0
  6
CONTINUOUS
 62
               4
100
AcDbCircle
 10
13.0
 20
-43.999984741210938
 30
0.0
 40
2.7999992370605469
  0
CIRCLE
  5
75B
100
AcDbEntity
  8
0
  6
CONTINUOUS
 62
               4
100
AcDbCircle
 10
0.0
 20
0.0
 30
0.0
 40
2.7999992370605469
  0
ENDBLK
  5
75C
100
AcDbEntity
  8
0
100
AcDbBlockEnd
  0
BLOCK
  5
75D
100
AcDbEntity
  8
0
100
AcDbBlockBegin
  2
MS_9
 70
               0
 10
0.0
 20
0.0
 30
0.0
  3
MS_9
  1

  0
LINE
  5
75E
100
AcDbEntity
  8
0
  6
CENTER
 62
             200
100
AcDbLine
 10
5.0
 20
36.768234144669634
 30
0.0
 11
5.0
 21
-5.0
 31
0.0
  0
LINE
  5
75F
100
AcDbEntity
  8
0
  6
CONTINUOUS
 62
               4
100
AcDbLine
 10
0.0
 20
24.0
 30
0.0
 11
10.0
 21
24.0
 31
0.0
  0
LINE
  5
760
100
AcDbEntity
  8
0
  6
CONTINUOUS
 62
               4
100
AcDbLine
 10
0.0499999999999545
 20
24.0
 30
0.0
 11
0.0499999999999545
 21
32.5
 31
0.0
  0
LINE
  5
761
100
AcDbEntity
  8
0
  6
CONTINUOUS
 62
               4
100
AcDbLine
 10
9.5
 20
33.0
 30
0.0
 11
0.5
 21
33.0
 31
0.0
  0
LINE
  5
762
100
AcDbEntity
  8
0
  6
CONTINUOUS
 62
               4
100
AcDbLine
 10
9.9500000000000455
 20
28.5
 30
0.0
 11
0.0499999999999545
 21
28.5
 31
0.0
  0
LINE
  5
763
100
AcDbEntity
  8
0
  6
CONTINUOUS
 62
               4
100
AcDbLine
 10
9.9500000000000455
 20
24.0
 30
0.0
 11
9.9500000000000455
 21
32.5
 31
0.0
  0
LINE
  5
764
100
AcDbEntity
  8
0
  6
CONTINUOUS
 62
               4
100
AcDbLine
 10
0.0
 20
0.0
 30
0.0
 11
0.0
 21
24.0
 31
0.0
  0
LINE
  5
765
100
AcDbEntity
  8
0
  6
CONTINUOUS
 62
               4
100
AcDbLine
 10
10.0
 20
0.0
 30
0.0
 11
10.0
 21
24.0
 31
0.0
  0
ARC
  5
766
100
AcDbEntity
  8
0
  6
CONTINUOUS
 62
               4
100
AcDbCircle
 10
9.4499984741187291
 20
32.499998474118769
 30
0.0
 40
0.5000015258835625
100
AcDbArc
 50
0.0001748525759638
 51
89.999825147423834
  0
ARC
  5
767
100
AcDbEntity
  8
0
  6
CONTINUOUS
 62
               4
100
AcDbCircle
 10
0.5500015258812709
 20
32.499998474118769
 30
0.0
 40
0.5000015258835628
100
AcDbArc
 50
90.000174852575753
 51
179.99982514742365
  0
ENDBLK
  5
768
100
AcDbEntity
  8
0
100
AcDbBlockEnd
  0
BLOCK
  5
769
100
AcDbEntity
  8
0
100
AcDbBlockBegin
  2
MS_10
 70
               0
 10
0.0
 20
0.0
 30
0.0
  3
MS_10
  1

  0
LINE
  5
76A
100
AcDbEntity
  8
0
  6
CONTINUOUS
 62
               4
100
AcDbLine
 10
27.0
 20
23.99999491373697
 30
0.0
 11
27.0
 21
-0.0000050862630303
 31
0.0
  0
LINE
  5
76B
100
AcDbEntity
  8
0
  6
CONTINUOUS
 62
               4
100
AcDbLine
 10
0.0
 20
16.99999491373697
 30
0.0
 11
0.0
 21
0.0
 31
0.0
  0
LINE
  5
76C
100
AcDbEntity
  8
0
  6
CONTINUOUS
 62
               4
100
AcDbLine
 10
1.3999999999999773
 20
16.99999491373697
 30
0.0
 11
1.3999999999999773
 21
25.499994909445434
 31
0.0
  0
LINE
  5
76D
100
AcDbEntity
  8
0
  6
CONTINUOUS
 62
               4
100
AcDbLine
 10
-10.0
 20
25.49999491373697
 30
0.0
 11
-10.0
 21
16.99999491373697
 31
0.0
  0
LINE
  5
76E
100
AcDbEntity
  8
0
  6
CONTINUOUS
 62
               4
100
AcDbLine
 10
-10.0
 20
25.49999491373697
 30
0.0
 11
1.3999999999999773
 21
25.49999491373697
 31
0.0
  0
LINE
  5
76F
100
AcDbEntity
  8
0
  6
CONTINUOUS
 62
               4
100
AcDbLine
 10
-10.0
 20
16.99999491373697
 30
0.0
 11
1.3999999999999773
 21
16.99999491373697
 31
0.0
  0
LINE
  5
770
100
AcDbEntity
  8
0
  6
CONTINUOUS
 62
               4
100
AcDbLine
 10
27.0
 20
23.99999491373697
 30
0.0
 11
1.3999999999999773
 21
23.99999491373697
 31
0.0
  0
LINE
  5
771
100
AcDbEntity
  8
0
  6
CONTINUOUS
 62
               4
100
AcDbLine
 10
14.294999999999959
 20
23.99999491373697
 30
0.0
 11
12.794999999999959
 21
23.99999491373697
 31
0.0
  0
LINE
  5
772
100
AcDbEntity
  8
0
  6
CONTINUOUS
 62
               4
100
AcDbLine
 10
1.5
 20
25.599994913736964
 30
0.0
 11
-3.0
 21
25.599994913736964
 31
0.0
  0
ARC
  5
773
100
AcDbEntity
  8
0
  6
CONTINUOUS
 62
               4
100
AcDbCircle
 10
-2.5015404500182967
 20
32.501535363755238
 30
0.0
 40
0.4984619302958243
100
AcDbArc
 50
89.822932465397898
 51
180.17706753460195
  0
LINE
  5
774
100
AcDbEntity
  8
0
  6
CONTINUOUS
 62
               4
100
AcDbLine
 10
-3.0
 20
32.49999491373697
 30
0.0
 11
-3.0
 21
25.599994913736964
 31
0.0
  0
LINE
  5
775
100
AcDbEntity
  8
0
  6
CONTINUOUS
 62
               4
100
AcDbLine
 10
1.5
 20
25.599994913736964
 30
0.0
 11
1.5
 21
23.99999491373697
 31
0.0
  0
ARC
  5
776
100
AcDbEntity
  8
0
  6
CONTINUOUS
 62
               4
100
AcDbCircle
 10
25.501123948313875
 20
28.179389315853996
 30
0.0
 40
1.4988865337462252
100
AcDbArc
 50
0.2142776266259142
 51
24.039904443234626
  0
ARC
  5
777
100
AcDbEntity
  8
0
  6
CONTINUOUS
 62
               4
100
AcDbCircle
 10
24.675687863874487
 20
32.502666025814563
 30
0.0
 40
0.4973293636201366
100
AcDbArc
 50
24.005903588636794
 51
90.079246697133684
  0
LINE
  5
778
100
AcDbEntity
  8
0
  6
CONTINUOUS
 62
               4
100
AcDbLine
 10
25.129999999999995
 20
32.704994913736954
 30
0.0
 11
26.870000000000005
 21
28.789994913736962
 31
0.0
  0
LINE
  5
779
100
AcDbEntity
  8
0
  6
CONTINUOUS
 62
               4
100
AcDbLine
 10
24.674999999999955
 20
32.99999491373697
 30
0.0
 11
-2.5030809000332965
 21
32.99999491373697
 31
0.0
  0
LINE
  5
77A
100
AcDbEntity
  8
0
  6
CONTINUOUS
 62
               4
100
AcDbLine
 10
27.0
 20
28.184994913736944
 30
0.0
 11
27.0
 21
23.99999491373697
 31
0.0
  0
LINE
  5
77B
100
AcDbEntity
  8
0
  6
CONTINUOUS
 62
             200
100
AcDbLine
 10
-20.089214565994553
 20
24.164991126888395
 30
0.0
 11
-21.946103769656474
 21
17.234986332879686
 31
0.0
  0
LINE
  5
77C
100
AcDbEntity
  8
0
  6
CONTINUOUS
 62
             200
100
AcDbLine
 10
-19.053935707232995
 20
24.165001172564786
 30
0.0
 11
-20.910828860160109
 21
17.23498163969785
 31
0.0
  0
LINE
  5
77D
100
AcDbEntity
  8
0
  6
CONTINUOUS
 62
               4
100
AcDbLine
 10
-20.491119384765625
 20
22.665018717447907
 30
0.0
 11
-24.500015258789063
 21
22.665018717447907
 31
0.0
  0
LINE
  5
77E
100
AcDbEntity
  8
0
  6
CONTINUOUS
 62
               4
100
AcDbLine
 10
-20.874298095703125
 20
21.235010782877595
 30
0.0
 11
-24.500015258789063
 21
21.235010782877595
 31
0.0
  0
LINE
  5
77F
100
AcDbEntity
  8
0
  6
CONTINUOUS
 62
               4
100
AcDbLine
 10
-21.160995483398438
 20
20.165018717447907
 30
0.0
 11
-24.500015258789063
 21
20.165018717447907
 31
0.0
  0
LINE
  5
780
100
AcDbEntity
  8
0
  6
CONTINUOUS
 62
               4
100
AcDbLine
 10
-21.544174194335937
 20
18.735010782877595
 30
0.0
 11
-24.500015258789063
 21
18.735010782877595
 31
0.0
  0
LINE
  5
781
100
AcDbEntity
  8
0
  6
CONTINUOUS
 62
               4
100
AcDbLine
 10
-24.5
 20
22.665003458658845
 30
0.0
 11
-24.5
 21
21.234995524088532
 31
0.0
  0
LINE
  5
782
100
AcDbEntity
  8
0
  6
CONTINUOUS
 62
               4
100
AcDbLine
 10
-24.5
 20
18.734995524088532
 30
0.0
 11
-24.5
 21
20.165003458658845
 31
0.0
  0
LINE
  5
783
100
AcDbEntity
  8
0
  6
CONTINUOUS
 62
               4
100
AcDbLine
 10
-29.5
 20
22.350001017252595
 30
0.0
 11
-29.5
 21
21.549997965494782
 31
0.0
  0
LINE
  5
784
100
AcDbEntity
  8
0
  6
CONTINUOUS
 62
               4
100
AcDbLine
 10
-24.500015258789063
 20
21.549997965494782
 30
0.0
 11
-29.5
 21
21.549997965494782
 31
0.0
  0
LINE
  5
785
100
AcDbEntity
  8
0
  6
CONTINUOUS
 62
               4
100
AcDbLine
 10
-24.500015258789063
 20
22.350001017252595
 30
0.0
 11
-29.5
 21
22.350001017252595
 31
0.0
  0
LINE
  5
786
100
AcDbEntity
  8
0
  6
CONTINUOUS
 62
               4
100
AcDbLine
 10
-16.5
 20
20.165018717447907
 30
0.0
 11
-20.125717163085938
 21
20.165018717447907
 31
0.0
  0
LINE
  5
787
100
AcDbEntity
  8
0
  6
CONTINUOUS
 62
               4
100
AcDbLine
 10
-16.5
 20
18.735010782877595
 30
0.0
 11
-20.508895874023438
 21
18.735010782877595
 31
0.0
  0
LINE
  5
788
100
AcDbEntity
  8
0
  6
CONTINUOUS
 62
               4
100
AcDbLine
 10
-16.5
 20
21.235010782877595
 30
0.0
 11
-19.839019775390625
 21
21.235010782877595
 31
0.0
  0
LINE
  5
789
100
AcDbEntity
  8
0
  6
CONTINUOUS
 62
               4
100
AcDbLine
 10
-16.5
 20
22.665018717447907
 30
0.0
 11
-19.455841064453125
 21
22.665018717447907
 31
0.0
  0
LINE
  5
78A
100
AcDbEntity
  8
0
  6
CONTINUOUS
 62
               4
100
AcDbLine
 10
-24.500015258789063
 20
19.049997965494782
 30
0.0
 11
-29.5
 21
19.049997965494782
 31
0.0
  0
LINE
  5
78B
100
AcDbEntity
  8
0
  6
CONTINUOUS
 62
               4
100
AcDbLine
 10
-24.500015258789063
 20
19.850001017252595
 30
0.0
 11
-29.5
 21
19.850001017252595
 31
0.0
  0
LINE
  5
78C
100
AcDbEntity
  8
0
  6
CONTINUOUS
 62
               4
100
AcDbLine
 10
-29.5
 20
19.049997965494782
 30
0.0
 11
-29.5
 21
19.850001017252595
 31
0.0
  0
LINE
  5
78D
100
AcDbEntity
  8
0
  6
CONTINUOUS
 62
               4
100
AcDbLine
 10
-15.0
 20
27.49999491373697
 30
0.0
 11
-16.5
 21
27.49999491373697
 31
0.0
  0
LINE
  5
78E
100
AcDbEntity
  8
0
  6
CONTINUOUS
 62
               4
100
AcDbLine
 10
-15.499999958178705
 20
25.499973352823559
 30
0.0
 11
-16.499994209762917
 21
26.077319672805658
 31
0.0
  0
LINE
  5
78F
100
AcDbEntity
  8
0
  6
CONTINUOUS
 62
               4
100
AcDbLine
 10
-10.0
 20
25.49999491373697
 30
0.0
 11
-16.5
 21
25.49999491373697
 31
0.0
  0
LINE
  5
790
100
AcDbEntity
  8
0
  6
CONTINUOUS
 62
               4
100
AcDbLine
 10
-5.998454579468671
 20
26.500066061293779
 30
0.0
 11
-9.5561426631575159
 21
27.000065384309579
 31
0.0
  0
LINE
  5
791
100
AcDbEntity
  8
0
  6
CONTINUOUS
 62
               4
100
AcDbLine
 10
-9.55615234375
 20
26.99999491373697
 30
0.0
 11
-15.0
 21
26.99999491373697
 31
0.0
  0
LINE
  5
792
100
AcDbEntity
  8
0
  6
CONTINUOUS
 62
               4
100
AcDbLine
 10
-15.5
 20
16.49999491373697
 30
0.0
 11
-15.5
 21
16.99999491373697
 31
0.0
  0
LINE
  5
793
100
AcDbEntity
  8
0
  6
CONTINUOUS
 62
               4
100
AcDbLine
 10
-15.5
 20
16.49999491373697
 30
0.0
 11
-16.5
 21
16.49999491373697
 31
0.0
  0
LINE
  5
794
100
AcDbEntity
  8
0
  6
CONTINUOUS
 62
               4
100
AcDbLine
 10
-10.0
 20
16.99999491373697
 30
0.0
 11
-15.5
 21
16.99999491373697
 31
0.0
  0
LINE
  5
795
100
AcDbEntity
  8
0
  6
CONTINUOUS
 62
               4
100
AcDbLine
 10
-15.0
 20
26.99999491373697
 30
0.0
 11
-15.0
 21
27.49999491373697
 31
0.0
  0
LINE
  5
796
100
AcDbEntity
  8
0
  6
CONTINUOUS
 62
               4
100
AcDbLine
 10
-5.9984588623046875
 20
25.49999491373697
 30
0.0
 11
-5.9984588623046875
 21
26.49999491373697
 31
0.0
  0
LINE
  5
797
100
AcDbEntity
  8
0
  6
CONTINUOUS
 62
               4
100
AcDbLine
 10
-16.5
 20
26.077341715494782
 30
0.0
 11
-16.5
 21
27.49999491373697
 31
0.0
  0
LINE
  5
798
100
AcDbEntity
  8
0
  6
CONTINUOUS
 62
               4
100
AcDbLine
 10
-10.0
 20
25.449991861979157
 30
0.0
 11
-10.0
 21
25.49999491373697
 31
0.0
  0
LINE
  5
799
100
AcDbEntity
  8
0
  6
CONTINUOUS
 62
               4
100
AcDbLine
 10
-16.5
 20
16.49999491373697
 30
0.0
 11
-16.5
 21
25.49999491373697
 31
0.0
  0
ENDBLK
  5
79A
100
AcDbEntity
  8
0
100
AcDbBlockEnd
  0
BLOCK
  5
7A7
100
AcDbEntity
  8
0
  6
ByBlock
 62
               0
100
AcDbBlockBegin
  2
*D10
 70
               1
 10
0.0
 20
0.0
 30
0.0
  3
*D10
  1

  0
LINE
  5
7A8
100
AcDbEntity
  8
0
  6
ByBlock
 62
               0
100
AcDbLine
 10
-39.999984741210937
 20
-80.050287745194183
 30
0.0
 11
55.000015258789063
 21
-80.050287745194183
 31
0.0
  0
LINE
  5
7A9
100
AcDbEntity
  8
0
  6
ByBlock
 62
               0
100
AcDbLine
 10
-39.999984741210937
 20
-160.53868343611214
 30
0.0
 11
-39.999984741210937
 21
-78.550287745194183
 31
0.0
  0
LINE
  5
7AA
100
AcDbEntity
  8
0
  6
ByBlock
 62
               0
100
AcDbLine
 10
55.000015258789063
 20
-160.53868343611214
 30
0.0
 11
55.000015258789063
 21
-78.550287745194183
 31
0.0
  0
INSERT
  5
7B1
100
AcDbEntity
  8
0
  6
ByBlock
 62
               0
100
AcDbBlockReference
  2
_OPEN30
 10
-39.999984741210937
 20
-80.050287745194183
 30
0.0
 41
2.77
 42
2.77
 43
2.77
 50
179.9999999999996
  0
INSERT
  5
7B2
100
AcDbEntity
  8
0
  6
ByBlock
 62
               0
100
AcDbBlockReference
  2
_OPEN30
 10
55.000015258789063
 20
-80.050287745194183
 30
0.0
 41
2.77
 42
2.77
 43
2.77
  0
MTEXT
  5
7B3
100
AcDbEntity
  8
0
  6
ByBlock
 62
               2
100
AcDbMText
 10
8.5577621459960937
 20
-76.800287745194183
 30
0.0
 40
4.5
 41
0.0
 71
               5
 72
               1
  1
\A1;L
  7
MX_NOTE_STANDARD
  0
POINT
  5
7B4
100
AcDbEntity
  8
DEFPOINTS
  6
ByBlock
 62
               0
100
AcDbPoint
 10
-39.999984741210937
 20
-162.03868343611214
 30
0.0
  0
POINT
  5
7B5
100
AcDbEntity
  8
DEFPOINTS
  6
ByBlock
 62
               0
100
AcDbPoint
 10
55.000015258789063
 20
-162.03868343611214
 30
0.0
  0
POINT
  5
7B6
100
AcDbEntity
  8
DEFPOINTS
  6
ByBlock
 62
               0
100
AcDbPoint
 10
55.000015258789063
 20
-80.050287745194183
 30
0.0
  0
ENDBLK
  5
7B7
100
AcDbEntity
  8
0
  6
ByBlock
 62
               0
100
AcDbBlockEnd
  0
BLOCK
  5
7AC
100
AcDbEntity
  8
0
  6
ByBlock
 62
               0
100
AcDbBlockBegin
  2
_OPEN30
 70
               2
 10
0.0
 20
0.0
 30
0.0
  3
_OPEN30
  1

  0
LINE
  5
7AD
100
AcDbEntity
  8
0
  6
ByBlock
 62
               0
100
AcDbLine
 10
-1.0
 20
0.267949
 30
0.0
 11
0.0
 21
0.0
 31
0.0
  0
LINE
  5
7AE
100
AcDbEntity
  8
0
  6
ByBlock
 62
               0
100
AcDbLine
 10
0.0
 20
0.0
 30
0.0
 11
-1.0
 21
-0.267949
 31
0.0
  0
LINE
  5
7AF
100
AcDbEntity
  8
0
  6
ByBlock
 62
               0
100
AcDbLine
 10
0.0
 20
0.0
 30
0.0
 11
-1.0
 21
0.0
 31
0.0
  0
ENDBLK
  5
7B0
100
AcDbEntity
  8
0
  6
ByBlock
 62
               0
100
AcDbBlockEnd
  0
BLOCK
  5
7BA
100
AcDbEntity
  8
0
  6
ByBlock
 62
               0
100
AcDbBlockBegin
  2
*D12
 70
               1
 10
0.0
 20
0.0
 30
0.0
  3
*D12
  1

  0
LINE
  5
7BB
100
AcDbEntity
  8
0
  6
ByBlock
 62
               0
100
AcDbLine
 10
50.000015258789062
 20
-88.670923007243402
 30
0.0
 11
55.000015258789063
 21
-88.670923007243402
 31
0.0
  0
LINE
  5
7BC
100
AcDbEntity
  8
0
  6
ByBlock
 62
               0
100
AcDbLine
 10
55.000015258789063
 20
-88.670923007243402
 30
0.0
 11
62.881832122802734
 21
-88.670923007243402
 31
0.0
  0
LINE
  5
7BD
100
AcDbEntity
  8
0
  6
ByBlock
 62
               0
100
AcDbLine
 10
50.000015258789062
 20
-88.670923007243402
 30
0.0
 11
46.444015264511108
 21
-88.670923007243402
 31
0.0
  0
LINE
  5
7BE
100
AcDbEntity
  8
0
  6
ByBlock
 62
               0
100
AcDbLine
 10
55.000015258789063
 20
-88.670923007243402
 30
0.0
 11
58.556015253067017
 21
-88.670923007243402
 31
0.0
  0
INSERT
  5
7BF
100
AcDbEntity
  8
0
  6
ByBlock
 62
               0
100
AcDbBlockReference
  2
_OPEN30
 10
50.000015258789062
 20
-88.670923007243402
 30
0.0
 41
2.77
 42
2.77
 43
2.77
  0
INSERT
  5
7C0
100
AcDbEntity
  8
0
  6
ByBlock
 62
               0
100
AcDbBlockReference
  2
_OPEN30
 10
55.000015258789063
 20
-88.670923007243402
 30
0.0
 41
2.77
 42
2.77
 43
2.77
 50
179.9999999999996
  0
MTEXT
  5
7C1
100
AcDbEntity
  8
0
  6
ByBlock
 62
               2
100
AcDbMText
 10
60.631832122802734
 20
-85.420923007243402
 30
0.0
 40
4.5
 41
0.0
 71
               5
 72
               1
  1
\A1;5
  7
MX_NOTE_STANDARD
  0
POINT
  5
7C2
100
AcDbEntity
  8
DEFPOINTS
  6
ByBlock
 62
               0
100
AcDbPoint
 10
50.000015258789062
 20
-186.78869797062231
 30
0.0
  0
POINT
  5
7C3
100
AcDbEntity
  8
DEFPOINTS
  6
ByBlock
 62
               0
100
AcDbPoint
 10
55.000015258789063
 20
-162.03868271183325
 30
0.0
  0
POINT
  5
7C4
100
AcDbEntity
  8
DEFPOINTS
  6
ByBlock
 62
               0
100
AcDbPoint
 10
55.000015258789063
 20
-88.670923007243402
 30
0.0
  0
ENDBLK
  5
7C5
100
AcDbEntity
  8
0
  6
ByBlock
 62
               0
100
AcDbBlockEnd
  0
BLOCK
  5
7C8
100
AcDbEntity
  8
0
  6
ByBlock
 62
               0
100
AcDbBlockBegin
  2
*D13
 70
               1
 10
0.0
 20
0.0
 30
0.0
  3
*D13
  1

  0
LINE
  5
7C9
100
AcDbEntity
  8
0
  6
ByBlock
 62
               0
100
AcDbLine
 10
-34.999984741210938
 20
-88.670923007243402
 30
0.0
 11
50.000015258789062
 21
-88.670923007243402
 31
0.0
  0
LINE
  5
7CA
100
AcDbEntity
  8
0
  6
ByBlock
 62
               0
100
AcDbLine
 10
50.000015258789062
 20
-185.28869797062231
 30
0.0
 11
50.000015258789062
 21
-87.170923007243402
 31
0.0
  0
INSERT
  5
7CB
100
AcDbEntity
  8
0
  6
ByBlock
 62
               0
100
AcDbBlockReference
  2
_OPEN30
 10
-34.999984741210938
 20
-88.670923007243402
 30
0.0
 41
2.77
 42
2.77
 43
2.77
 50
179.9999999999996
  0
INSERT
  5
7CC
100
AcDbEntity
  8
0
  6
ByBlock
 62
               0
100
AcDbBlockReference
  2
_OPEN30
 10
50.000015258789062
 20
-88.670923007243402
 30
0.0
 41
2.77
 42
2.77
 43
2.77
  0
MTEXT
  5
7CD
100
AcDbEntity
  8
0
  6
ByBlock
 62
               2
100
AcDbMText
 10
7.5000152587890625
 20
-85.420923007243402
 30
0.0
 40
4.5
 41
0.0
 71
               5
 72
               1
  1
\A1;P
  7
MX_NOTE_STANDARD
  0
POINT
  5
7CE
100
AcDbEntity
  8
DEFPOINTS
  6
ByBlock
 62
               0
100
AcDbPoint
 10
-34.999984741210938
 20
-186.78869797062231
 30
0.0
  0
POINT
  5
7CF
100
AcDbEntity
  8
DEFPOINTS
  6
ByBlock
 62
               0
100
AcDbPoint
 10
50.000015258789062
 20
-186.78869797062231
 30
0.0
  0
POINT
  5
7D0
100
AcDbEntity
  8
DEFPOINTS
  6
ByBlock
 62
               0
100
AcDbPoint
 10
50.000015258789062
 20
-88.670923007243402
 30
0.0
  0
ENDBLK
  5
7D1
100
AcDbEntity
  8
0
  6
ByBlock
 62
               0
100
AcDbBlockEnd
  0
BLOCK
  5
7D4
100
AcDbEntity
  8
0
  6
ByBlock
 62
               0
100
AcDbBlockBegin
  2
*D14
 70
               1
 10
0.0
 20
0.0
 30
0.0
  3
*D14
  1

  0
LINE
  5
7D5
100
AcDbEntity
  8
0
  6
ByBlock
 62
               0
100
AcDbLine
 10
-39.999984741210937
 20
-88.670923007243402
 30
0.0
 11
-34.999984741210938
 21
-88.670923007243402
 31
0.0
  0
LINE
  5
7D6
100
AcDbEntity
  8
0
  6
ByBlock
 62
               0
100
AcDbLine
 10
-46.209491014480591
 20
-88.670923007243402
 30
0.0
 11
-39.999984741210937
 21
-88.670923007243402
 31
0.0
  0
LINE
  5
7D7
100
AcDbEntity
  8
0
  6
ByBlock
 62
               0
100
AcDbLine
 10
-34.999984741210938
 20
-185.28869797062231
 30
0.0
 11
-34.999984741210938
 21
-87.170923007243402
 31
0.0
  0
LINE
  5
7D8
100
AcDbEntity
  8
0
  6
ByBlock
 62
               0
100
AcDbLine
 10
-39.999984741210937
 20
-88.670923007243402
 30
0.0
 11
-43.555984735488892
 21
-88.670923007243402
 31
0.0
  0
LINE
  5
7D9
100
AcDbEntity
  8
0
  6
ByBlock
 62
               0
100
AcDbLine
 10
-34.999984741210938
 20
-88.670923007243402
 30
0.0
 11
-31.443984746932983
 21
-88.670923007243402
 31
0.0
  0
INSERT
  5
7DA
100
AcDbEntity
  8
0
  6
ByBlock
 62
               0
100
AcDbBlockReference
  2
_OPEN30
 10
-39.999984741210937
 20
-88.670923007243402
 30
0.0
 41
2.77
 42
2.77
 43
2.77
  0
INSERT
  5
7DB
100
AcDbEntity
  8
0
  6
ByBlock
 62
               0
100
AcDbBlockReference
  2
_OPEN30
 10
-34.999984741210938
 20
-88.670923007243402
 30
0.0
 41
2.77
 42
2.77
 43
2.77
 50
179.9999999999996
  0
MTEXT
  5
7DC
100
AcDbEntity
  8
0
  6
ByBlock
 62
               2
100
AcDbMText
 10
-43.959491014480591
 20
-85.420923007243402
 30
0.0
 40
4.5
 41
0.0
 71
               5
 72
               1
  1
\A1;5
  7
MX_NOTE_STANDARD
  0
POINT
  5
7DD
100
AcDbEntity
  8
DEFPOINTS
  6
ByBlock
 62
               0
100
AcDbPoint
 10
-39.999984741210937
 20
-162.03868271183325
 30
0.0
  0
POINT
  5
7DE
100
AcDbEntity
  8
DEFPOINTS
  6
ByBlock
 62
               0
100
AcDbPoint
 10
-34.999984741210938
 20
-186.78869797062231
 30
0.0
  0
POINT
  5
7DF
100
AcDbEntity
  8
DEFPOINTS
  6
ByBlock
 62
               0
100
AcDbPoint
 10
-34.999984741210938
 20
-88.670923007243402
 30
0.0
  0
ENDBLK
  5
7E0
100
AcDbEntity
  8
0
  6
ByBlock
 62
               0
100
AcDbBlockEnd
  0
BLOCK
  5
841
100
AcDbEntity
  8
0
  6
ByBlock
 62
               0
100
AcDbBlockBegin
  2
*D15
 70
               1
 10
0.0
 20
0.0
 30
0.0
  3
*D15
  1

  0
LINE
  5
842
100
AcDbEntity
  8
0
  6
ByBlock
 62
               0
100
AcDbLine
 10
-40.000030517578125
 20
257.11868286132813
 30
0.0
 11
-35.000030517578125
 21
257.11868286132813
 31
0.0
  0
LINE
  5
843
100
AcDbEntity
  8
0
  6
ByBlock
 62
               0
100
AcDbLine
 10
-49.297470092773438
 20
257.11868286132813
 30
0.0
 11
-40.000030517578125
 21
257.11868286132813
 31
0.0
  0
LINE
  5
844
100
AcDbEntity
  8
0
  6
ByBlock
 62
               0
100
AcDbLine
 10
-35.000030517578125
 20
161.25
 30
0.0
 11
-35.000030517578125
 21
258.61868286132812
 31
0.0
  0
LINE
  5
845
100
AcDbEntity
  8
0
  6
ByBlock
 62
               0
100
AcDbLine
 10
-40.000030517578125
 20
257.11868286132813
 30
0.0
 11
-43.556030511856079
 21
257.11868286132813
 31
0.0
  0
LINE
  5
846
100
AcDbEntity
  8
0
  6
ByBlock
 62
               0
100
AcDbLine
 10
-35.000030517578125
 20
257.11868286132813
 30
0.0
 11
-31.444030523300171
 21
257.11868286132813
 31
0.0
  0
INSERT
  5
847
100
AcDbEntity
  8
0
  6
ByBlock
 62
               0
100
AcDbBlockReference
  2
_OPEN30
 10
-40.000030517578125
 20
257.11868286132813
 30
0.0
 41
2.77
 42
2.77
 43
2.77
  0
INSERT
  5
848
100
AcDbEntity
  8
0
  6
ByBlock
 62
               0
100
AcDbBlockReference
  2
_OPEN30
 10
-35.000030517578125
 20
257.11868286132813
 30
0.0
 41
2.77
 42
2.77
 43
2.77
 50
179.9999999999996
  0
MTEXT
  5
849
100
AcDbEntity
  8
0
  6
ByBlock
 62
               2
100
AcDbMText
 10
-47.047470092773438
 20
260.36868286132812
 30
0.0
 40
4.5
 41
0.0
 71
               5
 72
               1
  1
\A1;5
  7
MX_NOTE_STANDARD
  0
POINT
  5
84A
100
AcDbEntity
  8
DEFPOINTS
  6
ByBlock
 62
               0
100
AcDbPoint
 10
-40.000030517578125
 20
187.0
 30
0.0
  0
POINT
  5
84B
100
AcDbEntity
  8
DEFPOINTS
  6
ByBlock
 62
               0
100
AcDbPoint
 10
-35.000030517578125
 20
161.25
 30
0.0
  0
POINT
  5
84C
100
AcDbEntity
  8
DEFPOINTS
  6
ByBlock
 62
               0
100
AcDbPoint
 10
-35.000030517578125
 20
257.11868286132813
 30
0.0
  0
ENDBLK
  5
84D
100
AcDbEntity
  8
0
  6
ByBlock
 62
               0
100
AcDbBlockEnd
  0
BLOCK
  5
850
100
AcDbEntity
  8
0
  6
ByBlock
 62
               0
100
AcDbBlockBegin
  2
*D16
 70
               1
 10
0.0
 20
0.0
 30
0.0
  3
*D16
  1

  0
LINE
  5
851
100
AcDbEntity
  8
0
  6
ByBlock
 62
               0
100
AcDbLine
 10
-35.000030517578125
 20
257.11868286132813
 30
0.0
 11
49.999969482421875
 21
257.11868286132813
 31
0.0
  0
LINE
  5
852
100
AcDbEntity
  8
0
  6
ByBlock
 62
               0
100
AcDbLine
 10
49.999969482421875
 20
161.25
 30
0.0
 11
49.999969482421875
 21
258.61868286132812
 31
0.0
  0
INSERT
  5
853
100
AcDbEntity
  8
0
  6
ByBlock
 62
               0
100
AcDbBlockReference
  2
_OPEN30
 10
-35.000030517578125
 20
257.11868286132813
 30
0.0
 41
2.77
 42
2.77
 43
2.77
 50
179.9999999999996
  0
INSERT
  5
854
100
AcDbEntity
  8
0
  6
ByBlock
 62
               0
100
AcDbBlockReference
  2
_OPEN30
 10
49.999969482421875
 20
257.11868286132813
 30
0.0
 41
2.77
 42
2.77
 43
2.77
  0
MTEXT
  5
855
100
AcDbEntity
  8
0
  6
ByBlock
 62
               2
100
AcDbMText
 10
7.499969482421875
 20
260.36868286132812
 30
0.0
 40
4.5
 41
0.0
 71
               5
 72
               1
  1
\A1;P
  7
MX_NOTE_STANDARD
  0
POINT
  5
856
100
AcDbEntity
  8
DEFPOINTS
  6
ByBlock
 62
               0
100
AcDbPoint
 10
-35.000030517578125
 20
161.25
 30
0.0
  0
POINT
  5
857
100
AcDbEntity
  8
DEFPOINTS
  6
ByBlock
 62
               0
100
AcDbPoint
 10
49.999969482421875
 20
161.25
 30
0.0
  0
POINT
  5
858
100
AcDbEntity
  8
DEFPOINTS
  6
ByBlock
 62
               0
100
AcDbPoint
 10
49.999969482421875
 20
257.11868286132813
 30
0.0
  0
ENDBLK
  5
859
100
AcDbEntity
  8
0
  6
ByBlock
 62
               0
100
AcDbBlockEnd
  0
BLOCK
  5
85C
100
AcDbEntity
  8
0
  6
ByBlock
 62
               0
100
AcDbBlockBegin
  2
*D17
 70
               1
 10
0.0
 20
0.0
 30
0.0
  3
*D17
  1

  0
LINE
  5
85D
100
AcDbEntity
  8
0
  6
ByBlock
 62
               0
100
AcDbLine
 10
49.999969482421875
 20
257.11868286132813
 30
0.0
 11
54.999969482421875
 21
257.11868286132813
 31
0.0
  0
LINE
  5
85E
100
AcDbEntity
  8
0
  6
ByBlock
 62
               0
100
AcDbLine
 10
54.999969482421875
 20
257.11868286132813
 30
0.0
 11
65.499252319335938
 21
257.11868286132813
 31
0.0
  0
LINE
  5
85F
100
AcDbEntity
  8
0
  6
ByBlock
 62
               0
100
AcDbLine
 10
49.999969482421875
 20
257.11868286132813
 30
0.0
 11
46.443969488143921
 21
257.11868286132813
 31
0.0
  0
LINE
  5
860
100
AcDbEntity
  8
0
  6
ByBlock
 62
               0
100
AcDbLine
 10
54.999969482421875
 20
257.11868286132813
 30
0.0
 11
58.555969476699829
 21
257.11868286132813
 31
0.0
  0
INSERT
  5
861
100
AcDbEntity
  8
0
  6
ByBlock
 62
               0
100
AcDbBlockReference
  2
_OPEN30
 10
49.999969482421875
 20
257.11868286132813
 30
0.0
 41
2.77
 42
2.77
 43
2.77
  0
INSERT
  5
862
100
AcDbEntity
  8
0
  6
ByBlock
 62
               0
100
AcDbBlockReference
  2
_OPEN30
 10
54.999969482421875
 20
257.11868286132813
 30
0.0
 41
2.77
 42
2.77
 43
2.77
 50
179.9999999999996
  0
MTEXT
  5
863
100
AcDbEntity
  8
0
  6
ByBlock
 62
               2
100
AcDbMText
 10
63.249252319335938
 20
260.36868286132812
 30
0.0
 40
4.5
 41
0.0
 71
               5
 72
               1
  1
\A1;5
  7
MX_NOTE_STANDARD
  0
POINT
  5
864
100
AcDbEntity
  8
DEFPOINTS
  6
ByBlock
 62
               0
100
AcDbPoint
 10
49.999969482421875
 20
161.25
 30
0.0
  0
POINT
  5
865
100
AcDbEntity
  8
DEFPOINTS
  6
ByBlock
 62
               0
100
AcDbPoint
 10
54.999969482421875
 20
187.0
 30
0.0
  0
POINT
  5
866
100
AcDbEntity
  8
DEFPOINTS
  6
ByBlock
 62
               0
100
AcDbPoint
 10
54.999969482421875
 20
257.11868286132813
 30
0.0
  0
ENDBLK
  5
867
100
AcDbEntity
  8
0
  6
ByBlock
 62
               0
100
AcDbBlockEnd
  0
BLOCK
  5
86A
100
AcDbEntity
  8
0
  6
ByBlock
 62
               0
100
AcDbBlockBegin
  2
*D18
 70
               1
 10
0.0
 20
0.0
 30
0.0
  3
*D18
  1

  0
LINE
  5
86B
100
AcDbEntity
  8
0
  6
ByBlock
 62
               0
100
AcDbLine
 10
54.999969482421875
 20
267.11868286132812
 30
0.0
 11
-40.000030517578125
 21
267.11868286132812
 31
0.0
  0
LINE
  5
86C
100
AcDbEntity
  8
0
  6
ByBlock
 62
               0
100
AcDbLine
 10
54.999969482421875
 20
188.5
 30
0.0
 11
54.999969482421875
 21
268.61868286132812
 31
0.0
  0
LINE
  5
86D
100
AcDbEntity
  8
0
  6
ByBlock
 62
               0
100
AcDbLine
 10
-40.000030517578125
 20
188.5
 30
0.0
 11
-40.000030517578125
 21
268.61868286132812
 31
0.0
  0
INSERT
  5
86E
100
AcDbEntity
  8
0
  6
ByBlock
 62
               0
100
AcDbBlockReference
  2
_OPEN30
 10
54.999969482421875
 20
267.11868286132812
 30
0.0
 41
2.77
 42
2.77
 43
2.77
  0
INSERT
  5
86F
100
AcDbEntity
  8
0
  6
ByBlock
 62
               0
100
AcDbBlockReference
  2
_OPEN30
 10
-40.000030517578125
 20
267.11868286132812
 30
0.0
 41
2.77
 42
2.77
 43
2.77
 50
179.9999999999996
  0
MTEXT
  5
870
100
AcDbEntity
  8
0
  6
ByBlock
 62
               2
100
AcDbMText
 10
7.499969482421875
 20
270.36868286132812
 30
0.0
 40
4.5
 41
0.0
 71
               5
 72
               1
  1
\A1;L
  7
MX_NOTE_STANDARD
 11
1.0
 21
-0.0000000000000001
 31
0.0
  0
POINT
  5
871
100
AcDbEntity
  8
DEFPOINTS
  6
ByBlock
 62
               0
100
AcDbPoint
 10
54.999969482421875
 20
187.0
 30
0.0
  0
POINT
  5
872
100
AcDbEntity
  8
DEFPOINTS
  6
ByBlock
 62
               0
100
AcDbPoint
 10
-40.000030517578125
 20
187.0
 30
0.0
  0
POINT
  5
873
100
AcDbEntity
  8
DEFPOINTS
  6
ByBlock
 62
               0
100
AcDbPoint
 10
-40.000030517578125
 20
267.11868286132812
 30
0.0
  0
ENDBLK
  5
874
100
AcDbEntity
  8
0
  6
ByBlock
 62
               0
100
AcDbBlockEnd
  0
ENDSEC
  0
SECTION
  2
ENTITIES
  0
INSERT
  5
79B
100
AcDbEntity
  8
0
100
AcDbBlockReference
  2
MS_9
 10
295.40999999999997
 20
-106.62
 30
0.0
  0
INSERT
  5
79C
100
AcDbEntity
  8
0
100
AcDbBlockReference
  2
MS_10
 10
209.91
 20
-106.62
 30
0.0
 50
0.0000106103295014
  0
INSERT
  5
79D
100
AcDbEntity
  8
0
100
AcDbBlockReference
  2
MS_8
 10
289.75
 20
72.967275846252875
 30
0.0
  0
MTEXT
  5
79E
100
AcDbEntity
  8
0
  6
CONTINUOUS
 62
               7
100
AcDbMText
 10
-229.5034948215
 20
-84.125
 30
0.0
 40
6.3000001907348633
 41
0.0
 71
               4
 72
               1
  1
\W1.062;\A1;MODEL:CS-F18M4AJG
  7
MX_NOTE_STANDARD
  0
LINE
  5
7A0
100
AcDbEntity
  8
0
  6
DASHED
 62
               2
100
AcDbLine
 10
133.17496744791663
 20
-69.125
 30
0.0
 11
-242.46911975783053
 21
-69.125
 31
0.0
  0
LINE
  5
7A1
100
AcDbEntity
  8
0
  6
CONTINUOUS
 62
               7
100
AcDbLine
 10
133.17496744791663
 20
-276.5
 30
0.0
 11
133.17496744791663
 21
276.5
 31
0.0
  0
INSERT
  5
7A2
100
AcDbEntity
  8
0
100
AcDbBlockReference
  2
MS_7
 10
238.05000000000001
 20
126.05
 30
0.0
  0
INSERT
  5
7A3
100
AcDbEntity
  8
0
100
AcDbBlockReference
  2
MS_6
 10
289.75
 20
126.05
 30
0.0
  0
INSERT
  5
7A4
100
AcDbEntity
  8
0
100
AcDbBlockReference
  2
MS_5
 10
-193.0001220703125
 20
-190.03869891360125
 30
0.0
  0
INSERT
  5
7A5
100
AcDbEntity
  8
0
100
AcDbBlockReference
  2
MS_4
 10
-34.999984741210938
 20
-190.03869891360125
 30
0.0
  0
DIMENSION
  5
7B8
100
AcDbEntity
  8
0
  6
CONTINUOUS
 62
               2
100
AcDbDimension
  2
*D10
 10
55.000015258789063
 20
-80.050287745194183
 30
0.0
 11
8.5577621459960937
 21
-80.050287745194183
 31
0.0
 70
             128
  1
L
  3
MXDIMSTYLE
100
AcDbAlignedDimension
 13
-39.999984741210937
 23
-162.03868343611214
 33
0.0
 14
55.000015258789063
 24
-162.03868343611214
 34
0.0
100
AcDbRotatedDimension
1001
ACAD
1000
DSTYLE
1002
{
1070
               6
1000
_OPEN30
1070
               7
1000
_OPEN30
1070
              41
1040
2.77
1070
             140
1040
4.5
1070
             173
1070
               1
1070
             271
1070
               2
1002
}
  0
DIMENSION
  5
7C6
100
AcDbEntity
  8
0
  6
CONTINUOUS
 62
               2
100
AcDbDimension
  2
*D12
 10
55.000015258789063
 20
-88.670923007243402
 30
0.0
 11
60.631832122802734
 21
-88.670923007243402
 31
0.0
 70
             128
  1
<>
  3
MXDIMSTYLE
100
AcDbAlignedDimension
 13
50.000015258789062
 23
-186.78869797062231
 33
0.0
 14
55.000015258789063
 24
-162.03868271183325
 34
0.0
100
AcDbRotatedDimension
1001
ACAD
1000
DSTYLE
1002
{
1070
               6
1000
_OPEN30
1070
               7
1000
_OPEN30
1070
              41
1040
2.77
1070
              75
1070
               1
1070
              76
1070
               1
1070
             140
1040
4.5
1070
             173
1070
               1
1070
             271
1070
               2
1002
}
  0
DIMENSION
  5
7D2
100
AcDbEntity
  8
0
  6
CONTINUOUS
 62
               2
100
AcDbDimension
  2
*D13
 10
50.000015258789062
 20
-88.670923007243402
 30
0.0
 11
7.5000152587890625
 21
-88.670923007243402
 31
0.0
 70
             128
  1
P
  3
MXDIMSTYLE
100
AcDbAlignedDimension
 13
-34.999984741210938
 23
-186.78869797062231
 33
0.0
 14
50.000015258789062
 24
-186.78869797062231
 34
0.0
100
AcDbRotatedDimension
1001
ACAD
1000
DSTYLE
1002
{
1070
               6
1000
_OPEN30
1070
               7
1000
_OPEN30
1070
              41
1040
2.77
1070
              75
1070
               1
1070
             140
1040
4.5
1070
             173
1070
               1
1070
             271
1070
               2
1002
}
  0
DIMENSION
  5
7E1
100
AcDbEntity
  8
0
  6
CONTINUOUS
 62
               2
100
AcDbDimension
  2
*D14
 10
-34.999984741210938
 20
-88.670923007243402
 30
0.0
 11
-43.959491014480591
 21
-88.670923007243402
 31
0.0
 70
             128
  1
<>
  3
MXDIMSTYLE
100
AcDbAlignedDimension
 13
-39.999984741210937
 23
-162.03868271183325
 33
0.0
 14
-34.999984741210938
 24
-186.78869797062231
 34
0.0
100
AcDbRotatedDimension
1001
ACAD
1000
DSTYLE
1002
{
1070
               6
1000
_OPEN30
1070
               7
1000
_OPEN30
1070
              41
1040
2.77
1070
              75
1070
               1
1070
             140
1040
4.5
1070
             173
1070
               1
1070
             271
1070
               2
1002
}
  0
MTEXT
  5
7E2
100
AcDbEntity
  8
0
  6
CONTINUOUS
 62
               7
100
AcDbMText
 10
-292.10823567708331
 20
-118.5
 30
0.0
 40
4.0
 41
0.0
 71
               4
 72
               1
  1
\A1;47
  7
MX_NOTE_STANDARD
  0
MTEXT
  5
7E3
100
AcDbEntity
  8
0
  6
CONTINUOUS
 62
               7
100
AcDbMText
 10
-292.10823567708331
 20
-126.5
 30
0.0
 40
4.0
 41
0.0
 71
               4
 72
               1
  1
\A1;66
  7
MX_NOTE_STANDARD
  0
MTEXT
  5
7E4
100
AcDbEntity
  8
0
  6
CONTINUOUS
 62
               7
100
AcDbMText
 10
-292.10823567708331
 20
-134.5
 30
0.0
 40
4.0
 41
0.0
 71
               4
 72
               1
  1
\A1;85
  7
MX_NOTE_STANDARD
  0
MTEXT
  5
7E5
100
AcDbEntity
  8
0
  6
CONTINUOUS
 62
               7
100
AcDbMText
 10
-296.22490234374999
 20
-142.5
 30
0.0
 40
4.0
 41
0.0
 71
               4
 72
               1
  1
\W1.200;\A1;104
  7
MX_NOTE_STANDARD
  0
MTEXT
  5
7E6
100
AcDbEntity
  8
0
  6
CONTINUOUS
 62
               7
100
AcDbMText
 10
-296.27490234933794
 20
-150.5
 30
0.0
 40
4.0
 41
0.0
 71
               4
 72
               1
  1
\W1.125;\A1;123
  7
MX_NOTE_STANDARD
  0
MTEXT
  5
7E7
100
AcDbEntity
  8
0
  6
CONTINUOUS
 62
               7
100
AcDbMText
 10
-296.27490234933794
 20
-158.5
 30
0.0
 40
4.0
 41
0.0
 71
               4
 72
               1
  1
\W1.125;\A1;142
  7
MX_NOTE_STANDARD
  0
MTEXT
  5
7E8
100
AcDbEntity
  8
0
  6
CONTINUOUS
 62
               7
100
AcDbMText
 10
-296.16775950120422
 20
-166.5
 30
0.0
 40
4.0
 41
0.0
 71
               4
 72
               1
  1
\W1.286;\A1;161
  7
MX_NOTE_STANDARD
  0
MTEXT
  5
7E9
100
AcDbEntity
  8
0
  6
CONTINUOUS
 62
               7
100
AcDbMText
 10
-296.22490234374999
 20
-174.5
 30
0.0
 40
4.0
 41
0.0
 71
               4
 72
               1
  1
\W1.200;\A1;180
  7
MX_NOTE_STANDARD
  0
MTEXT
  5
7EA
100
AcDbEntity
  8
0
  6
CONTINUOUS
 62
               7
100
AcDbMText
 10
-296.27490234933794
 20
-182.5
 30
0.0
 40
4.0
 41
0.0
 71
               4
 72
               1
  1
\W1.125;\A1;199
  7
MX_NOTE_STANDARD
  0
MTEXT
  5
7EB
100
AcDbEntity
  8
0
  6
CONTINUOUS
 62
               7
100
AcDbMText
 10
-296.27490234933794
 20
-190.5
 30
0.0
 40
4.0
 41
0.0
 71
               4
 72
               1
  1
\W1.125;\A1;218
  7
MX_NOTE_STANDARD
  0
MTEXT
  5
7EC
100
AcDbEntity
  8
0
  6
CONTINUOUS
 62
               7
100
AcDbMText
 10
-296.35823567708331
 20
-198.5
 30
0.0
 40
4.0
 41
0.0
 71
               4
 72
               1
  1
\A1;237
  7
MX_NOTE_STANDARD
  0
MTEXT
  5
7ED
100
AcDbEntity
  8
0
  6
CONTINUOUS
 62
               7
100
AcDbMText
 10
-296.35823567708331
 20
-206.5
 30
0.0
 40
4.0
 41
0.0
 71
               4
 72
               1
  1
\A1;256
  7
MX_NOTE_STANDARD
  0
MTEXT
  5
7EE
100
AcDbEntity
  8
0
  6
CONTINUOUS
 62
               7
100
AcDbMText
 10
-296.35823567708331
 20
-214.5
 30
0.0
 40
4.0
 41
0.0
 71
               4
 72
               1
  1
\A1;275
  7
MX_NOTE_STANDARD
  0
MTEXT
  5
7EF
100
AcDbEntity
  8
0
  6
CONTINUOUS
 62
               7
100
AcDbMText
 10
-296.35823567708331
 20
-222.5
 30
0.0
 40
4.0
 41
0.0
 71
               4
 72
               1
  1
\A1;294
  7
MX_NOTE_STANDARD
  0
MTEXT
  5
7F0
100
AcDbEntity
  8
0
  6
CONTINUOUS
 62
               7
100
AcDbMText
 10
-296.27490234933794
 20
-230.5
 30
0.0
 40
4.0
 41
0.0
 71
               4
 72
               1
  1
\W1.125;\A1;313
  7
MX_NOTE_STANDARD
  0
MTEXT
  5
7F1
100
AcDbEntity
  8
0
  6
CONTINUOUS
 62
               7
100
AcDbMText
 10
-296.35823567708331
 20
-238.5
 30
0.0
 40
4.0
 41
0.0
 71
               4
 72
               1
  1
\A1;332
  7
MX_NOTE_STANDARD
  0
MTEXT
  5
7F2
100
AcDbEntity
  8
0
  6
CONTINUOUS
 62
               7
100
AcDbMText
 10
-296.27490234933794
 20
-246.5
 30
0.0
 40
4.0
 41
0.0
 71
               4
 72
               1
  1
\W1.125;\A1;351
  7
MX_NOTE_STANDARD
  0
MTEXT
  5
7F3
100
AcDbEntity
  8
0
  6
CONTINUOUS
 62
               7
100
AcDbMText
 10
-296.31901998585897
 20
-254.5
 30
0.0
 40
4.0
 41
0.0
 71
               4
 72
               1
  1
\W1.059;\A1;370
  7
MX_NOTE_STANDARD
  0
MTEXT
  5
7F4
100
AcDbEntity
  8
0
  6
CONTINUOUS
 62
               7
100
AcDbMText
 10
-322.10823567708331
 20
-118.5
 30
0.0
 40
4.0
 41
0.0
 71
               4
 72
               1
  1
\A1;57
  7
MX_NOTE_STANDARD
  0
MTEXT
  5
7F5
100
AcDbEntity
  8
0
  6
CONTINUOUS
 62
               7
100
AcDbMText
 10
-322.10823567708331
 20
-126.5
 30
0.0
 40
4.0
 41
0.0
 71
               4
 72
               1
  1
\A1;76
  7
MX_NOTE_STANDARD
  0
MTEXT
  5
7F6
100
AcDbEntity
  8
0
  6
CONTINUOUS
 62
               7
100
AcDbMText
 10
-322.10823567708331
 20
-134.5
 30
0.0
 40
4.0
 41
0.0
 71
               4
 72
               1
  1
\A1;95
  7
MX_NOTE_STANDARD
  0
MTEXT
  5
7F7
100
AcDbEntity
  8
0
  6
CONTINUOUS
 62
               7
100
AcDbMText
 10
-326.16775950120422
 20
-142.5
 30
0.0
 40
4.0
 41
0.0
 71
               4
 72
               1
  1
\W1.286;\A1;114
  7
MX_NOTE_STANDARD
  0
MTEXT
  5
7F8
100
AcDbEntity
  8
0
  6
CONTINUOUS
 62
               7
100
AcDbMText
 10
-326.27490234933794
 20
-150.5
 30
0.0
 40
4.0
 41
0.0
 71
               4
 72
               1
  1
\W1.125;\A1;133
  7
MX_NOTE_STANDARD
  0
MTEXT
  5
7F9
100
AcDbEntity
  8
0
  6
CONTINUOUS
 62
               7
100
AcDbMText
 10
-326.27490234933794
 20
-158.5
 30
0.0
 40
4.0
 41
0.0
 71
               4
 72
               1
  1
\W1.125;\A1;152
  7
MX_NOTE_STANDARD
  0
MTEXT
  5
7FA
100
AcDbEntity
  8
0
  6
CONTINUOUS
 62
               7
100
AcDbMText
 10
-326.16775950120422
 20
-166.5
 30
0.0
 40
4.0
 41
0.0
 71
               4
 72
               1
  1
\W1.286;\A1;171
  7
MX_NOTE_STANDARD
  0
MTEXT
  5
7FB
100
AcDbEntity
  8
0
  6
CONTINUOUS
 62
               7
100
AcDbMText
 10
-326.22490234374999
 20
-174.5
 30
0.0
 40
4.0
 41
0.0
 71
               4
 72
               1
  1
\W1.200;\A1;190
  7
MX_NOTE_STANDARD
  0
MTEXT
  5
7FC
100
AcDbEntity
  8
0
  6
CONTINUOUS
 62
               7
100
AcDbMText
 10
-326.31901998585897
 20
-182.5
 30
0.0
 40
4.0
 41
0.0
 71
               4
 72
               1
  1
\W1.059;\A1;209
  7
MX_NOTE_STANDARD
  0
MTEXT
  5
7FD
100
AcDbEntity
  8
0
  6
CONTINUOUS
 62
               7
100
AcDbMText
 10
-326.35823567708331
 20
-190.5
 30
0.0
 40
4.0
 41
0.0
 71
               4
 72
               1
  1
\A1;228
  7
MX_NOTE_STANDARD
  0
MTEXT
  5
7FE
100
AcDbEntity
  8
0
  6
CONTINUOUS
 62
               7
100
AcDbMText
 10
-326.35823567708331
 20
-198.5
 30
0.0
 40
4.0
 41
0.0
 71
               4
 72
               1
  1
\A1;247
  7
MX_NOTE_STANDARD
  0
MTEXT
  5
7FF
100
AcDbEntity
  8
0
  6
CONTINUOUS
 62
               7
100
AcDbMText
 10
-326.35823567708331
 20
-206.5
 30
0.0
 40
4.0
 41
0.0
 71
               4
 72
               1
  1
\A1;266
  7
MX_NOTE_STANDARD
  0
MTEXT
  5
800
100
AcDbEntity
  8
0
  6
CONTINUOUS
 62
               7
100
AcDbMText
 10
-326.35823567708331
 20
-214.5
 30
0.0
 40
4.0
 41
0.0
 71
               4
 72
               1
  1
\A1;285
  7
MX_NOTE_STANDARD
  0
MTEXT
  5
801
100
AcDbEntity
  8
0
  6
CONTINUOUS
 62
               7
100
AcDbMText
 10
-326.31901998585897
 20
-222.5
 30
0.0
 40
4.0
 41
0.0
 71
               4
 72
               1
  1
\W1.059;\A1;304
  7
MX_NOTE_STANDARD
  0
MTEXT
  5
802
100
AcDbEntity
  8
0
  6
CONTINUOUS
 62
               7
100
AcDbMText
 10
-326.35823567708331
 20
-230.5
 30
0.0
 40
4.0
 41
0.0
 71
               4
 72
               1
  1
\A1;323
  7
MX_NOTE_STANDARD
  0
MTEXT
  5
803
100
AcDbEntity
  8
0
  6
CONTINUOUS
 62
               7
100
AcDbMText
 10
-326.35823567708331
 20
-238.5
 30
0.0
 40
4.0
 41
0.0
 71
               4
 72
               1
  1
\A1;342
  7
MX_NOTE_STANDARD
  0
MTEXT
  5
804
100
AcDbEntity
  8
0
  6
CONTINUOUS
 62
               7
100
AcDbMText
 10
-326.27490234933794
 20
-246.5
 30
0.0
 40
4.0
 41
0.0
 71
               4
 72
               1
  1
\W1.125;\A1;361
  7
MX_NOTE_STANDARD
  0
MTEXT
  5
805
100
AcDbEntity
  8
0
  6
CONTINUOUS
 62
               7
100
AcDbMText
 10
-326.31901998585897
 20
-254.5
 30
0.0
 40
4.0
 41
0.0
 71
               4
 72
               1
  1
\W1.059;\A1;380
  7
MX_NOTE_STANDARD
  0
MTEXT
  5
806
100
AcDbEntity
  8
0
  6
CONTINUOUS
 62
               7
100
AcDbMText
 10
-296.35823567708331
 20
-262.5
 30
0.0
 40
4.0
 41
0.0
 71
               4
 72
               1
  1
\A1;389
  7
MX_NOTE_STANDARD
  0
MTEXT
  5
807
100
AcDbEntity
  8
0
  6
CONTINUOUS
 62
               7
100
AcDbMText
 10
-326.35823567708331
 20
-262.5
 30
0.0
 40
4.0
 41
0.0
 71
               4
 72
               1
  1
\A1;399
  7
MX_NOTE_STANDARD
  0
MTEXT
  5
808
100
AcDbEntity
  8
0
  6
CONTINUOUS
 62
               7
100
AcDbMText
 10
-386.73918805803572
 20
-262.5
 30
0.0
 40
4.5
 41
0.0
 71
               4
 72
               1
  1
\W1.048;\A1;CS-F18M20AJ
  7
MX_NOTE_STANDARD
  0
MTEXT
  5
809
100
AcDbEntity
  8
0
  6
CONTINUOUS
 62
               7
100
AcDbMText
 10
-386.72651525004596
 20
-246.5
 30
0.0
 40
4.5
 41
0.0
 71
               4
 72
               1
  1
\W1.065;\A1;CS-F18M18AJ
  7
MX_NOTE_STANDARD
  0
MTEXT
  5
80A
100
AcDbEntity
  8
0
  6
CONTINUOUS
 62
               7
100
AcDbMText
 10
-386.72651525004596
 20
-238.5
 30
0.0
 40
4.5
 41
0.0
 71
               4
 72
               1
  1
\W1.065;\A1;CS-F18M17AJ
  7
MX_NOTE_STANDARD
  0
MTEXT
  5
80B
100
AcDbEntity
  8
0
  6
CONTINUOUS
 62
               7
100
AcDbMText
 10
-386.72651525004596
 20
-230.5
 30
0.0
 40
4.5
 41
0.0
 71
               4
 72
               1
  1
\W1.065;\A1;CS-F18M16AJ
  7
MX_NOTE_STANDARD
  0
MTEXT
  5
80C
100
AcDbEntity
  8
0
  6
CONTINUOUS
 62
               7
100
AcDbMText
 10
-386.72651525004596
 20
-222.5
 30
0.0
 40
4.5
 41
0.0
 71
               4
 72
               1
  1
\W1.065;\A1;CS-F18M15AJ
  7
MX_NOTE_STANDARD
  0
MTEXT
  5
80D
100
AcDbEntity
  8
0
  6
CONTINUOUS
 62
               7
100
AcDbMText
 10
-386.72651525004596
 20
-214.5
 30
0.0
 40
4.5
 41
0.0
 71
               4
 72
               1
  1
\W1.065;\A1;CS-F18M14AJ
  7
MX_NOTE_STANDARD
  0
MTEXT
  5
80E
100
AcDbEntity
  8
0
  6
CONTINUOUS
 62
               7
100
AcDbMText
 10
-386.72651525004596
 20
-206.5
 30
0.0
 40
4.5
 41
0.0
 71
               4
 72
               1
  1
\W1.065;\A1;CS-F18M13AJ
  7
MX_NOTE_STANDARD
  0
MTEXT
  5
80F
100
AcDbEntity
  8
0
  6
CONTINUOUS
 62
               7
100
AcDbMText
 10
-386.72651525004596
 20
-198.5
 30
0.0
 40
4.5
 41
0.0
 71
               4
 72
               1
  1
\W1.065;\A1;CS-F18M12AJ
  7
MX_NOTE_STANDARD
  0
MTEXT
  5
810
100
AcDbEntity
  8
0
  6
CONTINUOUS
 62
               7
100
AcDbMText
 10
-386.69990234866737
 20
-190.5
 30
0.0
 40
4.5
 41
0.0
 71
               4
 72
               1
  1
\W1.100;\A1;CS-F18M11AJ
  7
MX_NOTE_STANDARD
  0
MTEXT
  5
811
100
AcDbEntity
  8
0
  6
CONTINUOUS
 62
               7
100
AcDbMText
 10
-386.71342693549974
 20
-182.5
 30
0.0
 40
4.5
 41
0.0
 71
               4
 72
               1
  1
\W1.082;\A1;CS-F18M10AJ
  7
MX_NOTE_STANDARD
  0
MTEXT
  5
812
100
AcDbEntity
  8
0
  6
CONTINUOUS
 62
               7
100
AcDbMText
 10
-386.72651525004596
 20
-254.5
 30
0.0
 40
4.5
 41
0.0
 71
               4
 72
               1
  1
\W1.065;\A1;CS-F18M19AJ
  7
MX_NOTE_STANDARD
  0
MTEXT
  5
813
100
AcDbEntity
  8
0
  6
CONTINUOUS
 62
               7
100
AcDbMText
 10
-382.24904027637916
 20
-166.5
 30
0.0
 40
4.5
 41
0.0
 71
               4
 72
               1
  1
\W1.034;\A1;CS-F18M8AJ
  7
MX_NOTE_STANDARD
  0
MTEXT
  5
814
100
AcDbEntity
  8
0
  6
CONTINUOUS
 62
               7
100
AcDbMText
 10
-382.24904027637916
 20
-158.5
 30
0.0
 40
4.5
 41
0.0
 71
               4
 72
               1
  1
\W1.034;\A1;CS-F18M7AJ
  7
MX_NOTE_STANDARD
  0
MTEXT
  5
815
100
AcDbEntity
  8
0
  6
CONTINUOUS
 62
               7
100
AcDbMText
 10
-382.24904027637916
 20
-150.5
 30
0.0
 40
4.5
 41
0.0
 71
               4
 72
               1
  1
\W1.034;\A1;CS-F18M6AJ
  7
MX_NOTE_STANDARD
  0
MTEXT
  5
816
100
AcDbEntity
  8
0
  6
CONTINUOUS
 62
               7
100
AcDbMText
 10
-382.24904027637916
 20
-142.5
 30
0.0
 40
4.5
 41
0.0
 71
               4
 72
               1
  1
\W1.034;\A1;CS-F18M5AJ
  7
MX_NOTE_STANDARD
  0
MTEXT
  5
817
100
AcDbEntity
  8
0
  6
CONTINUOUS
 62
               7
100
AcDbMText
 10
-382.24904027637916
 20
-134.5
 30
0.0
 40
4.5
 41
0.0
 71
               4
 72
               1
  1
\W1.034;\A1;CS-F18M4AJ
  7
MX_NOTE_STANDARD
  0
MTEXT
  5
818
100
AcDbEntity
  8
0
  6
CONTINUOUS
 62
               7
100
AcDbMText
 10
-382.24904027637916
 20
-126.5
 30
0.0
 40
4.5
 41
0.0
 71
               4
 72
               1
  1
\W1.034;\A1;CS-F18M3AJ
  7
MX_NOTE_STANDARD
  0
MTEXT
  5
819
100
AcDbEntity
  8
0
  6
CONTINUOUS
 62
               7
100
AcDbMText
 10
-382.24904027637916
 20
-118.5
 30
0.0
 40
4.5
 41
0.0
 71
               4
 72
               1
  1
\W1.034;\A1;CS-F18M2AJ
  7
MX_NOTE_STANDARD
  0
MTEXT
  5
81A
100
AcDbEntity
  8
0
  6
CONTINUOUS
 62
               7
100
AcDbMText
 10
-382.24904027637916
 20
-174.5
 30
0.0
 40
4.5
 41
0.0
 71
               4
 72
               1
  1
\W1.034;\A1;CS-F18M9AJ
  7
MX_NOTE_STANDARD
  0
MTEXT
  5
81B
100
AcDbEntity
  8
0
  6
CONTINUOUS
 62
               7
100
AcDbMText
 10
-292.52490234375
 20
-110.5
 30
0.0
 40
4.5
 41
0.0
 71
               4
 72
               1
  1
\A1;P
  7
MX_NOTE_STANDARD
  0
MTEXT
  5
81C
100
AcDbEntity
  8
0
  6
CONTINUOUS
 62
               7
100
AcDbMText
 10
-322.52490234375
 20
-110.5
 30
0.0
 40
4.5
 41
0.0
 71
               4
 72
               1
  1
\A1;L
  7
MX_NOTE_STANDARD
  0
MTEXT
  5
81D
100
AcDbEntity
  8
0
  6
CONTINUOUS
 62
               7
100
AcDbMText
 10
-371.02490234375
 20
-110.5
 30
0.0
 40
4.5
 41
0.0
 71
               4
 72
               1
  1
\A1;TYPE
  7
MX_NOTE_STANDARD
  0
LINE
  5
81E
100
AcDbEntity
  8
0
  6
CONTINUOUS
 62
               7
100
AcDbLine
 10
-276.02490234375
 20
-106.5
 30
0.0
 11
-276.02490234375
 21
-266.5
 31
0.0
  0
LINE
  5
81F
100
AcDbEntity
  8
0
  6
CONTINUOUS
 62
               7
100
AcDbLine
 10
-306.02490234375
 20
-106.5
 30
0.0
 11
-306.02490234375
 21
-266.5
 31
0.0
  0
LINE
  5
820
100
AcDbEntity
  8
0
  6
CONTINUOUS
 62
               7
100
AcDbLine
 10
-389.52490234375
 20
-106.5
 30
0.0
 11
-389.52490234375
 21
-266.5
 31
0.0
  0
LINE
  5
821
100
AcDbEntity
  8
0
  6
CONTINUOUS
 62
               7
100
AcDbLine
 10
-336.02490234375
 20
-106.5
 30
0.0
 11
-336.02490234375
 21
-266.5
 31
0.0
  0
LINE
  5
822
100
AcDbEntity
  8
0
  6
CONTINUOUS
 62
               7
100
AcDbLine
 10
-389.52490234375
 20
-106.5
 30
0.0
 11
-276.02490234375
 21
-106.5
 31
0.0
  0
LINE
  5
823
100
AcDbEntity
  8
0
  6
CONTINUOUS
 62
               7
100
AcDbLine
 10
-389.52490234375
 20
-114.5
 30
0.0
 11
-276.02490234375
 21
-114.5
 31
0.0
  0
LINE
  5
824
100
AcDbEntity
  8
0
  6
CONTINUOUS
 62
               7
100
AcDbLine
 10
-389.52490234375
 20
-122.5
 30
0.0
 11
-276.02490234375
 21
-122.5
 31
0.0
  0
LINE
  5
825
100
AcDbEntity
  8
0
  6
CONTINUOUS
 62
               7
100
AcDbLine
 10
-389.52490234375
 20
-130.5
 30
0.0
 11
-276.02490234375
 21
-130.5
 31
0.0
  0
LINE
  5
826
100
AcDbEntity
  8
0
  6
CONTINUOUS
 62
               7
100
AcDbLine
 10
-389.52490234375
 20
-138.5
 30
0.0
 11
-276.02490234375
 21
-138.5
 31
0.0
  0
LINE
  5
827
100
AcDbEntity
  8
0
  6
CONTINUOUS
 62
               7
100
AcDbLine
 10
-389.52490234375
 20
-146.5
 30
0.0
 11
-276.02490234375
 21
-146.5
 31
0.0
  0
LINE
  5
828
100
AcDbEntity
  8
0
  6
CONTINUOUS
 62
               7
100
AcDbLine
 10
-389.52490234375
 20
-154.5
 30
0.0
 11
-276.02490234375
 21
-154.5
 31
0.0
  0
LINE
  5
829
100
AcDbEntity
  8
0
  6
CONTINUOUS
 62
               7
100
AcDbLine
 10
-389.52490234375
 20
-162.5
 30
0.0
 11
-276.02490234375
 21
-162.5
 31
0.0
  0
LINE
  5
82A
100
AcDbEntity
  8
0
  6
CONTINUOUS
 62
               7
100
AcDbLine
 10
-389.52490234375
 20
-170.5
 30
0.0
 11
-276.02490234375
 21
-170.5
 31
0.0
  0
LINE
  5
82B
100
AcDbEntity
  8
0
  6
CONTINUOUS
 62
               7
100
AcDbLine
 10
-389.52490234375
 20
-178.5
 30
0.0
 11
-276.02490234375
 21
-178.5
 31
0.0
  0
LINE
  5
82C
100
AcDbEntity
  8
0
  6
CONTINUOUS
 62
               7
100
AcDbLine
 10
-389.52490234375
 20
-186.5
 30
0.0
 11
-276.02490234375
 21
-186.5
 31
0.0
  0
LINE
  5
82D
100
AcDbEntity
  8
0
  6
CONTINUOUS
 62
               7
100
AcDbLine
 10
-389.52490234375
 20
-194.5
 30
0.0
 11
-276.02490234375
 21
-194.5
 31
0.0
  0
LINE
  5
82E
100
AcDbEntity
  8
0
  6
CONTINUOUS
 62
               7
100
AcDbLine
 10
-389.52490234375
 20
-202.5
 30
0.0
 11
-276.02490234375
 21
-202.5
 31
0.0
  0
LINE
  5
82F
100
AcDbEntity
  8
0
  6
CONTINUOUS
 62
               7
100
AcDbLine
 10
-389.52490234375
 20
-210.5
 30
0.0
 11
-276.02490234375
 21
-210.5
 31
0.0
  0
LINE
  5
830
100
AcDbEntity
  8
0
  6
CONTINUOUS
 62
               7
100
AcDbLine
 10
-389.52490234375
 20
-218.5
 30
0.0
 11
-276.02490234375
 21
-218.5
 31
0.0
  0
LINE
  5
831
100
AcDbEntity
  8
0
  6
CONTINUOUS
 62
               7
100
AcDbLine
 10
-389.52490234375
 20
-226.5
 30
0.0
 11
-276.02490234375
 21
-226.5
 31
0.0
  0
LINE
  5
832
100
AcDbEntity
  8
0
  6
CONTINUOUS
 62
               7
100
AcDbLine
 10
-389.52490234375
 20
-234.5
 30
0.0
 11
-276.02490234375
 21
-234.5
 31
0.0
  0
LINE
  5
833
100
AcDbEntity
  8
0
  6
CONTINUOUS
 62
               7
100
AcDbLine
 10
-389.52490234375
 20
-242.5
 30
0.0
 11
-276.02490234375
 21
-242.5
 31
0.0
  0
LINE
  5
834
100
AcDbEntity
  8
0
  6
CONTINUOUS
 62
               7
100
AcDbLine
 10
-389.52490234375
 20
-250.5
 30
0.0
 11
-276.02490234375
 21
-250.5
 31
0.0
  0
LINE
  5
835
100
AcDbEntity
  8
0
  6
CONTINUOUS
 62
               7
100
AcDbLine
 10
-389.52490234375
 20
-258.5
 30
0.0
 11
-276.02490234375
 21
-258.5
 31
0.0
  0
LINE
  5
836
100
AcDbEntity
  8
0
  6
CONTINUOUS
 62
               7
100
AcDbLine
 10
-389.52490234375
 20
-266.5
 30
0.0
 11
-276.02490234375
 21
-266.5
 31
0.0
  0
MTEXT
  5
837
100
AcDbEntity
  8
0
  6
CONTINUOUS
 62
               7
100
AcDbMText
 10
-363.44156901435878
 20
-102.5
 30
0.0
 40
4.5
 41
0.0
 71
               4
 72
               1
  1
\W1.111;\A1;DIMENSION LIST
  7
MX_NOTE_STANDARD
  0
INSERT
  5
838
100
AcDbEntity
  8
0
100
AcDbBlockReference
  2
MS_3
 10
-34.999984741210938
 20
-55.0
 30
0.0
  0
INSERT
  5
839
100
AcDbEntity
  8
0
100
AcDbBlockReference
  2
MS_2
 10
-193.0001220703125
 20
158.00003051757812
 30
0.0
  0
INSERT
  5
83A
100
AcDbEntity
  8
0
100
AcDbBlockReference
  2
MS_1
 10
-35.000030517578125
 20
158.0
 30
0.0
  0
LINE
  5
83B
100
AcDbEntity
  8
0
  6
CONTINUOUS
 62
               7
100
AcDbLine
 10
209.91
 20
-106.62
 30
0.0
 11
236.91
 21
-106.62
 31
0.0
  0
LINE
  5
83C
100
AcDbEntity
  8
0
  6
CONTINUOUS
 62
               7
100
AcDbLine
 10
295.40999999999997
 20
-106.62
 30
0.0
 11
305.40999999999997
 21
-106.62
 31
0.0
  0
LINE
  5
83D
100
AcDbEntity
  8
0
  6
CONTINUOUS
 62
               7
100
AcDbLine
 10
287.25
 20
126.05
 30
0.0
 11
305.25
 21
126.05
 31
0.0
  0
MTEXT
  5
83E
100
AcDbEntity
  8
0
  6
CONTINUOUS
 62
               7
100
AcDbMText
 10
177.32717664436208
 20
160.5
 30
0.0
 40
6.3000001907348633
 41
0.0
 71
               4
 72
               1
  1
\W1.105;\A1;MODEL:M
  7
MX_NOTE_STANDARD
  0
MTEXT
  5
83F
100
AcDbEntity
  8
0
  6
CONTINUOUS
 62
               7
100
AcDbMText
 10
177.30065032823802
 20
-14.75
 30
0.0
 40
6.3000001907348633
 41
0.0
 71
               4
 72
               1
  1
\W1.080;\A1;MODEL:-PL
  7
MX_NOTE_STANDARD
  0
DIMENSION
  5
84E
100
AcDbEntity
  8
0
  6
CONTINUOUS
 62
               2
100
AcDbDimension
  2
*D15
 10
-35.000030517578125
 20
257.11868286132813
 30
0.0
 11
-47.047470092773438
 21
257.11868286132813
 31
0.0
 70
             128
  1
<>
  3
MXDIMSTYLE
100
AcDbAlignedDimension
 13
-40.000030517578125
 23
187.0
 33
0.0
 14
-35.000030517578125
 24
161.25
 34
0.0
100
AcDbRotatedDimension
1001
ACAD
1000
DSTYLE
1002
{
1070
               6
1000
_OPEN30
1070
               7
1000
_OPEN30
1070
              41
1040
2.77
1070
              42
1040
0.0
1070
              75
1070
               1
1070
              78
1070
               0
1070
             140
1040
4.5
1070
             173
1070
               1
1070
             271
1070
               0
1002
}
  0
DIMENSION
  5
85A
100
AcDbEntity
  8
0
  6
CONTINUOUS
 62
               2
100
AcDbDimension
  2
*D16
 10
49.999969482421875
 20
257.11868286132813
 30
0.0
 11
7.499969482421875
 21
257.11868286132813
 31
0.0
 70
             128
  1
P
  3
MXDIMSTYLE
100
AcDbAlignedDimension
 13
-35.000030517578125
 23
161.25
 33
0.0
 14
49.999969482421875
 24
161.25
 34
0.0
100
AcDbRotatedDimension
1001
ACAD
1000
DSTYLE
1002
{
1070
               6
1000
_OPEN30
1070
               7
1000
_OPEN30
1070
              41
1040
2.77
1070
              42
1040
0.0
1070
              75
1070
               1
1070
              78
1070
               0
1070
             140
1040
4.5
1070
             173
1070
               1
1070
             271
1070
               0
1002
}
  0
DIMENSION
  5
868
100
AcDbEntity
  8
0
  6
CONTINUOUS
 62
               2
100
AcDbDimension
  2
*D17
 10
54.999969482421875
 20
257.11868286132813
 30
0.0
 11
63.249252319335938
 21
257.11868286132813
 31
0.0
 70
             128
  1
<>
  3
MXDIMSTYLE
100
AcDbAlignedDimension
 13
49.999969482421875
 23
161.25
 33
0.0
 14
54.999969482421875
 24
187.0
 34
0.0
100
AcDbRotatedDimension
1001
ACAD
1000
DSTYLE
1002
{
1070
               6
1000
_OPEN30
1070
               7
1000
_OPEN30
1070
              41
1040
2.77
1070
              75
1070
               1
1070
              76
1070
               1
1070
              78
1070
               0
1070
             140
1040
4.5
1070
             173
1070
               1
1070
             271
1070
               0
1002
}
  0
DIMENSION
  5
875
100
AcDbEntity
  8
0
  6
CONTINUOUS
 62
               2
100
AcDbDimension
  2
*D18
 10
-40.000030517578125
 20
267.11868286132812
 30
0.0
 11
7.499969482421875
 21
267.11868286132812
 31
0.0
 70
             128
  1
L
  3
MXDIMSTYLE
100
AcDbAlignedDimension
 13
54.999969482421875
 23
187.0
 33
0.0
 14
-40.000030517578125
 24
187.0
 34
0.0
100
AcDbRotatedDimension
1001
ACAD
1000
DSTYLE
1002
{
1070
               6
1000
_OPEN30
1070
               7
1000
_OPEN30
1070
              41
1040
2.77
1070
              78
1070
               0
1070
             140
1040
4.5
1070
             173
1070
               1
1070
             271
1070
               0
1002
}
  0
LEADER
  5
876
100
AcDbEntity
  8
0
 62
               2
100
AcDbLeader
  3
MXDIMSTYLE
 73
               3
 74
               0
 75
               0
 40
0.0
 76
               3
 10
-20.999984741210937
 20
35.5
 30
0.0
 10
-31.0
 20
52.829999999999998
 30
0.0
 10
-94.474365234375
 20
52.829999999999998
 30
0.0
 77
               2
1001
ACAD
1000
DSTYLE
1002
{
1070
               6
1000
_OPEN30
1070
               7
1000
_OPEN30
1070
              41
1040
2.77
1070
             173
1070
               1
1002
}
  0
MTEXT
  5
877
100
AcDbEntity
  8
0
 62
               2
100
AcDbMText
 10
-94.474365234375
 20
57.48624952316284
 30
0.0
 40
4.5
 41
0.0
 71
               4
 72
               1
  1
\W1.077;\A1;CS-F18T1-A1-PS
  7
MX_NOTE_STANDARD
  0
LEADER
  5
878
100
AcDbEntity
  8
0
 62
               2
100
AcDbLeader
  3
MXDIMSTYLE
 73
               3
 74
               0
 75
               0
 40
0.0
 76
               3
 10
-1.999969482421875
 20
35.5
 30
0.0
 10
8.0
 20
52.829999999999998
 30
0.0
 10
71.470947265625
 20
52.829999999999998
 30
0.0
 77
               2
1001
ACAD
1000
DSTYLE
1002
{
1070
               6
1000
_OPEN30
1070
               7
1000
_OPEN30
1070
              41
1040
2.77
1070
             173
1070
               1
1002
}
  0
MTEXT
  5
879
100
AcDbEntity
  8
0
 62
               2
100
AcDbMText
 10
8.470947265625
 20
57.48624952316284
 30
0.0
 40
4.5
 41
0.0
 71
               4
 72
               1
  1
\W1.050;\A1;CS-F18T2-A1-PS
  7
MX_NOTE_STANDARD
  0
LEADER
  5
87A
100
AcDbEntity
  8
0
 62
               2
100
AcDbLeader
  3
MXDIMSTYLE
 73
               3
 74
               0
 75
               0
 40
0.0
 76
               3
 10
17.000045776367188
 20
35.5
 30
0.0
 10
22.585830688476563
 20
44.160263061523438
 30
0.0
 10
85.585830688476563
 20
44.160263061523438
 30
0.0
 77
               2
1001
ACAD
1000
DSTYLE
1002
{
1070
               6
1000
_OPEN30
1070
               7
1000
_OPEN30
1070
              41
1040
2.77
1070
             173
1070
               1
1002
}
  0
MTEXT
  5
87B
100
AcDbEntity
  8
0
 62
               2
100
AcDbMText
 10
22.585830688476563
 20
48.816512584686279
 30
0.0
 40
4.5
 41
0.0
 71
               4
 72
               1
  1
\W1.050;\A1;CS-F18T3-A1-PS
  7
MX_NOTE_STANDARD
  0
LEADER
  5
87C
100
AcDbEntity
  8
0
 62
               2
100
AcDbLeader
  3
MXDIMSTYLE
 73
               3
 74
               0
 75
               0
 40
0.0
 76
               3
 10
36.000076293945313
 20
1.6999969482421875
 30
0.0
 10
41.000079989415553
 20
10.360275420780908
 30
0.0
 10
64.21023559568539
 20
10.360275420780908
 30
0.0
 77
               2
1001
ACAD
1000
DSTYLE
1002
{
1070
               6
1000
_OPEN30
1070
               7
1000
_OPEN30
1070
              41
1040
2.77
1070
             173
1070
               1
1002
}
  0
MTEXT
  5
87D
100
AcDbEntity
  8
0
 62
               2
100
AcDbMText
 10
41.71023559568539
 20
15.01652494394375
 30
0.0
 40
4.5
 41
0.0
 71
               4
 72
               1
  1
\W1.071;\A1;F18BP
  7
MX_NOTE_STANDARD
  0
LINE
  5
87E
100
AcDbEntity
  8
0
  6
CONTINUOUS
 62
               7
100
AcDbLine
 10
279.5250244140625
 20
-256.5
 30
0.0
 11
399.52490234375
 21
-256.5
 31
0.0
  0
LINE
  5
87F
100
AcDbEntity
  8
0
  6
CONTINUOUS
 62
               7
100
AcDbLine
 10
279.5250244140625
 20
-256.5
 30
0.0
 11
279.5250244140625
 21
-276.5
 31
0.0
  0
MTEXT
  5
880
100
AcDbEntity
  8
0
  6
CONTINUOUS
 62
               7
100
AcDbMText
 10
287.7060468509938
 20
-266.5
 30
0.0
 40
9.0
 41
0.0
 71
               4
 72
               1
  1
\W1.121;\A1;KOGANEI CORP.
  7
MX_NOTE_STANDARD
  0
MTEXT
  5
881
100
AcDbEntity
  8
0
  6
CONTINUOUS
 62
               7
100
AcDbMText
 10
315.7020728596861
 20
266.5
 30
0.0
 40
6.3000001907348633
 41
0.0
 71
               4
 72
               1
  1
\W1.311;\A1;Ver. 1.0
  7
MX_NOTE_STANDARD
  0
LINE
  5
882
100
AcDbEntity
  8
0
  6
CONTINUOUS
 62
               7
100
AcDbLine
 10
279.5250244140625
 20
256.5
 30
0.0
 11
399.52490234375
 21
256.5
 31
0.0
  0
LINE
  5
883
100
AcDbEntity
  8
0
  6
CONTINUOUS
 62
               7
100
AcDbLine
 10
279.5250244140625
 20
276.5
 30
0.0
 11
279.5250244140625
 21
256.5
 31
0.0
  0
MTEXT
  5
884
100
AcDbEntity
  8
0
  6
CONTINUOUS
 62
               7
100
AcDbMText
 10
-386.55490240743427
 20
241.5
 30
0.0
 40
6.3000001907348633
 41
0.0
 71
               4
 72
               1
  1
\W1.067;\A1;MODEL:CS-F18M4AJ
  7
MX_NOTE_STANDARD
  0
LINE
  5
885
100
AcDbEntity
  8
0
  6
CONTINUOUS
 62
               7
100
AcDbLine
 10
-399.52490234375
 20
256.5
 30
0.0
 11
-279.52490234375
 21
256.5
 31
0.0
  0
LINE
  5
886
100
AcDbEntity
  8
0
  6
CONTINUOUS
 62
               7
100
AcDbLine
 10
-279.52490234375
 20
276.5
 30
0.0
 11
-279.52490234375
 21
256.5
 31
0.0
  0
MTEXT
  5
887
100
AcDbEntity
  8
0
  6
CONTINUOUS
 62
               7
100
AcDbMText
 10
-379.3310488041015
 20
266.5
 30
0.0
 40
6.3000001907348633
 41
0.0
 71
               4
 72
               1
  1
\W1.089;\A1;CS-F18 SERIES
  7
MX_NOTE_STANDARD
  0
LINE
  5
888
100
AcDbEntity
  8
0
  6
CONTINUOUS
 62
               7
100
AcDbLine
 10
-399.52490234375
 20
-276.5
 30
0.0
 11
399.52490234375
 21
-276.5
 31
0.0
  0
LINE
  5
889
100
AcDbEntity
  8
0
  6
CONTINUOUS
 62
               7
100
AcDbLine
 10
-399.52490234375
 20
276.5
 30
0.0
 11
399.52490234375
 21
276.5
 31
0.0
  0
LINE
  5
88A
100
AcDbEntity
  8
0
  6
CONTINUOUS
 62
               7
100
AcDbLine
 10
-399.52490234375
 20
276.5
 30
0.0
 11
-399.52490234375
 21
-276.5
 31
0.0
  0
LINE
  5
88B
100
AcDbEntity
  8
0
  6
CONTINUOUS
 62
               7
100
AcDbLine
 10
399.52490234375
 20
276.5
 30
0.0
 11
399.52490234375
 21
-276.5
 31
0.0
  0
ENDSEC
  0
SECTION
  2
OBJECTS
  0
DICTIONARY
  5
19
100
AcDbDictionary
  3
ACAD_GROUP
350
1A
  3
ACAD_MLINESTYLE
350
1B
  0
DICTIONARY
  5
1A
102
{ACAD_REACTORS
330
19
102
}
100
AcDbDictionary
  0
DICTIONARY
  5
1B
102
{ACAD_REACTORS
330
19
102
}
100
AcDbDictionary
  3
STANDARD
350
1C
  0
MLINESTYLE
  5
1C
102
{ACAD_REACTORS
330
1B
102
}
100
AcDbMlineStyle
  2
Standard
 70
               0
  3

 62
               0
 51
90.0
 52
90.0
 71
               2
 49
0.5
 62
             256
  6
ByLayer
 49
-0.5
 62
             256
  6
ByLayer
  0
ENDSEC
  0
EOF
