  0
SECTION
  2
HEADER
  9
$ACADVER
  1
AC1012
  9
$DWGCODEPAGE
  3
dos932
  9
$INSBASE
 10
0.0
 20
0.0
 30
0.0
  9
$EXTMIN
 10
-564.5
 20
-400.5
 30
0.0
  9
$EXTMAX
 10
581.5
 20
402.375
 30
0.0
  9
$LIMMIN
 10
-599.50000000000011
 20
-415.50000000000006
  9
$LIMMAX
 10
589.50000000000011
 20
425.50000000000006
  9
$ORTHOMODE
 70
               0
  9
$REGENMODE
 70
               1
  9
$FILLMODE
 70
               1
  9
$QTEXTMODE
 70
               0
  9
$MIRRTEXT
 70
               1
  9
$DRAGMODE
 70
               2
  9
$LTSCALE
 40
1.0
  9
$OSMODE
 70
               0
  9
$ATTMODE
 70
               1
  9
$TEXTSIZE
 40
3.2000000476837158
  9
$TRACEWID
 40
0.05
  9
$TEXTSTYLE
  7
MX_NOTE_STANDARD
  9
$CLAYER
  8
0
  9
$CELTYPE
  6
CONTINUOUS
  9
$CECOLOR
 62
             256
  9
$CELTSCALE
 40
1.0
  9
$DELOBJ
 70
               1
  9
$DISPSILH
 70
               0
  9
$DIMSCALE
 40
1.0
  9
$DIMASZ
 40
2.5
  9
$DIMEXO
 40
1.5
  9
$DIMDLI
 40
3.75
  9
$DIMRND
 40
0.0
  9
$DIMDLE
 40
0.0
  9
$DIMEXE
 40
1.5
  9
$DIMTP
 40
0.0
  9
$DIMTM
 40
0.0
  9
$DIMTXT
 40
3.2000000476837158
  9
$DIMCEN
 40
2.5
  9
$DIMTSZ
 40
0.0
  9
$DIMTOL
 70
               0
  9
$DIMLIM
 70
               0
  9
$DIMTIH
 70
               0
  9
$DIMTOH
 70
               0
  9
$DIMSE1
 70
               0
  9
$DIMSE2
 70
               0
  9
$DIMTAD
 70
               1
  9
$DIMZIN
 70
               8
  9
$DIMBLK
  1

  9
$DIMASO
 70
               1
  9
$DIMSHO
 70
               1
  9
$DIMPOST
  1

  9
$DIMAPOST
  1

  9
$DIMALT
 70
               0
  9
$DIMALTD
 70
               4
  9
$DIMALTF
 40
0.03937007874016
  9
$DIMLFAC
 40
1.0
  9
$DIMTOFL
 70
               1
  9
$DIMTVP
 40
0.0
  9
$DIMTIX
 70
               0
  9
$DIMSOXD
 70
               0
  9
$DIMSAH
 70
               1
  9
$DIMBLK1
  1
_OPEN30
  9
$DIMBLK2
  1
_OPEN30
  9
$DIMSTYLE
  2
MXDIMSTYLE
  9
$DIMCLRD
 70
               0
  9
$DIMCLRE
 70
               0
  9
$DIMCLRT
 70
               0
  9
$DIMTFAC
 40
1.0
  9
$DIMGAP
 40
1.0
  9
$DIMJUST
 70
               0
  9
$DIMSD1
 70
               0
  9
$DIMSD2
 70
               0
  9
$DIMTOLJ
 70
               0
  9
$DIMTZIN
 70
               0
  9
$DIMALTZ
 70
               0
  9
$DIMALTTZ
 70
               0
  9
$DIMFIT
 70
               3
  9
$DIMUPT
 70
               1
  9
$DIMUNIT
 70
               2
  9
$DIMDEC
 70
               2
  9
$DIMTDEC
 70
               2
  9
$DIMALTU
 70
               2
  9
$DIMALTTD
 70
               4
  9
$DIMTXSTY
  7
MX_NOTE_STANDARD
  9
$DIMAUNIT
 70
               0
  9
$LUNITS
 70
               2
  9
$LUPREC
 70
               4
  9
$SKETCHINC
 40
0.1
  9
$FILLETRAD
 40
0.0
  9
$AUNITS
 70
               0
  9
$AUPREC
 70
               0
  9
$MENU
  1
acad
  9
$ELEVATION
 40
0.0
  9
$PELEVATION
 40
0.0
  9
$THICKNESS
 40
0.0
  9
$LIMCHECK
 70
               0
  9
$BLIPMODE
 70
               1
  9
$CHAMFERA
 40
0.0
  9
$CHAMFERB
 40
0.0
  9
$CHAMFERC
 40
0.0
  9
$CHAMFERD
 40
0.0
  9
$SKPOLY
 70
               0
  9
$TDCREATE
 40
2453916.737164352
  9
$TDUPDATE
 40
2453916.737164352
  9
$TDINDWG
 40
0.0000000000
  9
$TDUSRTIMER
 40
0.0000000000
  9
$USRTIMER
 70
               1
  9
$ANGBASE
 50
0.0
  9
$ANGDIR
 70
               0
  9
$PDMODE
 70
               0
  9
$PDSIZE
 40
0.0
  9
$PLINEWID
 40
0.0
  9
$COORDS
 70
               1
  9
$SPLFRAME
 70
               0
  9
$SPLINETYPE
 70
               6
  9
$SPLINESEGS
 70
               8
  9
$ATTDIA
 70
               0
  9
$ATTREQ
 70
               1
  9
$HANDLING
 70
               1
  9
$HANDSEED
  5
29E
  9
$SURFTAB1
 70
               6
  9
$SURFTAB2
 70
               6
  9
$SURFTYPE
 70
               6
  9
$SURFU
 70
               6
  9
$SURFV
 70
               6
  9
$UCSNAME
  2

  9
$UCSORG
 10
0.0
 20
0.0
 30
0.0
  9
$UCSXDIR
 10
1.0
 20
0.0
 30
0.0
  9
$UCSYDIR
 10
0.0
 20
1.0
 30
0.0
  9
$PUCSNAME
  2

  9
$PUCSORG
 10
0.0
 20
0.0
 30
0.0
  9
$PUCSXDIR
 10
1.0
 20
0.0
 30
0.0
  9
$PUCSYDIR
 10
0.0
 20
1.0
 30
0.0
  9
$USERI1
 70
               0
  9
$USERI2
 70
               0
  9
$USERI3
 70
               0
  9
$USERI4
 70
               0
  9
$USERI5
 70
               0
  9
$USERR1
 40
0.0
  9
$USERR2
 40
0.0
  9
$USERR3
 40
0.0
  9
$USERR4
 40
0.0
  9
$USERR5
 40
0.0
  9
$WORLDVIEW
 70
               1
  9
$SHADEDGE
 70
               3
  9
$SHADEDIF
 70
              70
  9
$TILEMODE
 70
               1
  9
$MAXACTVP
 70
              16
  9
$PINSBASE
 10
0.0
 20
0.0
 30
0.0
  9
$PLIMCHECK
 70
               0
  9
$PEXTMIN
 10
1.0000000000000000E+20
 20
1.0000000000000000E+20
 30
1.0000000000000000E+20
  9
$PEXTMAX
 10
-1.0000000000000000E+20
 20
-1.0000000000000000E+20
 30
-1.0000000000000000E+20
  9
$PLIMMIN
 10
0.0
 20
0.0
  9
$PLIMMAX
 10
12.0
 20
9.0
  9
$UNITMODE
 70
               0
  9
$VISRETAIN
 70
               0
  9
$PLINEGEN
 70
               1
  9
$PSLTSCALE
 70
               0
  9
$TREEDEPTH
 70
            3020
  9
$PICKSTYLE
 70
               1
  9
$CMLSTYLE
  2
Standard
  9
$CMLJUST
 70
               0
  9
$CMLSCALE
 40
1.0
  9
$SAVEIMAGES
 70
               0
  0
ENDSEC
  0
SECTION
  2
CLASSES
  0
CLASS
  1
LWPOLYLINE
  2
AcDbPolyline
  3
"AutoCAD"
 90
    32768
280
               0
281
               1
  0
CLASS
  1
IMAGE
  2
AcDbRasterImage
  3
ISM
 90
    32895
280
               0
281
               1
  0
CLASS
  1
OLE2FRAME
  2
AcDbOle2Frame
  3
""
 90
    32768
280
               0
281
               1
  0
CLASS
  1
HATCH
  2
AcDbHatch
  3
"ACAD_SEDONA"
 90
    32768
280
               0
281
               1
  0
CLASS
  1
DICTIONARYVAR
  2
AcDbDictionaryVar
  3
"AutoCAD"
 90
    32768
280
               0
281
               0
  0
CLASS
  1
RASTERVARIABLES
  2
AcDbRasterVariables
  3
ISM
 90
    32768
280
               0
281
               0
  0
CLASS
  1
IMAGEDEF
  2
AcDbRasterImageDef
  3
ISM
 90
    32768
280
               0
281
               0
  0
CLASS
  1
IMAGEDEF_REACTOR
  2
AcDbRasterImageDefReactor
  3
ISM
 90
    32769
280
               0
281
               0
  0
CLASS
  1
IDBUFFER
  2
AcDbIdBuffer
  3
"Acad"
 90
    32768
280
               0
281
               0
  0
CLASS
  1
SPATIAL_FILTER
  2
AcDbSpatialFilter
  3
"Acad"
 90
    32768
280
               0
281
               0
  0
CLASS
  1
XRECORD
  2
AcDbXrecord
  3
"<Built In>"
 90
    32768
280
               0
281
               0
  0
CLASS
  1
SORTENTSTABLE
  2
AcDbSortentsTable
  3
"AutoCAD"
 90
    32768
280
               0
281
               0
  0
CLASS
  1
LAYER_INDEX
  2
AcDbLayerIndex
  3
"Acad"
 90
    32768
280
               0
281
               0
  0
CLASS
  1
SPATIAL_INDEX
  2
AcDbSpatialIndex
  3
"Acad"
 90
    32768
280
               0
281
               0
  0
CLASS
  1
OBJECT_PTR
  2
CAseDLPNTableRecord
  3
"ASE-LPNTableRecord"
 90
    32769
280
               0
281
               0
  0
CLASS
  1
LAYOUT
  2
AcDbLayout
  3
"AutoCAD 2000"
 90
    32768
280
               0
281
               0
  0
CLASS
  1
PLOTSETTINGS
  2
AcDbPlotSettings
  3
"AutoCAD 2000"
 90
    32768
280
               0
281
               0
  0
CLASS
  1
ACDBDICTIONARYWDFLT
  2
AcDbDictionaryWithDefault
  3
"AutoCAD 2000"
 90
    32768
280
               0
281
               0
  0
CLASS
  1
ACDBPLACEHOLDER
  2
AcDbPlaceHolder
  3
"AutoCAD 2000"
 90
    32768
280
               0
281
               0
  0
ENDSEC
  0
SECTION
  2
TABLES
  0
TABLE
  2
VPORT
  5
7
100
AcDbSymbolTable
 70
               1
  0
VPORT
  5
15
100
AcDbSymbolTableRecord
100
AcDbViewportTableRecord
  2
*ACTIVE
 70
               0
 10
0.0
 20
0.0
 11
1.0
 21
1.0
 12
-5.0
 22
5.0
 13
0.0
 23
0.0
 14
1.0
 24
1.0
 15
0.0
 25
0.0
 16
0.0
 26
0.0
 36
1.0
 17
0.0
 27
0.0
 37
0.0
 40
849.41000000000008
 41
1.7320508075688772
 42
50.0
 43
0.0
 44
0.0
 50
0.0
 51
0.0
 71
               0
 72
             100
 73
               1
 74
               1
 75
               0
 76
               0
 77
               0
 78
               0
  0
ENDTAB
  0
TABLE
  2
LTYPE
  5
4
100
AcDbSymbolTable
 70
               3
  0
LTYPE
  5
11
100
AcDbSymbolTableRecord
100
AcDbLinetypeTableRecord
  2
BYBLOCK
 70
              64
  3

 72
              65
 73
               0
 40
0.0
  0
LTYPE
  5
12
100
AcDbSymbolTableRecord
100
AcDbLinetypeTableRecord
  2
BYLAYER
 70
              64
  3

 72
              65
 73
               0
 40
0.0
  0
LTYPE
  5
13
100
AcDbSymbolTableRecord
100
AcDbLinetypeTableRecord
  2
CONTINUOUS
 70
              64
  3
Solid line
 72
              65
 73
               0
 40
0.0
  0
ENDTAB
  0
TABLE
  2
LAYER
  5
2
100
AcDbSymbolTable
 70
               2
  0
LAYER
  5
14
100
AcDbSymbolTableRecord
100
AcDbLayerTableRecord
  2
0
 70
               0
 62
               7
  6
CONTINUOUS
  0
LAYER
  5
1D
100
AcDbSymbolTableRecord
100
AcDbLayerTableRecord
  2
DEFPOINTS
 70
               0
 62
               7
  6
CONTINUOUS
  0
ENDTAB
  0
TABLE
  2
STYLE
  5
3
100
AcDbSymbolTable
 70
               2
  0
STYLE
  5
17
100
AcDbSymbolTableRecord
100
AcDbTextStyleTableRecord
  2
MX_NOTE_STANDARD
 70
               0
 40
0.0
 41
1.0
 50
0.0
 71
               0
 42
3.2000000476837158
  3
txt.shx
  4
extfont.shx
  0
STYLE
  5
27B
100
AcDbSymbolTableRecord
100
AcDbTextStyleTableRecord
  2
MX_DIMTXSTY_2
 70
               0
 40
0.0
 41
1.05
 50
0.0
 71
               0
 42
3.2000000476837158
  3
txt.shx
  4
extfont.shx
  0
ENDTAB
  0
TABLE
  2
VIEW
  5
5
100
AcDbSymbolTable
 70
               0
  0
ENDTAB
  0
TABLE
  2
UCS
  5
6
100
AcDbSymbolTable
 70
               0
  0
ENDTAB
  0
TABLE
  2
APPID
  5
8
100
AcDbSymbolTable
 70
               1
  0
APPID
  5
16
100
AcDbSymbolTableRecord
100
AcDbRegAppTableRecord
  2
ACAD
 70
               0
  0
ENDTAB
  0
TABLE
  2
DIMSTYLE
  5
9
100
AcDbSymbolTable
 70
               1
  0
DIMSTYLE
105
18
100
AcDbSymbolTableRecord
100
AcDbDimStyleTableRecord
  2
MXDIMSTYLE
 70
               0
  3

  4

  5

  6
_OPEN30
  7
_OPEN30
 40
1.0
 41
2.5
 42
1.5
 43
3.75
 44
1.5
 45
0.0
 46
0.0
 47
0.0
 48
0.0
 71
               0
 72
               0
 73
               0
 74
               0
 75
               0
 76
               0
 77
               1
 78
               8
140
3.2000000476837158
141
2.5
142
0.0
143
0.03937007874016
144
1.0
145
0.0
146
1.0
147
1.0
170
               0
171
               4
172
               1
173
               1
174
               0
175
               0
176
               0
177
               0
178
               0
270
               2
271
               2
272
               2
273
               2
274
               4
275
               0
280
               0
281
               0
282
               0
283
               0
284
               0
285
               0
286
               0
287
               3
288
               1
340
17
  0
ENDTAB
  0
TABLE
  2
BLOCK_RECORD
  5
1
100
AcDbSymbolTable
 70
               6
  0
BLOCK_RECORD
  5
A
100
AcDbSymbolTableRecord
100
AcDbBlockTableRecord
  2
*MODEL_SPACE
  0
BLOCK_RECORD
  5
B
100
AcDbSymbolTableRecord
100
AcDbBlockTableRecord
  2
*PAPER_SPACE
  0
BLOCK_RECORD
  5
1E
100
AcDbSymbolTableRecord
100
AcDbBlockTableRecord
  2
DTHB-AS2-1
  0
BLOCK_RECORD
  5
1F
100
AcDbSymbolTableRecord
100
AcDbBlockTableRecord
  2
DTHB-AS2-2
  0
BLOCK_RECORD
  5
20
100
AcDbSymbolTableRecord
100
AcDbBlockTableRecord
  2
DTHB-AS2-3
  0
BLOCK_RECORD
  5
21
100
AcDbSymbolTableRecord
100
AcDbBlockTableRecord
  2
_OPEN30
  0
BLOCK_RECORD
  5
274
100
AcDbSymbolTableRecord
100
AcDbBlockTableRecord
  2
*D4
  0
BLOCK_RECORD
  5
282
100
AcDbSymbolTableRecord
100
AcDbBlockTableRecord
  2
*D5
  0
ENDTAB
  0
ENDSEC
  0
SECTION
  2
BLOCKS
  0
BLOCK
  5
D
100
AcDbEntity
  8
0
100
AcDbBlockBegin
  2
*MODEL_SPACE
 70
               0
 10
0.0
 20
0.0
 30
0.0
  3
*MODEL_SPACE
  1

  0
ENDBLK
  5
E
100
AcDbEntity
  8
0
100
AcDbBlockEnd
  0
BLOCK
  5
F
100
AcDbEntity
 67
               1
  8
0
100
AcDbBlockBegin
  2
*PAPER_SPACE
 70
               0
 10
0.0
 20
0.0
 30
0.0
  3
*PAPER_SPACE
  1

  0
ENDBLK
  5
10
100
AcDbEntity
 67
               1
  8
0
100
AcDbBlockEnd
  0
BLOCK
  5
27
100
AcDbEntity
  8
0
100
AcDbBlockBegin
  2
DTHB-AS2-1
 70
               0
 10
0.0
 20
0.0
 30
0.0
  3
DTHB-AS2-1
  1

  0
CIRCLE
  5
28
100
AcDbEntity
  8
0
  6
CONTINUOUS
 62
               7
100
AcDbCircle
 10
190.00000000000006
 20
214.19998168945312
 30
0.0
 40
1.7499999999999998
  0
LINE
  5
29
100
AcDbEntity
  8
0
  6
CONTINUOUS
 62
               7
100
AcDbLine
 10
-104.99999999999994
 20
195.19998168945312
 30
0.0
 11
-101.99999999999991
 21
198.19998168945312
 31
0.0
  0
LINE
  5
2A
100
AcDbEntity
  8
0
  6
CONTINUOUS
 62
               7
100
AcDbLine
 10
105.00000000000006
 20
195.19998168945312
 30
0.0
 11
102.00000000000171
 21
198.19998168945312
 31
0.0
  0
LINE
  5
2B
100
AcDbEntity
  8
0
  6
CONTINUOUS
 62
               7
100
AcDbLine
 10
-85.478506088256836
 20
16.250001525878929
 30
0.0
 11
-82.978506088256836
 21
16.250001525878929
 31
0.0
  0
LINE
  5
2C
100
AcDbEntity
  8
0
  6
CONTINUOUS
 62
               7
100
AcDbLine
 10
-82.978506088256836
 20
16.250001525878929
 30
0.0
 11
-82.978506088256836
 21
13.350001525878952
 31
0.0
  0
ARC
  5
2D
100
AcDbEntity
  8
0
  6
CONTINUOUS
 62
               7
100
AcDbCircle
 10
-85.478506088256836
 20
19.750001525878929
 30
0.0
 40
3.4999999999999996
100
AcDbArc
 50
90.0
 51
270.0
  0
LINE
  5
2E
100
AcDbEntity
  8
0
  6
CONTINUOUS
 62
               7
100
AcDbLine
 10
-82.978506088256836
 20
25.750001525878929
 30
0.0
 11
-82.978506088256836
 21
23.250001525878929
 31
0.0
  0
LINE
  5
2F
100
AcDbEntity
  8
0
  6
CONTINUOUS
 62
               7
100
AcDbLine
 10
-85.478506088256836
 20
23.250001525878929
 30
0.0
 11
-82.978506088256836
 21
23.250001525878929
 31
0.0
  0
LINE
  5
30
100
AcDbEntity
  8
0
  6
CONTINUOUS
 62
               7
100
AcDbLine
 10
-60.478504180908175
 20
16.250001525878929
 30
0.0
 11
-62.978504180908175
 21
16.250001525878929
 31
0.0
  0
LINE
  5
31
100
AcDbEntity
  8
0
  6
CONTINUOUS
 62
               7
100
AcDbLine
 10
-62.978504180908175
 20
13.350001525878952
 30
0.0
 11
-82.978506088256836
 21
13.350001525878952
 31
0.0
  0
LINE
  5
32
100
AcDbEntity
  8
0
  6
CONTINUOUS
 62
               7
100
AcDbLine
 10
-62.978504180908175
 20
16.250001525878929
 30
0.0
 11
-62.978504180908175
 21
13.350001525878952
 31
0.0
  0
LINE
  5
33
100
AcDbEntity
  8
0
  6
CONTINUOUS
 62
               7
100
AcDbLine
 10
-62.978504180908175
 20
25.750001525878929
 30
0.0
 11
-62.978504180908175
 21
23.250001525878929
 31
0.0
  0
LINE
  5
34
100
AcDbEntity
  8
0
  6
CONTINUOUS
 62
               7
100
AcDbLine
 10
-62.978504180908175
 20
25.750001525878929
 30
0.0
 11
-82.978506088256836
 21
25.750001525878929
 31
0.0
  0
LINE
  5
35
100
AcDbEntity
  8
0
  6
CONTINUOUS
 62
               7
100
AcDbLine
 10
-60.478504180908175
 20
23.250001525878929
 30
0.0
 11
-62.978504180908175
 21
23.250001525878929
 31
0.0
  0
ARC
  5
36
100
AcDbEntity
  8
0
  6
CONTINUOUS
 62
               7
100
AcDbCircle
 10
-60.478504180908175
 20
19.750001525878929
 30
0.0
 40
3.4999999999999996
100
AcDbArc
 50
270.0
 51
90.0
  0
LINE
  5
37
100
AcDbEntity
  8
0
  6
CONTINUOUS
 62
               7
100
AcDbLine
 10
49.005000953674369
 20
23.849981689453102
 30
0.0
 11
49.005000953674369
 21
11.849981689453216
 31
0.0
  0
LINE
  5
38
100
AcDbEntity
  8
0
  6
CONTINUOUS
 62
               7
100
AcDbLine
 10
49.005000953674369
 20
11.849981689453216
 30
0.0
 11
88.005000000000052
 21
11.849981689453216
 31
0.0
  0
LINE
  5
39
100
AcDbEntity
  8
0
  6
CONTINUOUS
 62
               7
100
AcDbLine
 10
88.005000000000052
 20
23.849981689453102
 30
0.0
 11
88.005000000000052
 21
11.849981689453216
 31
0.0
  0
LINE
  5
3A
100
AcDbEntity
  8
0
  6
CONTINUOUS
 62
               7
100
AcDbLine
 10
49.005000953674369
 20
23.849981689453102
 30
0.0
 11
88.005000000000052
 21
23.849981689453102
 31
0.0
  0
LINE
  5
3B
100
AcDbEntity
  8
0
  6
CONTINUOUS
 62
               7
100
AcDbLine
 10
-14.0
 20
83.199981689453125
 30
0.0
 11
14.000000000000057
 21
83.199981689453125
 31
0.0
  0
LINE
  5
3C
100
AcDbEntity
  8
0
  6
CONTINUOUS
 62
               7
100
AcDbLine
 10
19.000000000000057
 20
83.199981689453125
 30
0.0
 11
25.000000000000057
 21
83.199981689453125
 31
0.0
  0
CIRCLE
  5
3D
100
AcDbEntity
  8
0
  6
CONTINUOUS
 62
               7
100
AcDbCircle
 10
120.5
 20
206.19998168945312
 30
0.0
 40
2.0750000476837158
  0
CIRCLE
  5
3E
100
AcDbEntity
  8
0
  6
CONTINUOUS
 62
               7
100
AcDbCircle
 10
120.5
 20
206.19998168945312
 30
0.0
 40
2.1500000953674316
  0
CIRCLE
  5
3F
100
AcDbEntity
  8
0
  6
CONTINUOUS
 62
               7
100
AcDbCircle
 10
120.5
 20
220.19998168945312
 30
0.0
 40
2.0750000476837158
  0
CIRCLE
  5
40
100
AcDbEntity
  8
0
  6
CONTINUOUS
 62
               7
100
AcDbCircle
 10
120.5
 20
220.19998168945312
 30
0.0
 40
2.1500000953674316
  0
ARC
  5
41
100
AcDbEntity
  8
0
  6
CONTINUOUS
 62
               7
100
AcDbCircle
 10
-104.45025634765619
 20
222.89996337890625
 30
0.0
 40
5.0
100
AcDbArc
 50
90.000002504478161
 51
140.58004632746963
  0
ARC
  5
42
100
AcDbEntity
  8
0
  6
CONTINUOUS
 62
               7
100
AcDbCircle
 10
-59.999999999999943
 20
210.19998168945312
 30
0.0
 40
50.0
100
AcDbArc
 50
161.77401403899248
 51
191.03970806633964
  0
ARC
  5
43
100
AcDbEntity
  8
0
  6
CONTINUOUS
 62
               7
100
AcDbCircle
 10
-107.02777099609369
 20
204.19998168945312
 30
0.0
 40
6.0
100
AcDbArc
 50
198.4084749552519
 51
269.99999749552182
  0
ARC
  5
44
100
AcDbEntity
  8
0
  6
CONTINUOUS
 62
               7
100
AcDbCircle
 10
-106.13024902343744
 20
201.19998168945312
 30
0.0
 40
3.0
100
AcDbArc
 50
191.03971170880533
 51
269.99999749552182
  0
ARC
  5
45
100
AcDbEntity
  8
0
  6
CONTINUOUS
 62
               7
100
AcDbCircle
 10
-88.999999999999972
 20
210.19998168945312
 30
0.0
 40
25.0
100
AcDbArc
 50
140.58004632746963
 51
198.40848497316458
  0
ARC
  5
46
100
AcDbEntity
  8
0
  6
CONTINUOUS
 62
               7
100
AcDbCircle
 10
-104.64202880859369
 20
224.89996337890625
 30
0.0
 40
3.0
100
AcDbArc
 50
90.000002504478161
 51
161.77401403899248
  0
LINE
  5
47
100
AcDbEntity
  8
0
  6
CONTINUOUS
 62
               7
100
AcDbLine
 10
-54.749944977804176
 20
185.20003637688387
 30
0.0
 11
-55.249957267591498
 21
185.70004677001998
 31
0.0
  0
LINE
  5
48
100
AcDbEntity
  8
0
  6
CONTINUOUS
 62
               7
100
AcDbLine
 10
-55.249999999999972
 20
188.20001220703125
 30
0.0
 11
-55.249999999999972
 21
185.70001220703125
 31
0.0
  0
LINE
  5
49
100
AcDbEntity
  8
0
  6
CONTINUOUS
 62
               7
100
AcDbLine
 10
-49.749999999999972
 20
185.70001220703125
 30
0.0
 11
-55.249999999999972
 21
185.70001220703125
 31
0.0
  0
LINE
  5
4A
100
AcDbEntity
  8
0
  6
CONTINUOUS
 62
               7
100
AcDbLine
 10
-49.749973309007999
 20
185.70001434950973
 30
0.0
 11
-50.249964019567358
 21
185.20002553551967
 31
0.0
  0
LINE
  5
4B
100
AcDbEntity
  8
0
  6
CONTINUOUS
 62
               7
100
AcDbLine
 10
-49.749999999999972
 20
185.70001220703125
 30
0.0
 11
-49.749999999999972
 21
188.20001220703125
 31
0.0
  0
LINE
  5
4C
100
AcDbEntity
  8
0
  6
CONTINUOUS
 62
               7
100
AcDbLine
 10
-50.249999999999972
 20
185.20001220703125
 30
0.0
 11
-54.749999999999972
 21
185.20001220703125
 31
0.0
  0
LINE
  5
4D
100
AcDbEntity
  8
0
  6
CONTINUOUS
 62
               7
100
AcDbLine
 10
65.250014837558524
 20
185.20000501954019
 30
0.0
 11
64.750002547771203
 21
185.70001541267629
 31
0.0
  0
LINE
  5
4E
100
AcDbEntity
  8
0
  6
CONTINUOUS
 62
               7
100
AcDbLine
 10
64.750000000000057
 20
188.20001220703125
 30
0.0
 11
64.750000000000057
 21
185.70001220703125
 31
0.0
  0
LINE
  5
4F
100
AcDbEntity
  8
0
  6
CONTINUOUS
 62
               7
100
AcDbLine
 10
70.250000000000057
 20
185.70001220703125
 30
0.0
 11
64.750000000000057
 21
185.70001220703125
 31
0.0
  0
LINE
  5
50
100
AcDbEntity
  8
0
  6
CONTINUOUS
 62
               7
100
AcDbLine
 10
70.250008085500724
 20
185.70002412762551
 30
0.0
 11
69.750017374941365
 21
185.20003531363545
 31
0.0
  0
LINE
  5
51
100
AcDbEntity
  8
0
  6
CONTINUOUS
 62
               7
100
AcDbLine
 10
70.250000000000057
 20
185.70001220703125
 30
0.0
 11
70.250000000000057
 21
188.20001220703125
 31
0.0
  0
LINE
  5
52
100
AcDbEntity
  8
0
  6
CONTINUOUS
 62
               7
100
AcDbLine
 10
69.750000000000057
 20
185.20001220703125
 30
0.0
 11
65.250000000000057
 21
185.20001220703125
 31
0.0
  0
LINE
  5
53
100
AcDbEntity
  8
0
  6
CONTINUOUS
 62
               7
100
AcDbLine
 10
117.00000000000011
 20
211.39999389648437
 30
0.0
 11
-101.99999999999994
 21
211.39999389648437
 31
0.0
  0
LINE
  5
54
100
AcDbEntity
  8
0
  6
CONTINUOUS
 62
               7
100
AcDbLine
 10
117.00000000000011
 20
207.99996948242187
 30
0.0
 11
-101.99999999999994
 21
207.99996948242187
 31
0.0
  0
LINE
  5
55
100
AcDbEntity
  8
0
  6
CONTINUOUS
 62
               7
100
AcDbLine
 10
-105.99999999999994
 20
212.19998168945312
 30
0.0
 11
-105.99999999999994
 21
211.69998168945312
 31
0.0
  0
LINE
  5
56
100
AcDbEntity
  8
0
  6
CONTINUOUS
 62
               7
100
AcDbLine
 10
-101.99999999999991
 20
211.69998168945312
 30
0.0
 11
-105.99999999999994
 21
211.69998168945312
 31
0.0
  0
LINE
  5
57
100
AcDbEntity
  8
0
  6
CONTINUOUS
 62
               7
100
AcDbLine
 10
-101.99999999999991
 20
217.69998168945312
 30
0.0
 11
-105.99999999999994
 21
217.69998168945312
 31
0.0
  0
LINE
  5
58
100
AcDbEntity
  8
0
  6
CONTINUOUS
 62
               7
100
AcDbLine
 10
-105.99999999999994
 20
217.69998168945312
 30
0.0
 11
-105.99999999999994
 21
217.19998168945313
 31
0.0
  0
LINE
  5
59
100
AcDbEntity
  8
0
  6
CONTINUOUS
 62
               7
100
AcDbLine
 10
-101.99999999999991
 20
217.19998168945313
 30
0.0
 11
-105.99999999999994
 21
217.19998168945313
 31
0.0
  0
LINE
  5
5A
100
AcDbEntity
  8
0
  6
CONTINUOUS
 62
               7
100
AcDbLine
 10
-101.99999999999991
 20
212.19998168945312
 30
0.0
 11
-105.99999999999994
 21
212.19998168945312
 31
0.0
  0
LINE
  5
5B
100
AcDbEntity
  8
0
  6
CONTINUOUS
 62
               7
100
AcDbLine
 10
-101.99999999999991
 20
227.89999389648437
 30
0.0
 11
-104.45025634765619
 21
227.89999389648437
 31
0.0
  0
LINE
  5
5C
100
AcDbEntity
  8
0
  6
CONTINUOUS
 62
               7
100
AcDbLine
 10
96.000000000000057
 20
231.69998168945312
 30
0.0
 11
54.000000000000057
 21
231.69998168945312
 31
0.0
  0
LINE
  5
5D
100
AcDbEntity
  8
0
  6
CONTINUOUS
 62
               7
100
AcDbLine
 10
117.00000000000011
 20
219.19998168945312
 30
0.0
 11
-101.99999999999994
 21
219.19998168945312
 31
0.0
  0
LINE
  5
5E
100
AcDbEntity
  8
0
  6
CONTINUOUS
 62
               7
100
AcDbLine
 10
117.00000000000011
 20
230.69998168945312
 30
0.0
 11
117.00000000000011
 21
198.19998168945312
 31
0.0
  0
LINE
  5
5F
100
AcDbEntity
  8
0
  6
CONTINUOUS
 62
               7
100
AcDbLine
 10
117.00000000000011
 20
221.14639282226562
 30
0.0
 11
96.000000000000057
 21
221.14639282226562
 31
0.0
  0
LINE
  5
60
100
AcDbEntity
  8
0
  6
CONTINUOUS
 62
               7
100
AcDbLine
 10
117.00000000000011
 20
224.06448364257812
 30
0.0
 11
96.000000000000057
 21
224.06448364257812
 31
0.0
  0
LINE
  5
61
100
AcDbEntity
  8
0
  6
CONTINUOUS
 62
               7
100
AcDbLine
 10
54.000000000000057
 20
231.69998168945312
 30
0.0
 11
54.000000000000057
 21
220.0999755859375
 31
0.0
  0
LINE
  5
62
100
AcDbEntity
  8
0
  6
CONTINUOUS
 62
               7
100
AcDbLine
 10
117.00000000000011
 20
226.5999755859375
 30
0.0
 11
96.000000000000057
 21
226.5999755859375
 31
0.0
  0
LINE
  5
63
100
AcDbEntity
  8
0
  6
CONTINUOUS
 62
               7
100
AcDbLine
 10
-101.99999999999991
 20
227.89999389648437
 30
0.0
 11
-101.99999999999991
 21
198.19998168945312
 31
0.0
  0
LINE
  5
64
100
AcDbEntity
  8
0
  6
CONTINUOUS
 62
               7
100
AcDbLine
 10
195.00000000000006
 20
230.69998168945312
 30
0.0
 11
117.00000000000011
 21
230.69998168945312
 31
0.0
  0
LINE
  5
65
100
AcDbEntity
  8
0
  6
CONTINUOUS
 62
               7
100
AcDbLine
 10
195.00000000000006
 20
230.69998168945312
 30
0.0
 11
195.00000000000006
 21
198.19998168945312
 31
0.0
  0
LINE
  5
66
100
AcDbEntity
  8
0
  6
CONTINUOUS
 62
               2
100
AcDbLine
 10
88.0
 20
233.25357055664062
 30
0.0
 11
88.0
 21
227.01182088122266
 31
0.0
  0
LINE
  5
67
100
AcDbEntity
  8
0
  6
CONTINUOUS
 62
               7
100
AcDbLine
 10
194.06762695312506
 20
225.52841186523437
 30
0.0
 11
117.74291992187506
 21
225.52841186523437
 31
0.0
  0
LINE
  5
68
100
AcDbEntity
  8
0
  6
CONTINUOUS
 62
               7
100
AcDbLine
 10
96.000000000000057
 20
220.0999755859375
 30
0.0
 11
54.000000000000057
 21
220.0999755859375
 31
0.0
  0
LINE
  5
69
100
AcDbEntity
  8
0
  6
CONTINUOUS
 62
               7
100
AcDbLine
 10
96.000000000000057
 20
231.69998168945312
 30
0.0
 11
96.000000000000057
 21
220.0999755859375
 31
0.0
  0
LINE
  5
6A
100
AcDbEntity
  8
0
  6
CONTINUOUS
 62
               2
100
AcDbLine
 10
62.0
 20
233.81411743164062
 30
0.0
 11
62.0
 21
227.01182088122266
 31
0.0
  0
LINE
  5
6B
100
AcDbEntity
  8
0
  6
CONTINUOUS
 62
               7
100
AcDbLine
 10
105.00000000000006
 20
188.19998168945312
 30
0.0
 11
-104.99999999999994
 21
188.19998168945312
 31
0.0
  0
LINE
  5
6C
100
AcDbEntity
  8
0
  6
CONTINUOUS
 62
               2
100
AcDbLine
 10
0.0
 20
99.480028131225481
 30
0.0
 11
0.0
 21
-5.1000183105468295
 31
0.0
  0
LINE
  5
6D
100
AcDbEntity
  8
0
  6
CONTINUOUS
 62
               7
100
AcDbLine
 10
92.849975585937557
 20
188.19998168945312
 30
0.0
 11
92.849975585937557
 21
78.199981689453125
 31
0.0
  0
LINE
  5
6E
100
AcDbEntity
  8
0
  6
CONTINUOUS
 62
               7
100
AcDbLine
 10
97.150024414062557
 20
188.19998168945312
 30
0.0
 11
97.150024414062557
 21
78.199981689453125
 31
0.0
  0
LINE
  5
6F
100
AcDbEntity
  8
0
  6
CONTINUOUS
 62
               7
100
AcDbLine
 10
-97.150024414062472
 20
188.19998168945312
 30
0.0
 11
-97.150024414062472
 21
78.199981689453125
 31
0.0
  0
LINE
  5
70
100
AcDbEntity
  8
0
  6
CONTINUOUS
 62
               7
100
AcDbLine
 10
-92.849975585937443
 20
188.19998168945312
 30
0.0
 11
-92.849975585937443
 21
78.199981689453125
 31
0.0
  0
LINE
  5
71
100
AcDbEntity
  8
0
  6
CONTINUOUS
 62
               2
100
AcDbLine
 10
67.500000000000057
 20
190.79208736271858
 30
0.0
 11
67.500000000000057
 21
183.1265352953103
 31
0.0
  0
LINE
  5
72
100
AcDbEntity
  8
0
  6
CONTINUOUS
 62
               2
100
AcDbLine
 10
-52.499999999999943
 20
190.79208736271858
 30
0.0
 11
-52.499999999999943
 21
183.31817409699545
 31
0.0
  0
LINE
  5
73
100
AcDbEntity
  8
0
  6
CONTINUOUS
 62
               7
100
AcDbLine
 10
-84.999999999999943
 20
188.19998168945312
 30
0.0
 11
-84.999999999999943
 21
78.199981689453125
 31
0.0
  0
LINE
  5
74
100
AcDbEntity
  8
0
  6
CONTINUOUS
 62
               7
100
AcDbLine
 10
85.000000000000057
 20
188.19998168945312
 30
0.0
 11
85.000000000000057
 21
78.199981689453125
 31
0.0
  0
LINE
  5
75
100
AcDbEntity
  8
0
  6
CONTINUOUS
 62
               7
100
AcDbLine
 10
105.00000000000006
 20
195.19998168945312
 30
0.0
 11
105.00000000000006
 21
78.199981689453125
 31
0.0
  0
LINE
  5
76
100
AcDbEntity
  8
0
  6
CONTINUOUS
 62
               7
100
AcDbLine
 10
-104.99999999999994
 20
195.19998168945312
 30
0.0
 11
-104.99999999999994
 21
78.199981689453125
 31
0.0
  0
LINE
  5
77
100
AcDbEntity
  8
0
  6
CONTINUOUS
 62
               7
100
AcDbLine
 10
195.00000000000006
 20
198.19998168945312
 30
0.0
 11
-107.02777125836207
 21
198.19998168945312
 31
0.0
  0
LINE
  5
78
100
AcDbEntity
  8
0
  6
CONTINUOUS
 62
               2
100
AcDbLine
 10
75.000000000000057
 20
194.72179971217565
 30
0.0
 11
75.000000000000057
 21
238.0907914147981
 31
0.0
  0
LINE
  5
79
100
AcDbEntity
  8
0
  6
CONTINUOUS
 62
               2
100
AcDbLine
 10
-74.999999999999943
 20
194.23587230615033
 30
0.0
 11
-74.999999999999943
 21
232.62413738214559
 31
0.0
  0
LINE
  5
7A
100
AcDbEntity
  8
0
  6
CONTINUOUS
 62
               7
100
AcDbLine
 10
54.000000000000057
 20
226.5999755859375
 30
0.0
 11
-101.99999999999991
 21
226.5999755859375
 31
0.0
  0
LINE
  5
7B
100
AcDbEntity
  8
0
  6
CONTINUOUS
 62
               7
100
AcDbLine
 10
54.000000000000057
 20
224.06448364257812
 30
0.0
 11
-101.99999999999991
 21
224.06448364257812
 31
0.0
  0
LINE
  5
7C
100
AcDbEntity
  8
0
  6
CONTINUOUS
 62
               7
100
AcDbLine
 10
54.000000000000057
 20
221.14639282226562
 30
0.0
 11
-101.99999999999991
 21
221.14639282226562
 31
0.0
  0
LINE
  5
7D
100
AcDbEntity
  8
0
  6
CONTINUOUS
 62
               2
100
AcDbLine
 10
-16.5
 20
90.097900390625
 30
0.0
 11
-16.5
 21
79.588230926088727
 31
0.0
  0
ARC
  5
7E
100
AcDbEntity
  8
0
  6
CONTINUOUS
 62
               7
100
AcDbCircle
 10
104.0
 20
4.199981689453125
 30
0.0
 40
1.0000000000000002
100
AcDbArc
 50
270.0
 51
0.0
  0
ARC
  5
7F
100
AcDbEntity
  8
0
  6
CONTINUOUS
 62
               7
100
AcDbCircle
 10
102.30000000000007
 20
5.8999816894531705
 30
0.0
 40
1.0000000000000002
100
AcDbArc
 50
270.0
 51
0.0
  0
ARC
  5
80
100
AcDbEntity
  8
0
  6
CONTINUOUS
 62
               7
100
AcDbCircle
 10
-104.0
 20
4.199981689453125
 30
0.0
 40
1.0000000000000002
100
AcDbArc
 50
180.0
 51
270.0
  0
ARC
  5
81
100
AcDbEntity
  8
0
  6
CONTINUOUS
 62
               7
100
AcDbCircle
 10
-102.29999999999995
 20
5.8999816894531705
 30
0.0
 40
1.0000000000000002
100
AcDbArc
 50
180.0
 51
270.0
  0
LINE
  5
82
100
AcDbEntity
  8
0
  6
CONTINUOUS
 62
               7
100
AcDbLine
 10
-80.0
 20
3.199981689453125
 30
0.0
 11
-104.0
 21
3.199981689453125
 31
0.0
  0
LINE
  5
83
100
AcDbEntity
  8
0
  6
CONTINUOUS
 62
               7
100
AcDbLine
 10
-80.0
 20
3.199981689453125
 30
0.0
 11
-80.0
 21
4.8999816894531705
 31
0.0
  0
LINE
  5
84
100
AcDbEntity
  8
0
  6
CONTINUOUS
 62
               7
100
AcDbLine
 10
80.000000000000057
 20
3.199981689453125
 30
0.0
 11
80.000000000000057
 21
4.8999816894531705
 31
0.0
  0
LINE
  5
85
100
AcDbEntity
  8
0
  6
CONTINUOUS
 62
               7
100
AcDbLine
 10
106.29998779296881
 20
9.1637176513672784
 30
0.0
 11
106.29998779296881
 21
15.236257934570403
 31
0.0
  0
LINE
  5
86
100
AcDbEntity
  8
0
  6
CONTINUOUS
 62
               7
100
AcDbLine
 10
106.30000812070011
 20
9.1637261056325769
 30
0.0
 11
104.99998130709804
 21
9.0499884974947236
 31
0.0
  0
LINE
  5
87
100
AcDbEntity
  8
0
  6
CONTINUOUS
 62
               7
100
AcDbLine
 10
106.30001164988153
 20
15.236241878716555
 30
0.0
 11
105.00004563917992
 21
15.349974167289929
 31
0.0
  0
ARC
  5
88
100
AcDbEntity
  8
0
  6
CONTINUOUS
 62
               7
100
AcDbCircle
 10
98.9176025390625
 20
12.199972534179665
 30
0.0
 40
7.982419490814209
100
AcDbArc
 50
337.64346078089295
 51
22.356542861572724
  0
LINE
  5
89
100
AcDbEntity
  8
0
  6
CONTINUOUS
 62
               7
100
AcDbLine
 10
-106.30000812070011
 20
9.1637261056325769
 30
0.0
 11
-104.9999813070981
 21
9.0499884974947236
 31
0.0
  0
ARC
  5
8A
100
AcDbEntity
  8
0
  6
CONTINUOUS
 62
               7
100
AcDbCircle
 10
-98.9176025390625
 20
12.199972534179665
 30
0.0
 40
7.982419490814209
100
AcDbArc
 50
157.64345713842727
 51
202.35653921910705
  0
LINE
  5
8B
100
AcDbEntity
  8
0
  6
CONTINUOUS
 62
               7
100
AcDbLine
 10
-106.29998779296875
 20
9.1637176513672784
 30
0.0
 11
-106.29998779296875
 21
15.236257934570403
 31
0.0
  0
LINE
  5
8C
100
AcDbEntity
  8
0
  6
CONTINUOUS
 62
               7
100
AcDbLine
 10
-106.30001164988153
 20
15.236241878716555
 30
0.0
 11
-105.00004563917992
 21
15.349974167289929
 31
0.0
  0
LINE
  5
8D
100
AcDbEntity
  8
0
  6
CONTINUOUS
 62
               7
100
AcDbLine
 10
104.0
 20
3.199981689453125
 30
0.0
 11
80.000000000000057
 21
3.199981689453125
 31
0.0
  0
LINE
  5
8E
100
AcDbEntity
  8
0
  6
CONTINUOUS
 62
               7
100
AcDbLine
 10
103.30000000000013
 20
5.8999816894531705
 30
0.0
 11
103.30000000000013
 21
30.422591385577789
 31
0.0
  0
LINE
  5
8F
100
AcDbEntity
  8
0
  6
CONTINUOUS
 62
               7
100
AcDbLine
 10
-103.29999999999995
 20
5.8999816894531705
 30
0.0
 11
-103.29999999999995
 21
30.422591385577675
 31
0.0
  0
LINE
  5
90
100
AcDbEntity
  8
0
  6
CONTINUOUS
 62
               7
100
AcDbLine
 10
102.30000000000007
 20
4.8999816894531705
 30
0.0
 11
-102.29999999999995
 21
4.8999816894531705
 31
0.0
  0
LINE
  5
91
100
AcDbEntity
  8
0
  6
CONTINUOUS
 62
               7
100
AcDbLine
 10
-14.0
 20
83.199981689453125
 30
0.0
 11
-14.0
 21
81.199981689453125
 31
0.0
  0
LINE
  5
92
100
AcDbEntity
  8
0
  6
CONTINUOUS
 62
               7
100
AcDbLine
 10
-19.0
 20
83.199981689453125
 30
0.0
 11
-19.0
 21
81.199981689453125
 31
0.0
  0
LINE
  5
93
100
AcDbEntity
  8
0
  6
CONTINUOUS
 62
               7
100
AcDbLine
 10
19.000000000000057
 20
83.199981689453125
 30
0.0
 11
19.000000000000057
 21
81.199981689453125
 31
0.0
  0
LINE
  5
94
100
AcDbEntity
  8
0
  6
CONTINUOUS
 62
               7
100
AcDbLine
 10
14.000000000000057
 20
83.199981689453125
 30
0.0
 11
14.000000000000057
 21
81.199981689453125
 31
0.0
  0
LINE
  5
95
100
AcDbEntity
  8
0
  6
CONTINUOUS
 62
               7
100
AcDbLine
 10
25.000000000000057
 20
87.199981689453125
 30
0.0
 11
-25.0
 21
87.199981689453125
 31
0.0
  0
LINE
  5
96
100
AcDbEntity
  8
0
  6
CONTINUOUS
 62
               7
100
AcDbLine
 10
25.000000000000057
 20
87.199981689453125
 30
0.0
 11
25.000000000000057
 21
83.199981689453125
 31
0.0
  0
LINE
  5
97
100
AcDbEntity
  8
0
  6
CONTINUOUS
 62
               7
100
AcDbLine
 10
-25.0
 20
87.199981689453125
 30
0.0
 11
-25.0
 21
83.199981689453125
 31
0.0
  0
LINE
  5
98
100
AcDbEntity
  8
0
  6
CONTINUOUS
 62
               7
100
AcDbLine
 10
82.000000000000171
 20
49.3499755859375
 30
0.0
 11
82.000000000000171
 21
36.8499755859375
 31
0.0
  0
LINE
  5
99
100
AcDbEntity
  8
0
  6
CONTINUOUS
 62
               7
100
AcDbLine
 10
48.0
 20
49.3499755859375
 30
0.0
 11
48.0
 21
36.8499755859375
 31
0.0
  0
LINE
  5
9A
100
AcDbEntity
  8
0
  6
CONTINUOUS
 62
               7
100
AcDbLine
 10
82.000000000000171
 20
36.8499755859375
 30
0.0
 11
48.0
 21
36.8499755859375
 31
0.0
  0
LINE
  5
9B
100
AcDbEntity
  8
0
  6
CONTINUOUS
 62
               7
100
AcDbLine
 10
82.000000000000171
 20
49.3499755859375
 30
0.0
 11
48.0
 21
49.3499755859375
 31
0.0
  0
LINE
  5
9C
100
AcDbEntity
  8
0
  6
CONTINUOUS
 62
               7
100
AcDbLine
 10
-56.5
 20
52.499969482421875
 30
0.0
 11
-89.500000000000057
 21
52.499969482421875
 31
0.0
  0
LINE
  5
9D
100
AcDbEntity
  8
0
  6
CONTINUOUS
 62
               7
100
AcDbLine
 10
-89.500000000000057
 20
52.499969482421875
 30
0.0
 11
-89.500000000000057
 21
36.499969482421875
 31
0.0
  0
LINE
  5
9E
100
AcDbEntity
  8
0
  6
CONTINUOUS
 62
               7
100
AcDbLine
 10
-56.5
 20
36.499969482421875
 30
0.0
 11
-89.500000000000057
 21
36.499969482421875
 31
0.0
  0
LINE
  5
9F
100
AcDbEntity
  8
0
  6
CONTINUOUS
 62
               7
100
AcDbLine
 10
-56.5
 20
52.499969482421875
 30
0.0
 11
-56.5
 21
36.499969482421875
 31
0.0
  0
LINE
  5
A0
100
AcDbEntity
  8
0
  6
CONTINUOUS
 62
               7
100
AcDbLine
 10
105.00000000000006
 20
4.199981689453125
 30
0.0
 11
105.00000000000006
 21
76.199981689453125
 31
0.0
  0
LINE
  5
A1
100
AcDbEntity
  8
0
  6
CONTINUOUS
 62
               7
100
AcDbLine
 10
-25.0
 20
81.199981689453125
 30
0.0
 11
25.000000000000057
 21
81.199981689453125
 31
0.0
  0
LINE
  5
A2
100
AcDbEntity
  8
0
  6
CONTINUOUS
 62
               7
100
AcDbLine
 10
25.000006714264657
 20
81.199981710284192
 30
0.0
 11
36.196115066453785
 21
78.199993493799411
 31
0.0
  0
LINE
  5
A3
100
AcDbEntity
  8
0
  6
CONTINUOUS
 62
               7
100
AcDbLine
 10
-25.00002624814266
 20
81.199973643750127
 30
0.0
 11
-36.196193555764324
 21
78.199969630204578
 31
0.0
  0
LINE
  5
A4
100
AcDbEntity
  8
0
  6
CONTINUOUS
 62
               7
100
AcDbLine
 10
103.0
 20
30.39996337890625
 30
0.0
 11
-103.0
 21
30.39996337890625
 31
0.0
  0
LINE
  5
A5
100
AcDbEntity
  8
0
  6
CONTINUOUS
 62
               7
100
AcDbLine
 10
36.196166992187443
 20
78.199981689453125
 30
0.0
 11
105.00000000000006
 21
78.199981689453125
 31
0.0
  0
LINE
  5
A6
100
AcDbEntity
  8
0
  6
CONTINUOUS
 62
               7
100
AcDbLine
 10
-105.0
 20
4.199981689453125
 30
0.0
 11
-105.0
 21
76.199981689453125
 31
0.0
  0
LINE
  5
A7
100
AcDbEntity
  8
0
  6
CONTINUOUS
 62
               7
100
AcDbLine
 10
-55.500000000000057
 20
52.499969482421875
 30
0.0
 11
-55.500000000000057
 21
36.499969482421875
 31
0.0
  0
LINE
  5
A8
100
AcDbEntity
  8
0
  6
CONTINUOUS
 62
               7
100
AcDbLine
 10
-56.5
 20
53.499969482421875
 30
0.0
 11
-89.500000000000057
 21
53.499969482421875
 31
0.0
  0
LINE
  5
A9
100
AcDbEntity
  8
0
  6
CONTINUOUS
 62
               7
100
AcDbLine
 10
-56.5
 20
35.499969482421875
 30
0.0
 11
-89.500000000000057
 21
35.499969482421875
 31
0.0
  0
LINE
  5
AA
100
AcDbEntity
  8
0
  6
CONTINUOUS
 62
               7
100
AcDbLine
 10
-90.5
 20
52.499969482421875
 30
0.0
 11
-90.5
 21
36.499969482421875
 31
0.0
  0
LINE
  5
AB
100
AcDbEntity
  8
0
  6
CONTINUOUS
 62
               7
100
AcDbLine
 10
82.000000000000171
 20
50.3499755859375
 30
0.0
 11
48.0
 21
50.3499755859375
 31
0.0
  0
LINE
  5
AC
100
AcDbEntity
  8
0
  6
CONTINUOUS
 62
               7
100
AcDbLine
 10
82.000000000000171
 20
35.8499755859375
 30
0.0
 11
48.0
 21
35.8499755859375
 31
0.0
  0
LINE
  5
AD
100
AcDbEntity
  8
0
  6
CONTINUOUS
 62
               7
100
AcDbLine
 10
83.0
 20
49.3499755859375
 30
0.0
 11
83.0
 21
36.8499755859375
 31
0.0
  0
LINE
  5
AE
100
AcDbEntity
  8
0
  6
CONTINUOUS
 62
               7
100
AcDbLine
 10
46.999999999999943
 20
49.3499755859375
 30
0.0
 11
46.999999999999943
 21
36.8499755859375
 31
0.0
  0
LINE
  5
AF
100
AcDbEntity
  8
0
  6
CONTINUOUS
 62
               7
100
AcDbLine
 10
-25.0
 20
83.199981689453125
 30
0.0
 11
-19.0
 21
83.199981689453125
 31
0.0
  0
LINE
  5
B0
100
AcDbEntity
  8
0
  6
CONTINUOUS
 62
               7
100
AcDbLine
 10
-48.000000000000057
 20
59.39996337890625
 30
0.0
 11
-48.000000000000057
 21
71.39996337890625
 31
0.0
  0
LINE
  5
B1
100
AcDbEntity
  8
0
  6
CONTINUOUS
 62
               7
100
AcDbLine
 10
-98.0
 20
59.39996337890625
 30
0.0
 11
-98.0
 21
71.39996337890625
 31
0.0
  0
LINE
  5
B2
100
AcDbEntity
  8
0
  6
CONTINUOUS
 62
               7
100
AcDbLine
 10
-49.0
 20
58.39996337890625
 30
0.0
 11
-97.0
 21
58.39996337890625
 31
0.0
  0
LINE
  5
B3
100
AcDbEntity
  8
0
  6
CONTINUOUS
 62
               7
100
AcDbLine
 10
-49.0
 20
72.39996337890625
 30
0.0
 11
-97.0
 21
72.39996337890625
 31
0.0
  0
LINE
  5
B4
100
AcDbEntity
  8
0
  6
CONTINUOUS
 62
               7
100
AcDbLine
 10
80.000000000000057
 20
59.89996337890625
 30
0.0
 11
50.000000000000057
 21
59.89996337890625
 31
0.0
  0
LINE
  5
B5
100
AcDbEntity
  8
0
  6
CONTINUOUS
 62
               7
100
AcDbLine
 10
80.000000000000057
 20
70.89996337890625
 30
0.0
 11
50.000000000000057
 21
70.89996337890625
 31
0.0
  0
LINE
  5
B6
100
AcDbEntity
  8
0
  6
CONTINUOUS
 62
               7
100
AcDbLine
 10
81.000000000000057
 20
60.89996337890625
 30
0.0
 11
81.000000000000057
 21
69.89996337890625
 31
0.0
  0
LINE
  5
B7
100
AcDbEntity
  8
0
  6
CONTINUOUS
 62
               7
100
AcDbLine
 10
49.0
 20
60.89996337890625
 30
0.0
 11
49.0
 21
69.89996337890625
 31
0.0
  0
ARC
  5
B8
100
AcDbEntity
  8
0
  6
CONTINUOUS
 62
               7
100
AcDbCircle
 10
0.0
 20
397.61569213867187
 30
0.0
 40
321.46008300781256
100
AcDbArc
 50
263.53478048363445
 51
276.46516769591074
  0
ARC
  5
B9
100
AcDbEntity
  8
0
  6
CONTINUOUS
 62
               7
100
AcDbCircle
 10
-103.0
 20
76.199981689453125
 30
0.0
 40
2.0000000000000004
100
AcDbArc
 50
90.000002504478161
 51
180.00000500895632
  0
ARC
  5
BA
100
AcDbEntity
  8
0
  6
CONTINUOUS
 62
               7
100
AcDbCircle
 10
103.0
 20
32.39996337890625
 30
0.0
 40
2.0000000000000004
100
AcDbArc
 50
269.99999749552182
 51
0.0
  0
CIRCLE
  5
BB
100
AcDbEntity
  8
0
  6
CONTINUOUS
 62
               7
100
AcDbCircle
 10
-45.999999999999972
 20
44.499969482421875
 30
0.0
 40
2.0999999046325688
  0
ARC
  5
BC
100
AcDbEntity
  8
0
  6
CONTINUOUS
 62
               7
100
AcDbCircle
 10
103.0
 20
76.199981689453125
 30
0.0
 40
2.0000000000000004
100
AcDbArc
 50
0.0
 51
90.000002504478161
  0
CIRCLE
  5
BD
100
AcDbEntity
  8
0
  6
CONTINUOUS
 62
               7
100
AcDbCircle
 10
-35.999999999999972
 20
44.499969482421875
 30
0.0
 40
2.0999999046325688
  0
ARC
  5
BE
100
AcDbEntity
  8
0
  6
CONTINUOUS
 62
               7
100
AcDbCircle
 10
-103.0
 20
32.39996337890625
 30
0.0
 40
2.0000000000000004
100
AcDbArc
 50
179.99999499104368
 51
269.99999749552182
  0
ARC
  5
BF
100
AcDbEntity
  8
0
  6
CONTINUOUS
 62
               7
100
AcDbCircle
 10
82.000000000000171
 20
36.8499755859375
 30
0.0
 40
1.0000000000000002
100
AcDbArc
 50
269.99999749552182
 51
0.0
  0
ARC
  5
C0
100
AcDbEntity
  8
0
  6
CONTINUOUS
 62
               7
100
AcDbCircle
 10
-56.5
 20
52.499969482421875
 30
0.0
 40
1.0000000000000002
100
AcDbArc
 50
0.0
 51
90.000002504478161
  0
ARC
  5
C1
100
AcDbEntity
  8
0
  6
CONTINUOUS
 62
               7
100
AcDbCircle
 10
-89.500000000000057
 20
36.499969482421875
 30
0.0
 40
1.0000000000000002
100
AcDbArc
 50
179.99999499104368
 51
269.99999749552182
  0
ARC
  5
C2
100
AcDbEntity
  8
0
  6
CONTINUOUS
 62
               7
100
AcDbCircle
 10
-89.500000000000057
 20
52.499969482421875
 30
0.0
 40
1.0000000000000002
100
AcDbArc
 50
90.000002504478161
 51
180.00000500895632
  0
ARC
  5
C3
100
AcDbEntity
  8
0
  6
CONTINUOUS
 62
               7
100
AcDbCircle
 10
-56.5
 20
36.499969482421875
 30
0.0
 40
1.0000000000000002
100
AcDbArc
 50
269.99999749552182
 51
0.0
  0
ARC
  5
C4
100
AcDbEntity
  8
0
  6
CONTINUOUS
 62
               7
100
AcDbCircle
 10
48.0
 20
49.3499755859375
 30
0.0
 40
1.0000000000000002
100
AcDbArc
 50
90.000002504478161
 51
180.00000500895632
  0
CIRCLE
  5
C5
100
AcDbEntity
  8
0
  6
CONTINUOUS
 62
               7
100
AcDbCircle
 10
-45.999999999999972
 20
44.499969482421875
 30
0.0
 40
2.5999999046325679
  0
ARC
  5
C6
100
AcDbEntity
  8
0
  6
CONTINUOUS
 62
               7
100
AcDbCircle
 10
82.000000000000171
 20
49.3499755859375
 30
0.0
 40
1.0000000000000002
100
AcDbArc
 50
0.0
 51
90.000002504478161
  0
CIRCLE
  5
C7
100
AcDbEntity
  8
0
  6
CONTINUOUS
 62
               7
100
AcDbCircle
 10
-35.999999999999972
 20
44.499969482421875
 30
0.0
 40
2.5999999046325679
  0
ARC
  5
C8
100
AcDbEntity
  8
0
  6
CONTINUOUS
 62
               7
100
AcDbCircle
 10
48.0
 20
36.8499755859375
 30
0.0
 40
1.0000000000000002
100
AcDbArc
 50
179.99999499104368
 51
269.99999749552182
  0
ARC
  5
C9
100
AcDbEntity
  8
0
  6
CONTINUOUS
 62
               7
100
AcDbCircle
 10
-97.0
 20
71.39996337890625
 30
0.0
 40
1.0000000000000002
100
AcDbArc
 50
90.000002504478161
 51
180.00000500895632
  0
ARC
  5
CA
100
AcDbEntity
  8
0
  6
CONTINUOUS
 62
               7
100
AcDbCircle
 10
-97.0
 20
59.39996337890625
 30
0.0
 40
1.0000000000000002
100
AcDbArc
 50
179.99999499104368
 51
269.99999749552182
  0
ARC
  5
CB
100
AcDbEntity
  8
0
  6
CONTINUOUS
 62
               7
100
AcDbCircle
 10
-49.0
 20
59.39996337890625
 30
0.0
 40
1.0000000000000002
100
AcDbArc
 50
269.99999749552182
 51
0.0
  0
ARC
  5
CC
100
AcDbEntity
  8
0
  6
CONTINUOUS
 62
               7
100
AcDbCircle
 10
-49.0
 20
71.39996337890625
 30
0.0
 40
1.0000000000000002
100
AcDbArc
 50
0.0
 51
90.000002504478161
  0
ARC
  5
CD
100
AcDbEntity
  8
0
  6
CONTINUOUS
 62
               7
100
AcDbCircle
 10
50.000000000000057
 20
69.89996337890625
 30
0.0
 40
1.0000000000000002
100
AcDbArc
 50
90.000002504478161
 51
180.00000500895632
  0
ARC
  5
CE
100
AcDbEntity
  8
0
  6
CONTINUOUS
 62
               7
100
AcDbCircle
 10
80.000000000000057
 20
69.89996337890625
 30
0.0
 40
1.0000000000000002
100
AcDbArc
 50
0.0
 51
90.000002504478161
  0
ARC
  5
CF
100
AcDbEntity
  8
0
  6
CONTINUOUS
 62
               7
100
AcDbCircle
 10
80.000000000000057
 20
60.89996337890625
 30
0.0
 40
1.0000000000000002
100
AcDbArc
 50
269.99999749552182
 51
0.0
  0
ARC
  5
D0
100
AcDbEntity
  8
0
  6
CONTINUOUS
 62
               7
100
AcDbCircle
 10
50.000000000000057
 20
60.89996337890625
 30
0.0
 40
1.0000000000000002
100
AcDbArc
 50
179.99999499104368
 51
269.99999749552182
  0
LINE
  5
D1
100
AcDbEntity
  8
0
  6
CONTINUOUS
 62
               7
100
AcDbLine
 10
-36.196193555764324
 20
78.199969630204578
 30
0.0
 11
-103.00000008742276
 21
78.199969630204578
 31
0.0
  0
LINE
  5
D2
100
AcDbEntity
  8
0
  6
CONTINUOUS
 62
               2
100
AcDbLine
 10
16.500000000000057
 20
90.097900390625
 30
0.0
 11
16.500000000000057
 21
79.588230926088727
 31
0.0
  0
LINE
  5
D3
100
AcDbEntity
  8
0
  6
CONTINUOUS
 62
               7
100
AcDbLine
 10
-93.999999733333283
 20
0.0
 30
0.0
 11
-93.999999733333283
 21
3.199981689453125
 31
0.0
  0
LINE
  5
D4
100
AcDbEntity
  8
0
  6
CONTINUOUS
 62
               7
100
AcDbLine
 10
-81.999999733333254
 20
0.0
 30
0.0
 11
-93.999999733333283
 21
0.0
 31
0.0
  0
LINE
  5
D5
100
AcDbEntity
  8
0
  6
CONTINUOUS
 62
               7
100
AcDbLine
 10
-81.999999733333254
 20
0.0
 30
0.0
 11
-81.999999733333254
 21
3.199981689453125
 31
0.0
  0
LINE
  5
D6
100
AcDbEntity
  8
0
  6
CONTINUOUS
 62
               7
100
AcDbLine
 10
82.000000266666689
 20
0.0
 30
0.0
 11
82.000000266666689
 21
3.199981689453125
 31
0.0
  0
LINE
  5
D7
100
AcDbEntity
  8
0
  6
CONTINUOUS
 62
               7
100
AcDbLine
 10
94.000000266666746
 20
0.0
 30
0.0
 11
94.000000266666746
 21
3.199981689453125
 31
0.0
  0
LINE
  5
D8
100
AcDbEntity
  8
0
  6
CONTINUOUS
 62
               7
100
AcDbLine
 10
82.000000266666689
 20
0.0
 30
0.0
 11
94.000000266666746
 21
0.0
 31
0.0
  0
LINE
  5
D9
100
AcDbEntity
  8
0
  6
CONTINUOUS
 62
               2
100
AcDbLine
 10
119.43933982822011
 20
219.13932151767324
 30
0.0
 11
121.56066017177977
 21
221.2606418612329
 31
0.0
  0
LINE
  5
DA
100
AcDbEntity
  8
0
  6
CONTINUOUS
 62
               2
100
AcDbLine
 10
119.43933982822017
 20
221.2606418612329
 30
0.0
 11
121.56066017177977
 21
219.13932151767324
 31
0.0
  0
LINE
  5
DB
100
AcDbEntity
  8
0
  6
CONTINUOUS
 62
               2
100
AcDbLine
 10
119.43933982822011
 20
205.13932151767324
 30
0.0
 11
121.56066017177977
 21
207.2606418612329
 31
0.0
  0
LINE
  5
DC
100
AcDbEntity
  8
0
  6
CONTINUOUS
 62
               2
100
AcDbLine
 10
119.43933982822017
 20
207.2606418612329
 30
0.0
 11
121.56066017177977
 21
205.13932151767324
 31
0.0
  0
ENDBLK
  5
DD
100
AcDbEntity
  8
0
100
AcDbBlockEnd
  0
BLOCK
  5
DE
100
AcDbEntity
  8
0
100
AcDbBlockBegin
  2
DTHB-AS2-2
 70
               0
 10
0.0
 20
0.0
 30
0.0
  3
DTHB-AS2-2
  1

  0
CIRCLE
  5
DF
100
AcDbEntity
  8
0
  6
CONTINUOUS
 62
               7
100
AcDbCircle
 10
-38.5
 20
56.20001220703125
 30
0.0
 40
5.5
  0
CIRCLE
  5
E0
100
AcDbEntity
  8
0
  6
CONTINUOUS
 62
               7
100
AcDbCircle
 10
-38.5
 20
56.20001220703125
 30
0.0
 40
11.499999999999998
  0
CIRCLE
  5
E1
100
AcDbEntity
  8
0
  6
CONTINUOUS
 62
               7
100
AcDbCircle
 10
-38.5
 20
56.20001220703125
 30
0.0
 40
7.5
  0
LINE
  5
E2
100
AcDbEntity
  8
0
  6
CONTINUOUS
 62
               7
100
AcDbLine
 10
-50.567682657446312
 20
71.528439331777463
 30
0.0
 11
0.0
 21
71.528439331777463
 31
0.0
  0
LINE
  5
E3
100
AcDbEntity
  8
0
  6
CONTINUOUS
 62
               7
100
AcDbLine
 10
-1.6000000000000796
 20
222.34999161198914
 30
0.0
 11
-1.6000000000000796
 21
215.90000389648435
 31
0.0
  0
LINE
  5
E4
100
AcDbEntity
  8
0
  6
CONTINUOUS
 62
               7
100
AcDbLine
 10
-2.4500000015126489
 20
222.2756262477069
 30
0.0
 11
-1.5999999957707587
 21
222.34999161198914
 31
0.0
  0
LINE
  5
E5
100
AcDbEntity
  8
0
  6
CONTINUOUS
 62
               7
100
AcDbLine
 10
-2.4500000015128194
 20
218.1243571311993
 30
0.0
 11
-1.5999999957709292
 21
218.04999176691695
 31
0.0
  0
LINE
  5
E6
100
AcDbEntity
  8
0
  6
CONTINUOUS
 62
               7
100
AcDbLine
 10
-2.4500000238419943
 20
218.12435697151182
 30
0.0
 11
-2.4500000238419943
 21
222.27562640739438
 31
0.0
  0
ARC
  5
E7
100
AcDbEntity
  8
0
  6
CONTINUOUS
 62
               7
100
AcDbCircle
 10
3.5296558380125589
 20
220.19999168945287
 30
0.0
 40
6.3296561241149902
100
AcDbArc
 50
160.85729086486964
 51
199.14270731389303
  0
ARC
  5
E8
100
AcDbEntity
  8
0
  6
CONTINUOUS
 62
               7
100
AcDbCircle
 10
-1.6000000000000796
 20
202.19998779296873
 30
0.0
 40
3.4999999999999996
100
AcDbArc
 50
180.0
 51
270.0
  0
ARC
  5
E9
100
AcDbEntity
  8
0
  6
CONTINUOUS
 62
               7
100
AcDbCircle
 10
-1.6000000000000796
 20
218.19998779296873
 30
0.0
 40
3.4999999999999996
100
AcDbArc
 50
107.58284247057495
 51
180.0
  0
LINE
  5
EA
100
AcDbEntity
  8
0
  6
CONTINUOUS
 62
               7
100
AcDbLine
 10
-6.1000000000000796
 20
216.69998779296873
 30
0.0
 11
-6.1000000000000796
 21
203.69998779296873
 31
0.0
  0
LINE
  5
EB
100
AcDbEntity
  8
0
  6
CONTINUOUS
 62
               7
100
AcDbLine
 10
-5.1000000000001364
 20
202.19998779296873
 30
0.0
 11
-5.1000000000001364
 21
218.19998779296873
 31
0.0
  0
ARC
  5
EC
100
AcDbEntity
  8
0
  6
CONTINUOUS
 62
               7
100
AcDbCircle
 10
-5.1000000000001364
 20
216.69998779296873
 30
0.0
 40
1.0
100
AcDbArc
 50
90.0
 51
180.0
  0
ARC
  5
ED
100
AcDbEntity
  8
0
  6
CONTINUOUS
 62
               7
100
AcDbCircle
 10
-5.1000000000001364
 20
203.69998779296873
 30
0.0
 40
1.0
100
AcDbArc
 50
180.0
 51
270.0
  0
LINE
  5
EE
100
AcDbEntity
  8
0
  6
CONTINUOUS
 62
               7
100
AcDbLine
 10
-1.1000000000000796
 20
198.19998779296873
 30
0.0
 11
-1.1000000000000796
 21
202.49997948242185
 31
0.0
  0
ARC
  5
EF
100
AcDbEntity
  8
0
  6
CONTINUOUS
 62
               7
100
AcDbCircle
 10
1.8999999999998636
 20
221.4694216255466
 30
0.0
 40
2.9999999999999996
100
AcDbArc
 50
134.96855723541546
 51
180.0
  0
ARC
  5
F0
100
AcDbEntity
  8
0
  6
CONTINUOUS
 62
               7
100
AcDbCircle
 10
1.8999999999998636
 20
221.4694216255466
 30
0.0
 40
3.4999999999999996
100
AcDbArc
 50
134.9685572354158
 51
179.99999999999997
  0
LINE
  5
F1
100
AcDbEntity
  8
0
  6
CONTINUOUS
 62
               7
100
AcDbLine
 10
-1.1000000000000796
 20
215.90000389648435
 30
0.0
 11
-1.1000000000000796
 21
221.4694216255466
 31
0.0
  0
LINE
  5
F2
100
AcDbEntity
  8
0
  6
CONTINUOUS
 62
               7
100
AcDbLine
 10
-1.6000000000000796
 20
202.49997948242185
 30
0.0
 11
-1.6000000000000796
 21
198.19998779296873
 31
0.0
  0
LINE
  5
F3
100
AcDbEntity
  8
0
  6
CONTINUOUS
 62
               7
100
AcDbLine
 10
1.0041878807285229
 20
225.52162555577297
 30
0.0
 11
-0.573515200922202
 21
223.94565314759939
 31
0.0
  0
LINE
  5
F4
100
AcDbEntity
  8
0
  6
CONTINUOUS
 62
               7
100
AcDbLine
 10
1.0041878807285229
 20
224.81490650126807
 30
0.0
 11
-0.2201558865046991
 21
223.59190578730602
 31
0.0
  0
LINE
  5
F5
100
AcDbEntity
  8
0
  6
CONTINUOUS
 62
               7
100
AcDbLine
 10
-3.3999999999999204
 20
134.63020350206557
 30
0.0
 11
-3.3999999999999204
 21
139.63020350206557
 31
0.0
  0
LINE
  5
F6
100
AcDbEntity
  8
0
  6
CONTINUOUS
 62
               7
100
AcDbLine
 10
-5.0999999999999091
 20
134.63020350206557
 30
0.0
 11
-1.8000000000000114
 21
134.63020350206557
 31
0.0
  0
LINE
  5
F7
100
AcDbEntity
  8
0
  6
CONTINUOUS
 62
               7
100
AcDbLine
 10
-5.0999999999999091
 20
139.63020350206557
 30
0.0
 11
-1.8000000000000114
 21
139.63020350206557
 31
0.0
  0
LINE
  5
F8
100
AcDbEntity
  8
0
  6
CONTINUOUS
 62
               7
100
AcDbLine
 10
-1.8000000304660375
 20
131.63020350206557
 30
0.0
 11
-5.1000000423869096
 21
132.21208254415467
 31
0.0
  0
LINE
  5
F9
100
AcDbEntity
  8
0
  6
CONTINUOUS
 62
               7
100
AcDbLine
 10
-1.8000000000000114
 20
121.13020350206557
 30
0.0
 11
-1.8000000000000114
 21
141.63020350206557
 31
0.0
  0
LINE
  5
FA
100
AcDbEntity
  8
0
  6
CONTINUOUS
 62
               7
100
AcDbLine
 10
-5.0999999999999091
 20
132.21208253668067
 30
0.0
 11
-5.0999999999999091
 21
141.63020350206557
 31
0.0
  0
LINE
  5
FB
100
AcDbEntity
  8
0
  6
CONTINUOUS
 62
               7
100
AcDbLine
 10
-5.4999998092650912
 20
129.63020350206557
 30
0.0
 11
-1.8000000000000114
 21
129.63020350206557
 31
0.0
  0
LINE
  5
FC
100
AcDbEntity
  8
0
  6
CONTINUOUS
 62
               7
100
AcDbLine
 10
-5.4999999726121587
 20
129.63020341067636
 30
0.0
 11
-5.7999999606911388
 21
129.11058829608533
 31
0.0
  0
LINE
  5
FD
100
AcDbEntity
  8
0
  6
CONTINUOUS
 62
               7
100
AcDbLine
 10
-5.7999999999999545
 20
129.11058832872573
 30
0.0
 11
-5.7999999999999545
 21
123.14981962907973
 31
0.0
  0
LINE
  5
FE
100
AcDbEntity
  8
0
  6
CONTINUOUS
 62
               7
100
AcDbLine
 10
-5.4999998092650912
 20
129.63020350206557
 30
0.0
 11
-5.4999998092650912
 21
122.63020350206557
 31
0.0
  0
LINE
  5
FF
100
AcDbEntity
  8
0
  6
CONTINUOUS
 62
               7
100
AcDbLine
 10
-5.4999997669607978
 20
122.63020391908731
 30
0.0
 11
-5.7999998861699282
 21
123.14981955391988
 31
0.0
  0
LINE
  5
100
100
AcDbEntity
  8
0
  6
CONTINUOUS
 62
               7
100
AcDbLine
 10
-5.4999998092650912
 20
122.63020350206557
 30
0.0
 11
-1.8000000000000114
 21
122.63020350206557
 31
0.0
  0
LINE
  5
101
100
AcDbEntity
  8
0
  6
CONTINUOUS
 62
               7
100
AcDbLine
 10
-5.0999999999999091
 20
141.63020350206557
 30
0.0
 11
0.0
 21
141.63020350206557
 31
0.0
  0
LINE
  5
102
100
AcDbEntity
  8
0
  6
CONTINUOUS
 62
               7
100
AcDbLine
 10
-1.8000000000000114
 20
121.13020350206557
 30
0.0
 11
0.0
 21
121.13020350206557
 31
0.0
  0
LINE
  5
103
100
AcDbEntity
  8
0
  6
CONTINUOUS
 62
               2
100
AcDbLine
 10
-7.7596592421687092
 20
126.13020350206557
 30
0.0
 11
2.88159620612862
 21
126.13020350206557
 31
0.0
  0
LINE
  5
104
100
AcDbEntity
  8
0
  6
CONTINUOUS
 62
               7
100
AcDbLine
 10
40.0
 20
195.20001220703125
 30
0.0
 11
0.0
 21
195.20001220703125
 31
0.0
  0
LINE
  5
105
100
AcDbEntity
  8
0
  6
CONTINUOUS
 62
               7
100
AcDbLine
 10
289.79999938206066
 20
56.199996839908749
 30
0.0
 11
292.20000090793951
 21
56.199996839908749
 31
0.0
  0
LINE
  5
106
100
AcDbEntity
  8
0
  6
CONTINUOUS
 62
               7
100
AcDbLine
 10
289.79999938206066
 20
66.599990736393124
 30
0.0
 11
292.20000090793951
 21
66.599990736393124
 31
0.0
  0
LINE
  5
107
100
AcDbEntity
  8
0
  6
CONTINUOUS
 62
               7
100
AcDbLine
 10
289.79999938206066
 20
66.599990736393124
 30
0.0
 11
289.79999938206066
 21
56.199996839908749
 31
0.0
  0
LINE
  5
108
100
AcDbEntity
  8
0
  6
CONTINUOUS
 62
               7
100
AcDbLine
 10
292.20000090793951
 20
66.599990736393124
 30
0.0
 11
292.20000090793951
 21
56.199996839908749
 31
0.0
  0
CIRCLE
  5
109
100
AcDbEntity
  8
0
  6
CONTINUOUS
 62
               7
100
AcDbCircle
 10
148.500000145
 20
12.199987684635289
 30
0.0
 40
3.1500000000000004
  0
CIRCLE
  5
10A
100
AcDbEntity
  8
0
  6
CONTINUOUS
 62
               7
100
AcDbCircle
 10
291.00000014500006
 20
12.199987684635289
 30
0.0
 40
3.1500000000000004
  0
LINE
  5
10B
100
AcDbEntity
  8
0
  6
CONTINUOUS
 62
               7
100
AcDbLine
 10
119.05000319675781
 20
24.249993788150846
 30
0.0
 11
110.9499970932423
 21
24.249993788150846
 31
0.0
  0
ARC
  5
10C
100
AcDbEntity
  8
0
  6
CONTINUOUS
 62
               7
100
AcDbCircle
 10
118.95000623659467
 20
23.199996839908636
 30
0.0
 40
1.0499969482421962
100
AcDbArc
 50
270.0
 51
90.0
  0
LINE
  5
10D
100
AcDbEntity
  8
0
  6
CONTINUOUS
 62
               7
100
AcDbLine
 10
110.9499970932423
 20
22.149999891666539
 30
0.0
 11
119.05000319675781
 21
22.149999891666539
 31
0.0
  0
ARC
  5
10E
100
AcDbEntity
  8
0
  6
CONTINUOUS
 62
               7
100
AcDbCircle
 10
111.04999405340533
 20
23.199996839908636
 30
0.0
 40
1.0499969482421962
100
AcDbArc
 50
90.0
 51
270.0
  0
LINE
  5
10F
100
AcDbEntity
  8
0
  6
CONTINUOUS
 62
               7
100
AcDbLine
 10
104.05000319675781
 20
24.249993788150846
 30
0.0
 11
95.949997093242189
 21
24.249993788150846
 31
0.0
  0
ARC
  5
110
100
AcDbEntity
  8
0
  6
CONTINUOUS
 62
               7
100
AcDbCircle
 10
103.95000623659467
 20
23.199996839908636
 30
0.0
 40
1.0499969482421962
100
AcDbArc
 50
270.0
 51
90.0
  0
LINE
  5
111
100
AcDbEntity
  8
0
  6
CONTINUOUS
 62
               7
100
AcDbLine
 10
95.949997093242189
 20
22.149999891666539
 30
0.0
 11
104.05000319675781
 21
22.149999891666539
 31
0.0
  0
ARC
  5
112
100
AcDbEntity
  8
0
  6
CONTINUOUS
 62
               7
100
AcDbCircle
 10
96.049994053405328
 20
23.199996839908636
 30
0.0
 40
1.0499969482421962
100
AcDbArc
 50
90.0
 51
270.0
  0
LINE
  5
113
100
AcDbEntity
  8
0
  6
CONTINUOUS
 62
               7
100
AcDbLine
 10
89.050003196757814
 20
24.249993788150846
 30
0.0
 11
80.949997093242189
 21
24.249993788150846
 31
0.0
  0
ARC
  5
114
100
AcDbEntity
  8
0
  6
CONTINUOUS
 62
               7
100
AcDbCircle
 10
88.950006236594675
 20
23.199996839908636
 30
0.0
 40
1.0499969482421962
100
AcDbArc
 50
270.0
 51
90.0
  0
LINE
  5
115
100
AcDbEntity
  8
0
  6
CONTINUOUS
 62
               7
100
AcDbLine
 10
80.949997093242189
 20
22.149999891666539
 30
0.0
 11
89.050003196757814
 21
22.149999891666539
 31
0.0
  0
ARC
  5
116
100
AcDbEntity
  8
0
  6
CONTINUOUS
 62
               7
100
AcDbCircle
 10
81.049994053405328
 20
23.199996839908636
 30
0.0
 40
1.0499969482421962
100
AcDbArc
 50
90.0
 51
270.0
  0
LINE
  5
117
100
AcDbEntity
  8
0
  6
CONTINUOUS
 62
               7
100
AcDbLine
 10
74.050003196757814
 20
24.249993788150846
 30
0.0
 11
65.949997093242189
 21
24.249993788150846
 31
0.0
  0
ARC
  5
118
100
AcDbEntity
  8
0
  6
CONTINUOUS
 62
               7
100
AcDbCircle
 10
73.950006236594675
 20
23.199996839908636
 30
0.0
 40
1.0499969482421962
100
AcDbArc
 50
270.0
 51
90.0
  0
LINE
  5
119
100
AcDbEntity
  8
0
  6
CONTINUOUS
 62
               7
100
AcDbLine
 10
65.949997093242189
 20
22.149999891666539
 30
0.0
 11
74.050003196757814
 21
22.149999891666539
 31
0.0
  0
ARC
  5
11A
100
AcDbEntity
  8
0
  6
CONTINUOUS
 62
               7
100
AcDbCircle
 10
66.049994053405328
 20
23.199996839908636
 30
0.0
 40
1.0499969482421962
100
AcDbArc
 50
90.0
 51
270.0
  0
LINE
  5
11B
100
AcDbEntity
  8
0
  6
CONTINUOUS
 62
               7
100
AcDbLine
 10
81.550003196757814
 20
29.249993788150846
 30
0.0
 11
73.449997093242189
 21
29.249993788150846
 31
0.0
  0
ARC
  5
11C
100
AcDbEntity
  8
0
  6
CONTINUOUS
 62
               7
100
AcDbCircle
 10
81.450006236594675
 20
28.199996839908636
 30
0.0
 40
1.0499969482421962
100
AcDbArc
 50
270.0
 51
90.0
  0
LINE
  5
11D
100
AcDbEntity
  8
0
  6
CONTINUOUS
 62
               7
100
AcDbLine
 10
73.449997093242189
 20
27.149999891666539
 30
0.0
 11
81.550003196757814
 21
27.149999891666539
 31
0.0
  0
ARC
  5
11E
100
AcDbEntity
  8
0
  6
CONTINUOUS
 62
               7
100
AcDbCircle
 10
73.549994053405328
 20
28.199996839908636
 30
0.0
 40
1.0499969482421962
100
AcDbArc
 50
90.0
 51
270.0
  0
LINE
  5
11F
100
AcDbEntity
  8
0
  6
CONTINUOUS
 62
               7
100
AcDbLine
 10
96.550003196757814
 20
29.249993788150846
 30
0.0
 11
88.449997093242189
 21
29.249993788150846
 31
0.0
  0
ARC
  5
120
100
AcDbEntity
  8
0
  6
CONTINUOUS
 62
               7
100
AcDbCircle
 10
96.450006236594675
 20
28.199996839908636
 30
0.0
 40
1.0499969482421962
100
AcDbArc
 50
270.0
 51
90.0
  0
LINE
  5
121
100
AcDbEntity
  8
0
  6
CONTINUOUS
 62
               7
100
AcDbLine
 10
88.449997093242189
 20
27.149999891666539
 30
0.0
 11
96.550003196757814
 21
27.149999891666539
 31
0.0
  0
ARC
  5
122
100
AcDbEntity
  8
0
  6
CONTINUOUS
 62
               7
100
AcDbCircle
 10
88.549994053405328
 20
28.199996839908636
 30
0.0
 40
1.0499969482421962
100
AcDbArc
 50
90.0
 51
270.0
  0
LINE
  5
123
100
AcDbEntity
  8
0
  6
CONTINUOUS
 62
               7
100
AcDbLine
 10
111.55000319675781
 20
29.249993788150846
 30
0.0
 11
103.44999709324219
 21
29.249993788150846
 31
0.0
  0
ARC
  5
124
100
AcDbEntity
  8
0
  6
CONTINUOUS
 62
               7
100
AcDbCircle
 10
111.45000623659467
 20
28.199996839908636
 30
0.0
 40
1.0499969482421962
100
AcDbArc
 50
270.0
 51
90.0
  0
LINE
  5
125
100
AcDbEntity
  8
0
  6
CONTINUOUS
 62
               7
100
AcDbLine
 10
103.44999709324219
 20
27.149999891666539
 30
0.0
 11
111.55000319675781
 21
27.149999891666539
 31
0.0
  0
ARC
  5
126
100
AcDbEntity
  8
0
  6
CONTINUOUS
 62
               7
100
AcDbCircle
 10
103.54999405340533
 20
28.199996839908636
 30
0.0
 40
1.0499969482421962
100
AcDbArc
 50
90.0
 51
270.0
  0
LINE
  5
127
100
AcDbEntity
  8
0
  6
CONTINUOUS
 62
               7
100
AcDbLine
 10
119.05000319675781
 20
34.249993788150846
 30
0.0
 11
110.9499970932423
 21
34.249993788150846
 31
0.0
  0
ARC
  5
128
100
AcDbEntity
  8
0
  6
CONTINUOUS
 62
               7
100
AcDbCircle
 10
118.95000623659467
 20
33.199996839908636
 30
0.0
 40
1.0499969482421962
100
AcDbArc
 50
270.0
 51
90.0
  0
LINE
  5
129
100
AcDbEntity
  8
0
  6
CONTINUOUS
 62
               7
100
AcDbLine
 10
110.9499970932423
 20
32.149999891666539
 30
0.0
 11
119.05000319675781
 21
32.149999891666539
 31
0.0
  0
ARC
  5
12A
100
AcDbEntity
  8
0
  6
CONTINUOUS
 62
               7
100
AcDbCircle
 10
111.04999405340533
 20
33.199996839908636
 30
0.0
 40
1.0499969482421962
100
AcDbArc
 50
90.0
 51
270.0
  0
LINE
  5
12B
100
AcDbEntity
  8
0
  6
CONTINUOUS
 62
               7
100
AcDbLine
 10
104.05000319675781
 20
34.249993788150846
 30
0.0
 11
95.949997093242189
 21
34.249993788150846
 31
0.0
  0
ARC
  5
12C
100
AcDbEntity
  8
0
  6
CONTINUOUS
 62
               7
100
AcDbCircle
 10
103.95000623659467
 20
33.199996839908636
 30
0.0
 40
1.0499969482421962
100
AcDbArc
 50
270.0
 51
90.0
  0
LINE
  5
12D
100
AcDbEntity
  8
0
  6
CONTINUOUS
 62
               7
100
AcDbLine
 10
95.949997093242189
 20
32.149999891666539
 30
0.0
 11
104.05000319675781
 21
32.149999891666539
 31
0.0
  0
ARC
  5
12E
100
AcDbEntity
  8
0
  6
CONTINUOUS
 62
               7
100
AcDbCircle
 10
96.049994053405328
 20
33.199996839908636
 30
0.0
 40
1.0499969482421962
100
AcDbArc
 50
90.0
 51
270.0
  0
LINE
  5
12F
100
AcDbEntity
  8
0
  6
CONTINUOUS
 62
               7
100
AcDbLine
 10
74.050003196757814
 20
34.249993788150846
 30
0.0
 11
65.949997093242189
 21
34.249993788150846
 31
0.0
  0
ARC
  5
130
100
AcDbEntity
  8
0
  6
CONTINUOUS
 62
               7
100
AcDbCircle
 10
73.950006236594675
 20
33.199996839908636
 30
0.0
 40
1.0499969482421962
100
AcDbArc
 50
270.0
 51
90.0
  0
LINE
  5
131
100
AcDbEntity
  8
0
  6
CONTINUOUS
 62
               7
100
AcDbLine
 10
65.949997093242189
 20
32.149999891666539
 30
0.0
 11
74.050003196757814
 21
32.149999891666539
 31
0.0
  0
ARC
  5
132
100
AcDbEntity
  8
0
  6
CONTINUOUS
 62
               7
100
AcDbCircle
 10
66.049994053405328
 20
33.199996839908636
 30
0.0
 40
1.0499969482421962
100
AcDbArc
 50
90.0
 51
270.0
  0
LINE
  5
133
100
AcDbEntity
  8
0
  6
CONTINUOUS
 62
               7
100
AcDbLine
 10
89.050003196757814
 20
34.249993788150846
 30
0.0
 11
80.949997093242189
 21
34.249993788150846
 31
0.0
  0
ARC
  5
134
100
AcDbEntity
  8
0
  6
CONTINUOUS
 62
               7
100
AcDbCircle
 10
88.950006236594675
 20
33.199996839908636
 30
0.0
 40
1.0499969482421962
100
AcDbArc
 50
270.0
 51
90.0
  0
LINE
  5
135
100
AcDbEntity
  8
0
  6
CONTINUOUS
 62
               7
100
AcDbLine
 10
80.949997093242189
 20
32.149999891666539
 30
0.0
 11
89.050003196757814
 21
32.149999891666539
 31
0.0
  0
ARC
  5
136
100
AcDbEntity
  8
0
  6
CONTINUOUS
 62
               7
100
AcDbCircle
 10
81.049994053405328
 20
33.199996839908636
 30
0.0
 40
1.0499969482421962
100
AcDbArc
 50
90.0
 51
270.0
  0
LINE
  5
137
100
AcDbEntity
  8
0
  6
CONTINUOUS
 62
               7
100
AcDbLine
 10
81.550003196757814
 20
39.249993788150846
 30
0.0
 11
73.449997093242189
 21
39.249993788150846
 31
0.0
  0
ARC
  5
138
100
AcDbEntity
  8
0
  6
CONTINUOUS
 62
               7
100
AcDbCircle
 10
81.450006236594675
 20
38.199996839908636
 30
0.0
 40
1.0499969482421962
100
AcDbArc
 50
270.0
 51
90.0
  0
LINE
  5
139
100
AcDbEntity
  8
0
  6
CONTINUOUS
 62
               7
100
AcDbLine
 10
73.449997093242189
 20
37.149999891666539
 30
0.0
 11
81.550003196757814
 21
37.149999891666539
 31
0.0
  0
ARC
  5
13A
100
AcDbEntity
  8
0
  6
CONTINUOUS
 62
               7
100
AcDbCircle
 10
73.549994053405328
 20
38.199996839908636
 30
0.0
 40
1.0499969482421962
100
AcDbArc
 50
90.0
 51
270.0
  0
LINE
  5
13B
100
AcDbEntity
  8
0
  6
CONTINUOUS
 62
               7
100
AcDbLine
 10
74.050003196757814
 20
44.249993788150846
 30
0.0
 11
65.949997093242189
 21
44.249993788150846
 31
0.0
  0
ARC
  5
13C
100
AcDbEntity
  8
0
  6
CONTINUOUS
 62
               7
100
AcDbCircle
 10
73.950006236594675
 20
43.199996839908636
 30
0.0
 40
1.0499969482421962
100
AcDbArc
 50
270.0
 51
90.0
  0
LINE
  5
13D
100
AcDbEntity
  8
0
  6
CONTINUOUS
 62
               7
100
AcDbLine
 10
65.949997093242189
 20
42.149999891666539
 30
0.0
 11
74.050003196757814
 21
42.149999891666539
 31
0.0
  0
ARC
  5
13E
100
AcDbEntity
  8
0
  6
CONTINUOUS
 62
               7
100
AcDbCircle
 10
66.049994053405328
 20
43.199996839908636
 30
0.0
 40
1.0499969482421962
100
AcDbArc
 50
90.0
 51
270.0
  0
LINE
  5
13F
100
AcDbEntity
  8
0
  6
CONTINUOUS
 62
               7
100
AcDbLine
 10
89.050003196757814
 20
44.249993788150846
 30
0.0
 11
80.949997093242189
 21
44.249993788150846
 31
0.0
  0
ARC
  5
140
100
AcDbEntity
  8
0
  6
CONTINUOUS
 62
               7
100
AcDbCircle
 10
88.950006236594675
 20
43.199996839908636
 30
0.0
 40
1.0499969482421962
100
AcDbArc
 50
270.0
 51
90.0
  0
LINE
  5
141
100
AcDbEntity
  8
0
  6
CONTINUOUS
 62
               7
100
AcDbLine
 10
80.949997093242189
 20
42.149999891666539
 30
0.0
 11
89.050003196757814
 21
42.149999891666539
 31
0.0
  0
ARC
  5
142
100
AcDbEntity
  8
0
  6
CONTINUOUS
 62
               7
100
AcDbCircle
 10
81.049994053405328
 20
43.199996839908636
 30
0.0
 40
1.0499969482421962
100
AcDbArc
 50
90.0
 51
270.0
  0
LINE
  5
143
100
AcDbEntity
  8
0
  6
CONTINUOUS
 62
               7
100
AcDbLine
 10
96.550003196757814
 20
39.249993788150846
 30
0.0
 11
88.449997093242189
 21
39.249993788150846
 31
0.0
  0
ARC
  5
144
100
AcDbEntity
  8
0
  6
CONTINUOUS
 62
               7
100
AcDbCircle
 10
96.450006236594675
 20
38.199996839908636
 30
0.0
 40
1.0499969482421962
100
AcDbArc
 50
270.0
 51
90.0
  0
LINE
  5
145
100
AcDbEntity
  8
0
  6
CONTINUOUS
 62
               7
100
AcDbLine
 10
88.449997093242189
 20
37.149999891666539
 30
0.0
 11
96.550003196757814
 21
37.149999891666539
 31
0.0
  0
ARC
  5
146
100
AcDbEntity
  8
0
  6
CONTINUOUS
 62
               7
100
AcDbCircle
 10
88.549994053405328
 20
38.199996839908636
 30
0.0
 40
1.0499969482421962
100
AcDbArc
 50
90.0
 51
270.0
  0
LINE
  5
147
100
AcDbEntity
  8
0
  6
CONTINUOUS
 62
               7
100
AcDbLine
 10
111.55000319675781
 20
39.249993788150846
 30
0.0
 11
103.44999709324219
 21
39.249993788150846
 31
0.0
  0
ARC
  5
148
100
AcDbEntity
  8
0
  6
CONTINUOUS
 62
               7
100
AcDbCircle
 10
111.45000623659467
 20
38.199996839908636
 30
0.0
 40
1.0499969482421962
100
AcDbArc
 50
270.0
 51
90.0
  0
LINE
  5
149
100
AcDbEntity
  8
0
  6
CONTINUOUS
 62
               7
100
AcDbLine
 10
103.44999709324219
 20
37.149999891666539
 30
0.0
 11
111.55000319675781
 21
37.149999891666539
 31
0.0
  0
ARC
  5
14A
100
AcDbEntity
  8
0
  6
CONTINUOUS
 62
               7
100
AcDbCircle
 10
103.54999405340533
 20
38.199996839908636
 30
0.0
 40
1.0499969482421962
100
AcDbArc
 50
90.0
 51
270.0
  0
LINE
  5
14B
100
AcDbEntity
  8
0
  6
CONTINUOUS
 62
               7
100
AcDbLine
 10
104.05000319675781
 20
44.249993788150846
 30
0.0
 11
95.949997093242189
 21
44.249993788150846
 31
0.0
  0
ARC
  5
14C
100
AcDbEntity
  8
0
  6
CONTINUOUS
 62
               7
100
AcDbCircle
 10
103.95000623659467
 20
43.199996839908636
 30
0.0
 40
1.0499969482421962
100
AcDbArc
 50
270.0
 51
90.0
  0
LINE
  5
14D
100
AcDbEntity
  8
0
  6
CONTINUOUS
 62
               7
100
AcDbLine
 10
95.949997093242189
 20
42.149999891666539
 30
0.0
 11
104.05000319675781
 21
42.149999891666539
 31
0.0
  0
ARC
  5
14E
100
AcDbEntity
  8
0
  6
CONTINUOUS
 62
               7
100
AcDbCircle
 10
96.049994053405328
 20
43.199996839908636
 30
0.0
 40
1.0499969482421962
100
AcDbArc
 50
90.0
 51
270.0
  0
ARC
  5
14F
100
AcDbEntity
  8
0
  6
CONTINUOUS
 62
               7
100
AcDbCircle
 10
111.04999405340533
 20
43.199996839908636
 30
0.0
 40
1.0499969482421962
100
AcDbArc
 50
90.0
 51
270.0
  0
ARC
  5
150
100
AcDbEntity
  8
0
  6
CONTINUOUS
 62
               7
100
AcDbCircle
 10
118.95000623659467
 20
43.199996839908636
 30
0.0
 40
1.0499969482421962
100
AcDbArc
 50
270.0
 51
90.0
  0
LINE
  5
151
100
AcDbEntity
  8
0
  6
CONTINUOUS
 62
               7
100
AcDbLine
 10
110.9499970932423
 20
42.149999891666539
 30
0.0
 11
119.05000319675781
 21
42.149999891666539
 31
0.0
  0
LINE
  5
152
100
AcDbEntity
  8
0
  6
CONTINUOUS
 62
               7
100
AcDbLine
 10
119.05000319675781
 20
44.249993788150846
 30
0.0
 11
110.9499970932423
 21
44.249993788150846
 31
0.0
  0
CIRCLE
  5
153
100
AcDbEntity
  8
0
  6
CONTINUOUS
 62
               7
100
AcDbCircle
 10
6.0000001450000013
 20
12.199987684635289
 30
0.0
 40
3.1500000000000004
  0
LINE
  5
154
100
AcDbEntity
  8
0
  6
CONTINUOUS
 62
               7
100
AcDbLine
 10
300.00001525878906
 20
81.20001220703125
 30
0.0
 11
300.0
 21
30.20001220703125
 31
0.0
  0
ARC
  5
155
100
AcDbEntity
  8
0
  6
CONTINUOUS
 62
               7
100
AcDbCircle
 10
2.1296558380126953
 20
205.20001610351528
 30
0.0
 40
6.3296561241149902
100
AcDbArc
 50
160.85729086486762
 51
199.14270731389101
  0
ARC
  5
156
100
AcDbEntity
  8
0
  6
CONTINUOUS
 62
               7
100
AcDbCircle
 10
2.1296558380126953
 20
213.20001610351528
 30
0.0
 40
6.3296561241149902
100
AcDbArc
 50
160.85729086486762
 51
199.14270731389101
  0
LINE
  5
157
100
AcDbEntity
  8
0
  6
CONTINUOUS
 62
               7
100
AcDbLine
 10
-3.8500000238420853
 20
203.12438138557434
 30
0.0
 11
-3.8500000238415737
 21
207.27565082145702
 31
0.0
  0
LINE
  5
158
100
AcDbEntity
  8
0
  6
CONTINUOUS
 62
               7
100
AcDbLine
 10
-3.8500000015128535
 20
203.12438154526194
 30
0.0
 11
-2.9999999957709633
 21
203.05001618097958
 31
0.0
  0
LINE
  5
159
100
AcDbEntity
  8
0
  6
CONTINUOUS
 62
               7
100
AcDbLine
 10
-3.8500000015123419
 20
207.2756506617693
 30
0.0
 11
-2.9999999957705086
 21
207.35001602605166
 31
0.0
  0
LINE
  5
15A
100
AcDbEntity
  8
0
  6
CONTINUOUS
 62
               7
100
AcDbLine
 10
-3.8500000238420853
 20
211.12438138557445
 30
0.0
 11
-3.8500000238415737
 21
215.27565082145691
 31
0.0
  0
LINE
  5
15B
100
AcDbEntity
  8
0
  6
CONTINUOUS
 62
               7
100
AcDbLine
 10
-3.8500000015128535
 20
211.12438154526194
 30
0.0
 11
-2.9999999957709633
 21
211.05001618097958
 31
0.0
  0
LINE
  5
15C
100
AcDbEntity
  8
0
  6
CONTINUOUS
 62
               7
100
AcDbLine
 10
-3.8500000015123419
 20
215.27565066176942
 30
0.0
 11
-2.9999999957705086
 21
215.35001602605166
 31
0.0
  0
LINE
  5
15D
100
AcDbEntity
  8
0
  6
CONTINUOUS
 62
               7
100
AcDbLine
 10
-3.0000000000001137
 20
215.90002831054687
 30
0.0
 11
-3.0000000000001137
 21
202.50000389648437
 31
0.0
  0
LINE
  5
15E
100
AcDbEntity
  8
0
  6
CONTINUOUS
 62
               2
100
AcDbLine
 10
-7.7308943089431068
 20
210.70001220703125
 30
0.0
 11
5.3357723577234992
 21
210.70001220703125
 31
0.0
  0
LINE
  5
15F
100
AcDbEntity
  8
0
  6
CONTINUOUS
 62
               7
100
AcDbLine
 10
0.9999999999998863
 20
215.90002831054687
 30
0.0
 11
-3.0000000000001137
 21
215.90002831054687
 31
0.0
  0
LINE
  5
160
100
AcDbEntity
  8
0
  6
CONTINUOUS
 62
               7
100
AcDbLine
 10
0.9999999999998863
 20
202.50000389648437
 30
0.0
 11
-3.0000000000001137
 21
202.50000389648437
 31
0.0
  0
ARC
  5
161
100
AcDbEntity
  8
0
  6
CONTINUOUS
 62
               7
100
AcDbCircle
 10
33.870346069335881
 20
206.20001220703125
 30
0.0
 40
6.3296561241149902
100
AcDbArc
 50
340.85729006794099
 51
19.142706516964399
  0
ARC
  5
162
100
AcDbEntity
  8
0
  6
CONTINUOUS
 62
               7
100
AcDbCircle
 10
33.870346069335881
 20
220.20001220703125
 30
0.0
 40
6.3296561241149902
100
AcDbArc
 50
340.85729006794099
 51
19.142706516964399
  0
ARC
  5
163
100
AcDbEntity
  8
0
  6
CONTINUOUS
 62
               7
100
AcDbCircle
 10
31.5
 20
227.20001220703125
 30
0.0
 40
2.4000000953674316
100
AcDbArc
 50
331.17621921195268
 51
163.04248945089057
  0
ARC
  5
164
100
AcDbEntity
  8
0
  6
CONTINUOUS
 62
               7
100
AcDbCircle
 10
8.5
 20
227.20001220703125
 30
0.0
 40
2.4000000953674316
100
AcDbArc
 50
16.957513850518463
 51
208.82378579700367
  0
ARC
  5
165
100
AcDbEntity
  8
0
  6
CONTINUOUS
 62
               7
100
AcDbCircle
 10
36.0
 20
201.20001220703125
 30
0.0
 40
3.0
100
AcDbArc
 50
269.99999749552182
 51
0.0
  0
ARC
  5
166
100
AcDbEntity
  8
0
  6
CONTINUOUS
 62
               7
100
AcDbCircle
 10
32.999999999999943
 20
228.70001220703125
 30
0.0
 40
2.0
100
AcDbArc
 50
60.00000000000054
 51
90.000002504478161
  0
ARC
  5
167
100
AcDbEntity
  8
0
  6
CONTINUOUS
 62
               7
100
AcDbCircle
 10
6.9999999999999432
 20
228.70001220703125
 30
0.0
 40
2.0
100
AcDbArc
 50
90.000002504478161
 51
120.00000000000082
  0
ARC
  5
168
100
AcDbEntity
  8
0
  6
CONTINUOUS
 62
               7
100
AcDbCircle
 10
30.792892456054688
 20
225.60000610351562
 30
0.0
 40
2.2999999523162842
100
AcDbArc
 50
45.00000125223908
 51
90.000002504478161
  0
ARC
  5
169
100
AcDbEntity
  8
0
  6
CONTINUOUS
 62
               7
100
AcDbCircle
 10
4.4999999999999432
 20
219.19583129882812
 30
0.0
 40
3.5000000000000004
100
AcDbArc
 50
135.00000034162267
 51
180.00000500895632
  0
ARC
  5
16A
100
AcDbEntity
  8
0
  6
CONTINUOUS
 62
               7
100
AcDbCircle
 10
35.499999999999943
 20
219.19583129882812
 30
0.0
 40
3.5000000000000004
100
AcDbArc
 50
0.0000000000000509
 51
45.00000125223908
  0
ARC
  5
16B
100
AcDbEntity
  8
0
  6
CONTINUOUS
 62
               7
100
AcDbCircle
 10
9.2071075439452557
 20
225.60000610351562
 30
0.0
 40
2.2999999523162842
100
AcDbArc
 50
90.000002504478161
 51
135.00000034162267
  0
ARC
  5
16C
100
AcDbEntity
  8
0
  6
CONTINUOUS
 62
               7
100
AcDbCircle
 10
4.0
 20
201.20001220703125
 30
0.0
 40
3.0
100
AcDbArc
 50
179.99999499104368
 51
269.99999749552182
  0
ARC
  5
16D
100
AcDbEntity
  8
0
  6
CONTINUOUS
 62
               7
100
AcDbCircle
 10
32.999999999999943
 20
228.70001220703125
 30
0.0
 40
1.5
100
AcDbArc
 50
48.189685104222256
 51
90.000002504478161
  0
ARC
  5
16E
100
AcDbEntity
  8
0
  6
CONTINUOUS
 62
               7
100
AcDbCircle
 10
38.5
 20
231.19998168945312
 30
0.0
 40
0.5
100
AcDbArc
 50
7.4208451464152363
 51
90.000002504478161
  0
ARC
  5
16F
100
AcDbEntity
  8
0
  6
CONTINUOUS
 62
               7
100
AcDbCircle
 10
6.9999999999999432
 20
228.70001220703125
 30
0.0
 40
1.5
100
AcDbArc
 50
90.000002504478161
 51
131.81031489577981
  0
ARC
  5
170
100
AcDbEntity
  8
0
  6
CONTINUOUS
 62
               7
100
AcDbCircle
 10
34.499999999999943
 20
231.19998168945312
 30
0.0
 40
0.5
100
AcDbArc
 50
90.000002504478161
 51
180.00000500895632
  0
ARC
  5
171
100
AcDbEntity
  8
0
  6
CONTINUOUS
 62
               7
100
AcDbCircle
 10
5.5
 20
231.19998168945312
 30
0.0
 40
0.5
100
AcDbArc
 50
0.0
 51
90.000002504478161
  0
ARC
  5
172
100
AcDbEntity
  8
0
  6
CONTINUOUS
 62
               7
100
AcDbCircle
 10
1.4999999999999432
 20
231.19998168945312
 30
0.0
 40
0.5
100
AcDbArc
 50
89.999995674288996
 51
172.57915473989922
  0
LINE
  5
173
100
AcDbEntity
  8
0
  6
CONTINUOUS
 62
               7
100
AcDbLine
 10
39.850006103515625
 20
208.275634765625
 30
0.0
 11
39.850006103515625
 21
204.12435913085937
 31
0.0
  0
LINE
  5
174
100
AcDbEntity
  8
0
  6
CONTINUOUS
 62
               7
100
AcDbLine
 10
39.85000594065923
 20
208.2756588153411
 30
0.0
 11
39.000011794419549
 21
208.35002366698336
 31
0.0
  0
LINE
  5
175
100
AcDbEntity
  8
0
  6
CONTINUOUS
 62
               7
100
AcDbLine
 10
39.849995196371253
 20
204.12436846852188
 30
0.0
 11
39.000001050131686
 21
204.05000361687962
 31
0.0
  0
LINE
  5
176
100
AcDbEntity
  8
0
  6
CONTINUOUS
 62
               7
100
AcDbLine
 10
39.850006103515625
 20
222.275634765625
 30
0.0
 11
39.850006103515625
 21
218.12435913085937
 31
0.0
  0
LINE
  5
177
100
AcDbEntity
  8
0
  6
CONTINUOUS
 62
               7
100
AcDbLine
 10
39.850001199449707
 20
222.27565004033477
 30
0.0
 11
39.000007053210027
 21
222.35001489197703
 31
0.0
  0
LINE
  5
178
100
AcDbEntity
  8
0
  6
CONTINUOUS
 62
               7
100
AcDbLine
 10
39.849997277798593
 20
218.12439009496575
 30
0.0
 11
39.000003131558913
 21
218.05002524332349
 31
0.0
  0
LINE
  5
179
100
AcDbEntity
  8
0
  6
CONTINUOUS
 62
               7
100
AcDbLine
 10
32.999999999999943
 20
230.70001220703125
 30
0.0
 11
6.9999999999999432
 21
230.70001220703125
 31
0.0
  0
LINE
  5
17A
100
AcDbEntity
  8
0
  6
CONTINUOUS
 62
               7
100
AcDbLine
 10
2.025113644694045
 20
221.67068549040687
 30
0.0
 11
7.5807614147133791
 21
227.22633326042614
 31
0.0
  0
LINE
  5
17B
100
AcDbEntity
  8
0
  6
CONTINUOUS
 62
               7
100
AcDbLine
 10
37.974861568783979
 20
221.6706962799999
 30
0.0
 11
32.419235377950827
 21
227.22632247083311
 31
0.0
  0
LINE
  5
17C
100
AcDbEntity
  8
0
  6
CONTINUOUS
 62
               7
100
AcDbLine
 10
6.0
 20
231.19998168945312
 30
0.0
 11
6.0
 21
225.64556884765625
 31
0.0
  0
LINE
  5
17D
100
AcDbEntity
  8
0
  6
CONTINUOUS
 62
               7
100
AcDbLine
 10
30.792892456054688
 20
227.89999389648437
 30
0.0
 11
9.2071075439452557
 21
227.89999389648437
 31
0.0
  0
LINE
  5
17E
100
AcDbEntity
  8
0
  6
CONTINUOUS
 62
               7
100
AcDbLine
 10
34.499999999999943
 20
231.69998168945312
 30
0.0
 11
38.5
 21
231.69998168945312
 31
0.0
  0
LINE
  5
17F
100
AcDbEntity
  8
0
  6
CONTINUOUS
 62
               7
100
AcDbLine
 10
32.999999999999943
 20
230.20001220703125
 30
0.0
 11
6.9999999999999432
 21
230.20001220703125
 31
0.0
  0
LINE
  5
180
100
AcDbEntity
  8
0
  6
CONTINUOUS
 62
               7
100
AcDbLine
 10
5.5
 20
231.69998168945312
 30
0.0
 11
1.4999999999999432
 21
231.69998168945312
 31
0.0
  0
LINE
  5
181
100
AcDbEntity
  8
0
  6
CONTINUOUS
 62
               7
100
AcDbLine
 10
34.0
 20
231.19998164574167
 30
0.0
 11
34.0
 21
225.64556884765625
 31
0.0
  0
LINE
  5
182
100
AcDbEntity
  8
0
  6
CONTINUOUS
 62
               7
100
AcDbLine
 10
32.149993896484318
 20
188.20001220703125
 30
0.0
 11
32.149993896484318
 21
78.20001220703125
 31
0.0
  0
LINE
  5
183
100
AcDbEntity
  8
0
  6
CONTINUOUS
 62
               7
100
AcDbLine
 10
27.850006103515625
 20
188.20001220703125
 30
0.0
 11
27.850006103515625
 21
78.20001220703125
 31
0.0
  0
LINE
  5
184
100
AcDbEntity
  8
0
  6
CONTINUOUS
 62
               7
100
AcDbLine
 10
12.149993896484318
 20
188.20001220703125
 30
0.0
 11
12.149993896484318
 21
78.20001220703125
 31
0.0
  0
LINE
  5
185
100
AcDbEntity
  8
0
  6
CONTINUOUS
 62
               7
100
AcDbLine
 10
7.850006103515625
 20
188.20001220703125
 30
0.0
 11
7.850006103515625
 21
78.20001220703125
 31
0.0
  0
LINE
  5
186
100
AcDbEntity
  8
0
  6
CONTINUOUS
 62
               7
100
AcDbLine
 10
0.0
 20
188.20001220703125
 30
0.0
 11
40.0
 21
188.20001220703125
 31
0.0
  0
LINE
  5
187
100
AcDbEntity
  8
0
  6
CONTINUOUS
 62
               2
100
AcDbLine
 10
3.5
 20
233.0390625
 30
0.0
 11
3.5
 21
228.25735023688674
 31
0.0
  0
LINE
  5
188
100
AcDbEntity
  8
0
  6
CONTINUOUS
 62
               2
100
AcDbLine
 10
36.5
 20
232.92898559570312
 30
0.0
 11
36.5
 21
227.94779809364218
 31
0.0
  0
LINE
  5
189
100
AcDbEntity
  8
0
  6
CONTINUOUS
 62
               7
100
AcDbLine
 10
40.0
 20
78.20001220703125
 30
0.0
 11
40.0
 21
198.20001220703125
 31
0.0
  0
LINE
  5
18A
100
AcDbEntity
  8
0
  6
CONTINUOUS
 62
               7
100
AcDbLine
 10
0.0
 20
78.20001220703125
 30
0.0
 11
0.0
 21
198.20001220703125
 31
0.0
  0
LINE
  5
18B
100
AcDbEntity
  8
0
  6
CONTINUOUS
 62
               7
100
AcDbLine
 10
-1.6000000000000796
 20
198.20001220703125
 30
0.0
 11
40.0
 21
198.20001220703125
 31
0.0
  0
LINE
  5
18C
100
AcDbEntity
  8
0
  6
CONTINUOUS
 62
               7
100
AcDbLine
 10
0.9999999999998863
 20
231.26455987759471
 30
0.0
 11
0.9999999999998863
 21
198.20001220703125
 31
0.0
  0
LINE
  5
18D
100
AcDbEntity
  8
0
  6
CONTINUOUS
 62
               7
100
AcDbLine
 10
39.0
 20
231.26455987661097
 30
0.0
 11
39.0
 21
198.20001220703125
 31
0.0
  0
LINE
  5
18E
100
AcDbEntity
  8
0
  6
CONTINUOUS
 62
               7
100
AcDbLine
 10
-51.5
 20
76.70001220703125
 30
0.0
 11
0.0
 21
76.70001220703125
 31
0.0
  0
LINE
  5
18F
100
AcDbEntity
  8
0
  6
CONTINUOUS
 62
               7
100
AcDbLine
 10
-51.5
 20
44.20001220703125
 30
0.0
 11
0.0
 21
44.20001220703125
 31
0.0
  0
LINE
  5
190
100
AcDbEntity
  8
0
  6
CONTINUOUS
 62
               7
100
AcDbLine
 10
-51.5
 20
76.70001220703125
 30
0.0
 11
-51.5
 21
44.20001220703125
 31
0.0
  0
LINE
  5
191
100
AcDbEntity
  8
0
  6
CONTINUOUS
 62
               7
100
AcDbLine
 10
0.0
 20
78.20001220703125
 30
0.0
 11
301.94667053222656
 21
78.20001220703125
 31
0.0
  0
LINE
  5
192
100
AcDbEntity
  8
0
  6
CONTINUOUS
 62
               7
100
AcDbLine
 10
40.0
 20
81.20001220703125
 30
0.0
 11
300.88340759277344
 21
81.20001220703125
 31
0.0
  0
LINE
  5
193
100
AcDbEntity
  8
0
  6
CONTINUOUS
 62
               7
100
AcDbLine
 10
0.0
 20
3.20001220703125
 30
0.0
 11
298.0
 21
3.20001220703125
 31
0.0
  0
LINE
  5
194
100
AcDbEntity
  8
0
  6
CONTINUOUS
 62
               7
100
AcDbLine
 10
298.0
 20
30.20001220703125
 30
0.0
 11
304.58219887812271
 21
30.20001220703125
 31
0.0
  0
LINE
  5
195
100
AcDbEntity
  8
0
  6
CONTINUOUS
 62
               7
100
AcDbLine
 10
298.0
 20
30.20001220703125
 30
0.0
 11
298.0
 21
3.20001220703125
 31
0.0
  0
LINE
  5
196
100
AcDbEntity
  8
0
  6
CONTINUOUS
 62
               7
100
AcDbLine
 10
238.50001525878906
 20
83.20001220703125
 30
0.0
 11
280.50001525878906
 21
83.20001220703125
 31
0.0
  0
LINE
  5
197
100
AcDbEntity
  8
0
  6
CONTINUOUS
 62
               7
100
AcDbLine
 10
238.50001525878906
 20
87.20001220703125
 30
0.0
 11
280.50001525878906
 21
87.20001220703125
 31
0.0
  0
LINE
  5
198
100
AcDbEntity
  8
0
  6
CONTINUOUS
 62
               7
100
AcDbLine
 10
238.50001525878906
 20
87.20001220703125
 30
0.0
 11
238.50001525878906
 21
81.20001220703125
 31
0.0
  0
LINE
  5
199
100
AcDbEntity
  8
0
  6
CONTINUOUS
 62
               7
100
AcDbLine
 10
280.50001525878906
 20
87.20001220703125
 30
0.0
 11
280.50001525878906
 21
81.20001220703125
 31
0.0
  0
LINE
  5
19A
100
AcDbEntity
  8
0
  6
CONTINUOUS
 62
               7
100
AcDbLine
 10
75.000015258789006
 20
78.20001220703125
 30
0.0
 11
75.000015258789006
 21
81.20001220703125
 31
0.0
  0
LINE
  5
19B
100
AcDbEntity
  8
0
  6
CONTINUOUS
 62
               2
100
AcDbLine
 10
241.50001525878906
 20
88.295013427734375
 30
0.0
 11
241.50001525878906
 21
81.929962158203125
 31
0.0
  0
LINE
  5
19C
100
AcDbEntity
  8
0
  6
CONTINUOUS
 62
               2
100
AcDbLine
 10
277.50001525878906
 20
88.478607177734375
 30
0.0
 11
277.50001525878906
 21
81.929962158203125
 31
0.0
  0
ARC
  5
19D
100
AcDbEntity
  8
0
  6
CONTINUOUS
 62
               7
100
AcDbCircle
 10
54.000015258789063
 20
54.300018310546875
 30
0.0
 40
250.0
100
AcDbArc
 50
355.14609020783729
 51
4.8539097921627041
  0
ARC
  5
19E
100
AcDbEntity
  8
0
  6
CONTINUOUS
 62
               7
100
AcDbCircle
 10
300.11418151855469
 20
33.399993896484375
 30
0.0
 40
3.0
100
AcDbArc
 50
269.99999749552182
 51
355.14609020783729
  0
ARC
  5
19F
100
AcDbEntity
  8
0
  6
CONTINUOUS
 62
               7
100
AcDbCircle
 10
300.11418151855469
 20
75.20001220703125
 30
0.0
 40
3.0
100
AcDbArc
 50
4.8539097921627041
 51
90.000002504478161
  0
ARC
  5
1A0
100
AcDbEntity
  8
0
  6
CONTINUOUS
 62
               7
100
AcDbCircle
 10
210.00001525878903
 20
44.300018310546875
 30
0.0
 40
100.0
100
AcDbArc
 50
354.62440334723948
 51
20.455793309426426
  0
ARC
  5
1A1
100
AcDbEntity
  8
0
  6
CONTINUOUS
 62
               7
100
AcDbCircle
 10
300.88340759277344
 20
78.20001220703125
 30
0.0
 40
3.0
100
AcDbArc
 50
20.455793309426426
 51
90.000002504478161
  0
ARC
  5
1A2
100
AcDbEntity
  8
0
  6
CONTINUOUS
 62
               7
100
AcDbCircle
 10
304.58219909667969
 20
35.399993896484375
 30
0.0
 40
5.0
100
AcDbArc
 50
269.99999749552182
 51
354.62440334723948
  0
ARC
  5
1A3
100
AcDbEntity
  8
0
  6
CONTINUOUS
 62
               7
100
AcDbCircle
 10
301.94667053222656
 20
75.20001220703125
 30
0.0
 40
3.0
100
AcDbArc
 50
18.575665919617233
 51
90.000002504478161
  0
LINE
  5
1A4
100
AcDbEntity
  8
0
  6
CONTINUOUS
 62
               7
100
AcDbLine
 10
0.0
 20
3.20001220703125
 30
0.0
 11
0.0
 21
78.20001220703125
 31
0.0
  0
LINE
  5
1A5
100
AcDbEntity
  8
0
  6
CONTINUOUS
 62
               7
100
AcDbLine
 10
11.000048828124761
 20
3.20001220703125
 30
0.0
 11
11.000048828124761
 21
0.0
 31
0.0
  0
LINE
  5
1A6
100
AcDbEntity
  8
0
  6
CONTINUOUS
 62
               7
100
AcDbLine
 10
11.000048828124761
 20
0.0
 30
0.0
 11
23.000048828124989
 21
0.0
 31
0.0
  0
LINE
  5
1A7
100
AcDbEntity
  8
0
  6
CONTINUOUS
 62
               7
100
AcDbLine
 10
23.000048828124989
 20
3.20001220703125
 30
0.0
 11
23.000048828124989
 21
0.0
 31
0.0
  0
LINE
  5
1A8
100
AcDbEntity
  8
0
  6
CONTINUOUS
 62
               7
100
AcDbLine
 10
277.00004882812493
 20
3.20001220703125
 30
0.0
 11
277.00004882812493
 21
0.0
 31
0.0
  0
LINE
  5
1A9
100
AcDbEntity
  8
0
  6
CONTINUOUS
 62
               7
100
AcDbLine
 10
277.00004882812493
 20
0.0
 30
0.0
 11
289.0000488281247
 21
0.0
 31
0.0
  0
LINE
  5
1AA
100
AcDbEntity
  8
0
  6
CONTINUOUS
 62
               7
100
AcDbLine
 10
289.0000488281247
 20
3.20001220703125
 30
0.0
 11
289.0000488281247
 21
0.0
 31
0.0
  0
LINE
  5
1AB
100
AcDbEntity
  8
0
  6
CONTINUOUS
 62
               2
100
AcDbLine
 10
4.5857865826268949
 20
10.785774122262183
 30
0.0
 11
7.414213707373051
 21
13.614201247008396
 31
0.0
  0
LINE
  5
1AC
100
AcDbEntity
  8
0
  6
CONTINUOUS
 62
               2
100
AcDbLine
 10
4.5857865826268949
 20
13.614201247008396
 30
0.0
 11
7.414213707373051
 21
10.785774122262183
 31
0.0
  0
LINE
  5
1AD
100
AcDbEntity
  8
0
  6
CONTINUOUS
 62
               2
100
AcDbLine
 10
147.08578658262689
 20
10.785774122262183
 30
0.0
 11
149.91421370737305
 21
13.614201247008396
 31
0.0
  0
LINE
  5
1AE
100
AcDbEntity
  8
0
  6
CONTINUOUS
 62
               2
100
AcDbLine
 10
147.08578658262689
 20
13.614201247008396
 30
0.0
 11
149.91421370737305
 21
10.785774122262183
 31
0.0
  0
LINE
  5
1AF
100
AcDbEntity
  8
0
  6
CONTINUOUS
 62
               2
100
AcDbLine
 10
289.58578658262695
 20
10.785774122262183
 30
0.0
 11
292.41421370737311
 21
13.614201247008396
 31
0.0
  0
LINE
  5
1B0
100
AcDbEntity
  8
0
  6
CONTINUOUS
 62
               2
100
AcDbLine
 10
289.58578658262695
 20
13.614201247008396
 30
0.0
 11
292.41421370737311
 21
10.785774122262183
 31
0.0
  0
ENDBLK
  5
1B1
100
AcDbEntity
  8
0
100
AcDbBlockEnd
  0
BLOCK
  5
1B2
100
AcDbEntity
  8
0
100
AcDbBlockBegin
  2
DTHB-AS2-3
 70
               0
 10
0.0
 20
0.0
 30
0.0
  3
DTHB-AS2-3
  1

  0
LINE
  5
1B3
100
AcDbEntity
  8
0
  6
CONTINUOUS
 62
               7
100
AcDbLine
 10
-13.829999999999927
 20
50.354749963984091
 30
0.0
 11
-13.829999999999927
 21
0.0
 31
0.0
  0
LINE
  5
1B4
100
AcDbEntity
  8
0
  6
CONTINUOUS
 62
               7
100
AcDbLine
 10
13.829999999999927
 20
50.354749963984091
 30
0.0
 11
13.829999999999927
 21
0.0
 31
0.0
  0
LINE
  5
1B5
100
AcDbEntity
  8
0
  6
CONTINUOUS
 62
               7
100
AcDbLine
 10
19.0
 20
51.500000000000114
 30
0.0
 11
19.0
 21
0.0
 31
0.0
  0
LINE
  5
1B6
100
AcDbEntity
  8
0
  6
CONTINUOUS
 62
               7
100
AcDbLine
 10
-26.100019073486351
 20
44.999999999999886
 30
0.0
 11
-26.100019073486351
 21
32.0
 31
0.0
  0
LINE
  5
1B7
100
AcDbEntity
  8
0
  6
CONTINUOUS
 62
               2
100
AcDbLine
 10
-19.85021145754331
 20
38.5
 30
0.0
 11
-28.73692924100942
 21
38.5
 31
0.0
  0
LINE
  5
1B8
100
AcDbEntity
  8
0
  6
CONTINUOUS
 62
               7
100
AcDbLine
 10
-25.100019073486351
 20
30.5
 30
0.0
 11
-25.100019073486351
 21
46.500000000000114
 31
0.0
  0
ARC
  5
1B9
100
AcDbEntity
  8
0
  6
CONTINUOUS
 62
               7
100
AcDbCircle
 10
-25.100019073486351
 20
44.999999999999886
 30
0.0
 40
1.0
100
AcDbArc
 50
90.0
 51
180.0
  0
ARC
  5
1BA
100
AcDbEntity
  8
0
  6
CONTINUOUS
 62
               7
100
AcDbCircle
 10
-21.600019073486351
 20
30.5
 30
0.0
 40
3.4999999999999996
100
AcDbArc
 50
180.0
 51
270.0
  0
ARC
  5
1BB
100
AcDbEntity
  8
0
  6
CONTINUOUS
 62
               7
100
AcDbCircle
 10
-25.100019073486351
 20
32.0
 30
0.0
 40
1.0
100
AcDbArc
 50
180.0
 51
270.0
  0
ARC
  5
1BC
100
AcDbEntity
  8
0
  6
CONTINUOUS
 62
               7
100
AcDbCircle
 10
-21.600019073486351
 20
46.500000000000114
 30
0.0
 40
3.4999999999999996
100
AcDbArc
 50
90.0
 51
180.0
  0
LINE
  5
1BD
100
AcDbEntity
  8
0
  6
CONTINUOUS
 62
               7
100
AcDbLine
 10
-21.599999999999994
 20
51.500000000000114
 30
0.0
 11
-21.599999999999994
 21
0.0
 31
0.0
  0
LINE
  5
1BE
100
AcDbEntity
  8
0
  6
CONTINUOUS
 62
               7
100
AcDbLine
 10
116.99999999999994
 20
-0.9999999999998863
 30
0.0
 11
-108.6752931435955
 21
-0.9999999999998863
 31
0.0
  0
ARC
  5
1BF
100
AcDbEntity
  8
0
  6
CONTINUOUS
 62
               7
100
AcDbCircle
 10
175.50006103515665
 20
5.1000000000002501
 30
0.0
 40
1.0
100
AcDbArc
 50
90.0
 51
180.0
  0
ARC
  5
1C0
100
AcDbEntity
  8
0
  6
CONTINUOUS
 62
               7
100
AcDbCircle
 10
188.50006103515659
 20
5.1000000000002501
 30
0.0
 40
1.0
100
AcDbArc
 50
0.0
 51
90.0
  0
LINE
  5
1C1
100
AcDbEntity
  8
0
  6
CONTINUOUS
 62
               7
100
AcDbLine
 10
174.00006103515665
 20
5.1000000000002501
 30
0.0
 11
190.00006103515665
 21
5.1000000000002501
 31
0.0
  0
LINE
  5
1C2
100
AcDbEntity
  8
0
  6
CONTINUOUS
 62
               7
100
AcDbLine
 10
188.50006103515659
 20
6.1000000000001364
 30
0.0
 11
175.50006103515665
 21
6.1000000000001364
 31
0.0
  0
ARC
  5
1C3
100
AcDbEntity
  8
0
  6
CONTINUOUS
 62
               7
100
AcDbCircle
 10
174.00006103515665
 20
1.6000000000001364
 30
0.0
 40
3.4999999999999996
100
AcDbArc
 50
90.0
 51
180.0
  0
ARC
  5
1C4
100
AcDbEntity
  8
0
  6
CONTINUOUS
 62
               7
100
AcDbCircle
 10
190.00006103515665
 20
1.6000000000001364
 30
0.0
 40
3.4999999999999996
100
AcDbArc
 50
0.0
 51
90.0
  0
LINE
  5
1C5
100
AcDbEntity
  8
0
  6
CONTINUOUS
 62
               2
100
AcDbLine
 10
182.00006103515665
 20
-0.1498076159429047
 30
0.0
 11
182.00006103515665
 21
8.7369101675232059
 31
0.0
  0
CIRCLE
  5
1C6
100
AcDbEntity
  8
0
  6
CONTINUOUS
 62
               7
100
AcDbCircle
 10
-95.0
 20
-200.00001525878895
 30
0.0
 40
5.0
  0
CIRCLE
  5
1C7
100
AcDbEntity
  8
0
  6
CONTINUOUS
 62
               7
100
AcDbCircle
 10
-75.0
 20
-200.00001525878895
 30
0.0
 40
5.0
  0
CIRCLE
  5
1C8
100
AcDbEntity
  8
0
  6
CONTINUOUS
 62
               7
100
AcDbCircle
 10
-95.0
 20
-220.00001525878895
 30
0.0
 40
5.0
  0
CIRCLE
  5
1C9
100
AcDbEntity
  8
0
  6
CONTINUOUS
 62
               7
100
AcDbCircle
 10
-75.0
 20
-220.00001525878895
 30
0.0
 40
5.0
  0
CIRCLE
  5
1CA
100
AcDbEntity
  8
0
  6
CONTINUOUS
 62
               7
100
AcDbCircle
 10
75.000000000000057
 20
-220.00001525878895
 30
0.0
 40
5.0
  0
CIRCLE
  5
1CB
100
AcDbEntity
  8
0
  6
CONTINUOUS
 62
               7
100
AcDbCircle
 10
75.000000000000057
 20
-200.00001525878895
 30
0.0
 40
5.0
  0
CIRCLE
  5
1CC
100
AcDbEntity
  8
0
  6
CONTINUOUS
 62
               7
100
AcDbCircle
 10
95.000000000000057
 20
-200.00001525878895
 30
0.0
 40
5.0
  0
CIRCLE
  5
1CD
100
AcDbEntity
  8
0
  6
CONTINUOUS
 62
               7
100
AcDbCircle
 10
95.000000000000057
 20
-220.00001525878895
 30
0.0
 40
5.0
  0
LINE
  5
1CE
100
AcDbEntity
  8
0
  6
CONTINUOUS
 62
               7
100
AcDbLine
 10
105.00000000000006
 20
0.0
 30
0.0
 11
105.00000000000006
 21
-0.9999999999998863
 31
0.0
  0
LINE
  5
1CF
100
AcDbEntity
  8
0
  6
CONTINUOUS
 62
               7
100
AcDbLine
 10
118.4156768094611
 20
2.3499908447269036
 30
0.0
 11
117.50006103515693
 21
2.3499908447269036
 31
0.0
  0
LINE
  5
1D0
100
AcDbEntity
  8
0
  6
CONTINUOUS
 62
               7
100
AcDbLine
 10
107.00006103515676
 20
-1.000009536742823
 30
0.0
 11
107.00006103515676
 21
2.999990463257177
 31
0.0
  0
LINE
  5
1D1
100
AcDbEntity
  8
0
  6
CONTINUOUS
 62
               7
100
AcDbLine
 10
113.42442647690274
 20
3.8499904647698031
 30
0.0
 11
113.35006111262061
 21
2.9999904590277993
 31
0.0
  0
LINE
  5
1D2
100
AcDbEntity
  8
0
  6
CONTINUOUS
 62
               7
100
AcDbLine
 10
117.57569559341067
 20
3.8499904647695757
 30
0.0
 11
117.65006095769292
 21
2.9999904590277993
 31
0.0
  0
LINE
  5
1D3
100
AcDbEntity
  8
0
  6
CONTINUOUS
 62
               7
100
AcDbLine
 10
117.57569575309822
 20
3.8499904870990349
 30
0.0
 11
113.42442631721553
 21
3.8499904870988075
 31
0.0
  0
ARC
  5
1D4
100
AcDbEntity
  8
0
  6
CONTINUOUS
 62
               7
100
AcDbCircle
 10
122.00006103515676
 20
-4.0000095367429367
 30
0.0
 40
6.3499999999999996
100
AcDbArc
 50
61.871354031370068
 51
84.698116314597883
  0
LINE
  5
1D5
100
AcDbEntity
  8
0
  6
CONTINUOUS
 62
               7
100
AcDbLine
 10
117.50006103515693
 20
2.999990463257177
 30
0.0
 11
117.50006103515693
 21
1.6000000000001364
 31
0.0
  0
LINE
  5
1D6
100
AcDbEntity
  8
0
  6
CONTINUOUS
 62
               7
100
AcDbLine
 10
107.00006103515676
 20
2.999990463257177
 30
0.0
 11
117.65006095769292
 21
2.999990463257177
 31
0.0
  0
ARC
  5
1D7
100
AcDbEntity
  8
0
  6
CONTINUOUS
 62
               7
100
AcDbCircle
 10
115.50006103515699
 20
-2.1296653747555183
 30
0.0
 40
6.3296561241149902
100
AcDbArc
 50
70.857292686105737
 51
109.14270913512912
  0
LINE
  5
1D8
100
AcDbEntity
  8
0
  6
CONTINUOUS
 62
               7
100
AcDbLine
 10
122.57569559341067
 20
2.4500000015126489
 30
0.0
 11
122.65006095769286
 21
1.5999999957708724
 31
0.0
  0
LINE
  5
1D9
100
AcDbEntity
  8
0
  6
CONTINUOUS
 62
               7
100
AcDbLine
 10
118.42442647690308
 20
2.4500000015128762
 30
0.0
 11
118.35006111262084
 21
1.5999999957710997
 31
0.0
  0
LINE
  5
1DA
100
AcDbEntity
  8
0
  6
CONTINUOUS
 62
               7
100
AcDbLine
 10
118.42442631721553
 20
2.450000023842108
 30
0.0
 11
122.57569575309816
 21
2.450000023842108
 31
0.0
  0
ARC
  5
1DB
100
AcDbEntity
  8
0
  6
CONTINUOUS
 62
               7
100
AcDbCircle
 10
120.50006103515653
 20
-3.5296558380122178
 30
0.0
 40
6.3296561241149902
100
AcDbArc
 50
70.857290864869654
 51
109.14270731389304
  0
LINE
  5
1DC
100
AcDbEntity
  8
0
  6
CONTINUOUS
 62
               7
100
AcDbLine
 10
195.00006103515665
 20
-38.999999999999886
 30
0.0
 11
195.00006103515665
 21
1.6000000000001364
 31
0.0
  0
ARC
  5
1DD
100
AcDbEntity
  8
0
  6
CONTINUOUS
 62
               7
100
AcDbCircle
 10
120.50000000000006
 20
-33.870346069335824
 30
0.0
 40
6.3296561241149902
100
AcDbArc
 50
250.85729006794102
 51
289.14270651696438
  0
CIRCLE
  5
1DE
100
AcDbEntity
  8
0
  6
CONTINUOUS
 62
               7
100
AcDbCircle
 10
16.5
 20
-272.3000030517577
 30
0.0
 40
2.75
  0
CIRCLE
  5
1DF
100
AcDbEntity
  8
0
  6
CONTINUOUS
 62
               7
100
AcDbCircle
 10
-16.5
 20
-272.3000030517577
 30
0.0
 40
2.75
  0
CIRCLE
  5
1E0
100
AcDbEntity
  8
0
  6
CONTINUOUS
 62
               7
100
AcDbCircle
 10
-16.5
 20
-246.3000030517577
 30
0.0
 40
2.75
  0
CIRCLE
  5
1E1
100
AcDbEntity
  8
0
  6
CONTINUOUS
 62
               7
100
AcDbCircle
 10
16.5
 20
-246.3000030517577
 30
0.0
 40
2.75
  0
ARC
  5
1E2
100
AcDbEntity
  8
0
  6
CONTINUOUS
 62
               7
100
AcDbCircle
 10
-108.67529296874994
 20
-36.999999999999886
 30
0.0
 40
2.0
100
AcDbArc
 50
202.13136085930475
 51
270.0
  0
ARC
  5
1E3
100
AcDbEntity
  8
0
  6
CONTINUOUS
 62
               7
100
AcDbCircle
 10
-108.67529296874994
 20
-2.9999999999998863
 30
0.0
 40
2.0
100
AcDbArc
 50
90.000005008956336
 51
157.86863048927324
  0
ARC
  5
1E4
100
AcDbEntity
  8
0
  6
CONTINUOUS
 62
               7
100
AcDbCircle
 10
-104.95202636718744
 20
-2.9999999999998863
 30
0.0
 40
2.0
100
AcDbArc
 50
90.000005008956336
 51
170.84680953499787
  0
ARC
  5
1E5
100
AcDbEntity
  8
0
  6
CONTINUOUS
 62
               7
100
AcDbCircle
 10
-104.95202636718744
 20
-36.999999999999886
 30
0.0
 40
2.0
100
AcDbArc
 50
189.15318181358012
 51
270.0
  0
ARC
  5
1E6
100
AcDbEntity
  8
0
  6
CONTINUOUS
 62
               7
100
AcDbCircle
 10
-66.875
 20
-20.0
 30
0.0
 40
47.125
100
AcDbArc
 50
157.86864096192809
 51
202.13136085930475
  0
ARC
  5
1E7
100
AcDbEntity
  8
0
  6
CONTINUOUS
 62
               7
100
AcDbCircle
 10
0.5552978515625
 20
-20.0
 30
0.0
 40
108.86813354492189
100
AcDbArc
 50
170.84681317746356
 51
189.15318181358012
  0
CIRCLE
  5
1E8
100
AcDbEntity
  8
0
  6
CONTINUOUS
 62
               7
100
AcDbCircle
 10
62.0
 20
-3.4999999999998863
 30
0.0
 40
1.25
  0
CIRCLE
  5
1E9
100
AcDbEntity
  8
0
  6
CONTINUOUS
 62
               2
100
AcDbCircle
 10
62.0
 20
-3.4999999999998863
 30
0.0
 40
1.5
  0
CIRCLE
  5
1EA
100
AcDbEntity
  8
0
  6
CONTINUOUS
 62
               7
100
AcDbCircle
 10
88.000000000000057
 20
-3.4999999999998863
 30
0.0
 40
1.25
  0
CIRCLE
  5
1EB
100
AcDbEntity
  8
0
  6
CONTINUOUS
 62
               2
100
AcDbCircle
 10
88.000000000000057
 20
-3.4999999999998863
 30
0.0
 40
1.5
  0
CIRCLE
  5
1EC
100
AcDbEntity
  8
0
  6
CONTINUOUS
 62
               7
100
AcDbCircle
 10
88.000000000000057
 20
-36.499999999999886
 30
0.0
 40
1.25
  0
CIRCLE
  5
1ED
100
AcDbEntity
  8
0
  6
CONTINUOUS
 62
               2
100
AcDbCircle
 10
88.000000000000057
 20
-36.499999999999886
 30
0.0
 40
1.5
  0
CIRCLE
  5
1EE
100
AcDbEntity
  8
0
  6
CONTINUOUS
 62
               7
100
AcDbCircle
 10
62.0
 20
-36.499999999999886
 30
0.0
 40
1.25
  0
CIRCLE
  5
1EF
100
AcDbEntity
  8
0
  6
CONTINUOUS
 62
               2
100
AcDbCircle
 10
62.0
 20
-36.499999999999886
 30
0.0
 40
1.5
  0
ARC
  5
1F0
100
AcDbEntity
  8
0
  6
CONTINUOUS
 62
               7
100
AcDbCircle
 10
65.500000000000057
 20
-9.4999999999998863
 30
0.0
 40
3.25
100
AcDbArc
 50
63.164683533596474
 51
116.8353264843162
  0
ARC
  5
1F1
100
AcDbEntity
  8
0
  6
CONTINUOUS
 62
               7
100
AcDbCircle
 10
84.5
 20
-9.4999999999998863
 30
0.0
 40
3.25
100
AcDbArc
 50
63.164683533596474
 51
116.8353264843162
  0
ARC
  5
1F2
100
AcDbEntity
  8
0
  6
CONTINUOUS
 62
               7
100
AcDbCircle
 10
65.500000000000057
 20
-30.499999999999886
 30
0.0
 40
3.25
100
AcDbArc
 50
243.16467852464015
 51
296.83532147535988
  0
ARC
  5
1F3
100
AcDbEntity
  8
0
  6
CONTINUOUS
 62
               7
100
AcDbCircle
 10
84.5
 20
-30.499999999999886
 30
0.0
 40
3.25
100
AcDbArc
 50
243.16467852464015
 51
296.83532147535988
  0
ARC
  5
1F4
100
AcDbEntity
  8
0
  6
CONTINUOUS
 62
               7
100
AcDbCircle
 10
-16.5
 20
-281.8000030517577
 30
0.0
 40
3.0
100
AcDbArc
 50
179.99999749552182
 51
0.0000025044781673
  0
ARC
  5
1F5
100
AcDbEntity
  8
0
  6
CONTINUOUS
 62
               7
100
AcDbCircle
 10
16.5
 20
-281.8000030517577
 30
0.0
 40
3.0
100
AcDbArc
 50
179.99999749552182
 51
0.0000025044781673
  0
CIRCLE
  5
1F6
100
AcDbEntity
  8
0
  6
CONTINUOUS
 62
               7
100
AcDbCircle
 10
16.5
 20
-246.3000030517577
 30
0.0
 40
3.25
  0
CIRCLE
  5
1F7
100
AcDbEntity
  8
0
  6
CONTINUOUS
 62
               7
100
AcDbCircle
 10
16.5
 20
-272.3000030517577
 30
0.0
 40
3.25
  0
CIRCLE
  5
1F8
100
AcDbEntity
  8
0
  6
CONTINUOUS
 62
               7
100
AcDbCircle
 10
-16.5
 20
-272.3000030517577
 30
0.0
 40
3.25
  0
CIRCLE
  5
1F9
100
AcDbEntity
  8
0
  6
CONTINUOUS
 62
               2
100
AcDbCircle
 10
22.0
 20
-277.3000030517577
 30
0.0
 40
1.5
  0
CIRCLE
  5
1FA
100
AcDbEntity
  8
0
  6
CONTINUOUS
 62
               7
100
AcDbCircle
 10
22.0
 20
-277.3000030517577
 30
0.0
 40
1.25
  0
CIRCLE
  5
1FB
100
AcDbEntity
  8
0
  6
CONTINUOUS
 62
               7
100
AcDbCircle
 10
-21.999999999999943
 20
-277.3000030517577
 30
0.0
 40
1.25
  0
CIRCLE
  5
1FC
100
AcDbEntity
  8
0
  6
CONTINUOUS
 62
               2
100
AcDbCircle
 10
-21.999999999999943
 20
-277.3000030517577
 30
0.0
 40
1.5
  0
CIRCLE
  5
1FD
100
AcDbEntity
  8
0
  6
CONTINUOUS
 62
               2
100
AcDbCircle
 10
-21.999999999999943
 20
-241.3000030517577
 30
0.0
 40
1.5
  0
CIRCLE
  5
1FE
100
AcDbEntity
  8
0
  6
CONTINUOUS
 62
               7
100
AcDbCircle
 10
-21.999999999999943
 20
-241.3000030517577
 30
0.0
 40
1.25
  0
ARC
  5
1FF
100
AcDbEntity
  8
0
  6
CONTINUOUS
 62
               7
100
AcDbCircle
 10
-21.999999999999943
 20
-241.3000030517577
 30
0.0
 40
3.0
100
AcDbArc
 50
89.999994991043664
 51
179.99999749552182
  0
ARC
  5
200
100
AcDbEntity
  8
0
  6
CONTINUOUS
 62
               7
100
AcDbCircle
 10
-21.999999999999943
 20
-277.3000030517577
 30
0.0
 40
3.0
100
AcDbArc
 50
179.99999749552182
 51
270.0
  0
ARC
  5
201
100
AcDbEntity
  8
0
  6
CONTINUOUS
 62
               7
100
AcDbCircle
 10
22.0
 20
-277.3000030517577
 30
0.0
 40
3.0
100
AcDbArc
 50
270.0
 51
0.0000025044781673
  0
ARC
  5
202
100
AcDbEntity
  8
0
  6
CONTINUOUS
 62
               7
100
AcDbCircle
 10
22.0
 20
-241.3000030517577
 30
0.0
 40
3.0
100
AcDbArc
 50
0.0000025044781673
 51
90.000005008956336
  0
CIRCLE
  5
203
100
AcDbEntity
  8
0
  6
CONTINUOUS
 62
               7
100
AcDbCircle
 10
22.0
 20
-241.3000030517577
 30
0.0
 40
1.25
  0
CIRCLE
  5
204
100
AcDbEntity
  8
0
  6
CONTINUOUS
 62
               2
100
AcDbCircle
 10
22.0
 20
-241.3000030517577
 30
0.0
 40
1.5
  0
CIRCLE
  5
205
100
AcDbEntity
  8
0
  6
CONTINUOUS
 62
               7
100
AcDbCircle
 10
-16.5
 20
-246.3000030517577
 30
0.0
 40
3.25
  0
ARC
  5
206
100
AcDbEntity
  8
0
  6
CONTINUOUS
 62
               7
100
AcDbCircle
 10
0.0
 20
-168.86357116699207
 30
0.0
 40
135.72679138183594
100
AcDbArc
 50
255.0562291149291
 51
284.94377088507088
  0
ARC
  5
207
100
AcDbEntity
  8
0
  6
CONTINUOUS
 62
               7
100
AcDbCircle
 10
104.00000000000006
 20
-301.79203796386707
 30
0.0
 40
1.0
100
AcDbArc
 50
271.98128483929463
 51
0.0000025044781673
  0
ARC
  5
208
100
AcDbEntity
  8
0
  6
CONTINUOUS
 62
               7
100
AcDbCircle
 10
-103.99999999999994
 20
-301.79203796386707
 30
0.0
 40
1.0
100
AcDbArc
 50
179.99999749552182
 51
268.01871516070537
  0
ARC
  5
209
100
AcDbEntity
  8
0
  6
CONTINUOUS
 62
               7
100
AcDbCircle
 10
0.0
 20
2704.5327606201172
 30
0.0
 40
3009.123046875
100
AcDbArc
 50
268.01871516070537
 51
271.98128483929463
  0
ARC
  5
20A
100
AcDbEntity
  8
0
  6
CONTINUOUS
 62
               7
100
AcDbCircle
 10
104.00000000000006
 20
-302.8000030517577
 30
0.0
 40
1.0
100
AcDbArc
 50
270.0
 51
0.0000025044781673
  0
ARC
  5
20B
100
AcDbEntity
  8
0
  6
CONTINUOUS
 62
               7
100
AcDbCircle
 10
104.00000000000006
 20
-302.89637756347645
 30
0.0
 40
1.0
100
AcDbArc
 50
276.49788211075821
 51
0.0000025044781673
  0
ARC
  5
20C
100
AcDbEntity
  8
0
  6
CONTINUOUS
 62
               7
100
AcDbCircle
 10
-103.99999999999994
 20
-302.89637756347645
 30
0.0
 40
1.0
100
AcDbArc
 50
179.99999749552182
 51
263.50211788924179
  0
ARC
  5
20D
100
AcDbEntity
  8
0
  6
CONTINUOUS
 62
               7
100
AcDbCircle
 10
0.0
 20
610.1999969482423
 30
0.0
 40
920.0
100
AcDbArc
 50
263.50211788924179
 51
276.49788211075821
  0
LINE
  5
20E
100
AcDbEntity
  8
0
  6
CONTINUOUS
 62
               7
100
AcDbLine
 10
122.57562255859381
 20
-39.850006103515511
 30
0.0
 11
118.42437744140631
 21
-39.850006103515511
 31
0.0
  0
LINE
  5
20F
100
AcDbEntity
  8
0
  6
CONTINUOUS
 62
               7
100
AcDbLine
 10
122.57566737549593
 20
-39.85000828472937
 30
0.0
 11
122.6500335570293
 21
-38.999998937764644
 31
0.0
  0
LINE
  5
210
100
AcDbEntity
  8
0
  6
CONTINUOUS
 62
               7
100
AcDbLine
 10
118.42436226736351
 20
-39.850021107546013
 30
0.0
 11
118.34999475593901
 21
-38.999996559856186
 31
0.0
  0
LINE
  5
211
100
AcDbEntity
  8
0
  6
CONTINUOUS
 62
               7
100
AcDbLine
 10
15.056601338335952
 20
-272.30000687868221
 30
0.0
 11
15.778281455990538
 21
-273.54999248369484
 31
0.0
  0
LINE
  5
212
100
AcDbEntity
  8
0
  6
CONTINUOUS
 62
               7
100
AcDbLine
 10
15.7783326496847
 20
-271.05001672841161
 30
0.0
 11
15.056654037571207
 21
-272.30000327976438
 31
0.0
  0
LINE
  5
213
100
AcDbEntity
  8
0
  6
CONTINUOUS
 62
               7
100
AcDbLine
 10
17.221708262316042
 20
-271.0500082937823
 30
0.0
 11
15.778287852159821
 21
-271.05000924748754
 31
0.0
  0
LINE
  5
214
100
AcDbEntity
  8
0
  6
CONTINUOUS
 62
               7
100
AcDbLine
 10
17.943396059206918
 20
-272.30001088183769
 30
0.0
 11
17.22171641472238
 21
-271.05002493270138
 31
0.0
  0
LINE
  5
215
100
AcDbEntity
  8
0
  6
CONTINUOUS
 62
               7
100
AcDbLine
 10
17.221715709013097
 20
-273.55001261320638
 30
0.0
 11
17.943401176223233
 21
-272.30001241718844
 31
0.0
  0
LINE
  5
216
100
AcDbEntity
  8
0
  6
CONTINUOUS
 62
               7
100
AcDbLine
 10
17.2216796875
 20
-273.5500030517577
 30
0.0
 11
15.778320312500057
 21
-273.5500030517577
 31
0.0
  0
LINE
  5
217
100
AcDbEntity
  8
0
  6
CONTINUOUS
 62
               7
100
AcDbLine
 10
-17.943361705023563
 20
-272.2999976336431
 30
0.0
 11
-17.221681587368948
 21
-273.54998323865573
 31
0.0
  0
LINE
  5
218
100
AcDbEntity
  8
0
  6
CONTINUOUS
 62
               7
100
AcDbLine
 10
-17.221669519810291
 20
-271.05000965515671
 30
0.0
 11
-17.943355761306918
 21
-272.30000942101549
 31
0.0
  0
LINE
  5
219
100
AcDbEntity
  8
0
  6
CONTINUOUS
 62
               7
100
AcDbLine
 10
-15.778291737683958
 20
-271.0500300977352
 30
0.0
 11
-17.221712147840208
 21
-271.05003105144044
 31
0.0
  0
LINE
  5
21A
100
AcDbEntity
  8
0
  6
CONTINUOUS
 62
               7
100
AcDbLine
 10
-15.056621246745607
 20
-272.3000188516088
 30
0.0
 11
-15.778300891230145
 21
-271.05003290247248
 31
0.0
  0
LINE
  5
21B
100
AcDbEntity
  8
0
  6
CONTINUOUS
 62
               7
100
AcDbLine
 10
-15.778278496996762
 20
-273.55001257370884
 30
0.0
 11
-15.056600659161631
 21
-272.30002559220145
 31
0.0
  0
LINE
  5
21C
100
AcDbEntity
  8
0
  6
CONTINUOUS
 62
               7
100
AcDbLine
 10
-15.7783203125
 20
-273.5500030517577
 30
0.0
 11
-17.221679687499972
 21
-273.5500030517577
 31
0.0
  0
LINE
  5
21D
100
AcDbEntity
  8
0
  6
CONTINUOUS
 62
               7
100
AcDbLine
 10
-17.943371991790627
 20
-246.29999631761154
 30
0.0
 11
-17.221691874136013
 21
-247.54998192262417
 31
0.0
  0
LINE
  5
21E
100
AcDbEntity
  8
0
  6
CONTINUOUS
 62
               7
100
AcDbLine
 10
-17.221638385192819
 20
-245.05003765364006
 30
0.0
 11
-17.943316997306283
 21
-246.30002420499284
 31
0.0
  0
LINE
  5
21F
100
AcDbEntity
  8
0
  6
CONTINUOUS
 62
               7
100
AcDbLine
 10
-15.778308916555943
 20
-245.0500300977352
 30
0.0
 11
-17.221668291555886
 21
-245.05003105140008
 31
0.0
  0
LINE
  5
220
100
AcDbEntity
  8
0
  6
CONTINUOUS
 62
               7
100
AcDbLine
 10
-15.056621052533956
 20
-246.30001642891864
 30
0.0
 11
-15.778300697018494
 21
-245.05003047978232
 31
0.0
  0
LINE
  5
221
100
AcDbEntity
  8
0
  6
CONTINUOUS
 62
               7
100
AcDbLine
 10
-15.778308544209267
 20
-247.54999710340405
 30
0.0
 11
-15.056623076999102
 21
-246.29999690738612
 31
0.0
  0
LINE
  5
222
100
AcDbEntity
  8
0
  6
CONTINUOUS
 62
               7
100
AcDbLine
 10
-15.7783203125
 20
-247.5500030517577
 30
0.0
 11
-17.221679687499972
 21
-247.5500030517577
 31
0.0
  0
LINE
  5
223
100
AcDbEntity
  8
0
  6
CONTINUOUS
 62
               7
100
AcDbLine
 10
15.056591051568887
 20
-246.30000556265065
 30
0.0
 11
15.778271169223473
 21
-247.54999116766328
 31
0.0
  0
LINE
  5
224
100
AcDbEntity
  8
0
  6
CONTINUOUS
 62
               7
100
AcDbLine
 10
15.7783185556614
 20
-245.0500009948563
 30
0.0
 11
15.056632314164744
 21
-246.30000076071508
 31
0.0
  0
LINE
  5
225
100
AcDbEntity
  8
0
  6
CONTINUOUS
 62
               7
100
AcDbLine
 10
17.221691083444114
 20
-245.0500082937823
 30
0.0
 11
15.778331708444085
 21
-245.05000924744718
 31
0.0
  0
LINE
  5
226
100
AcDbEntity
  8
0
  6
CONTINUOUS
 62
               7
100
AcDbLine
 10
17.943396253418541
 20
-246.30000845914753
 30
0.0
 11
17.221716608934003
 21
-245.05002251001122
 31
0.0
  0
LINE
  5
227
100
AcDbEntity
  8
0
  6
CONTINUOUS
 62
               7
100
AcDbLine
 10
17.221685661800677
 20
-247.54999714290159
 30
0.0
 11
17.943371129010757
 21
-246.29999694688365
 31
0.0
  0
LINE
  5
228
100
AcDbEntity
  8
0
  6
CONTINUOUS
 62
               7
100
AcDbLine
 10
17.2216796875
 20
-247.5500030517577
 30
0.0
 11
15.778320312500057
 21
-247.5500030517577
 31
0.0
  0
LINE
  5
229
100
AcDbEntity
  8
0
  6
CONTINUOUS
 62
               7
100
AcDbLine
 10
-113.22711181640614
 20
-28.499999999999886
 30
0.0
 11
-113.43395996093739
 21
-28.499999999999886
 31
0.0
  0
LINE
  5
22A
100
AcDbEntity
  8
0
  6
CONTINUOUS
 62
               7
100
AcDbLine
 10
-113.22711181640614
 20
-11.499999999999886
 30
0.0
 11
-113.43395996093739
 21
-11.499999999999886
 31
0.0
  0
LINE
  5
22B
100
AcDbEntity
  8
0
  6
CONTINUOUS
 62
               7
100
AcDbLine
 10
96.000000000000057
 20
-6.6000061035155113
 30
0.0
 11
96.000000000000057
 21
-0.9999999999998863
 31
0.0
  0
LINE
  5
22C
100
AcDbEntity
  8
0
  6
CONTINUOUS
 62
               7
100
AcDbLine
 10
-101.99999999999991
 20
-38.999999999999886
 30
0.0
 11
-101.99999999999991
 21
-0.9999999999998863
 31
0.0
  0
LINE
  5
22D
100
AcDbEntity
  8
0
  6
CONTINUOUS
 62
               7
100
AcDbLine
 10
96.000000000000057
 20
-5.9999999999998863
 30
0.0
 11
54.0
 21
-5.9999999999998863
 31
0.0
  0
LINE
  5
22E
100
AcDbEntity
  8
0
  6
CONTINUOUS
 62
               7
100
AcDbLine
 10
116.99999999999994
 20
-31.199996948242074
 30
0.0
 11
-101.99999999999991
 21
-31.199996948242074
 31
0.0
  0
LINE
  5
22F
100
AcDbEntity
  8
0
  6
CONTINUOUS
 62
               7
100
AcDbLine
 10
54.0
 20
-6.6000061035155113
 30
0.0
 11
54.0
 21
-0.9999999999998863
 31
0.0
  0
LINE
  5
230
100
AcDbEntity
  8
0
  6
CONTINUOUS
 62
               7
100
AcDbLine
 10
116.99999999999994
 20
-8.8000030517576988
 30
0.0
 11
-101.99999999999991
 21
-8.8000030517576988
 31
0.0
  0
LINE
  5
231
100
AcDbEntity
  8
0
  6
CONTINUOUS
 62
               7
100
AcDbLine
 10
116.99999999999994
 20
-6.6000061035155113
 30
0.0
 11
-101.99999999999991
 21
-6.6000061035155113
 31
0.0
  0
LINE
  5
232
100
AcDbEntity
  8
0
  6
CONTINUOUS
 62
               2
100
AcDbLine
 10
62.0
 20
-5.9999999999998863
 30
0.0
 11
62.0
 21
-0.9999999999998863
 31
0.0
  0
LINE
  5
233
100
AcDbEntity
  8
0
  6
CONTINUOUS
 62
               2
100
AcDbLine
 10
59.5
 20
-3.4999999999998863
 30
0.0
 11
64.5
 21
-3.4999999999998863
 31
0.0
  0
LINE
  5
234
100
AcDbEntity
  8
0
  6
CONTINUOUS
 62
               2
100
AcDbLine
 10
88.000000000000057
 20
-5.9999999999998863
 30
0.0
 11
88.000000000000057
 21
-0.9999999999998863
 31
0.0
  0
LINE
  5
235
100
AcDbEntity
  8
0
  6
CONTINUOUS
 62
               2
100
AcDbLine
 10
85.500000000000057
 20
-3.4999999999998863
 30
0.0
 11
90.500000000000057
 21
-3.4999999999998863
 31
0.0
  0
LINE
  5
236
100
AcDbEntity
  8
0
  6
CONTINUOUS
 62
               2
100
AcDbLine
 10
88.000000000000057
 20
-38.999999999999886
 30
0.0
 11
88.000000000000057
 21
-33.999999999999886
 31
0.0
  0
LINE
  5
237
100
AcDbEntity
  8
0
  6
CONTINUOUS
 62
               2
100
AcDbLine
 10
85.500000000000057
 20
-36.499999999999886
 30
0.0
 11
90.500000000000057
 21
-36.499999999999886
 31
0.0
  0
LINE
  5
238
100
AcDbEntity
  8
0
  6
CONTINUOUS
 62
               2
100
AcDbLine
 10
62.0
 20
-38.999999999999886
 30
0.0
 11
62.0
 21
-33.999999999999886
 31
0.0
  0
LINE
  5
239
100
AcDbEntity
  8
0
  6
CONTINUOUS
 62
               2
100
AcDbLine
 10
59.5
 20
-36.499999999999886
 30
0.0
 11
64.5
 21
-36.499999999999886
 31
0.0
  0
LINE
  5
23A
100
AcDbEntity
  8
0
  6
CONTINUOUS
 62
               7
100
AcDbLine
 10
116.99999999999994
 20
-33.399993896484261
 30
0.0
 11
-101.99999999999991
 21
-33.399993896484261
 31
0.0
  0
LINE
  5
23B
100
AcDbEntity
  8
0
  6
CONTINUOUS
 62
               7
100
AcDbLine
 10
54.0
 20
-38.999999999999886
 30
0.0
 11
54.0
 21
-33.399993896484261
 31
0.0
  0
LINE
  5
23C
100
AcDbEntity
  8
0
  6
CONTINUOUS
 62
               7
100
AcDbLine
 10
96.000000000000057
 20
-38.999999999999886
 30
0.0
 11
96.000000000000057
 21
-33.399993896484261
 31
0.0
  0
LINE
  5
23D
100
AcDbEntity
  8
0
  6
CONTINUOUS
 62
               7
100
AcDbLine
 10
116.99999999999994
 20
-38.999999999999886
 30
0.0
 11
116.99999999999994
 21
1.6000000000001364
 31
0.0
  0
LINE
  5
23E
100
AcDbEntity
  8
0
  6
CONTINUOUS
 62
               7
100
AcDbLine
 10
96.000000000000057
 20
-33.999999999999886
 30
0.0
 11
54.0
 21
-33.999999999999886
 31
0.0
  0
LINE
  5
23F
100
AcDbEntity
  8
0
  6
CONTINUOUS
 62
               7
100
AcDbLine
 10
25.0
 20
-39.999999999999886
 30
0.0
 11
25.0
 21
-300.00001525878895
 31
0.0
  0
LINE
  5
240
100
AcDbEntity
  8
0
  6
CONTINUOUS
 62
               7
100
AcDbLine
 10
-24.999999999999972
 20
-39.999999999999886
 30
0.0
 11
-24.999999999999972
 21
-300.00001525878895
 31
0.0
  0
LINE
  5
241
100
AcDbEntity
  8
0
  6
CONTINUOUS
 62
               7
100
AcDbLine
 10
19.5
 20
-280.3000030517577
 30
0.0
 11
19.5
 21
-281.8000030517577
 31
0.0
  0
LINE
  5
242
100
AcDbEntity
  8
0
  6
CONTINUOUS
 62
               7
100
AcDbLine
 10
13.500000000000028
 20
-280.3000030517577
 30
0.0
 11
13.500000000000028
 21
-281.8000030517577
 31
0.0
  0
LINE
  5
243
100
AcDbEntity
  8
0
  6
CONTINUOUS
 62
               7
100
AcDbLine
 10
-19.499999999999943
 20
-280.3000030517577
 30
0.0
 11
-19.499999999999943
 21
-281.8000030517577
 31
0.0
  0
LINE
  5
244
100
AcDbEntity
  8
0
  6
CONTINUOUS
 62
               7
100
AcDbLine
 10
-13.499999999999972
 20
-280.3000030517577
 30
0.0
 11
-13.499999999999972
 21
-281.8000030517577
 31
0.0
  0
LINE
  5
245
100
AcDbEntity
  8
0
  6
CONTINUOUS
 62
               7
100
AcDbLine
 10
-13.499999999999972
 20
-39.999999999999886
 30
0.0
 11
-13.499999999999972
 21
-238.3000030517577
 31
0.0
  0
LINE
  5
246
100
AcDbEntity
  8
0
  6
CONTINUOUS
 62
               7
100
AcDbLine
 10
-19.499999999999943
 20
-39.999999999999886
 30
0.0
 11
-19.499999999999943
 21
-238.3000030517577
 31
0.0
  0
LINE
  5
247
100
AcDbEntity
  8
0
  6
CONTINUOUS
 62
               7
100
AcDbLine
 10
13.500000000000028
 20
-39.999999999999886
 30
0.0
 11
13.500000000000028
 21
-238.3000030517577
 31
0.0
  0
LINE
  5
248
100
AcDbEntity
  8
0
  6
CONTINUOUS
 62
               7
100
AcDbLine
 10
19.5
 20
-39.999999999999886
 30
0.0
 11
19.5
 21
-238.3000030517577
 31
0.0
  0
LINE
  5
249
100
AcDbEntity
  8
0
  6
CONTINUOUS
 62
               2
100
AcDbLine
 10
24.5
 20
-277.3000030517577
 30
0.0
 11
19.5
 21
-277.3000030517577
 31
0.0
  0
LINE
  5
24A
100
AcDbEntity
  8
0
  6
CONTINUOUS
 62
               2
100
AcDbLine
 10
22.0
 20
-274.8000030517577
 30
0.0
 11
22.0
 21
-279.8000030517577
 31
0.0
  0
LINE
  5
24B
100
AcDbEntity
  8
0
  6
CONTINUOUS
 62
               2
100
AcDbLine
 10
-21.999999999999943
 20
-274.8000030517577
 30
0.0
 11
-21.999999999999943
 21
-279.8000030517577
 31
0.0
  0
LINE
  5
24C
100
AcDbEntity
  8
0
  6
CONTINUOUS
 62
               2
100
AcDbLine
 10
-19.499999999999943
 20
-277.3000030517577
 30
0.0
 11
-24.499999999999943
 21
-277.3000030517577
 31
0.0
  0
LINE
  5
24D
100
AcDbEntity
  8
0
  6
CONTINUOUS
 62
               2
100
AcDbLine
 10
-21.999999999999943
 20
-238.8000030517577
 30
0.0
 11
-21.999999999999943
 21
-243.8000030517577
 31
0.0
  0
LINE
  5
24E
100
AcDbEntity
  8
0
  6
CONTINUOUS
 62
               2
100
AcDbLine
 10
-19.499999999999943
 20
-241.3000030517577
 30
0.0
 11
-24.499999999999943
 21
-241.3000030517577
 31
0.0
  0
LINE
  5
24F
100
AcDbEntity
  8
0
  6
CONTINUOUS
 62
               2
100
AcDbLine
 10
22.0
 20
-238.8000030517577
 30
0.0
 11
22.0
 21
-243.8000030517577
 31
0.0
  0
LINE
  5
250
100
AcDbEntity
  8
0
  6
CONTINUOUS
 62
               2
100
AcDbLine
 10
24.5
 20
-241.3000030517577
 30
0.0
 11
19.5
 21
-241.3000030517577
 31
0.0
  0
LINE
  5
251
100
AcDbEntity
  8
0
  6
CONTINUOUS
 62
               2
100
AcDbLine
 10
-16.5
 20
-242.3000030517577
 30
0.0
 11
-16.5
 21
-250.3000030517577
 31
0.0
  0
LINE
  5
252
100
AcDbEntity
  8
0
  6
CONTINUOUS
 62
               2
100
AcDbLine
 10
-12.5
 20
-246.3000030517577
 30
0.0
 11
-20.5
 21
-246.3000030517577
 31
0.0
  0
LINE
  5
253
100
AcDbEntity
  8
0
  6
CONTINUOUS
 62
               2
100
AcDbLine
 10
16.5
 20
-242.3000030517577
 30
0.0
 11
16.5
 21
-250.3000030517577
 31
0.0
  0
LINE
  5
254
100
AcDbEntity
  8
0
  6
CONTINUOUS
 62
               2
100
AcDbLine
 10
20.500000000000057
 20
-246.3000030517577
 30
0.0
 11
12.5
 21
-246.3000030517577
 31
0.0
  0
LINE
  5
255
100
AcDbEntity
  8
0
  6
CONTINUOUS
 62
               2
100
AcDbLine
 10
16.5
 20
-268.3000030517577
 30
0.0
 11
16.5
 21
-276.3000030517577
 31
0.0
  0
LINE
  5
256
100
AcDbEntity
  8
0
  6
CONTINUOUS
 62
               2
100
AcDbLine
 10
20.500000000000057
 20
-272.3000030517577
 30
0.0
 11
12.5
 21
-272.3000030517577
 31
0.0
  0
LINE
  5
257
100
AcDbEntity
  8
0
  6
CONTINUOUS
 62
               2
100
AcDbLine
 10
-16.5
 20
-268.3000030517577
 30
0.0
 11
-16.5
 21
-276.3000030517577
 31
0.0
  0
LINE
  5
258
100
AcDbEntity
  8
0
  6
CONTINUOUS
 62
               2
100
AcDbLine
 10
-12.5
 20
-272.3000030517577
 30
0.0
 11
-20.5
 21
-272.3000030517577
 31
0.0
  0
LINE
  5
259
100
AcDbEntity
  8
0
  6
CONTINUOUS
 62
               7
100
AcDbLine
 10
22.0
 20
-280.3000030517577
 30
0.0
 11
-21.999999999999943
 21
-280.3000030517577
 31
0.0
  0
LINE
  5
25A
100
AcDbEntity
  8
0
  6
CONTINUOUS
 62
               7
100
AcDbLine
 10
22.0
 20
-238.3000030517577
 30
0.0
 11
-21.999999999999943
 21
-238.3000030517577
 31
0.0
  0
LINE
  5
25B
100
AcDbEntity
  8
0
  6
CONTINUOUS
 62
               7
100
AcDbLine
 10
-34.999999999999972
 20
-39.999999999999886
 30
0.0
 11
-34.999999999999972
 21
-300.00001525878895
 31
0.0
  0
LINE
  5
25C
100
AcDbEntity
  8
0
  6
CONTINUOUS
 62
               7
100
AcDbLine
 10
35.0
 20
-39.999999999999886
 30
0.0
 11
35.0
 21
-300.00001525878895
 31
0.0
  0
LINE
  5
25D
100
AcDbEntity
  8
0
  6
CONTINUOUS
 62
               2
100
AcDbLine
 10
0.0
 20
57.633345577419391
 30
0.0
 11
0.0
 21
-320.0
 31
0.0
  0
LINE
  5
25E
100
AcDbEntity
  8
0
  6
CONTINUOUS
 62
               7
100
AcDbLine
 10
-104.99999999999991
 20
-39.999999999999886
 30
0.0
 11
105.0
 21
-39.999999999999886
 31
0.0
  0
LINE
  5
25F
100
AcDbEntity
  8
0
  6
CONTINUOUS
 62
               7
100
AcDbLine
 10
-104.99999999999991
 20
-300.00001525878895
 30
0.0
 11
105.00000000000006
 21
-300.00001525878895
 31
0.0
  0
LINE
  5
260
100
AcDbEntity
  8
0
  6
CONTINUOUS
 62
               7
100
AcDbLine
 10
-104.99999999999991
 20
0.0
 30
0.0
 11
105.00000000000006
 21
0.0
 31
0.0
  0
LINE
  5
261
100
AcDbEntity
  8
0
  6
CONTINUOUS
 62
               2
100
AcDbLine
 10
-67.923964524755178
 20
-59.300003051757699
 30
0.0
 11
42.5
 21
-59.300003051757699
 31
0.0
  0
LINE
  5
262
100
AcDbEntity
  8
0
  6
CONTINUOUS
 62
               2
100
AcDbLine
 10
-70.909633064445757
 20
-259.3000030517577
 30
0.0
 11
42.5
 21
-259.3000030517577
 31
0.0
  0
LINE
  5
263
100
AcDbEntity
  8
0
  6
CONTINUOUS
 62
               7
100
AcDbLine
 10
-104.99999999999991
 20
0.0
 30
0.0
 11
-104.99999999999991
 21
-0.9999999999998863
 31
0.0
  0
LINE
  5
264
100
AcDbEntity
  8
0
  6
CONTINUOUS
 62
               7
100
AcDbLine
 10
105.00000000000006
 20
-38.999999999999886
 30
0.0
 11
105.00000000000006
 21
-302.8000030517577
 31
0.0
  0
LINE
  5
265
100
AcDbEntity
  8
0
  6
CONTINUOUS
 62
               2
100
AcDbLine
 10
75.0
 20
2.5818162476014095
 30
0.0
 11
75.0
 21
-42.704423904348801
 31
0.0
  0
LINE
  5
266
100
AcDbEntity
  8
0
  6
CONTINUOUS
 62
               2
100
AcDbLine
 10
-75.0
 20
3.5453532959527365
 30
0.0
 11
-75.0
 21
-42.945308157305817
 31
0.0
  0
LINE
  5
267
100
AcDbEntity
  8
0
  6
CONTINUOUS
 62
               7
100
AcDbLine
 10
-104.99999999999991
 20
-38.999999999999886
 30
0.0
 11
-104.99999999999991
 21
-302.89637756347645
 31
0.0
  0
LINE
  5
268
100
AcDbEntity
  8
0
  6
CONTINUOUS
 62
               7
100
AcDbLine
 10
19.0
 20
51.500000000000114
 30
0.0
 11
-21.599999999999994
 21
51.500000000000114
 31
0.0
  0
LINE
  5
269
100
AcDbEntity
  8
0
  6
CONTINUOUS
 62
               2
100
AcDbLine
 10
199.9125762456282
 20
-20.0
 30
0.0
 11
-115.71577175881237
 21
-20.0
 31
0.0
  0
LINE
  5
26A
100
AcDbEntity
  8
0
  6
CONTINUOUS
 62
               7
100
AcDbLine
 10
193.67437744140665
 20
-6.1699981689451988
 30
0.0
 11
118.04644775390619
 21
-6.1699981689451988
 31
0.0
  0
LINE
  5
26B
100
AcDbEntity
  8
0
  6
CONTINUOUS
 62
               7
100
AcDbLine
 10
195.00006103515665
 20
-38.999999999999886
 30
0.0
 11
-108.67529296874994
 21
-38.999999999999886
 31
0.0
  0
LINE
  5
26C
100
AcDbEntity
  8
0
  6
CONTINUOUS
 62
               7
100
AcDbLine
 10
195.00006103515665
 20
1.6000000000001364
 30
0.0
 11
116.99999999999994
 21
1.6000000000001364
 31
0.0
  0
LINE
  5
26D
100
AcDbEntity
  8
0
  6
CONTINUOUS
 62
               7
100
AcDbLine
 10
193.85479736328142
 20
-33.830001831054574
 30
0.0
 11
117.86614990234381
 21
-33.830001831054574
 31
0.0
  0
ENDBLK
  5
26E
100
AcDbEntity
  8
0
100
AcDbBlockEnd
  0
BLOCK
  5
22
100
AcDbEntity
  8
0
  6
ByBlock
 62
               0
100
AcDbBlockBegin
  2
_OPEN30
 70
               2
 10
0.0
 20
0.0
 30
0.0
  3
_OPEN30
  1

  0
LINE
  5
23
100
AcDbEntity
  8
0
  6
ByBlock
 62
               0
100
AcDbLine
 10
-1.0
 20
0.267949
 30
0.0
 11
0.0
 21
0.0
 31
0.0
  0
LINE
  5
24
100
AcDbEntity
  8
0
  6
ByBlock
 62
               0
100
AcDbLine
 10
0.0
 20
0.0
 30
0.0
 11
-1.0
 21
-0.267949
 31
0.0
  0
LINE
  5
25
100
AcDbEntity
  8
0
  6
ByBlock
 62
               0
100
AcDbLine
 10
0.0
 20
0.0
 30
0.0
 11
-1.0
 21
0.0
 31
0.0
  0
ENDBLK
  5
26
100
AcDbEntity
  8
0
  6
ByBlock
 62
               0
100
AcDbBlockEnd
  0
BLOCK
  5
275
100
AcDbEntity
  8
0
  6
ByBlock
 62
               0
100
AcDbBlockBegin
  2
*D4
 70
               1
 10
0.0
 20
0.0
 30
0.0
  3
*D4
  1

  0
LINE
  5
276
100
AcDbEntity
  8
0
  6
CONTINUOUS
 62
               2
100
AcDbLine
 10
165.0
 20
360.16213502185229
 30
0.0
 11
315.0
 21
360.16213502185229
 31
0.0
  0
LINE
  5
277
100
AcDbEntity
  8
0
  6
CONTINUOUS
 62
               2
100
AcDbLine
 10
165.0
 20
284.00001801745776
 30
0.0
 11
165.0
 21
361.66213502185229
 31
0.0
  0
LINE
  5
278
100
AcDbEntity
  8
0
  6
CONTINUOUS
 62
               2
100
AcDbLine
 10
315.0
 20
284.00001801745776
 30
0.0
 11
315.0
 21
361.66213502185229
 31
0.0
  0
INSERT
  5
279
100
AcDbEntity
  8
0
  6
CONTINUOUS
 62
               2
100
AcDbBlockReference
  2
_OPEN30
 10
165.0
 20
360.16213502185229
 30
0.0
 41
8.3100000000000005
 42
8.3100000000000005
 43
8.3100000000000005
 50
180.0
  0
INSERT
  5
27A
100
AcDbEntity
  8
0
  6
CONTINUOUS
 62
               2
100
AcDbBlockReference
  2
_OPEN30
 10
315.0
 20
360.16213502185229
 30
0.0
 41
8.3100000000000005
 42
8.3100000000000005
 43
8.3100000000000005
  0
MTEXT
  5
27C
100
AcDbEntity
  8
0
  6
CONTINUOUS
 62
               2
100
AcDbMText
 10
245.00777435302734
 20
365.66213502185229
 30
0.0
 40
9.0
 41
0.0
 71
               5
 72
               1
  1
\A1;X-STROKE(150）
  7
MX_DIMTXSTY_2
  0
POINT
  5
27D
100
AcDbEntity
  8
DEFPOINTS
  6
CONTINUOUS
 62
               0
100
AcDbPoint
 10
165.0
 20
282.50001801745776
 30
0.0
  0
POINT
  5
27E
100
AcDbEntity
  8
DEFPOINTS
  6
CONTINUOUS
 62
               0
100
AcDbPoint
 10
315.0
 20
282.50001801745776
 30
0.0
  0
POINT
  5
27F
100
AcDbEntity
  8
DEFPOINTS
  6
CONTINUOUS
 62
               0
100
AcDbPoint
 10
315.0
 20
360.16213502185229
 30
0.0
  0
ENDBLK
  5
280
100
AcDbEntity
  8
0
  6
ByBlock
 62
               0
100
AcDbBlockEnd
  0
BLOCK
  5
283
100
AcDbEntity
  8
0
  6
ByBlock
 62
               0
100
AcDbBlockBegin
  2
*D5
 70
               1
 10
0.0
 20
0.0
 30
0.0
  3
*D5
  1

  0
LINE
  5
284
100
AcDbEntity
  8
0
  6
CONTINUOUS
 62
               2
100
AcDbLine
 10
75.362405156002808
 20
20.700012207031278
 30
0.0
 11
75.362405156002808
 21
220.70001220703125
 31
0.0
  0
LINE
  5
285
100
AcDbEntity
  8
0
  6
CONTINUOUS
 62
               2
100
AcDbLine
 10
251.99999365697937
 20
20.700012207031278
 30
0.0
 11
73.862405156002808
 21
20.700012207031278
 31
0.0
  0
LINE
  5
286
100
AcDbEntity
  8
0
  6
CONTINUOUS
 62
               2
100
AcDbLine
 10
216.99999365697937
 20
220.70001220703125
 30
0.0
 11
73.862405156002808
 21
220.70001220703125
 31
0.0
  0
INSERT
  5
287
100
AcDbEntity
  8
0
  6
CONTINUOUS
 62
               2
100
AcDbBlockReference
  2
_OPEN30
 10
75.362405156002808
 20
20.700012207031278
 30
0.0
 41
8.3100000000000005
 42
8.3100000000000005
 43
8.3100000000000005
 50
270.0
  0
INSERT
  5
288
100
AcDbEntity
  8
0
  6
CONTINUOUS
 62
               2
100
AcDbBlockReference
  2
_OPEN30
 10
75.362405156002808
 20
220.70001220703125
 30
0.0
 41
8.3100000000000005
 42
8.3100000000000005
 43
8.3100000000000005
 50
90.0
  0
MTEXT
  5
289
100
AcDbEntity
  8
0
  6
CONTINUOUS
 62
               2
100
AcDbMText
 10
69.862405156002808
 20
120.70001220703128
 30
0.0
 40
9.0
 41
0.0
 71
               5
 72
               1
  1
\A1;Y-STROKE(200）
  7
MX_DIMTXSTY_2
 11
0.0000000000000001
 21
1.0
 31
0.0
  0
POINT
  5
28A
100
AcDbEntity
  8
DEFPOINTS
  6
CONTINUOUS
 62
               0
100
AcDbPoint
 10
253.49999365697937
 20
20.700012207031278
 30
0.0
  0
POINT
  5
28B
100
AcDbEntity
  8
DEFPOINTS
  6
CONTINUOUS
 62
               0
100
AcDbPoint
 10
218.49999365697937
 20
220.70001220703125
 30
0.0
  0
POINT
  5
28C
100
AcDbEntity
  8
DEFPOINTS
  6
CONTINUOUS
 62
               0
100
AcDbPoint
 10
75.362405156002808
 20
220.70001220703125
 30
0.0
  0
ENDBLK
  5
28D
100
AcDbEntity
  8
0
  6
ByBlock
 62
               0
100
AcDbBlockEnd
  0
ENDSEC
  0
SECTION
  2
ENTITIES
  0
INSERT
  5
26F
100
AcDbEntity
  8
0
  6
ByBlock
100
AcDbBlockReference
  2
DTHB-AS2-3
 10
240.0
 20
280.00001525878895
 30
0.0
  0
INSERT
  5
270
100
AcDbEntity
  8
0
  6
ByBlock
100
AcDbBlockReference
  2
DTHB-AS2-2
 10
-319.99999096439967
 20
-330.0
 30
0.0
  0
INSERT
  5
271
100
AcDbEntity
  8
0
  6
ByBlock
100
AcDbBlockReference
  2
DTHB-AS2-1
 10
240.0
 20
-330.0
 30
0.0
  0
MTEXT
  5
272
100
AcDbEntity
  8
0
  6
CONTINUOUS
 62
             255
100
AcDbMText
 10
-497.41667429606122
 20
378.0
 30
0.0
 40
12.5
 41
0.0
 71
               4
 72
               1
  1
\A1;DTHB-AS2
  0
MTEXT
  5
273
100
AcDbEntity
  8
0
  6
CONTINUOUS
 62
             255
100
AcDbMText
 10
-516.08806047499559
 20
393.0
 30
0.0
 40
12.5
 41
0.0
 71
               4
 72
               1
  1
\W1.038;\A1;CELL MASTER
  0
DIMENSION
  5
281
100
AcDbEntity
  8
0
  6
CONTINUOUS
 62
               2
100
AcDbDimension
  2
*D4
 10
315.0
 20
360.16213502185229
 30
0.0
 11
245.00777435302734
 21
360.16213502185229
 31
0.0
 70
             128
  1
X-STROKE(150）
  3
MXDIMSTYLE
100
AcDbAlignedDimension
 13
165.0
 23
282.50001801745776
 33
0.0
 14
315.0
 24
282.50001801745776
 34
0.0
100
AcDbRotatedDimension
1001
ACAD
1000
DSTYLE
1002
{
1070
              41
1040
8.3100000000000005
1070
             140
1040
9.0
1070
             340
1005
27B
1002
}
  0
DIMENSION
  5
28E
100
AcDbEntity
  8
0
  6
CONTINUOUS
 62
               2
100
AcDbDimension
  2
*D5
 10
75.362405156002808
 20
220.70001220703125
 30
0.0
 11
75.362405156002808
 21
120.70001220703128
 31
0.0
 70
             128
  1
Y-STROKE(200）
  3
MXDIMSTYLE
100
AcDbAlignedDimension
 13
253.49999365697937
 23
20.700012207031278
 33
0.0
 14
218.49999365697937
 24
220.70001220703125
 34
0.0
 50
90.0
100
AcDbRotatedDimension
1001
ACAD
1000
DSTYLE
1002
{
1070
              41
1040
8.3100000000000005
1070
             140
1040
9.0
1070
             340
1005
27B
1002
}
  0
LINE
  5
28F
100
AcDbEntity
  8
0
  6
CONTINUOUS
 62
               7
100
AcDbLine
 10
-564.5
 20
370.5
 30
0.0
 11
-334.5
 21
370.5
 31
0.0
  0
LINE
  5
290
100
AcDbEntity
  8
0
  6
CONTINUOUS
 62
               7
100
AcDbLine
 10
-334.5
 20
400.5
 30
0.0
 11
-334.5
 21
370.5
 31
0.0
  0
LINE
  5
291
100
AcDbEntity
  8
0
  6
CONTINUOUS
 62
               7
100
AcDbLine
 10
344.5
 20
-370.5
 30
0.0
 11
574.5
 21
-370.5
 31
0.0
  0
LINE
  5
292
100
AcDbEntity
  8
0
  6
CONTINUOUS
 62
               7
100
AcDbLine
 10
344.5
 20
-370.5
 30
0.0
 11
344.5
 21
-400.5
 31
0.0
  0
MTEXT
  5
293
100
AcDbEntity
  8
0
  6
CONTINUOUS
 62
               7
100
AcDbMText
 10
350.86206895687951
 20
-385.5
 30
0.0
 40
18.0
 41
0.0
 71
               4
 72
               1
  1
\W1.121;\A1;KOGANEI CORP.
  0
LINE
  5
294
100
AcDbEntity
  8
0
  6
CONTINUOUS
 62
               7
100
AcDbLine
 10
344.5
 20
370.5
 30
0.0
 11
574.5
 21
370.5
 31
0.0
  0
LINE
  5
295
100
AcDbEntity
  8
0
  6
CONTINUOUS
 62
               7
100
AcDbLine
 10
344.5
 20
400.5
 30
0.0
 11
344.5
 21
370.5
 31
0.0
  0
MTEXT
  5
296
100
AcDbEntity
  8
0
  6
CONTINUOUS
 62
               7
100
AcDbMText
 10
412.2322331979733
 20
385.5
 30
0.0
 40
12.5
 41
0.0
 71
               4
 72
               1
  1
\W1.311;\A1;Ver. 1.0
  0
LINE
  5
297
100
AcDbEntity
  8
0
  6
CONTINUOUS
 62
               7
100
AcDbLine
 10
574.5
 20
400.5
 30
0.0
 11
574.5
 21
-400.5
 31
0.0
  0
LINE
  5
298
100
AcDbEntity
  8
0
  6
CONTINUOUS
 62
               7
100
AcDbLine
 10
-564.5
 20
400.5
 30
0.0
 11
574.5
 21
400.5
 31
0.0
  0
LINE
  5
299
100
AcDbEntity
  8
0
  6
CONTINUOUS
 62
               7
100
AcDbLine
 10
-564.5
 20
-400.5
 30
0.0
 11
574.5
 21
-400.5
 31
0.0
  0
LINE
  5
29A
100
AcDbEntity
  8
0
  6
CONTINUOUS
 62
               7
100
AcDbLine
 10
-564.5
 20
400.5
 30
0.0
 11
-564.5
 21
-400.5
 31
0.0
  0
MTEXT
  5
29B
100
AcDbEntity
  8
0
  6
CONTINUOUS
 62
               7
100
AcDbMText
 10
-538.5625006215181
 20
340.5
 30
0.0
 40
12.5
 41
0.0
 71
               4
 72
               1
  1
\W1.050;\A1;MODEL:DTHB-AS2
  0
ENDSEC
  0
SECTION
  2
OBJECTS
  0
DICTIONARY
  5
19
100
AcDbDictionary
  3
ACAD_GROUP
350
1A
  3
ACAD_MLINESTYLE
350
1B
  0
DICTIONARY
  5
1A
102
{ACAD_REACTORS
330
19
102
}
100
AcDbDictionary
  0
DICTIONARY
  5
1B
102
{ACAD_REACTORS
330
19
102
}
100
AcDbDictionary
  3
STANDARD
350
1C
  0
MLINESTYLE
  5
1C
102
{ACAD_REACTORS
330
1B
102
}
100
AcDbMlineStyle
  2
Standard
 70
               0
  3

 62
               0
 51
90.0
 52
90.0
 71
               2
 49
0.5
 62
             256
  6
ByLayer
 49
-0.5
 62
             256
  6
ByLayer
  0
ENDSEC
  0
EOF
