  0
SECTION
  2
HEADER
  9
$ACADVER
  1
AC1012
  9
$DWGCODEPAGE
  3
dos932
  9
$INSBASE
 10
0.0
 20
0.0
 30
0.0
  9
$EXTMIN
 10
-564.5
 20
-400.5
 30
0.0
  9
$EXTMAX
 10
581.5
 20
402.375
 30
0.0
  9
$LIMMIN
 10
-599.50000000000011
 20
-415.50000000000006
  9
$LIMMAX
 10
589.50000000000011
 20
425.50000000000006
  9
$ORTHOMODE
 70
               0
  9
$REGENMODE
 70
               1
  9
$FILLMODE
 70
               1
  9
$QTEXTMODE
 70
               0
  9
$MIRRTEXT
 70
               1
  9
$DRAGMODE
 70
               2
  9
$LTSCALE
 40
1.0
  9
$OSMODE
 70
               0
  9
$ATTMODE
 70
               1
  9
$TEXTSIZE
 40
3.2000000476837158
  9
$TRACEWID
 40
0.05
  9
$TEXTSTYLE
  7
MX_NOTE_STANDARD
  9
$CLAYER
  8
0
  9
$CELTYPE
  6
CONTINUOUS
  9
$CECOLOR
 62
             256
  9
$CELTSCALE
 40
1.0
  9
$DELOBJ
 70
               1
  9
$DISPSILH
 70
               0
  9
$DIMSCALE
 40
1.0
  9
$DIMASZ
 40
2.5
  9
$DIMEXO
 40
1.5
  9
$DIMDLI
 40
3.75
  9
$DIMRND
 40
0.0
  9
$DIMDLE
 40
0.0
  9
$DIMEXE
 40
1.5
  9
$DIMTP
 40
0.0
  9
$DIMTM
 40
0.0
  9
$DIMTXT
 40
3.2000000476837158
  9
$DIMCEN
 40
2.5
  9
$DIMTSZ
 40
0.0
  9
$DIMTOL
 70
               0
  9
$DIMLIM
 70
               0
  9
$DIMTIH
 70
               0
  9
$DIMTOH
 70
               0
  9
$DIMSE1
 70
               0
  9
$DIMSE2
 70
               0
  9
$DIMTAD
 70
               1
  9
$DIMZIN
 70
               8
  9
$DIMBLK
  1

  9
$DIMASO
 70
               1
  9
$DIMSHO
 70
               1
  9
$DIMPOST
  1

  9
$DIMAPOST
  1

  9
$DIMALT
 70
               0
  9
$DIMALTD
 70
               4
  9
$DIMALTF
 40
0.03937007874016
  9
$DIMLFAC
 40
1.0
  9
$DIMTOFL
 70
               1
  9
$DIMTVP
 40
0.0
  9
$DIMTIX
 70
               0
  9
$DIMSOXD
 70
               0
  9
$DIMSAH
 70
               1
  9
$DIMBLK1
  1
_OPEN30
  9
$DIMBLK2
  1
_OPEN30
  9
$DIMSTYLE
  2
MXDIMSTYLE
  9
$DIMCLRD
 70
               0
  9
$DIMCLRE
 70
               0
  9
$DIMCLRT
 70
               0
  9
$DIMTFAC
 40
1.0
  9
$DIMGAP
 40
1.0
  9
$DIMJUST
 70
               0
  9
$DIMSD1
 70
               0
  9
$DIMSD2
 70
               0
  9
$DIMTOLJ
 70
               0
  9
$DIMTZIN
 70
               0
  9
$DIMALTZ
 70
               0
  9
$DIMALTTZ
 70
               0
  9
$DIMFIT
 70
               3
  9
$DIMUPT
 70
               1
  9
$DIMUNIT
 70
               2
  9
$DIMDEC
 70
               2
  9
$DIMTDEC
 70
               2
  9
$DIMALTU
 70
               2
  9
$DIMALTTD
 70
               4
  9
$DIMTXSTY
  7
MX_NOTE_STANDARD
  9
$DIMAUNIT
 70
               0
  9
$LUNITS
 70
               2
  9
$LUPREC
 70
               4
  9
$SKETCHINC
 40
0.1
  9
$FILLETRAD
 40
0.0
  9
$AUNITS
 70
               0
  9
$AUPREC
 70
               0
  9
$MENU
  1
acad
  9
$ELEVATION
 40
0.0
  9
$PELEVATION
 40
0.0
  9
$THICKNESS
 40
0.0
  9
$LIMCHECK
 70
               0
  9
$BLIPMODE
 70
               1
  9
$CHAMFERA
 40
0.0
  9
$CHAMFERB
 40
0.0
  9
$CHAMFERC
 40
0.0
  9
$CHAMFERD
 40
0.0
  9
$SKPOLY
 70
               0
  9
$TDCREATE
 40
2453921.729143519
  9
$TDUPDATE
 40
2453921.729143519
  9
$TDINDWG
 40
0.0000000000
  9
$TDUSRTIMER
 40
0.0000000000
  9
$USRTIMER
 70
               1
  9
$ANGBASE
 50
0.0
  9
$ANGDIR
 70
               0
  9
$PDMODE
 70
               0
  9
$PDSIZE
 40
0.0
  9
$PLINEWID
 40
0.0
  9
$COORDS
 70
               1
  9
$SPLFRAME
 70
               0
  9
$SPLINETYPE
 70
               6
  9
$SPLINESEGS
 70
               8
  9
$ATTDIA
 70
               0
  9
$ATTREQ
 70
               1
  9
$HANDLING
 70
               1
  9
$HANDSEED
  5
35C
  9
$SURFTAB1
 70
               6
  9
$SURFTAB2
 70
               6
  9
$SURFTYPE
 70
               6
  9
$SURFU
 70
               6
  9
$SURFV
 70
               6
  9
$UCSNAME
  2

  9
$UCSORG
 10
0.0
 20
0.0
 30
0.0
  9
$UCSXDIR
 10
1.0
 20
0.0
 30
0.0
  9
$UCSYDIR
 10
0.0
 20
1.0
 30
0.0
  9
$PUCSNAME
  2

  9
$PUCSORG
 10
0.0
 20
0.0
 30
0.0
  9
$PUCSXDIR
 10
1.0
 20
0.0
 30
0.0
  9
$PUCSYDIR
 10
0.0
 20
1.0
 30
0.0
  9
$USERI1
 70
               0
  9
$USERI2
 70
               0
  9
$USERI3
 70
               0
  9
$USERI4
 70
               0
  9
$USERI5
 70
               0
  9
$USERR1
 40
0.0
  9
$USERR2
 40
0.0
  9
$USERR3
 40
0.0
  9
$USERR4
 40
0.0
  9
$USERR5
 40
0.0
  9
$WORLDVIEW
 70
               1
  9
$SHADEDGE
 70
               3
  9
$SHADEDIF
 70
              70
  9
$TILEMODE
 70
               1
  9
$MAXACTVP
 70
              16
  9
$PINSBASE
 10
0.0
 20
0.0
 30
0.0
  9
$PLIMCHECK
 70
               0
  9
$PEXTMIN
 10
1.0000000000000000E+20
 20
1.0000000000000000E+20
 30
1.0000000000000000E+20
  9
$PEXTMAX
 10
-1.0000000000000000E+20
 20
-1.0000000000000000E+20
 30
-1.0000000000000000E+20
  9
$PLIMMIN
 10
0.0
 20
0.0
  9
$PLIMMAX
 10
12.0
 20
9.0
  9
$UNITMODE
 70
               0
  9
$VISRETAIN
 70
               0
  9
$PLINEGEN
 70
               1
  9
$PSLTSCALE
 70
               0
  9
$TREEDEPTH
 70
            3020
  9
$PICKSTYLE
 70
               1
  9
$CMLSTYLE
  2
Standard
  9
$CMLJUST
 70
               0
  9
$CMLSCALE
 40
1.0
  9
$SAVEIMAGES
 70
               0
  0
ENDSEC
  0
SECTION
  2
CLASSES
  0
CLASS
  1
LWPOLYLINE
  2
AcDbPolyline
  3
"AutoCAD"
 90
    32768
280
               0
281
               1
  0
CLASS
  1
IMAGE
  2
AcDbRasterImage
  3
ISM
 90
    32895
280
               0
281
               1
  0
CLASS
  1
OLE2FRAME
  2
AcDbOle2Frame
  3
""
 90
    32768
280
               0
281
               1
  0
CLASS
  1
HATCH
  2
AcDbHatch
  3
"ACAD_SEDONA"
 90
    32768
280
               0
281
               1
  0
CLASS
  1
DICTIONARYVAR
  2
AcDbDictionaryVar
  3
"AutoCAD"
 90
    32768
280
               0
281
               0
  0
CLASS
  1
RASTERVARIABLES
  2
AcDbRasterVariables
  3
ISM
 90
    32768
280
               0
281
               0
  0
CLASS
  1
IMAGEDEF
  2
AcDbRasterImageDef
  3
ISM
 90
    32768
280
               0
281
               0
  0
CLASS
  1
IMAGEDEF_REACTOR
  2
AcDbRasterImageDefReactor
  3
ISM
 90
    32769
280
               0
281
               0
  0
CLASS
  1
IDBUFFER
  2
AcDbIdBuffer
  3
"Acad"
 90
    32768
280
               0
281
               0
  0
CLASS
  1
SPATIAL_FILTER
  2
AcDbSpatialFilter
  3
"Acad"
 90
    32768
280
               0
281
               0
  0
CLASS
  1
XRECORD
  2
AcDbXrecord
  3
"<Built In>"
 90
    32768
280
               0
281
               0
  0
CLASS
  1
SORTENTSTABLE
  2
AcDbSortentsTable
  3
"AutoCAD"
 90
    32768
280
               0
281
               0
  0
CLASS
  1
LAYER_INDEX
  2
AcDbLayerIndex
  3
"Acad"
 90
    32768
280
               0
281
               0
  0
CLASS
  1
SPATIAL_INDEX
  2
AcDbSpatialIndex
  3
"Acad"
 90
    32768
280
               0
281
               0
  0
CLASS
  1
OBJECT_PTR
  2
CAseDLPNTableRecord
  3
"ASE-LPNTableRecord"
 90
    32769
280
               0
281
               0
  0
CLASS
  1
LAYOUT
  2
AcDbLayout
  3
"AutoCAD 2000"
 90
    32768
280
               0
281
               0
  0
CLASS
  1
PLOTSETTINGS
  2
AcDbPlotSettings
  3
"AutoCAD 2000"
 90
    32768
280
               0
281
               0
  0
CLASS
  1
ACDBDICTIONARYWDFLT
  2
AcDbDictionaryWithDefault
  3
"AutoCAD 2000"
 90
    32768
280
               0
281
               0
  0
CLASS
  1
ACDBPLACEHOLDER
  2
AcDbPlaceHolder
  3
"AutoCAD 2000"
 90
    32768
280
               0
281
               0
  0
ENDSEC
  0
SECTION
  2
TABLES
  0
TABLE
  2
VPORT
  5
7
100
AcDbSymbolTable
 70
               1
  0
VPORT
  5
15
100
AcDbSymbolTableRecord
100
AcDbViewportTableRecord
  2
*ACTIVE
 70
               0
 10
0.0
 20
0.0
 11
1.0
 21
1.0
 12
-5.0
 22
5.0
 13
0.0
 23
0.0
 14
1.0
 24
1.0
 15
0.0
 25
0.0
 16
0.0
 26
0.0
 36
1.0
 17
0.0
 27
0.0
 37
0.0
 40
849.41000000000008
 41
1.7320508075688772
 42
50.0
 43
0.0
 44
0.0
 50
0.0
 51
0.0
 71
               0
 72
             100
 73
               1
 74
               1
 75
               0
 76
               0
 77
               0
 78
               0
  0
ENDTAB
  0
TABLE
  2
LTYPE
  5
4
100
AcDbSymbolTable
 70
               4
  0
LTYPE
  5
11
100
AcDbSymbolTableRecord
100
AcDbLinetypeTableRecord
  2
BYBLOCK
 70
              64
  3

 72
              65
 73
               0
 40
0.0
  0
LTYPE
  5
12
100
AcDbSymbolTableRecord
100
AcDbLinetypeTableRecord
  2
BYLAYER
 70
              64
  3

 72
              65
 73
               0
 40
0.0
  0
LTYPE
  5
13
100
AcDbSymbolTableRecord
100
AcDbLinetypeTableRecord
  2
CONTINUOUS
 70
              64
  3
Solid line
 72
              65
 73
               0
 40
0.0
  0
LTYPE
  5
28
100
AcDbSymbolTableRecord
100
AcDbLinetypeTableRecord
  2
DASHED
 70
              64
  3
Dashed __ __ __ __ __ __ __ __ __ __ __ __ __ _
 72
              65
 73
               2
 40
19.049999999999997
 49
12.699999999999999
 74
               0
 49
-6.3499999999999996
 74
               0
  0
ENDTAB
  0
TABLE
  2
LAYER
  5
2
100
AcDbSymbolTable
 70
               2
  0
LAYER
  5
14
100
AcDbSymbolTableRecord
100
AcDbLayerTableRecord
  2
0
 70
               0
 62
               7
  6
CONTINUOUS
  0
LAYER
  5
1D
100
AcDbSymbolTableRecord
100
AcDbLayerTableRecord
  2
DEFPOINTS
 70
               0
 62
               7
  6
CONTINUOUS
  0
ENDTAB
  0
TABLE
  2
STYLE
  5
3
100
AcDbSymbolTable
 70
               2
  0
STYLE
  5
17
100
AcDbSymbolTableRecord
100
AcDbTextStyleTableRecord
  2
MX_NOTE_STANDARD
 70
               0
 40
0.0
 41
1.0
 50
0.0
 71
               0
 42
3.2000000476837158
  3
txt.shx
  4
extfont.shx
  0
STYLE
  5
339
100
AcDbSymbolTableRecord
100
AcDbTextStyleTableRecord
  2
MX_DIMTXSTY_2
 70
               0
 40
0.0
 41
1.1000000000000001
 50
0.0
 71
               0
 42
3.2000000476837158
  3
txt.shx
  4
extfont.shx
  0
ENDTAB
  0
TABLE
  2
VIEW
  5
5
100
AcDbSymbolTable
 70
               0
  0
ENDTAB
  0
TABLE
  2
UCS
  5
6
100
AcDbSymbolTable
 70
               0
  0
ENDTAB
  0
TABLE
  2
APPID
  5
8
100
AcDbSymbolTable
 70
               1
  0
APPID
  5
16
100
AcDbSymbolTableRecord
100
AcDbRegAppTableRecord
  2
ACAD
 70
               0
  0
ENDTAB
  0
TABLE
  2
DIMSTYLE
  5
9
100
AcDbSymbolTable
 70
               1
  0
DIMSTYLE
105
18
100
AcDbSymbolTableRecord
100
AcDbDimStyleTableRecord
  2
MXDIMSTYLE
 70
               0
  3

  4

  5

  6
_OPEN30
  7
_OPEN30
 40
1.0
 41
2.5
 42
1.5
 43
3.75
 44
1.5
 45
0.0
 46
0.0
 47
0.0
 48
0.0
 71
               0
 72
               0
 73
               0
 74
               0
 75
               0
 76
               0
 77
               1
 78
               8
140
3.2000000476837158
141
2.5
142
0.0
143
0.03937007874016
144
1.0
145
0.0
146
1.0
147
1.0
170
               0
171
               4
172
               1
173
               1
174
               0
175
               0
176
               0
177
               0
178
               0
270
               2
271
               2
272
               2
273
               2
274
               4
275
               0
280
               0
281
               0
282
               0
283
               0
284
               0
285
               0
286
               0
287
               3
288
               1
340
17
  0
ENDTAB
  0
TABLE
  2
BLOCK_RECORD
  5
1
100
AcDbSymbolTable
 70
               6
  0
BLOCK_RECORD
  5
A
100
AcDbSymbolTableRecord
100
AcDbBlockTableRecord
  2
*MODEL_SPACE
  0
BLOCK_RECORD
  5
B
100
AcDbSymbolTableRecord
100
AcDbBlockTableRecord
  2
*PAPER_SPACE
  0
BLOCK_RECORD
  5
1E
100
AcDbSymbolTableRecord
100
AcDbBlockTableRecord
  2
DTRB-AS2-1
  0
BLOCK_RECORD
  5
1F
100
AcDbSymbolTableRecord
100
AcDbBlockTableRecord
  2
DTRB-AS2-2
  0
BLOCK_RECORD
  5
20
100
AcDbSymbolTableRecord
100
AcDbBlockTableRecord
  2
DTRB-AS2-3
  0
BLOCK_RECORD
  5
21
100
AcDbSymbolTableRecord
100
AcDbBlockTableRecord
  2
_OPEN30
  0
BLOCK_RECORD
  5
332
100
AcDbSymbolTableRecord
100
AcDbBlockTableRecord
  2
*D4
  0
BLOCK_RECORD
  5
340
100
AcDbSymbolTableRecord
100
AcDbBlockTableRecord
  2
*D5
  0
ENDTAB
  0
ENDSEC
  0
SECTION
  2
BLOCKS
  0
BLOCK
  5
D
100
AcDbEntity
  8
0
100
AcDbBlockBegin
  2
*MODEL_SPACE
 70
               0
 10
0.0
 20
0.0
 30
0.0
  3
*MODEL_SPACE
  1

  0
ENDBLK
  5
E
100
AcDbEntity
  8
0
100
AcDbBlockEnd
  0
BLOCK
  5
F
100
AcDbEntity
 67
               1
  8
0
100
AcDbBlockBegin
  2
*PAPER_SPACE
 70
               0
 10
0.0
 20
0.0
 30
0.0
  3
*PAPER_SPACE
  1

  0
ENDBLK
  5
10
100
AcDbEntity
 67
               1
  8
0
100
AcDbBlockEnd
  0
BLOCK
  5
27
100
AcDbEntity
  8
0
100
AcDbBlockBegin
  2
DTRB-AS2-1
 70
               0
 10
0.0
 20
0.0
 30
0.0
  3
DTRB-AS2-1
  1

  0
LINE
  5
29
100
AcDbEntity
  8
0
  6
DASHED
 62
               7
100
AcDbLine
 10
-90.999999999999915
 20
53.000000000000057
 30
0.0
 11
-98.999999999999943
 21
53.000000000000057
 31
0.0
  0
LINE
  5
2A
100
AcDbEntity
  8
0
  6
CONTINUOUS
 62
               7
100
AcDbLine
 10
37.000000000000114
 20
19.950000000000045
 30
0.0
 11
37.000000000000114
 21
19.350000000000023
 31
0.0
  0
LINE
  5
2B
100
AcDbEntity
  8
0
  6
CONTINUOUS
 62
               7
100
AcDbLine
 10
32.50818791290169
 20
19.350000000000023
 30
0.0
 11
37.000000000000114
 21
19.350000000000023
 31
0.0
  0
LINE
  5
2C
100
AcDbEntity
  8
0
  6
CONTINUOUS
 62
               7
100
AcDbLine
 10
32.50818791290169
 20
19.950000000000045
 30
0.0
 11
37.000000000000114
 21
19.950000000000045
 31
0.0
  0
CIRCLE
  5
2D
100
AcDbEntity
  8
0
  6
CONTINUOUS
 62
               7
100
AcDbCircle
 10
190.0
 20
189.00000000000006
 30
0.0
 40
1.7499999999999998
  0
LINE
  5
2E
100
AcDbEntity
  8
0
  6
CONTINUOUS
 62
               2
100
AcDbLine
 10
-16.499999999999858
 20
53.504424256697007
 30
0.0
 11
-16.499999999999858
 21
63.964172209229133
 31
0.0
  0
LINE
  5
2F
100
AcDbEntity
  8
0
  6
CONTINUOUS
 62
               2
100
AcDbLine
 10
16.500000000000028
 20
53.504424256697007
 30
0.0
 11
16.500000000000028
 21
63.964172209229133
 31
0.0
  0
LINE
  5
30
100
AcDbEntity
  8
0
  6
CONTINUOUS
 62
               7
100
AcDbLine
 10
-18.999999999999858
 20
58.000000000000057
 30
0.0
 11
-24.999999999999943
 21
58.000000000000057
 31
0.0
  0
LINE
  5
31
100
AcDbEntity
  8
0
  6
CONTINUOUS
 62
               7
100
AcDbLine
 10
14.000000000000028
 20
58.000000000000057
 30
0.0
 11
-13.999999999999858
 21
58.000000000000057
 31
0.0
  0
CIRCLE
  5
32
100
AcDbEntity
  8
0
  6
CONTINUOUS
 62
               7
100
AcDbCircle
 10
38.000000000000227
 20
19.649999999999864
 30
0.0
 40
10.0
  0
LINE
  5
33
100
AcDbEntity
  8
0
  6
CONTINUOUS
 62
               7
100
AcDbLine
 10
-32.075638099721658
 20
54.850002456953973
 30
0.0
 11
-32.142463798605291
 21
54.086181221316167
 31
0.0
  0
LINE
  5
34
100
AcDbEntity
  8
0
  6
CONTINUOUS
 62
               7
100
AcDbLine
 10
-29.291809082031222
 20
54.85000610351571
 30
0.0
 11
-32.075622558593722
 21
54.85000610351571
 31
0.0
  0
ARC
  5
35
100
AcDbEntity
  8
0
  6
CONTINUOUS
 62
               7
100
AcDbCircle
 10
-29.999999999999943
 20
48.870330810546875
 30
0.0
 40
6.3296561241149902
100
AcDbArc
 50
77.07456800075721
 51
109.14270913512811
  0
LINE
  5
36
100
AcDbEntity
  8
0
  6
CONTINUOUS
 62
               7
100
AcDbLine
 10
-24.999990533184246
 20
55.999989511135993
 30
0.0
 11
-36.196098885373402
 21
53.000001294651213
 31
0.0
  0
LINE
  5
37
100
AcDbEntity
  8
0
  6
CONTINUOUS
 62
               7
100
AcDbLine
 10
-13.999999999999858
 20
58.000000000000057
 30
0.0
 11
-13.999999999999858
 21
56.0
 31
0.0
  0
LINE
  5
38
100
AcDbEntity
  8
0
  6
CONTINUOUS
 62
               7
100
AcDbLine
 10
-18.999999999999858
 20
58.000000000000057
 30
0.0
 11
-18.999999999999858
 21
56.0
 31
0.0
  0
LINE
  5
39
100
AcDbEntity
  8
0
  6
CONTINUOUS
 62
               7
100
AcDbLine
 10
-101.99999999999994
 20
173.00000000000006
 30
0.0
 11
-104.99999999999994
 21
170.00000000000006
 31
0.0
  0
LINE
  5
3A
100
AcDbEntity
  8
0
  6
CONTINUOUS
 62
               7
100
AcDbLine
 10
102.00000000000011
 20
173.00000000000006
 30
0.0
 11
105.00000000000011
 21
170.00000000000026
 31
0.0
  0
CIRCLE
  5
3B
100
AcDbEntity
  8
0
  6
CONTINUOUS
 62
               7
100
AcDbCircle
 10
38.000000000000114
 20
19.649999999999977
 30
0.0
 40
6.3499999999999996
  0
CIRCLE
  5
3C
100
AcDbEntity
  8
0
  6
CONTINUOUS
 62
               7
100
AcDbCircle
 10
38.000000000000114
 20
19.649999999999977
 30
0.0
 40
5.5
  0
ARC
  5
3D
100
AcDbEntity
  8
0
  6
CONTINUOUS
 62
               7
100
AcDbCircle
 10
-98.917602539062358
 20
11.799981689453148
 30
0.0
 40
7.9824194908142081
100
AcDbArc
 50
157.64345713842727
 51
202.35653921910705
  0
LINE
  5
3E
100
AcDbEntity
  8
0
  6
CONTINUOUS
 62
               7
100
AcDbLine
 10
-106.29998779296875
 20
8.7637268066407046
 30
0.0
 11
-106.29998779296875
 21
14.83626708984383
 31
0.0
  0
LINE
  5
3F
100
AcDbEntity
  8
0
  6
CONTINUOUS
 62
               7
100
AcDbLine
 10
-106.30001450898811
 20
8.7637271955851475
 30
0.0
 11
-104.99998769538601
 21
8.6499895874472941
 31
0.0
  0
LINE
  5
40
100
AcDbEntity
  8
0
  6
CONTINUOUS
 62
               7
100
AcDbLine
 10
-106.29997995334628
 20
14.836253679934657
 30
0.0
 11
-105.00001394264467
 21
14.949985968508031
 31
0.0
  0
ARC
  5
41
100
AcDbEntity
  8
0
  6
CONTINUOUS
 62
               7
100
AcDbCircle
 10
98.917541503906364
 20
11.799987769126915
 30
0.0
 40
7.9824194908142081
100
AcDbArc
 50
337.64346066720742
 51
22.356539332792593
  0
LINE
  5
42
100
AcDbEntity
  8
0
  6
CONTINUOUS
 62
               7
100
AcDbLine
 10
106.29998779296886
 20
8.7637328863145285
 30
0.0
 11
106.29998779296886
 21
14.836273169517654
 31
0.0
  0
LINE
  5
43
100
AcDbEntity
  8
0
  6
CONTINUOUS
 62
               7
100
AcDbLine
 10
106.29997228135483
 20
14.836267295419702
 30
0.0
 11
105.00000627065322
 21
14.949999583993076
 31
0.0
  0
LINE
  5
44
100
AcDbEntity
  8
0
  6
CONTINUOUS
 62
               7
100
AcDbLine
 10
106.30000683699666
 20
8.763725739447807
 30
0.0
 11
105.00004082629505
 21
8.6499934508744332
 31
0.0
  0
CIRCLE
  5
45
100
AcDbEntity
  8
0
  6
CONTINUOUS
 62
               7
100
AcDbCircle
 10
-36.0
 20
19.300000000000011
 30
0.0
 40
2.1000000000000001
  0
CIRCLE
  5
46
100
AcDbEntity
  8
0
  6
CONTINUOUS
 62
               7
100
AcDbCircle
 10
-45.999999999999829
 20
19.300000000000011
 30
0.0
 40
2.1000000000000001
  0
LINE
  5
47
100
AcDbEntity
  8
0
  6
CONTINUOUS
 62
               7
100
AcDbLine
 10
-56.499999999999858
 20
11.300000000000068
 30
0.0
 11
-89.499999999999915
 21
11.300000000000068
 31
0.0
  0
LINE
  5
48
100
AcDbEntity
  8
0
  6
CONTINUOUS
 62
               7
100
AcDbLine
 10
-89.499999999999915
 20
27.300000000000068
 30
0.0
 11
-89.499999999999915
 21
11.300000000000068
 31
0.0
  0
LINE
  5
49
100
AcDbEntity
  8
0
  6
CONTINUOUS
 62
               7
100
AcDbLine
 10
-56.499999999999858
 20
27.300000000000068
 30
0.0
 11
-89.499999999999915
 21
27.300000000000068
 31
0.0
  0
LINE
  5
4A
100
AcDbEntity
  8
0
  6
CONTINUOUS
 62
               7
100
AcDbLine
 10
-56.499999999999858
 20
27.300000000000068
 30
0.0
 11
-56.499999999999858
 21
11.300000000000068
 31
0.0
  0
LINE
  5
4B
100
AcDbEntity
  8
0
  6
CONTINUOUS
 62
               7
100
AcDbLine
 10
48.000000000000114
 20
24.150000000000091
 30
0.0
 11
48.000000000000114
 21
11.650000000000091
 31
0.0
  0
LINE
  5
4C
100
AcDbEntity
  8
0
  6
CONTINUOUS
 62
               7
100
AcDbLine
 10
82.000000000000227
 20
11.650000000000091
 30
0.0
 11
48.000000000000114
 21
11.650000000000091
 31
0.0
  0
LINE
  5
4D
100
AcDbEntity
  8
0
  6
CONTINUOUS
 62
               7
100
AcDbLine
 10
82.000000000000227
 20
24.150000000000091
 30
0.0
 11
82.000000000000227
 21
11.650000000000091
 31
0.0
  0
LINE
  5
4E
100
AcDbEntity
  8
0
  6
CONTINUOUS
 62
               7
100
AcDbLine
 10
82.000000000000227
 20
24.150000000000091
 30
0.0
 11
48.000000000000114
 21
24.150000000000091
 31
0.0
  0
CIRCLE
  5
4F
100
AcDbEntity
  8
0
  6
CONTINUOUS
 62
               7
100
AcDbCircle
 10
38.000000000000114
 20
19.649999999999977
 30
0.0
 40
6.5
  0
LINE
  5
50
100
AcDbEntity
  8
0
  6
CONTINUOUS
 62
               7
100
AcDbLine
 10
-80.000024437904216
 20
3.199981689453125
 30
0.0
 11
-103.40002441406236
 21
3.199981689453125
 31
0.0
  0
LINE
  5
51
100
AcDbEntity
  8
0
  6
CONTINUOUS
 62
               7
100
AcDbLine
 10
80.000024437904358
 20
4.7999816894531477
 30
0.0
 11
80.000024437904358
 21
3.199981689453125
 31
0.0
  0
LINE
  5
52
100
AcDbEntity
  8
0
  6
CONTINUOUS
 62
               7
100
AcDbLine
 10
-80.000024437904216
 20
4.7999816894531477
 30
0.0
 11
-80.000024437904216
 21
3.199981689453125
 31
0.0
  0
LINE
  5
53
100
AcDbEntity
  8
0
  6
CONTINUOUS
 62
               7
100
AcDbLine
 10
-103.39999685287469
 20
5.199981689453125
 30
0.0
 11
-103.39999685287469
 21
4.7999816894531477
 31
0.0
  0
LINE
  5
54
100
AcDbEntity
  8
0
  6
CONTINUOUS
 62
               7
100
AcDbLine
 10
-103.2999968528747
 20
5.199981689453125
 30
0.0
 11
-103.2999968528747
 21
4.7999816894531477
 31
0.0
  0
LINE
  5
55
100
AcDbEntity
  8
0
  6
CONTINUOUS
 62
               7
100
AcDbLine
 10
-100.4999969005583
 20
5.199981689453125
 30
0.0
 11
-100.4999969005583
 21
4.7999816894531477
 31
0.0
  0
LINE
  5
56
100
AcDbEntity
  8
0
  6
CONTINUOUS
 62
               7
100
AcDbLine
 10
-89.499997138976909
 20
5.199981689453125
 30
0.0
 11
-89.499997138976909
 21
4.7999816894531477
 31
0.0
  0
LINE
  5
57
100
AcDbEntity
  8
0
  6
CONTINUOUS
 62
               7
100
AcDbLine
 10
103.40000305175795
 20
5.199981689453125
 30
0.0
 11
103.40000305175795
 21
4.7999816894531477
 31
0.0
  0
LINE
  5
58
100
AcDbEntity
  8
0
  6
CONTINUOUS
 62
               7
100
AcDbLine
 10
103.30000305175793
 20
5.199981689453125
 30
0.0
 11
103.30000305175793
 21
4.7999816894531477
 31
0.0
  0
LINE
  5
59
100
AcDbEntity
  8
0
  6
CONTINUOUS
 62
               7
100
AcDbLine
 10
100.50000000000011
 20
5.199981689453125
 30
0.0
 11
100.50000000000011
 21
4.7999816894531477
 31
0.0
  0
LINE
  5
5A
100
AcDbEntity
  8
0
  6
CONTINUOUS
 62
               7
100
AcDbLine
 10
89.500000000000227
 20
5.199981689453125
 30
0.0
 11
89.500000000000227
 21
4.7999816894531477
 31
0.0
  0
LINE
  5
5B
100
AcDbEntity
  8
0
  6
CONTINUOUS
 62
               7
100
AcDbLine
 10
103.40000305175795
 20
4.7999816894531477
 30
0.0
 11
-103.39999685287469
 21
4.7999816894531477
 31
0.0
  0
ARC
  5
5C
100
AcDbEntity
  8
0
  6
CONTINUOUS
 62
               7
100
AcDbCircle
 10
-103.40002441406236
 20
6.79998779296875
 30
0.0
 40
1.6000000238418579
100
AcDbArc
 50
179.99999499104368
 51
269.99999749552182
  0
ARC
  5
5D
100
AcDbEntity
  8
0
  6
CONTINUOUS
 62
               7
100
AcDbCircle
 10
103.4000244140625
 20
6.79998779296875
 30
0.0
 40
1.6000000238418579
100
AcDbArc
 50
269.99999749552182
 51
0.0000000000001018
  0
LINE
  5
5E
100
AcDbEntity
  8
0
  6
CONTINUOUS
 62
               7
100
AcDbLine
 10
105.00000000000011
 20
170.00000000000026
 30
0.0
 11
105.00000000000011
 21
4.79998779296875
 31
0.0
  0
LINE
  5
5F
100
AcDbEntity
  8
0
  6
CONTINUOUS
 62
               7
100
AcDbLine
 10
103.4000244140625
 20
5.199981689453125
 30
0.0
 11
-103.40002441406236
 21
5.199981689453125
 31
0.0
  0
LINE
  5
60
100
AcDbEntity
  8
0
  6
CONTINUOUS
 62
               2
100
AcDbLine
 10
-87.999999999999886
 20
-4.2377012841294572
 30
0.0
 11
-87.999999999999886
 21
6.7533858317011664
 31
0.0
  0
LINE
  5
61
100
AcDbEntity
  8
0
  6
CONTINUOUS
 62
               2
100
AcDbLine
 10
88.0
 20
-4.5347576498259059
 30
0.0
 11
88.0
 21
7.3474986184758109
 31
0.0
  0
LINE
  5
62
100
AcDbEntity
  8
0
  6
CONTINUOUS
 62
               2
100
AcDbLine
 10
-74.999999999999943
 20
207.09879596592393
 30
0.0
 11
-74.999999999999943
 21
154.03333262111633
 31
0.0
  0
LINE
  5
63
100
AcDbEntity
  8
0
  6
CONTINUOUS
 62
               7
100
AcDbLine
 10
117.0
 20
186.20000000000005
 30
0.0
 11
-101.99999999999991
 21
186.20000000000005
 31
0.0
  0
LINE
  5
64
100
AcDbEntity
  8
0
  6
CONTINUOUS
 62
               7
100
AcDbLine
 10
117.0
 20
182.80000000000004
 30
0.0
 11
-101.99999999999991
 21
182.80000000000004
 31
0.0
  0
LINE
  5
65
100
AcDbEntity
  8
0
  6
CONTINUOUS
 62
               7
100
AcDbLine
 10
54.000015258789176
 20
194.89999389648446
 30
0.0
 11
95.999984741211051
 21
194.89999389648446
 31
0.0
  0
LINE
  5
66
100
AcDbEntity
  8
0
  6
CONTINUOUS
 62
               7
100
AcDbLine
 10
54.000015258789176
 20
206.50000000000003
 30
0.0
 11
54.000015258789176
 21
194.89999389648446
 31
0.0
  0
LINE
  5
67
100
AcDbEntity
  8
0
  6
CONTINUOUS
 62
               7
100
AcDbLine
 10
54.000015258789176
 20
206.50000000000003
 30
0.0
 11
95.999984741211051
 21
206.50000000000003
 31
0.0
  0
LINE
  5
68
100
AcDbEntity
  8
0
  6
CONTINUOUS
 62
               2
100
AcDbLine
 10
62.000015258789176
 20
208.0535888671875
 30
0.0
 11
62.000015258789176
 21
199.69204711914068
 31
0.0
  0
LINE
  5
69
100
AcDbEntity
  8
0
  6
CONTINUOUS
 62
               2
100
AcDbLine
 10
87.999984741210938
 20
208.61413574218759
 30
0.0
 11
87.999984741210938
 21
199.87890625000003
 31
0.0
  0
LINE
  5
6A
100
AcDbEntity
  8
0
  6
CONTINUOUS
 62
               7
100
AcDbLine
 10
95.999984741211051
 20
206.50000000000003
 30
0.0
 11
95.999984741211051
 21
194.89999389648446
 31
0.0
  0
LINE
  5
6B
100
AcDbEntity
  8
0
  6
CONTINUOUS
 62
               7
100
AcDbLine
 10
-50.25000095367426
 20
160.00003051757818
 30
0.0
 11
-54.749987602233858
 21
160.00003051757818
 31
0.0
  0
LINE
  5
6C
100
AcDbEntity
  8
0
  6
CONTINUOUS
 62
               7
100
AcDbLine
 10
-49.75
 20
160.50003051757813
 30
0.0
 11
-49.75
 21
163.00003051757813
 31
0.0
  0
LINE
  5
6D
100
AcDbEntity
  8
0
  6
CONTINUOUS
 62
               7
100
AcDbLine
 10
-49.750005457296453
 20
160.50003497588682
 30
0.0
 11
-50.25000442865408
 21
160.00003790112984
 31
0.0
  0
LINE
  5
6E
100
AcDbEntity
  8
0
  6
CONTINUOUS
 62
               7
100
AcDbLine
 10
-49.750000953674231
 20
160.50003147125244
 30
0.0
 11
-55.249999999999858
 21
160.50003147125244
 31
0.0
  0
LINE
  5
6F
100
AcDbEntity
  8
0
  6
CONTINUOUS
 62
               7
100
AcDbLine
 10
-55.249999999999858
 20
163.00003051757813
 30
0.0
 11
-55.249999999999858
 21
160.50003051757813
 31
0.0
  0
LINE
  5
70
100
AcDbEntity
  8
0
  6
CONTINUOUS
 62
               7
100
AcDbLine
 10
-54.749994391234537
 20
160.00003806971955
 30
0.0
 11
-55.249993404738774
 21
160.50003518662322
 31
0.0
  0
LINE
  5
71
100
AcDbEntity
  8
0
  6
CONTINUOUS
 62
               7
100
AcDbLine
 10
69.749999046325797
 20
160.00003051757818
 30
0.0
 11
65.250012397766113
 21
160.00003051757818
 31
0.0
  0
LINE
  5
72
100
AcDbEntity
  8
0
  6
CONTINUOUS
 62
               7
100
AcDbLine
 10
70.25
 20
160.50003051757813
 30
0.0
 11
70.25
 21
163.00003051757813
 31
0.0
  0
LINE
  5
73
100
AcDbEntity
  8
0
  6
CONTINUOUS
 62
               7
100
AcDbLine
 10
70.249994542703575
 20
160.50003497588682
 30
0.0
 11
69.749995571345949
 21
160.00003790112984
 31
0.0
  0
LINE
  5
74
100
AcDbEntity
  8
0
  6
CONTINUOUS
 62
               7
100
AcDbLine
 10
70.249999046325797
 20
160.50003147125244
 30
0.0
 11
64.750000000000114
 21
160.50003147125244
 31
0.0
  0
LINE
  5
75
100
AcDbEntity
  8
0
  6
CONTINUOUS
 62
               7
100
AcDbLine
 10
64.750000000000114
 20
163.00003051757813
 30
0.0
 11
64.750000000000114
 21
160.50003051757813
 31
0.0
  0
LINE
  5
76
100
AcDbEntity
  8
0
  6
CONTINUOUS
 62
               7
100
AcDbLine
 10
65.250005608765491
 20
160.00003806971955
 30
0.0
 11
64.750006595261084
 21
160.50003518662322
 31
0.0
  0
CIRCLE
  5
77
100
AcDbEntity
  8
0
  6
CONTINUOUS
 62
               7
100
AcDbCircle
 10
120.50000000000011
 20
181.0
 30
0.0
 40
2.1500000953674316
  0
CIRCLE
  5
78
100
AcDbEntity
  8
0
  6
CONTINUOUS
 62
               7
100
AcDbCircle
 10
120.50000000000011
 20
181.0
 30
0.0
 40
2.0750000476837158
  0
CIRCLE
  5
79
100
AcDbEntity
  8
0
  6
CONTINUOUS
 62
               7
100
AcDbCircle
 10
120.50000000000011
 20
195.0
 30
0.0
 40
2.1500000953674316
  0
CIRCLE
  5
7A
100
AcDbEntity
  8
0
  6
CONTINUOUS
 62
               7
100
AcDbCircle
 10
120.50000000000011
 20
195.0
 30
0.0
 40
2.0750000476837158
  0
ARC
  5
7B
100
AcDbEntity
  8
0
  6
CONTINUOUS
 62
               7
100
AcDbCircle
 10
-104.45025634765616
 20
197.69998168945312
 30
0.0
 40
5.0
100
AcDbArc
 50
90.000002504478161
 51
140.58004632746963
  0
ARC
  5
7C
100
AcDbEntity
  8
0
  6
CONTINUOUS
 62
               7
100
AcDbCircle
 10
-59.999999999999943
 20
185.0
 30
0.0
 40
50.0
100
AcDbArc
 50
161.77401403899248
 51
191.03970806633964
  0
ARC
  5
7D
100
AcDbEntity
  8
0
  6
CONTINUOUS
 62
               7
100
AcDbCircle
 10
-107.02777099609366
 20
179.00000000000003
 30
0.0
 40
5.9999999999999991
100
AcDbArc
 50
198.4084749552519
 51
269.99999749552182
  0
ARC
  5
7E
100
AcDbEntity
  8
0
  6
CONTINUOUS
 62
               7
100
AcDbCircle
 10
-106.13024902343741
 20
176.0
 30
0.0
 40
2.9999999999999996
100
AcDbArc
 50
191.03971170880533
 51
269.99999749552182
  0
ARC
  5
7F
100
AcDbEntity
  8
0
  6
CONTINUOUS
 62
               7
100
AcDbCircle
 10
-88.999999999999858
 20
185.0
 30
0.0
 40
25.0
100
AcDbArc
 50
140.58004632746963
 51
198.40848497316458
  0
ARC
  5
80
100
AcDbEntity
  8
0
  6
CONTINUOUS
 62
               7
100
AcDbCircle
 10
-104.64202880859369
 20
199.69998168945318
 30
0.0
 40
2.9999999999999996
100
AcDbArc
 50
90.000002504478161
 51
161.77401403899248
  0
ARC
  5
81
100
AcDbEntity
  8
0
  6
CONTINUOUS
 62
               7
100
AcDbCircle
 10
50.000000000000114
 20
44.699981689453182
 30
0.0
 40
1.299999952316284
100
AcDbArc
 50
90.000002504478161
 51
180.00000500895632
  0
ARC
  5
82
100
AcDbEntity
  8
0
  6
CONTINUOUS
 62
               7
100
AcDbCircle
 10
50.000000000000114
 20
35.699981689453125
 30
0.0
 40
1.299999952316284
100
AcDbArc
 50
179.99999499104368
 51
269.99999749552182
  0
ARC
  5
83
100
AcDbEntity
  8
0
  6
CONTINUOUS
 62
               7
100
AcDbCircle
 10
80.000000000000114
 20
35.699981689453125
 30
0.0
 40
1.299999952316284
100
AcDbArc
 50
269.99999749552182
 51
0.0
  0
ARC
  5
84
100
AcDbEntity
  8
0
  6
CONTINUOUS
 62
               7
100
AcDbCircle
 10
80.000000000000114
 20
44.699981689453182
 30
0.0
 40
1.299999952316284
100
AcDbArc
 50
0.0
 51
90.000002504478161
  0
ARC
  5
85
100
AcDbEntity
  8
0
  6
CONTINUOUS
 62
               7
100
AcDbCircle
 10
-96.999999999999915
 20
34.199981689453239
 30
0.0
 40
1.299999952316284
100
AcDbArc
 50
179.99999499104368
 51
269.99999749552182
  0
ARC
  5
86
100
AcDbEntity
  8
0
  6
CONTINUOUS
 62
               7
100
AcDbCircle
 10
-48.999999999999858
 20
34.199981689453239
 30
0.0
 40
1.299999952316284
100
AcDbArc
 50
269.99999749552182
 51
0.0
  0
ARC
  5
87
100
AcDbEntity
  8
0
  6
CONTINUOUS
 62
               7
100
AcDbCircle
 10
-48.999999999999858
 20
46.199981689453182
 30
0.0
 40
1.299999952316284
100
AcDbArc
 50
0.0
 51
90.000002504478161
  0
ARC
  5
88
100
AcDbEntity
  8
0
  6
CONTINUOUS
 62
               7
100
AcDbCircle
 10
-96.999999999999915
 20
46.199981689453182
 30
0.0
 40
1.299999952316284
100
AcDbArc
 50
90.000002504478161
 51
180.00000500895632
  0
ARC
  5
89
100
AcDbEntity
  8
0
  6
CONTINUOUS
 62
               7
100
AcDbCircle
 10
50.000000000000114
 20
35.699981689453125
 30
0.0
 40
1.0
100
AcDbArc
 50
179.99999499104368
 51
269.99999749552182
  0
ARC
  5
8A
100
AcDbEntity
  8
0
  6
CONTINUOUS
 62
               7
100
AcDbCircle
 10
80.000000000000114
 20
35.699981689453125
 30
0.0
 40
1.0
100
AcDbArc
 50
269.99999749552182
 51
0.0
  0
ARC
  5
8B
100
AcDbEntity
  8
0
  6
CONTINUOUS
 62
               7
100
AcDbCircle
 10
-48.999999999999858
 20
46.199981689453182
 30
0.0
 40
1.0
100
AcDbArc
 50
0.0
 51
90.000002504478161
  0
ARC
  5
8C
100
AcDbEntity
  8
0
  6
CONTINUOUS
 62
               7
100
AcDbCircle
 10
-96.999999999999915
 20
34.199981689453239
 30
0.0
 40
1.0
100
AcDbArc
 50
179.99999499104368
 51
269.99999749552182
  0
ARC
  5
8D
100
AcDbEntity
  8
0
  6
CONTINUOUS
 62
               7
100
AcDbCircle
 10
-96.999999999999915
 20
46.199981689453182
 30
0.0
 40
1.0
100
AcDbArc
 50
90.000002504478161
 51
180.00000500895632
  0
ARC
  5
8E
100
AcDbEntity
  8
0
  6
CONTINUOUS
 62
               7
100
AcDbCircle
 10
-48.999999999999858
 20
34.199981689453239
 30
0.0
 40
1.0
100
AcDbArc
 50
269.99999749552182
 51
0.0
  0
ARC
  5
8F
100
AcDbEntity
  8
0
  6
CONTINUOUS
 62
               7
100
AcDbCircle
 10
80.000000000000114
 20
44.699981689453182
 30
0.0
 40
1.0
100
AcDbArc
 50
0.0
 51
90.000002504478161
  0
ARC
  5
90
100
AcDbEntity
  8
0
  6
CONTINUOUS
 62
               7
100
AcDbCircle
 10
50.000000000000114
 20
44.699981689453182
 30
0.0
 40
1.0
100
AcDbArc
 50
90.000002504478161
 51
180.00000500895632
  0
ARC
  5
91
100
AcDbEntity
  8
0
  6
CONTINUOUS
 62
               7
100
AcDbCircle
 10
0.0000000000000568
 20
372.41571044921875
 30
0.0
 40
321.4600830078125
100
AcDbArc
 50
263.53481531014518
 51
276.46516769591074
  0
CIRCLE
  5
92
100
AcDbEntity
  8
0
  6
CONTINUOUS
 62
               7
100
AcDbCircle
 10
-36.0
 20
19.331939697265682
 30
0.0
 40
2.7000000476837158
  0
CIRCLE
  5
93
100
AcDbEntity
  8
0
  6
CONTINUOUS
 62
               7
100
AcDbCircle
 10
-36.0
 20
19.331939697265682
 30
0.0
 40
3.2000000476837158
  0
CIRCLE
  5
94
100
AcDbEntity
  8
0
  6
CONTINUOUS
 62
               7
100
AcDbCircle
 10
-46.0
 20
19.29998779296875
 30
0.0
 40
3.2000000476837158
  0
CIRCLE
  5
95
100
AcDbEntity
  8
0
  6
CONTINUOUS
 62
               7
100
AcDbCircle
 10
-46.0
 20
19.29998779296875
 30
0.0
 40
2.7000000476837158
  0
ARC
  5
96
100
AcDbEntity
  8
0
  6
CONTINUOUS
 62
               7
100
AcDbCircle
 10
30.000000000000114
 20
48.870330810546875
 30
0.0
 40
6.3296561241149902
100
AcDbArc
 50
70.857290864871885
 51
102.92543199924279
  0
ARC
  5
97
100
AcDbEntity
  8
0
  6
CONTINUOUS
 62
               7
100
AcDbCircle
 10
103.4000244140625
 20
51.399993896484489
 30
0.0
 40
1.6000000238418579
100
AcDbArc
 50
0.0000000000000509
 51
90.000002504478161
  0
ARC
  5
98
100
AcDbEntity
  8
0
  6
CONTINUOUS
 62
               7
100
AcDbCircle
 10
103.4000244140625
 20
4.79998779296875
 30
0.0
 40
1.6000000238418579
100
AcDbArc
 50
269.99999749552182
 51
0.0000000000001018
  0
ARC
  5
99
100
AcDbEntity
  8
0
  6
CONTINUOUS
 62
               7
100
AcDbCircle
 10
-103.40002441406236
 20
51.399993896484489
 30
0.0
 40
1.6000000238418579
100
AcDbArc
 50
90.000002504478161
 51
180.00000500895632
  0
ARC
  5
9A
100
AcDbEntity
  8
0
  6
CONTINUOUS
 62
               7
100
AcDbCircle
 10
-103.40002441406236
 20
4.79998779296875
 30
0.0
 40
1.6000000238418579
100
AcDbArc
 50
179.99999499104368
 51
269.99999749552182
  0
LINE
  5
9B
100
AcDbEntity
  8
0
  6
CONTINUOUS
 62
               7
100
AcDbLine
 10
117.0
 20
194.00000000000003
 30
0.0
 11
-101.99999999999991
 21
194.00000000000003
 31
0.0
  0
LINE
  5
9C
100
AcDbEntity
  8
0
  6
CONTINUOUS
 62
               7
100
AcDbLine
 10
195.0
 20
173.00000000000006
 30
0.0
 11
-107.02777125836201
 21
173.00000000000006
 31
0.0
  0
LINE
  5
9D
100
AcDbEntity
  8
0
  6
CONTINUOUS
 62
               7
100
AcDbLine
 10
105.00000000000011
 20
163.00000000000006
 30
0.0
 11
-104.99999999999994
 21
163.00000000000006
 31
0.0
  0
LINE
  5
9E
100
AcDbEntity
  8
0
  6
CONTINUOUS
 62
               2
100
AcDbLine
 10
75.000000000000114
 20
210.94948287300076
 30
0.0
 11
75.000000000000114
 21
154.03333262111633
 31
0.0
  0
LINE
  5
9F
100
AcDbEntity
  8
0
  6
CONTINUOUS
 62
               7
100
AcDbLine
 10
-106.0
 20
187.00000000000006
 30
0.0
 11
-106.0
 21
186.50000000000003
 31
0.0
  0
LINE
  5
A0
100
AcDbEntity
  8
0
  6
CONTINUOUS
 62
               7
100
AcDbLine
 10
-101.99999999999991
 20
186.50000000000003
 30
0.0
 11
-106.0
 21
186.50000000000003
 31
0.0
  0
LINE
  5
A1
100
AcDbEntity
  8
0
  6
CONTINUOUS
 62
               7
100
AcDbLine
 10
-101.99999999999991
 20
192.5
 30
0.0
 11
-106.0
 21
192.5
 31
0.0
  0
LINE
  5
A2
100
AcDbEntity
  8
0
  6
CONTINUOUS
 62
               7
100
AcDbLine
 10
-106.0
 20
192.5
 30
0.0
 11
-106.0
 21
192.00000000000006
 31
0.0
  0
LINE
  5
A3
100
AcDbEntity
  8
0
  6
CONTINUOUS
 62
               7
100
AcDbLine
 10
-101.99999999999991
 20
192.00000000000006
 30
0.0
 11
-106.0
 21
192.00000000000006
 31
0.0
  0
LINE
  5
A4
100
AcDbEntity
  8
0
  6
CONTINUOUS
 62
               7
100
AcDbLine
 10
-101.99999999999991
 20
187.00000000000006
 30
0.0
 11
-106.0
 21
187.00000000000006
 31
0.0
  0
LINE
  5
A5
100
AcDbEntity
  8
0
  6
CONTINUOUS
 62
               7
100
AcDbLine
 10
-101.99999999999991
 20
202.70001220703131
 30
0.0
 11
-104.45025634765616
 21
202.70001220703131
 31
0.0
  0
LINE
  5
A6
100
AcDbEntity
  8
0
  6
CONTINUOUS
 62
               7
100
AcDbLine
 10
54.0
 20
198.86450195312503
 30
0.0
 11
-101.99999999999991
 21
198.86450195312503
 31
0.0
  0
LINE
  5
A7
100
AcDbEntity
  8
0
  6
CONTINUOUS
 62
               7
100
AcDbLine
 10
117.0
 20
205.50000000000006
 30
0.0
 11
117.0
 21
173.00000000000006
 31
0.0
  0
LINE
  5
A8
100
AcDbEntity
  8
0
  6
CONTINUOUS
 62
               7
100
AcDbLine
 10
117.0
 20
195.94641113281253
 30
0.0
 11
96.000000000000114
 21
195.94641113281253
 31
0.0
  0
LINE
  5
A9
100
AcDbEntity
  8
0
  6
CONTINUOUS
 62
               7
100
AcDbLine
 10
117.0
 20
198.86450195312503
 30
0.0
 11
96.000000000000114
 21
198.86450195312503
 31
0.0
  0
LINE
  5
AA
100
AcDbEntity
  8
0
  6
CONTINUOUS
 62
               7
100
AcDbLine
 10
54.0
 20
201.39999389648437
 30
0.0
 11
-101.99999999999991
 21
201.39999389648437
 31
0.0
  0
LINE
  5
AB
100
AcDbEntity
  8
0
  6
CONTINUOUS
 62
               7
100
AcDbLine
 10
117.0
 20
201.39999389648437
 30
0.0
 11
96.000000000000114
 21
201.39999389648437
 31
0.0
  0
LINE
  5
AC
100
AcDbEntity
  8
0
  6
CONTINUOUS
 62
               7
100
AcDbLine
 10
-101.99999999999991
 20
202.70001220703131
 30
0.0
 11
-101.99999999999991
 21
173.00000000000006
 31
0.0
  0
LINE
  5
AD
100
AcDbEntity
  8
0
  6
CONTINUOUS
 62
               7
100
AcDbLine
 10
195.0
 20
205.50000000000006
 30
0.0
 11
117.0
 21
205.50000000000006
 31
0.0
  0
LINE
  5
AE
100
AcDbEntity
  8
0
  6
CONTINUOUS
 62
               7
100
AcDbLine
 10
195.0
 20
205.50000000000006
 30
0.0
 11
195.0
 21
173.00000000000006
 31
0.0
  0
LINE
  5
AF
100
AcDbEntity
  8
0
  6
CONTINUOUS
 62
               7
100
AcDbLine
 10
194.06762695312489
 20
200.32843017578128
 30
0.0
 11
117.74291992187511
 21
200.32843017578128
 31
0.0
  0
LINE
  5
B0
100
AcDbEntity
  8
0
  6
CONTINUOUS
 62
               7
100
AcDbLine
 10
54.0
 20
195.94641113281253
 30
0.0
 11
-101.99999999999991
 21
195.94641113281253
 31
0.0
  0
LINE
  5
B1
100
AcDbEntity
  8
0
  6
CONTINUOUS
 62
               7
100
AcDbLine
 10
48.70001220703125
 20
35.699981689453125
 30
0.0
 11
48.70001220703125
 21
44.699981689453182
 31
0.0
  0
LINE
  5
B2
100
AcDbEntity
  8
0
  6
CONTINUOUS
 62
               7
100
AcDbLine
 10
80.000000000000114
 20
34.399993896484432
 30
0.0
 11
50.000000000000114
 21
34.399993896484432
 31
0.0
  0
LINE
  5
B3
100
AcDbEntity
  8
0
  6
CONTINUOUS
 62
               7
100
AcDbLine
 10
81.299987792968864
 20
35.699981689453125
 30
0.0
 11
81.299987792968864
 21
44.699981689453182
 31
0.0
  0
LINE
  5
B4
100
AcDbEntity
  8
0
  6
CONTINUOUS
 62
               7
100
AcDbLine
 10
80.000000000000114
 20
45.999969482421875
 30
0.0
 11
50.000000000000114
 21
45.999969482421875
 31
0.0
  0
LINE
  5
B5
100
AcDbEntity
  8
0
  6
CONTINUOUS
 62
               7
100
AcDbLine
 10
-48.999999999999858
 20
32.899993896484375
 30
0.0
 11
-96.999999999999915
 21
32.899993896484375
 31
0.0
  0
LINE
  5
B6
100
AcDbEntity
  8
0
  6
CONTINUOUS
 62
               7
100
AcDbLine
 10
-47.700012207031222
 20
34.199981689453239
 30
0.0
 11
-47.700012207031222
 21
46.199981689453182
 31
0.0
  0
LINE
  5
B7
100
AcDbEntity
  8
0
  6
CONTINUOUS
 62
               7
100
AcDbLine
 10
-48.999999999999858
 20
47.499969482421932
 30
0.0
 11
-96.999999999999915
 21
47.499969482421932
 31
0.0
  0
LINE
  5
B8
100
AcDbEntity
  8
0
  6
CONTINUOUS
 62
               7
100
AcDbLine
 10
-98.299987792968722
 20
34.199981689453239
 30
0.0
 11
-98.299987792968722
 21
46.199981689453182
 31
0.0
  0
LINE
  5
B9
100
AcDbEntity
  8
0
  6
CONTINUOUS
 62
               7
100
AcDbLine
 10
80.000000000000114
 20
34.699981689453182
 30
0.0
 11
50.000000000000114
 21
34.699981689453182
 31
0.0
  0
LINE
  5
BA
100
AcDbEntity
  8
0
  6
CONTINUOUS
 62
               7
100
AcDbLine
 10
80.000000000000114
 20
45.699981689453125
 30
0.0
 11
50.000000000000114
 21
45.699981689453125
 31
0.0
  0
LINE
  5
BB
100
AcDbEntity
  8
0
  6
CONTINUOUS
 62
               7
100
AcDbLine
 10
81.000000000000114
 20
35.699981689453125
 30
0.0
 11
81.000000000000114
 21
44.699981689453182
 31
0.0
  0
LINE
  5
BC
100
AcDbEntity
  8
0
  6
CONTINUOUS
 62
               7
100
AcDbLine
 10
49.0
 20
35.699981689453125
 30
0.0
 11
49.0
 21
44.699981689453182
 31
0.0
  0
LINE
  5
BD
100
AcDbEntity
  8
0
  6
CONTINUOUS
 62
               7
100
AcDbLine
 10
-48.999999999999858
 20
47.199981689453182
 30
0.0
 11
-96.999999999999915
 21
47.199981689453182
 31
0.0
  0
LINE
  5
BE
100
AcDbEntity
  8
0
  6
CONTINUOUS
 62
               7
100
AcDbLine
 10
-48.999999999999858
 20
33.199981689453125
 30
0.0
 11
-96.999999999999915
 21
33.199981689453125
 31
0.0
  0
LINE
  5
BF
100
AcDbEntity
  8
0
  6
CONTINUOUS
 62
               7
100
AcDbLine
 10
-97.999999999999972
 20
34.199981689453239
 30
0.0
 11
-97.999999999999972
 21
46.199981689453182
 31
0.0
  0
LINE
  5
C0
100
AcDbEntity
  8
0
  6
CONTINUOUS
 62
               7
100
AcDbLine
 10
-47.999999999999972
 20
34.199981689453239
 30
0.0
 11
-47.999999999999972
 21
46.199981689453182
 31
0.0
  0
LINE
  5
C1
100
AcDbEntity
  8
0
  6
CONTINUOUS
 62
               7
100
AcDbLine
 10
25.000000000000085
 20
56.0
 30
0.0
 11
-24.999990533184246
 21
56.0
 31
0.0
  0
LINE
  5
C2
100
AcDbEntity
  8
0
  6
CONTINUOUS
 62
               7
100
AcDbLine
 10
25.000000000000085
 20
62.000000000000057
 30
0.0
 11
25.000000000000085
 21
58.000000000000057
 31
0.0
  0
LINE
  5
C3
100
AcDbEntity
  8
0
  6
CONTINUOUS
 62
               7
100
AcDbLine
 10
25.000000000000085
 20
58.000000000000057
 30
0.0
 11
19.000000000000028
 21
58.000000000000057
 31
0.0
  0
LINE
  5
C4
100
AcDbEntity
  8
0
  6
CONTINUOUS
 62
               7
100
AcDbLine
 10
25.000000000000085
 20
62.000000000000057
 30
0.0
 11
-24.999999999999943
 21
62.000000000000057
 31
0.0
  0
LINE
  5
C5
100
AcDbEntity
  8
0
  6
CONTINUOUS
 62
               7
100
AcDbLine
 10
14.000000000000028
 20
58.000000000000057
 30
0.0
 11
14.000000000000028
 21
56.0
 31
0.0
  0
LINE
  5
C6
100
AcDbEntity
  8
0
  6
CONTINUOUS
 62
               7
100
AcDbLine
 10
19.000000000000028
 20
58.000000000000057
 30
0.0
 11
19.000000000000028
 21
56.0
 31
0.0
  0
LINE
  5
C7
100
AcDbEntity
  8
0
  6
CONTINUOUS
 62
               7
100
AcDbLine
 10
-24.999999999999943
 20
62.000000000000057
 30
0.0
 11
-24.999999999999943
 21
58.000000000000057
 31
0.0
  0
LINE
  5
C8
100
AcDbEntity
  8
0
  6
CONTINUOUS
 62
               7
100
AcDbLine
 10
29.291809082031364
 20
54.85000610351571
 30
0.0
 11
32.075622558593864
 21
54.85000610351571
 31
0.0
  0
LINE
  5
C9
100
AcDbEntity
  8
0
  6
CONTINUOUS
 62
               7
100
AcDbLine
 10
32.0756380997218
 20
54.850002456953973
 30
0.0
 11
32.142463798605377
 21
54.086181221316167
 31
0.0
  0
LINE
  5
CA
100
AcDbEntity
  8
0
  6
CONTINUOUS
 62
               7
100
AcDbLine
 10
92.849975585937614
 20
163.00000000000006
 30
0.0
 11
92.849975585937614
 21
53.000000000000057
 31
0.0
  0
LINE
  5
CB
100
AcDbEntity
  8
0
  6
CONTINUOUS
 62
               7
100
AcDbLine
 10
97.1500244140625
 20
163.00000000000006
 30
0.0
 11
97.1500244140625
 21
53.000000000000057
 31
0.0
  0
LINE
  5
CC
100
AcDbEntity
  8
0
  6
CONTINUOUS
 62
               7
100
AcDbLine
 10
-97.150024414062358
 20
163.00000000000006
 30
0.0
 11
-97.150024414062358
 21
53.000000000000057
 31
0.0
  0
LINE
  5
CD
100
AcDbEntity
  8
0
  6
CONTINUOUS
 62
               7
100
AcDbLine
 10
-92.8499755859375
 20
163.00000000000006
 30
0.0
 11
-92.8499755859375
 21
53.000000000000057
 31
0.0
  0
LINE
  5
CE
100
AcDbEntity
  8
0
  6
CONTINUOUS
 62
               2
100
AcDbLine
 10
67.500000000000114
 20
174.42561074498508
 30
0.0
 11
67.500000000000114
 21
158.40612340583445
 31
0.0
  0
LINE
  5
CF
100
AcDbEntity
  8
0
  6
CONTINUOUS
 62
               2
100
AcDbLine
 10
-52.499999999999943
 20
174.42561074498508
 30
0.0
 11
-52.499999999999943
 21
158.11876523644528
 31
0.0
  0
LINE
  5
D0
100
AcDbEntity
  8
0
  6
CONTINUOUS
 62
               7
100
AcDbLine
 10
-84.999999999999943
 20
163.00000000000006
 30
0.0
 11
-84.999999999999943
 21
53.000000000000057
 31
0.0
  0
LINE
  5
D1
100
AcDbEntity
  8
0
  6
CONTINUOUS
 62
               7
100
AcDbLine
 10
85.000000000000114
 20
163.00000000000006
 30
0.0
 11
85.000000000000114
 21
53.000000000000057
 31
0.0
  0
LINE
  5
D2
100
AcDbEntity
  8
0
  6
CONTINUOUS
 62
               7
100
AcDbLine
 10
105.00000000000011
 20
53.000000000000057
 30
0.0
 11
36.196105957031364
 21
53.000000000000057
 31
0.0
  0
LINE
  5
D3
100
AcDbEntity
  8
0
  6
CONTINUOUS
 62
               7
100
AcDbLine
 10
82.0
 20
0.0000000000000568
 30
0.0
 11
94.0
 21
0.0000000000000568
 31
0.0
  0
LINE
  5
D4
100
AcDbEntity
  8
0
  6
CONTINUOUS
 62
               7
100
AcDbLine
 10
82.0
 20
0.0000000000000568
 30
0.0
 11
82.0
 21
3.199981689453125
 31
0.0
  0
LINE
  5
D5
100
AcDbEntity
  8
0
  6
CONTINUOUS
 62
               7
100
AcDbLine
 10
94.0
 20
0.0000000000000568
 30
0.0
 11
94.0
 21
3.199981689453125
 31
0.0
  0
LINE
  5
D6
100
AcDbEntity
  8
0
  6
CONTINUOUS
 62
               7
100
AcDbLine
 10
24.999990533184388
 20
55.999989511135993
 30
0.0
 11
36.196098885373544
 21
53.000001294651213
 31
0.0
  0
LINE
  5
D7
100
AcDbEntity
  8
0
  6
CONTINUOUS
 62
               7
100
AcDbLine
 10
-104.99999999999994
 20
53.000000000000057
 30
0.0
 11
-36.196103717077307
 21
53.000000000000057
 31
0.0
  0
LINE
  5
D8
100
AcDbEntity
  8
0
  6
CONTINUOUS
 62
               7
100
AcDbLine
 10
-104.99999999999994
 20
170.00000000000006
 30
0.0
 11
-104.99999999999994
 21
53.000000000000057
 31
0.0
  0
LINE
  5
D9
100
AcDbEntity
  8
0
  6
CONTINUOUS
 62
               7
100
AcDbLine
 10
103.4000244140625
 20
3.199981689453125
 30
0.0
 11
80.000024437904358
 21
3.199981689453125
 31
0.0
  0
LINE
  5
DA
100
AcDbEntity
  8
0
  6
CONTINUOUS
 62
               7
100
AcDbLine
 10
-81.999999999999915
 20
0.0000000000000568
 30
0.0
 11
-93.999999999999858
 21
0.0000000000000568
 31
0.0
  0
LINE
  5
DB
100
AcDbEntity
  8
0
  6
CONTINUOUS
 62
               7
100
AcDbLine
 10
-81.999999999999915
 20
0.0000000000000568
 30
0.0
 11
-81.999999999999915
 21
3.199981689453125
 31
0.0
  0
LINE
  5
DC
100
AcDbEntity
  8
0
  6
CONTINUOUS
 62
               7
100
AcDbLine
 10
-93.999999999999858
 20
0.0000000000000568
 30
0.0
 11
-93.999999999999858
 21
3.199981689453125
 31
0.0
  0
LINE
  5
DD
100
AcDbEntity
  8
0
  6
CONTINUOUS
 62
               7
100
AcDbLine
 10
-104.99999999999994
 20
4.79998779296875
 30
0.0
 11
-104.99999999999994
 21
51.399993896484489
 31
0.0
  0
LINE
  5
DE
100
AcDbEntity
  8
0
  6
CONTINUOUS
 62
               7
100
AcDbLine
 10
119.43933982822023
 20
193.93933982822023
 30
0.0
 11
121.56066017177989
 21
196.06066017177977
 31
0.0
  0
LINE
  5
DF
100
AcDbEntity
  8
0
  6
CONTINUOUS
 62
               7
100
AcDbLine
 10
119.43933982822023
 20
196.06066017177977
 30
0.0
 11
121.56066017177989
 21
193.93933982822023
 31
0.0
  0
LINE
  5
E0
100
AcDbEntity
  8
0
  6
CONTINUOUS
 62
               7
100
AcDbLine
 10
119.43933982822023
 20
179.93933982822023
 30
0.0
 11
121.56066017177989
 21
182.06066017177977
 31
0.0
  0
LINE
  5
E1
100
AcDbEntity
  8
0
  6
CONTINUOUS
 62
               7
100
AcDbLine
 10
119.43933982822023
 20
182.06066017177977
 30
0.0
 11
121.56066017177989
 21
179.93933982822023
 31
0.0
  0
LINE
  5
E2
100
AcDbEntity
  8
0
  6
CONTINUOUS
 62
               2
100
AcDbLine
 10
0.0000000000000568
 20
67.851828241579199
 30
0.0
 11
0.0000000000000568
 21
-10.851869849811692
 31
0.0
  0
ENDBLK
  5
E3
100
AcDbEntity
  8
0
100
AcDbBlockEnd
  0
BLOCK
  5
E4
100
AcDbEntity
  8
0
100
AcDbBlockBegin
  2
DTRB-AS2-2
 70
               0
 10
0.0
 20
0.0
 30
0.0
  3
DTRB-AS2-2
  1

  0
LINE
  5
E5
100
AcDbEntity
  8
0
  6
CONTINUOUS
 62
               7
100
AcDbLine
 10
-3.4000228881837415
 20
143.99998157945311
 30
0.0
 11
-3.4000228881837415
 21
148.99998157945311
 31
0.0
  0
LINE
  5
E6
100
AcDbEntity
  8
0
  6
CONTINUOUS
 62
               7
100
AcDbLine
 10
-5.1000228881837302
 20
143.99998157945311
 30
0.0
 11
-1.8000228881837188
 21
143.99998157945311
 31
0.0
  0
LINE
  5
E7
100
AcDbEntity
  8
0
  6
CONTINUOUS
 62
               7
100
AcDbLine
 10
-5.1000228881837302
 20
148.99998157945311
 30
0.0
 11
-1.8000228881837188
 21
148.99998157945311
 31
0.0
  0
LINE
  5
E8
100
AcDbEntity
  8
0
  6
CONTINUOUS
 62
               7
100
AcDbLine
 10
-1.8000229186498018
 20
140.99998157945308
 30
0.0
 11
-5.1000229305706739
 21
141.58186062154203
 31
0.0
  0
LINE
  5
E9
100
AcDbEntity
  8
0
  6
CONTINUOUS
 62
               7
100
AcDbLine
 10
-1.8000228881837188
 20
130.49998157945305
 30
0.0
 11
-1.8000228881837188
 21
150.99998157945308
 31
0.0
  0
LINE
  5
EA
100
AcDbEntity
  8
0
  6
CONTINUOUS
 62
               7
100
AcDbLine
 10
-5.1000228881837302
 20
141.58186061406809
 30
0.0
 11
-5.1000228881837302
 21
150.99998157945308
 31
0.0
  0
LINE
  5
EB
100
AcDbEntity
  8
0
  6
CONTINUOUS
 62
               7
100
AcDbLine
 10
-5.5000226974488555
 20
138.99998157945305
 30
0.0
 11
-1.8000228881837188
 21
138.99998157945305
 31
0.0
  0
LINE
  5
EC
100
AcDbEntity
  8
0
  6
CONTINUOUS
 62
               7
100
AcDbLine
 10
-5.5000228607958661
 20
138.99998148806384
 30
0.0
 11
-5.8000228488749599
 21
138.48036637347275
 31
0.0
  0
LINE
  5
ED
100
AcDbEntity
  8
0
  6
CONTINUOUS
 62
               7
100
AcDbLine
 10
-5.8000228881837756
 20
138.48036640611321
 30
0.0
 11
-5.8000228881837756
 21
132.51959770646721
 31
0.0
  0
LINE
  5
EE
100
AcDbEntity
  8
0
  6
CONTINUOUS
 62
               7
100
AcDbLine
 10
-5.5000226974488555
 20
138.99998157945305
 30
0.0
 11
-5.5000226974488555
 21
131.99998157945305
 31
0.0
  0
LINE
  5
EF
100
AcDbEntity
  8
0
  6
CONTINUOUS
 62
               7
100
AcDbLine
 10
-5.5000226551444484
 20
131.99998199647479
 30
0.0
 11
-5.8000227743536925
 21
132.51959763130736
 31
0.0
  0
LINE
  5
F0
100
AcDbEntity
  8
0
  6
CONTINUOUS
 62
               7
100
AcDbLine
 10
-5.5000226974488555
 20
131.99998157945305
 30
0.0
 11
-1.8000228881837188
 21
131.99998157945305
 31
0.0
  0
LINE
  5
F1
100
AcDbEntity
  8
0
  6
CONTINUOUS
 62
               2
100
AcDbLine
 10
-6.898139171495643
 20
135.49998157945305
 30
0.0
 11
2.3989815897347739
 21
135.49998157945305
 31
0.0
  0
LINE
  5
F2
100
AcDbEntity
  8
0
  6
CONTINUOUS
 62
               7
100
AcDbLine
 10
-5.1000228881837302
 20
150.99998157945308
 30
0.0
 11
-0.0000228881837643
 21
150.99998157945308
 31
0.0
  0
LINE
  5
F3
100
AcDbEntity
  8
0
  6
CONTINUOUS
 62
               7
100
AcDbLine
 10
-1.8000228881837188
 20
130.49998157945305
 30
0.0
 11
-0.0000228881837643
 21
130.49998157945305
 31
0.0
  0
LINE
  5
F4
100
AcDbEntity
  8
0
  6
CONTINUOUS
 62
               7
100
AcDbLine
 10
-49.499984741210994
 20
46.499981689452966
 30
0.0
 11
-0.0000000000000568
 21
46.499981689452966
 31
0.0
  0
ARC
  5
F5
100
AcDbEntity
  8
0
  6
CONTINUOUS
 62
               7
100
AcDbCircle
 10
14.899999839999907
 20
178.49998735296873
 30
0.0
 40
1.0
100
AcDbArc
 50
180.0
 51
270.0
  0
LINE
  5
F6
100
AcDbEntity
  8
0
  6
CONTINUOUS
 62
               7
100
AcDbLine
 10
13.89999983999985
 20
191.49998735296873
 30
0.0
 11
13.89999983999985
 21
178.49998735296873
 31
0.0
  0
LINE
  5
F7
100
AcDbEntity
  8
0
  6
CONTINUOUS
 62
               7
100
AcDbLine
 10
18.399999839999907
 20
177.29997904242185
 30
0.0
 11
18.399999839999907
 21
172.99998735296873
 31
0.0
  0
LINE
  5
F8
100
AcDbEntity
  8
0
  6
CONTINUOUS
 62
               7
100
AcDbLine
 10
18.89999983999985
 20
172.99998735296873
 30
0.0
 11
18.89999983999985
 21
177.29997904242185
 31
0.0
  0
ARC
  5
F9
100
AcDbEntity
  8
0
  6
CONTINUOUS
 62
               7
100
AcDbCircle
 10
18.399999839999907
 20
176.99998735296873
 30
0.0
 40
3.4999999999999996
100
AcDbArc
 50
180.0
 51
270.0
  0
LINE
  5
FA
100
AcDbEntity
  8
0
  6
CONTINUOUS
 62
               7
100
AcDbLine
 10
17.549999838487338
 20
197.0756258077069
 30
0.0
 11
18.399999844229285
 21
197.14999117198914
 31
0.0
  0
LINE
  5
FB
100
AcDbEntity
  8
0
  6
CONTINUOUS
 62
               7
100
AcDbLine
 10
17.549999838487224
 20
192.92435669119931
 30
0.0
 11
18.399999844229058
 21
192.84999132691701
 31
0.0
  0
LINE
  5
FC
100
AcDbEntity
  8
0
  6
CONTINUOUS
 62
               7
100
AcDbLine
 10
17.549999816158049
 20
192.92435653151182
 30
0.0
 11
17.549999816158049
 21
197.07562596739439
 31
0.0
  0
ARC
  5
FD
100
AcDbEntity
  8
0
  6
CONTINUOUS
 62
               7
100
AcDbCircle
 10
23.529655678012602
 20
194.99999124945288
 30
0.0
 40
6.3296561241149902
100
AcDbArc
 50
160.85729086486964
 51
199.14270731389303
  0
ARC
  5
FE
100
AcDbEntity
  8
0
  6
CONTINUOUS
 62
               7
100
AcDbCircle
 10
18.399999839999907
 20
192.99998735296873
 30
0.0
 40
3.4999999999999996
100
AcDbArc
 50
107.58284247057495
 51
180.0
  0
ARC
  5
FF
100
AcDbEntity
  8
0
  6
CONTINUOUS
 62
               7
100
AcDbCircle
 10
21.899999839999907
 20
196.26942118554658
 30
0.0
 40
2.9999999999999996
100
AcDbArc
 50
134.96855723541546
 51
180.0
  0
ARC
  5
100
100
AcDbEntity
  8
0
  6
CONTINUOUS
 62
               7
100
AcDbCircle
 10
21.899999839999907
 20
196.26942118554666
 30
0.0
 40
3.4999999999999996
100
AcDbArc
 50
134.9685572354158
 51
179.99999999999997
  0
LINE
  5
101
100
AcDbEntity
  8
0
  6
CONTINUOUS
 62
               7
100
AcDbLine
 10
18.89999983999985
 20
190.70000345648435
 30
0.0
 11
18.89999983999985
 21
196.26942118554658
 31
0.0
  0
LINE
  5
102
100
AcDbEntity
  8
0
  6
CONTINUOUS
 62
               7
100
AcDbLine
 10
21.004187720728567
 20
200.32162511577295
 30
0.0
 11
19.426484639077842
 21
198.74565270759933
 31
0.0
  0
LINE
  5
103
100
AcDbEntity
  8
0
  6
CONTINUOUS
 62
               7
100
AcDbLine
 10
21.004187720728567
 20
199.61490606126807
 30
0.0
 11
19.779843953495231
 21
198.39190534730602
 31
0.0
  0
ARC
  5
104
100
AcDbEntity
  8
0
  6
CONTINUOUS
 62
               7
100
AcDbCircle
 10
14.899999839999907
 20
191.49998735296873
 30
0.0
 40
1.0
100
AcDbArc
 50
90.0
 51
180.0
  0
LINE
  5
105
100
AcDbEntity
  8
0
  6
CONTINUOUS
 62
               7
100
AcDbLine
 10
14.899999839999907
 20
176.99998735296873
 30
0.0
 11
14.899999839999907
 21
192.99998735296873
 31
0.0
  0
LINE
  5
106
100
AcDbEntity
  8
0
  6
CONTINUOUS
 62
               7
100
AcDbLine
 10
18.399999839999907
 20
197.14999117198914
 30
0.0
 11
18.399999839999907
 21
190.70000345648435
 31
0.0
  0
LINE
  5
107
100
AcDbEntity
  8
0
  6
CONTINUOUS
 62
               7
100
AcDbLine
 10
59.99999983999993
 20
169.99998124945313
 30
0.0
 11
19.99999983999993
 21
169.99998124945313
 31
0.0
  0
ARC
  5
108
100
AcDbEntity
  8
0
  6
CONTINUOUS
 62
               7
100
AcDbCircle
 10
148.94999694824219
 20
44.799987792968636
 30
0.0
 40
1.0499999523162844
100
AcDbArc
 50
269.99999749552182
 51
90.000002504478161
  0
ARC
  5
109
100
AcDbEntity
  8
0
  6
CONTINUOUS
 62
               7
100
AcDbCircle
 10
141.04998779296875
 20
44.799987792968636
 30
0.0
 40
1.0499999523162844
100
AcDbArc
 50
90.000002504478161
 51
270.00000068324533
  0
ARC
  5
10A
100
AcDbEntity
  8
0
  6
CONTINUOUS
 62
               7
100
AcDbCircle
 10
133.95001220703128
 20
44.799987792968636
 30
0.0
 40
1.0499999523162844
100
AcDbArc
 50
269.99999749552182
 51
90.000002504478161
  0
ARC
  5
10B
100
AcDbEntity
  8
0
  6
CONTINUOUS
 62
               7
100
AcDbCircle
 10
126.04998779296875
 20
44.799987792968636
 30
0.0
 40
1.0499999523162844
100
AcDbArc
 50
90.000002504478161
 51
270.00000068324533
  0
ARC
  5
10C
100
AcDbEntity
  8
0
  6
CONTINUOUS
 62
               7
100
AcDbCircle
 10
118.95001220703128
 20
44.799987792968636
 30
0.0
 40
1.0499999523162844
100
AcDbArc
 50
269.99999749552182
 51
90.000002504478161
  0
ARC
  5
10D
100
AcDbEntity
  8
0
  6
CONTINUOUS
 62
               7
100
AcDbCircle
 10
111.04998779296875
 20
44.799987792968636
 30
0.0
 40
1.0499999523162844
100
AcDbArc
 50
90.000002504478161
 51
270.00000068324533
  0
ARC
  5
10E
100
AcDbEntity
  8
0
  6
CONTINUOUS
 62
               7
100
AcDbCircle
 10
96.04998779296875
 20
44.799987792968636
 30
0.0
 40
1.0499999523162844
100
AcDbArc
 50
90.000002504478161
 51
270.00000068324533
  0
ARC
  5
10F
100
AcDbEntity
  8
0
  6
CONTINUOUS
 62
               7
100
AcDbCircle
 10
103.95001220703128
 20
44.799987792968636
 30
0.0
 40
1.0499999523162844
100
AcDbArc
 50
269.99999749552182
 51
90.000002504478161
  0
ARC
  5
110
100
AcDbEntity
  8
0
  6
CONTINUOUS
 62
               7
100
AcDbCircle
 10
111.45001220703128
 20
39.799987792968636
 30
0.0
 40
1.0499999523162844
100
AcDbArc
 50
269.99999749552182
 51
90.000002504478161
  0
ARC
  5
111
100
AcDbEntity
  8
0
  6
CONTINUOUS
 62
               7
100
AcDbCircle
 10
103.54998779296875
 20
39.799987792968636
 30
0.0
 40
1.0499999523162844
100
AcDbArc
 50
90.000002504478161
 51
270.00000068324533
  0
ARC
  5
112
100
AcDbEntity
  8
0
  6
CONTINUOUS
 62
               7
100
AcDbCircle
 10
126.45001220703128
 20
39.799987792968636
 30
0.0
 40
1.0499999523162844
100
AcDbArc
 50
269.99999749552182
 51
90.000002504478161
  0
ARC
  5
113
100
AcDbEntity
  8
0
  6
CONTINUOUS
 62
               7
100
AcDbCircle
 10
118.54998779296875
 20
39.799987792968636
 30
0.0
 40
1.0499999523162844
100
AcDbArc
 50
90.000002504478161
 51
270.00000068324533
  0
ARC
  5
114
100
AcDbEntity
  8
0
  6
CONTINUOUS
 62
               7
100
AcDbCircle
 10
141.45001220703128
 20
39.799987792968636
 30
0.0
 40
1.0499999523162844
100
AcDbArc
 50
269.99999749552182
 51
90.000002504478161
  0
ARC
  5
115
100
AcDbEntity
  8
0
  6
CONTINUOUS
 62
               7
100
AcDbCircle
 10
133.54998779296875
 20
39.799987792968636
 30
0.0
 40
1.0499999523162844
100
AcDbArc
 50
90.000002504478161
 51
270.00000068324533
  0
ARC
  5
116
100
AcDbEntity
  8
0
  6
CONTINUOUS
 62
               7
100
AcDbCircle
 10
148.85079956054687
 20
34.799987792968636
 30
0.0
 40
1.0499999523162844
100
AcDbArc
 50
269.99999749552182
 51
90.000002504478161
  0
ARC
  5
117
100
AcDbEntity
  8
0
  6
CONTINUOUS
 62
               7
100
AcDbCircle
 10
140.9508056640625
 20
34.799987792968636
 30
0.0
 40
1.0499999523162844
100
AcDbArc
 50
90.000002504478161
 51
270.00000068324533
  0
ARC
  5
118
100
AcDbEntity
  8
0
  6
CONTINUOUS
 62
               7
100
AcDbCircle
 10
133.95001220703128
 20
34.799987792968636
 30
0.0
 40
1.0499999523162844
100
AcDbArc
 50
269.99999749552182
 51
90.000002504478161
  0
ARC
  5
119
100
AcDbEntity
  8
0
  6
CONTINUOUS
 62
               7
100
AcDbCircle
 10
126.04998779296875
 20
34.799987792968636
 30
0.0
 40
1.0499999523162844
100
AcDbArc
 50
90.000002504478161
 51
270.00000068324533
  0
ARC
  5
11A
100
AcDbEntity
  8
0
  6
CONTINUOUS
 62
               7
100
AcDbCircle
 10
118.95001220703128
 20
34.799987792968636
 30
0.0
 40
1.0499999523162844
100
AcDbArc
 50
269.99999749552182
 51
90.000002504478161
  0
ARC
  5
11B
100
AcDbEntity
  8
0
  6
CONTINUOUS
 62
               7
100
AcDbCircle
 10
111.04998779296875
 20
34.799987792968636
 30
0.0
 40
1.0499999523162844
100
AcDbArc
 50
90.000002504478161
 51
270.00000068324533
  0
ARC
  5
11C
100
AcDbEntity
  8
0
  6
CONTINUOUS
 62
               7
100
AcDbCircle
 10
96.04998779296875
 20
34.799987792968636
 30
0.0
 40
1.0499999523162844
100
AcDbArc
 50
90.000002504478161
 51
270.00000068324533
  0
ARC
  5
11D
100
AcDbEntity
  8
0
  6
CONTINUOUS
 62
               7
100
AcDbCircle
 10
103.95001220703128
 20
34.799987792968636
 30
0.0
 40
1.0499999523162844
100
AcDbArc
 50
269.99999749552182
 51
90.000002504478161
  0
ARC
  5
11E
100
AcDbEntity
  8
0
  6
CONTINUOUS
 62
               7
100
AcDbCircle
 10
111.45001220703128
 20
29.799987792968636
 30
0.0
 40
1.0499999523162844
100
AcDbArc
 50
269.99999749552182
 51
90.000002504478161
  0
ARC
  5
11F
100
AcDbEntity
  8
0
  6
CONTINUOUS
 62
               7
100
AcDbCircle
 10
103.54998779296875
 20
29.799987792968636
 30
0.0
 40
1.0499999523162844
100
AcDbArc
 50
90.000002504478161
 51
270.00000068324533
  0
ARC
  5
120
100
AcDbEntity
  8
0
  6
CONTINUOUS
 62
               7
100
AcDbCircle
 10
118.54998779296875
 20
29.799987792968636
 30
0.0
 40
1.0499999523162844
100
AcDbArc
 50
90.000002504478161
 51
270.00000068324533
  0
ARC
  5
121
100
AcDbEntity
  8
0
  6
CONTINUOUS
 62
               7
100
AcDbCircle
 10
126.45001220703128
 20
29.799987792968636
 30
0.0
 40
1.0499999523162844
100
AcDbArc
 50
269.99999749552182
 51
90.000002504478161
  0
ARC
  5
122
100
AcDbEntity
  8
0
  6
CONTINUOUS
 62
               7
100
AcDbCircle
 10
133.54998779296875
 20
29.567840576171875
 30
0.0
 40
1.0499999523162844
100
AcDbArc
 50
90.000002504478161
 51
270.00000068324533
  0
ARC
  5
123
100
AcDbEntity
  8
0
  6
CONTINUOUS
 62
               7
100
AcDbCircle
 10
141.45001220703128
 20
29.567840576171875
 30
0.0
 40
1.0499999523162844
100
AcDbArc
 50
269.99999749552182
 51
90.000002504478161
  0
ARC
  5
124
100
AcDbEntity
  8
0
  6
CONTINUOUS
 62
               7
100
AcDbCircle
 10
148.94999694824219
 20
24.799987792968636
 30
0.0
 40
1.0499999523162844
100
AcDbArc
 50
269.99999749552182
 51
90.000002504478161
  0
ARC
  5
125
100
AcDbEntity
  8
0
  6
CONTINUOUS
 62
               7
100
AcDbCircle
 10
141.04998779296875
 20
24.799987792968636
 30
0.0
 40
1.0499999523162844
100
AcDbArc
 50
90.000002504478161
 51
270.00000068324533
  0
ARC
  5
126
100
AcDbEntity
  8
0
  6
CONTINUOUS
 62
               7
100
AcDbCircle
 10
133.95001220703128
 20
24.799987792968636
 30
0.0
 40
1.0499999523162844
100
AcDbArc
 50
269.99999749552182
 51
90.000002504478161
  0
ARC
  5
127
100
AcDbEntity
  8
0
  6
CONTINUOUS
 62
               7
100
AcDbCircle
 10
126.04998779296875
 20
24.799987792968636
 30
0.0
 40
1.0499999523162844
100
AcDbArc
 50
90.000002504478161
 51
270.00000068324533
  0
ARC
  5
128
100
AcDbEntity
  8
0
  6
CONTINUOUS
 62
               7
100
AcDbCircle
 10
118.95001220703128
 20
24.799987792968636
 30
0.0
 40
1.0499999523162844
100
AcDbArc
 50
269.99999749552182
 51
90.000002504478161
  0
ARC
  5
129
100
AcDbEntity
  8
0
  6
CONTINUOUS
 62
               7
100
AcDbCircle
 10
111.04998779296875
 20
24.799987792968636
 30
0.0
 40
1.0499999523162844
100
AcDbArc
 50
90.000002504478161
 51
270.00000068324533
  0
ARC
  5
12A
100
AcDbEntity
  8
0
  6
CONTINUOUS
 62
               7
100
AcDbCircle
 10
103.95001220703128
 20
24.799987792968636
 30
0.0
 40
1.0499999523162844
100
AcDbArc
 50
269.99999749552182
 51
90.000002504478161
  0
ARC
  5
12B
100
AcDbEntity
  8
0
  6
CONTINUOUS
 62
               7
100
AcDbCircle
 10
96.04998779296875
 20
24.799987792968636
 30
0.0
 40
1.0499999523162844
100
AcDbArc
 50
90.000002504478161
 51
270.00000068324533
  0
LINE
  5
12C
100
AcDbEntity
  8
0
  6
CONTINUOUS
 62
               7
100
AcDbLine
 10
141.04998779296875
 20
43.749984741210881
 30
0.0
 11
148.94999694824219
 21
43.749984741210881
 31
0.0
  0
LINE
  5
12D
100
AcDbEntity
  8
0
  6
CONTINUOUS
 62
               7
100
AcDbLine
 10
141.04998779296875
 20
45.849990844726506
 30
0.0
 11
148.94999694824219
 21
45.849990844726506
 31
0.0
  0
LINE
  5
12E
100
AcDbEntity
  8
0
  6
CONTINUOUS
 62
               7
100
AcDbLine
 10
126.04998779296875
 20
45.849990844726506
 30
0.0
 11
133.95001220703128
 21
45.849990844726506
 31
0.0
  0
LINE
  5
12F
100
AcDbEntity
  8
0
  6
CONTINUOUS
 62
               7
100
AcDbLine
 10
126.04998779296875
 20
43.749984741210881
 30
0.0
 11
133.95001220703128
 21
43.749984741210881
 31
0.0
  0
LINE
  5
130
100
AcDbEntity
  8
0
  6
CONTINUOUS
 62
               7
100
AcDbLine
 10
111.04998779296875
 20
43.749984741210881
 30
0.0
 11
118.95001220703128
 21
43.749984741210881
 31
0.0
  0
LINE
  5
131
100
AcDbEntity
  8
0
  6
CONTINUOUS
 62
               7
100
AcDbLine
 10
111.04998779296875
 20
45.849990844726506
 30
0.0
 11
118.95001220703128
 21
45.849990844726506
 31
0.0
  0
LINE
  5
132
100
AcDbEntity
  8
0
  6
CONTINUOUS
 62
               7
100
AcDbLine
 10
96.04998779296875
 20
45.849990844726506
 30
0.0
 11
103.95001220703128
 21
45.849990844726506
 31
0.0
  0
LINE
  5
133
100
AcDbEntity
  8
0
  6
CONTINUOUS
 62
               7
100
AcDbLine
 10
96.04998779296875
 20
43.749984741210881
 30
0.0
 11
103.95001220703128
 21
43.749984741210881
 31
0.0
  0
LINE
  5
134
100
AcDbEntity
  8
0
  6
CONTINUOUS
 62
               7
100
AcDbLine
 10
103.54998779296875
 20
38.749984741210881
 30
0.0
 11
111.45001220703128
 21
38.749984741210881
 31
0.0
  0
LINE
  5
135
100
AcDbEntity
  8
0
  6
CONTINUOUS
 62
               7
100
AcDbLine
 10
103.54998779296875
 20
40.849990844726506
 30
0.0
 11
111.45001220703128
 21
40.849990844726506
 31
0.0
  0
LINE
  5
136
100
AcDbEntity
  8
0
  6
CONTINUOUS
 62
               7
100
AcDbLine
 10
118.54998779296875
 20
38.749984741210881
 30
0.0
 11
126.45001220703128
 21
38.749984741210881
 31
0.0
  0
LINE
  5
137
100
AcDbEntity
  8
0
  6
CONTINUOUS
 62
               7
100
AcDbLine
 10
118.54998779296875
 20
40.849990844726506
 30
0.0
 11
126.45001220703128
 21
40.849990844726506
 31
0.0
  0
LINE
  5
138
100
AcDbEntity
  8
0
  6
CONTINUOUS
 62
               7
100
AcDbLine
 10
133.54998779296875
 20
40.849990844726506
 30
0.0
 11
141.45001220703128
 21
40.849990844726506
 31
0.0
  0
LINE
  5
139
100
AcDbEntity
  8
0
  6
CONTINUOUS
 62
               7
100
AcDbLine
 10
133.54998779296875
 20
38.749984741210881
 30
0.0
 11
141.45001220703128
 21
38.749984741210881
 31
0.0
  0
LINE
  5
13A
100
AcDbEntity
  8
0
  6
CONTINUOUS
 62
               7
100
AcDbLine
 10
140.9508056640625
 20
33.749984741210881
 30
0.0
 11
148.85079956054687
 21
33.749984741210881
 31
0.0
  0
LINE
  5
13B
100
AcDbEntity
  8
0
  6
CONTINUOUS
 62
               7
100
AcDbLine
 10
140.9508056640625
 20
35.849990844726506
 30
0.0
 11
148.85079956054687
 21
35.849990844726506
 31
0.0
  0
LINE
  5
13C
100
AcDbEntity
  8
0
  6
CONTINUOUS
 62
               7
100
AcDbLine
 10
126.04998779296875
 20
35.849990844726506
 30
0.0
 11
133.95001220703128
 21
35.849990844726506
 31
0.0
  0
LINE
  5
13D
100
AcDbEntity
  8
0
  6
CONTINUOUS
 62
               7
100
AcDbLine
 10
126.04998779296875
 20
33.749984741210881
 30
0.0
 11
133.95001220703128
 21
33.749984741210881
 31
0.0
  0
LINE
  5
13E
100
AcDbEntity
  8
0
  6
CONTINUOUS
 62
               7
100
AcDbLine
 10
111.04998779296875
 20
33.749984741210881
 30
0.0
 11
118.95001220703128
 21
33.749984741210881
 31
0.0
  0
LINE
  5
13F
100
AcDbEntity
  8
0
  6
CONTINUOUS
 62
               7
100
AcDbLine
 10
111.04998779296875
 20
35.849990844726506
 30
0.0
 11
118.95001220703128
 21
35.849990844726506
 31
0.0
  0
LINE
  5
140
100
AcDbEntity
  8
0
  6
CONTINUOUS
 62
               7
100
AcDbLine
 10
96.04998779296875
 20
33.749984741210881
 30
0.0
 11
103.95001220703128
 21
33.749984741210881
 31
0.0
  0
LINE
  5
141
100
AcDbEntity
  8
0
  6
CONTINUOUS
 62
               7
100
AcDbLine
 10
96.04998779296875
 20
35.849990844726506
 30
0.0
 11
103.95001220703128
 21
35.849990844726506
 31
0.0
  0
LINE
  5
142
100
AcDbEntity
  8
0
  6
CONTINUOUS
 62
               7
100
AcDbLine
 10
103.54998779296875
 20
30.849990844726506
 30
0.0
 11
111.45001220703128
 21
30.849990844726506
 31
0.0
  0
LINE
  5
143
100
AcDbEntity
  8
0
  6
CONTINUOUS
 62
               7
100
AcDbLine
 10
103.54998779296875
 20
28.749984741210881
 30
0.0
 11
111.45001220703128
 21
28.749984741210881
 31
0.0
  0
LINE
  5
144
100
AcDbEntity
  8
0
  6
CONTINUOUS
 62
               7
100
AcDbLine
 10
118.54998779296875
 20
30.849990844726506
 30
0.0
 11
126.45001220703128
 21
30.849990844726506
 31
0.0
  0
LINE
  5
145
100
AcDbEntity
  8
0
  6
CONTINUOUS
 62
               7
100
AcDbLine
 10
118.54998779296875
 20
28.749984741210881
 30
0.0
 11
126.45001220703128
 21
28.749984741210881
 31
0.0
  0
LINE
  5
146
100
AcDbEntity
  8
0
  6
CONTINUOUS
 62
               7
100
AcDbLine
 10
133.54998779296875
 20
28.517837524414006
 30
0.0
 11
141.45001220703128
 21
28.517837524414006
 31
0.0
  0
LINE
  5
147
100
AcDbEntity
  8
0
  6
CONTINUOUS
 62
               7
100
AcDbLine
 10
133.54998779296875
 20
30.617828369140568
 30
0.0
 11
141.45001220703128
 21
30.617828369140568
 31
0.0
  0
LINE
  5
148
100
AcDbEntity
  8
0
  6
CONTINUOUS
 62
               7
100
AcDbLine
 10
141.04998779296875
 20
25.849990844726506
 30
0.0
 11
148.94999694824219
 21
25.849990844726506
 31
0.0
  0
LINE
  5
149
100
AcDbEntity
  8
0
  6
CONTINUOUS
 62
               7
100
AcDbLine
 10
141.04998779296875
 20
23.749984741210881
 30
0.0
 11
148.94999694824219
 21
23.749984741210881
 31
0.0
  0
LINE
  5
14A
100
AcDbEntity
  8
0
  6
CONTINUOUS
 62
               7
100
AcDbLine
 10
126.04998779296875
 20
25.849990844726506
 30
0.0
 11
133.95001220703128
 21
25.849990844726506
 31
0.0
  0
LINE
  5
14B
100
AcDbEntity
  8
0
  6
CONTINUOUS
 62
               7
100
AcDbLine
 10
126.04998779296875
 20
23.749984741210881
 30
0.0
 11
133.95001220703128
 21
23.749984741210881
 31
0.0
  0
LINE
  5
14C
100
AcDbEntity
  8
0
  6
CONTINUOUS
 62
               7
100
AcDbLine
 10
111.04998779296875
 20
23.749984741210881
 30
0.0
 11
118.95001220703128
 21
23.749984741210881
 31
0.0
  0
LINE
  5
14D
100
AcDbEntity
  8
0
  6
CONTINUOUS
 62
               7
100
AcDbLine
 10
111.04998779296875
 20
25.849990844726506
 30
0.0
 11
118.95001220703128
 21
25.849990844726506
 31
0.0
  0
LINE
  5
14E
100
AcDbEntity
  8
0
  6
CONTINUOUS
 62
               7
100
AcDbLine
 10
96.04998779296875
 20
23.749984741210881
 30
0.0
 11
103.95001220703128
 21
23.749984741210881
 31
0.0
  0
LINE
  5
14F
100
AcDbEntity
  8
0
  6
CONTINUOUS
 62
               7
100
AcDbLine
 10
96.04998779296875
 20
25.849990844726506
 30
0.0
 11
103.95001220703128
 21
25.849990844726506
 31
0.0
  0
LINE
  5
150
100
AcDbEntity
  8
0
  6
CONTINUOUS
 62
               7
100
AcDbLine
 10
148.54998779296875
 20
38.749984741210881
 30
0.0
 11
156.45001220703128
 21
38.749984741210881
 31
0.0
  0
LINE
  5
151
100
AcDbEntity
  8
0
  6
CONTINUOUS
 62
               7
100
AcDbLine
 10
148.54998779296875
 20
40.849990844726506
 30
0.0
 11
156.45001220703128
 21
40.849990844726506
 31
0.0
  0
LINE
  5
152
100
AcDbEntity
  8
0
  6
CONTINUOUS
 62
               7
100
AcDbLine
 10
148.54998779296875
 20
30.849990844726506
 30
0.0
 11
156.45001220703128
 21
30.849990844726506
 31
0.0
  0
LINE
  5
153
100
AcDbEntity
  8
0
  6
CONTINUOUS
 62
               7
100
AcDbLine
 10
148.54998779296875
 20
28.749984741210881
 30
0.0
 11
156.45001220703128
 21
28.749984741210881
 31
0.0
  0
ARC
  5
154
100
AcDbEntity
  8
0
  6
CONTINUOUS
 62
               7
100
AcDbCircle
 10
193.95001220703119
 20
24.799987792968636
 30
0.0
 40
1.0499999523162844
100
AcDbArc
 50
269.99999749552182
 51
90.000002504478161
  0
ARC
  5
155
100
AcDbEntity
  8
0
  6
CONTINUOUS
 62
               7
100
AcDbCircle
 10
193.95001220703119
 20
34.799987792968636
 30
0.0
 40
1.0499999523162844
100
AcDbArc
 50
269.99999749552182
 51
90.000002504478161
  0
ARC
  5
156
100
AcDbEntity
  8
0
  6
CONTINUOUS
 62
               7
100
AcDbCircle
 10
178.54998779296869
 20
29.799987792968636
 30
0.0
 40
1.0499999523162844
100
AcDbArc
 50
90.000002504478161
 51
270.00000068324533
  0
ARC
  5
157
100
AcDbEntity
  8
0
  6
CONTINUOUS
 62
               7
100
AcDbCircle
 10
178.54998779296869
 20
39.799987792968636
 30
0.0
 40
1.0499999523162844
100
AcDbArc
 50
90.000002504478161
 51
270.00000068324533
  0
ARC
  5
158
100
AcDbEntity
  8
0
  6
CONTINUOUS
 62
               7
100
AcDbCircle
 10
193.95001220703119
 20
44.799987792968636
 30
0.0
 40
1.0499999523162844
100
AcDbArc
 50
269.99999749552182
 51
90.000002504478161
  0
ARC
  5
159
100
AcDbEntity
  8
0
  6
CONTINUOUS
 62
               7
100
AcDbCircle
 10
186.04998779296875
 20
44.799987792968636
 30
0.0
 40
1.0499999523162844
100
AcDbArc
 50
90.000002504478161
 51
270.00000068324533
  0
ARC
  5
15A
100
AcDbEntity
  8
0
  6
CONTINUOUS
 62
               7
100
AcDbCircle
 10
186.45001220703119
 20
39.799987792968636
 30
0.0
 40
1.0499999523162844
100
AcDbArc
 50
269.99999749552182
 51
90.000002504478161
  0
ARC
  5
15B
100
AcDbEntity
  8
0
  6
CONTINUOUS
 62
               7
100
AcDbCircle
 10
186.04998779296875
 20
34.799987792968636
 30
0.0
 40
1.0499999523162844
100
AcDbArc
 50
90.000002504478161
 51
270.00000068324533
  0
ARC
  5
15C
100
AcDbEntity
  8
0
  6
CONTINUOUS
 62
               7
100
AcDbCircle
 10
186.45001220703119
 20
29.799987792968636
 30
0.0
 40
1.0499999523162844
100
AcDbArc
 50
269.99999749552182
 51
90.000002504478161
  0
ARC
  5
15D
100
AcDbEntity
  8
0
  6
CONTINUOUS
 62
               7
100
AcDbCircle
 10
186.04998779296875
 20
24.799987792968636
 30
0.0
 40
1.0499999523162844
100
AcDbArc
 50
90.000002504478161
 51
270.00000068324533
  0
LINE
  5
15E
100
AcDbEntity
  8
0
  6
CONTINUOUS
 62
               7
100
AcDbLine
 10
186.04998779296875
 20
25.849990844726506
 30
0.0
 11
193.95001220703119
 21
25.849990844726506
 31
0.0
  0
LINE
  5
15F
100
AcDbEntity
  8
0
  6
CONTINUOUS
 62
               7
100
AcDbLine
 10
186.04998779296875
 20
23.749984741210881
 30
0.0
 11
193.95001220703119
 21
23.749984741210881
 31
0.0
  0
LINE
  5
160
100
AcDbEntity
  8
0
  6
CONTINUOUS
 62
               7
100
AcDbLine
 10
178.54998779296869
 20
28.749984741210881
 30
0.0
 11
186.45001220703119
 21
28.749984741210881
 31
0.0
  0
LINE
  5
161
100
AcDbEntity
  8
0
  6
CONTINUOUS
 62
               7
100
AcDbLine
 10
178.54998779296869
 20
30.849990844726506
 30
0.0
 11
186.45001220703119
 21
30.849990844726506
 31
0.0
  0
LINE
  5
162
100
AcDbEntity
  8
0
  6
CONTINUOUS
 62
               7
100
AcDbLine
 10
186.04998779296875
 20
35.849990844726506
 30
0.0
 11
193.95001220703119
 21
35.849990844726506
 31
0.0
  0
LINE
  5
163
100
AcDbEntity
  8
0
  6
CONTINUOUS
 62
               7
100
AcDbLine
 10
186.04998779296875
 20
33.749984741210881
 30
0.0
 11
193.95001220703119
 21
33.749984741210881
 31
0.0
  0
LINE
  5
164
100
AcDbEntity
  8
0
  6
CONTINUOUS
 62
               7
100
AcDbLine
 10
178.54998779296869
 20
40.849990844726506
 30
0.0
 11
186.45001220703119
 21
40.849990844726506
 31
0.0
  0
LINE
  5
165
100
AcDbEntity
  8
0
  6
CONTINUOUS
 62
               7
100
AcDbLine
 10
178.54998779296869
 20
38.749984741210881
 30
0.0
 11
186.45001220703119
 21
38.749984741210881
 31
0.0
  0
LINE
  5
166
100
AcDbEntity
  8
0
  6
CONTINUOUS
 62
               7
100
AcDbLine
 10
186.04998779296875
 20
45.849990844726506
 30
0.0
 11
193.95001220703119
 21
45.849990844726506
 31
0.0
  0
LINE
  5
167
100
AcDbEntity
  8
0
  6
CONTINUOUS
 62
               7
100
AcDbLine
 10
186.04998779296875
 20
43.749984741210881
 30
0.0
 11
193.95001220703119
 21
43.749984741210881
 31
0.0
  0
ARC
  5
168
100
AcDbEntity
  8
0
  6
CONTINUOUS
 62
               7
100
AcDbCircle
 10
178.95001220703122
 20
24.799987792968636
 30
0.0
 40
1.0499999523162844
100
AcDbArc
 50
269.99999749552182
 51
90.000002504478161
  0
ARC
  5
169
100
AcDbEntity
  8
0
  6
CONTINUOUS
 62
               7
100
AcDbCircle
 10
178.95001220703122
 20
34.799987792968636
 30
0.0
 40
1.0499999523162844
100
AcDbArc
 50
269.99999749552182
 51
90.000002504478161
  0
ARC
  5
16A
100
AcDbEntity
  8
0
  6
CONTINUOUS
 62
               7
100
AcDbCircle
 10
163.54998779296869
 20
29.799987792968636
 30
0.0
 40
1.0499999523162844
100
AcDbArc
 50
90.000002504478161
 51
270.00000068324533
  0
ARC
  5
16B
100
AcDbEntity
  8
0
  6
CONTINUOUS
 62
               7
100
AcDbCircle
 10
163.54998779296869
 20
39.799987792968636
 30
0.0
 40
1.0499999523162844
100
AcDbArc
 50
90.000002504478161
 51
270.00000068324533
  0
ARC
  5
16C
100
AcDbEntity
  8
0
  6
CONTINUOUS
 62
               7
100
AcDbCircle
 10
178.95001220703122
 20
44.799987792968636
 30
0.0
 40
1.0499999523162844
100
AcDbArc
 50
269.99999749552182
 51
90.000002504478161
  0
ARC
  5
16D
100
AcDbEntity
  8
0
  6
CONTINUOUS
 62
               7
100
AcDbCircle
 10
171.04998779296869
 20
44.799987792968636
 30
0.0
 40
1.0499999523162844
100
AcDbArc
 50
90.000002504478161
 51
270.00000068324533
  0
ARC
  5
16E
100
AcDbEntity
  8
0
  6
CONTINUOUS
 62
               7
100
AcDbCircle
 10
171.45001220703122
 20
39.799987792968636
 30
0.0
 40
1.0499999523162844
100
AcDbArc
 50
269.99999749552182
 51
90.000002504478161
  0
ARC
  5
16F
100
AcDbEntity
  8
0
  6
CONTINUOUS
 62
               7
100
AcDbCircle
 10
171.04998779296869
 20
34.799987792968636
 30
0.0
 40
1.0499999523162844
100
AcDbArc
 50
90.000002504478161
 51
270.00000068324533
  0
ARC
  5
170
100
AcDbEntity
  8
0
  6
CONTINUOUS
 62
               7
100
AcDbCircle
 10
171.45001220703122
 20
29.799987792968636
 30
0.0
 40
1.0499999523162844
100
AcDbArc
 50
269.99999749552182
 51
90.000002504478161
  0
ARC
  5
171
100
AcDbEntity
  8
0
  6
CONTINUOUS
 62
               7
100
AcDbCircle
 10
171.04998779296869
 20
24.799987792968636
 30
0.0
 40
1.0499999523162844
100
AcDbArc
 50
90.000002504478161
 51
270.00000068324533
  0
LINE
  5
172
100
AcDbEntity
  8
0
  6
CONTINUOUS
 62
               7
100
AcDbLine
 10
171.04998779296869
 20
25.849990844726506
 30
0.0
 11
178.95001220703122
 21
25.849990844726506
 31
0.0
  0
LINE
  5
173
100
AcDbEntity
  8
0
  6
CONTINUOUS
 62
               7
100
AcDbLine
 10
171.04998779296869
 20
23.749984741210881
 30
0.0
 11
178.95001220703122
 21
23.749984741210881
 31
0.0
  0
LINE
  5
174
100
AcDbEntity
  8
0
  6
CONTINUOUS
 62
               7
100
AcDbLine
 10
163.54998779296869
 20
28.749984741210881
 30
0.0
 11
171.45001220703122
 21
28.749984741210881
 31
0.0
  0
LINE
  5
175
100
AcDbEntity
  8
0
  6
CONTINUOUS
 62
               7
100
AcDbLine
 10
163.54998779296869
 20
30.849990844726506
 30
0.0
 11
171.45001220703122
 21
30.849990844726506
 31
0.0
  0
LINE
  5
176
100
AcDbEntity
  8
0
  6
CONTINUOUS
 62
               7
100
AcDbLine
 10
171.04998779296869
 20
35.849990844726506
 30
0.0
 11
178.95001220703122
 21
35.849990844726506
 31
0.0
  0
LINE
  5
177
100
AcDbEntity
  8
0
  6
CONTINUOUS
 62
               7
100
AcDbLine
 10
171.04998779296869
 20
33.749984741210881
 30
0.0
 11
178.95001220703122
 21
33.749984741210881
 31
0.0
  0
LINE
  5
178
100
AcDbEntity
  8
0
  6
CONTINUOUS
 62
               7
100
AcDbLine
 10
163.54998779296869
 20
40.849990844726506
 30
0.0
 11
171.45001220703122
 21
40.849990844726506
 31
0.0
  0
LINE
  5
179
100
AcDbEntity
  8
0
  6
CONTINUOUS
 62
               7
100
AcDbLine
 10
163.54998779296869
 20
38.749984741210881
 30
0.0
 11
171.45001220703122
 21
38.749984741210881
 31
0.0
  0
LINE
  5
17A
100
AcDbEntity
  8
0
  6
CONTINUOUS
 62
               7
100
AcDbLine
 10
171.04998779296869
 20
45.849990844726506
 30
0.0
 11
178.95001220703122
 21
45.849990844726506
 31
0.0
  0
LINE
  5
17B
100
AcDbEntity
  8
0
  6
CONTINUOUS
 62
               7
100
AcDbLine
 10
171.04998779296869
 20
43.749984741210881
 30
0.0
 11
178.95001220703122
 21
43.749984741210881
 31
0.0
  0
ARC
  5
17C
100
AcDbEntity
  8
0
  6
CONTINUOUS
 62
               7
100
AcDbCircle
 10
163.95001220703122
 20
24.799987792968636
 30
0.0
 40
1.0499999523162844
100
AcDbArc
 50
269.99999749552182
 51
90.000002504478161
  0
ARC
  5
17D
100
AcDbEntity
  8
0
  6
CONTINUOUS
 62
               7
100
AcDbCircle
 10
163.95001220703122
 20
34.799987792968636
 30
0.0
 40
1.0499999523162844
100
AcDbArc
 50
269.99999749552182
 51
90.000002504478161
  0
ARC
  5
17E
100
AcDbEntity
  8
0
  6
CONTINUOUS
 62
               7
100
AcDbCircle
 10
163.95001220703122
 20
44.799987792968636
 30
0.0
 40
1.0499999523162844
100
AcDbArc
 50
269.99999749552182
 51
90.000002504478161
  0
ARC
  5
17F
100
AcDbEntity
  8
0
  6
CONTINUOUS
 62
               7
100
AcDbCircle
 10
156.04998779296875
 20
44.799987792968636
 30
0.0
 40
1.0499999523162844
100
AcDbArc
 50
90.000002504478161
 51
270.00000068324533
  0
ARC
  5
180
100
AcDbEntity
  8
0
  6
CONTINUOUS
 62
               7
100
AcDbCircle
 10
156.45001220703128
 20
39.799987792968636
 30
0.0
 40
1.0499999523162844
100
AcDbArc
 50
269.99999749552182
 51
90.000002504478161
  0
ARC
  5
181
100
AcDbEntity
  8
0
  6
CONTINUOUS
 62
               7
100
AcDbCircle
 10
156.04998779296875
 20
34.799987792968636
 30
0.0
 40
1.0499999523162844
100
AcDbArc
 50
90.000002504478161
 51
270.00000068324533
  0
ARC
  5
182
100
AcDbEntity
  8
0
  6
CONTINUOUS
 62
               7
100
AcDbCircle
 10
156.45001220703128
 20
29.799987792968636
 30
0.0
 40
1.0499999523162844
100
AcDbArc
 50
269.99999749552182
 51
90.000002504478161
  0
ARC
  5
183
100
AcDbEntity
  8
0
  6
CONTINUOUS
 62
               7
100
AcDbCircle
 10
156.04998779296875
 20
24.799987792968636
 30
0.0
 40
1.0499999523162844
100
AcDbArc
 50
90.000002504478161
 51
270.00000068324533
  0
LINE
  5
184
100
AcDbEntity
  8
0
  6
CONTINUOUS
 62
               7
100
AcDbLine
 10
156.04998779296875
 20
25.849990844726506
 30
0.0
 11
163.95001220703122
 21
25.849990844726506
 31
0.0
  0
LINE
  5
185
100
AcDbEntity
  8
0
  6
CONTINUOUS
 62
               7
100
AcDbLine
 10
156.04998779296875
 20
23.749984741210881
 30
0.0
 11
163.95001220703122
 21
23.749984741210881
 31
0.0
  0
LINE
  5
186
100
AcDbEntity
  8
0
  6
CONTINUOUS
 62
               7
100
AcDbLine
 10
156.04998779296875
 20
35.849990844726506
 30
0.0
 11
163.95001220703122
 21
35.849990844726506
 31
0.0
  0
LINE
  5
187
100
AcDbEntity
  8
0
  6
CONTINUOUS
 62
               7
100
AcDbLine
 10
156.04998779296875
 20
33.749984741210881
 30
0.0
 11
163.95001220703122
 21
33.749984741210881
 31
0.0
  0
LINE
  5
188
100
AcDbEntity
  8
0
  6
CONTINUOUS
 62
               7
100
AcDbLine
 10
156.04998779296875
 20
45.849990844726506
 30
0.0
 11
163.95001220703122
 21
45.849990844726506
 31
0.0
  0
LINE
  5
189
100
AcDbEntity
  8
0
  6
CONTINUOUS
 62
               7
100
AcDbLine
 10
156.04998779296875
 20
43.749984741210881
 30
0.0
 11
163.95001220703122
 21
43.749984741210881
 31
0.0
  0
ARC
  5
18A
100
AcDbEntity
  8
0
  6
CONTINUOUS
 62
               7
100
AcDbCircle
 10
148.54998779296875
 20
39.799987792968636
 30
0.0
 40
1.0499999523162844
100
AcDbArc
 50
90.000002504478161
 51
270.00000068324533
  0
ARC
  5
18B
100
AcDbEntity
  8
0
  6
CONTINUOUS
 62
               7
100
AcDbCircle
 10
148.54998779296875
 20
29.799987792968636
 30
0.0
 40
1.0499999523162844
100
AcDbArc
 50
90.000002504478161
 51
270.00000068324533
  0
CIRCLE
  5
18C
100
AcDbEntity
  8
0
  6
CONTINUOUS
 62
               7
100
AcDbCircle
 10
5.9999999999999432
 20
11.799987792968636
 30
0.0
 40
3.0350000858306885
  0
CIRCLE
  5
18D
100
AcDbEntity
  8
0
  6
CONTINUOUS
 62
               7
100
AcDbCircle
 10
5.9999999999999432
 20
11.799987792968636
 30
0.0
 40
3.1500000953674316
  0
CIRCLE
  5
18E
100
AcDbEntity
  8
0
  6
CONTINUOUS
 62
               7
100
AcDbCircle
 10
19.999999999999943
 20
19.799987792968636
 30
0.0
 40
1.1499999999999999
  0
CIRCLE
  5
18F
100
AcDbEntity
  8
0
  6
CONTINUOUS
 62
               7
100
AcDbCircle
 10
19.999999999999943
 20
19.799987792968636
 30
0.0
 40
1.5000000000000004
  0
CIRCLE
  5
190
100
AcDbEntity
  8
0
  6
CONTINUOUS
 62
               7
100
AcDbCircle
 10
19.999999999999943
 20
19.799987792968636
 30
0.0
 40
3.0000000000000009
  0
CIRCLE
  5
191
100
AcDbEntity
  8
0
  6
CONTINUOUS
 62
               7
100
AcDbCircle
 10
59.999999999999943
 20
19.799987792968636
 30
0.0
 40
3.0000000000000009
  0
CIRCLE
  5
192
100
AcDbEntity
  8
0
  6
CONTINUOUS
 62
               7
100
AcDbCircle
 10
59.999999999999943
 20
19.799987792968636
 30
0.0
 40
1.5000000000000004
  0
CIRCLE
  5
193
100
AcDbEntity
  8
0
  6
CONTINUOUS
 62
               7
100
AcDbCircle
 10
59.999999999999943
 20
19.799987792968636
 30
0.0
 40
1.1499999999999999
  0
CIRCLE
  5
194
100
AcDbEntity
  8
0
  6
CONTINUOUS
 62
               7
100
AcDbCircle
 10
148.50000000000043
 20
11.799987792968636
 30
0.0
 40
3.1500000953674316
  0
CIRCLE
  5
195
100
AcDbEntity
  8
0
  6
CONTINUOUS
 62
               7
100
AcDbCircle
 10
148.50000000000043
 20
11.799987792968636
 30
0.0
 40
3.0350000858306885
  0
CIRCLE
  5
196
100
AcDbEntity
  8
0
  6
CONTINUOUS
 62
               7
100
AcDbCircle
 10
291.0000000000004
 20
11.799987792968636
 30
0.0
 40
3.0350000858306885
  0
CIRCLE
  5
197
100
AcDbEntity
  8
0
  6
CONTINUOUS
 62
               7
100
AcDbCircle
 10
291.0000000000004
 20
11.799987792968636
 30
0.0
 40
3.1500000953674316
  0
CIRCLE
  5
198
100
AcDbEntity
  8
0
  6
CONTINUOUS
 62
               7
100
AcDbCircle
 10
50.000015210188621
 20
56.999981689453023
 30
0.0
 40
1.4999999999999998
  0
CIRCLE
  5
199
100
AcDbEntity
  8
0
  6
CONTINUOUS
 62
               2
100
AcDbCircle
 10
50.000015210188621
 20
56.999981689453023
 30
0.0
 40
2.0
  0
LINE
  5
19A
100
AcDbEntity
  8
0
  6
CONTINUOUS
 62
               2
100
AcDbLine
 10
54.86836532283985
 20
56.999981689453023
 30
0.0
 11
45.231742110876951
 21
56.999981689453023
 31
0.0
  0
LINE
  5
19B
100
AcDbEntity
  8
0
  6
CONTINUOUS
 62
               2
100
AcDbLine
 10
50.000015210188621
 20
52.131631576801794
 30
0.0
 11
50.000015210188621
 21
61.768254788764665
 31
0.0
  0
LINE
  5
19C
100
AcDbEntity
  8
0
  6
CONTINUOUS
 62
               7
100
AcDbLine
 10
47.850021313704246
 20
60.999981689452994
 30
0.0
 11
52.150009106672996
 21
60.999981689452994
 31
0.0
  0
LINE
  5
19D
100
AcDbEntity
  8
0
  6
CONTINUOUS
 62
               7
100
AcDbLine
 10
325.49998490120959
 20
13.299981689452977
 30
0.0
 11
309.83165795076809
 21
13.299981689452977
 31
0.0
  0
LINE
  5
19E
100
AcDbEntity
  8
0
  6
CONTINUOUS
 62
               7
100
AcDbLine
 10
325.49998490120959
 20
25.999981689452852
 30
0.0
 11
309.76166640663365
 21
25.999981689452852
 31
0.0
  0
LINE
  5
19F
100
AcDbEntity
  8
0
  6
CONTINUOUS
 62
               7
100
AcDbLine
 10
327.99998490120959
 20
14.149981689452943
 30
0.0
 11
326.49998490120947
 21
14.149981689452943
 31
0.0
  0
LINE
  5
1A0
100
AcDbEntity
  8
0
  6
CONTINUOUS
 62
               7
100
AcDbLine
 10
327.99998490120959
 20
25.149981689453
 30
0.0
 11
326.49998490120947
 21
25.149981689453
 31
0.0
  0
LINE
  5
1A1
100
AcDbEntity
  8
0
  6
CONTINUOUS
 62
               7
100
AcDbLine
 10
327.99998490120959
 20
14.149981689452943
 30
0.0
 11
327.99998490120959
 21
25.149981689453
 31
0.0
  0
LINE
  5
1A2
100
AcDbEntity
  8
0
  6
CONTINUOUS
 62
               7
100
AcDbLine
 10
326.49998490120947
 20
14.149981689452943
 30
0.0
 11
325.49998490120959
 21
13.299981689452977
 31
0.0
  0
LINE
  5
1A3
100
AcDbEntity
  8
0
  6
CONTINUOUS
 62
               7
100
AcDbLine
 10
325.49998490120959
 20
25.999981689452852
 30
0.0
 11
326.49998490120947
 21
25.149981689453
 31
0.0
  0
LINE
  5
1A4
100
AcDbEntity
  8
0
  6
CONTINUOUS
 62
               7
100
AcDbLine
 10
326.49998490120947
 20
14.149981689452943
 30
0.0
 11
326.49998490120947
 21
25.149981689453
 31
0.0
  0
LINE
  5
1A5
100
AcDbEntity
  8
0
  6
CONTINUOUS
 62
               7
100
AcDbLine
 10
325.49998490120959
 20
25.999981689452852
 30
0.0
 11
325.49998490120959
 21
13.299981689452977
 31
0.0
  0
LINE
  5
1A6
100
AcDbEntity
  8
0
  6
CONTINUOUS
 62
               2
100
AcDbLine
 10
328.74998490120953
 20
19.649981689452943
 30
0.0
 11
306.44318415653356
 21
19.649981689452943
 31
0.0
  0
LINE
  5
1A7
100
AcDbEntity
  8
0
  6
CONTINUOUS
 62
               7
100
AcDbLine
 10
0.0000000800000066
 20
165.99998124945319
 30
0.0
 11
0.0000000800000066
 21
162.99998168945302
 31
0.0
  0
ARC
  5
1A8
100
AcDbEntity
  8
0
  6
CONTINUOUS
 62
               7
100
AcDbCircle
 10
26.121320183560726
 20
203.49998124945313
 30
0.0
 40
1.4999999999999998
100
AcDbArc
 50
90.0
 51
94.639163110140728
  0
LINE
  5
1A9
100
AcDbEntity
  8
0
  6
CONTINUOUS
 62
               7
100
AcDbLine
 10
19.99999983999993
 20
165.99998124945319
 30
0.0
 11
0.0000000800000066
 21
165.99998124945319
 31
0.0
  0
LINE
  5
1AA
100
AcDbEntity
  8
0
  6
CONTINUOUS
 62
               7
100
AcDbLine
 10
59.99999983999993
 20
55.999981689452966
 30
0.0
 11
300.88339233398426
 21
55.999981689452966
 31
0.0
  0
LINE
  5
1AB
100
AcDbEntity
  8
0
  6
CONTINUOUS
 62
               7
100
AcDbLine
 10
59.99999983999993
 20
172.99998124945313
 30
0.0
 11
59.99999983999993
 21
162.99998124945313
 31
0.0
  0
LINE
  5
1AC
100
AcDbEntity
  8
0
  6
CONTINUOUS
 62
               7
100
AcDbLine
 10
19.99999983999993
 20
172.99998124945313
 30
0.0
 11
19.99999983999993
 21
162.99998124945313
 31
0.0
  0
LINE
  5
1AD
100
AcDbEntity
  8
0
  6
CONTINUOUS
 62
               7
100
AcDbLine
 10
-0.0000000000000568
 20
3.1999816894530682
 30
0.0
 11
-0.0000000000000568
 21
162.99998124945313
 31
0.0
  0
LINE
  5
1AE
100
AcDbEntity
  8
0
  6
CONTINUOUS
 62
               7
100
AcDbLine
 10
59.99999983999993
 20
52.999981689453023
 30
0.0
 11
59.99999983999993
 21
162.99998124945313
 31
0.0
  0
LINE
  5
1AF
100
AcDbEntity
  8
0
  6
CONTINUOUS
 62
               7
100
AcDbLine
 10
32.149993767884439
 20
162.99998124945313
 30
0.0
 11
32.149993767884439
 21
52.999981689453023
 31
0.0
  0
LINE
  5
1B0
100
AcDbEntity
  8
0
  6
CONTINUOUS
 62
               7
100
AcDbLine
 10
27.850005992115655
 20
162.99998124945313
 30
0.0
 11
27.850005992115655
 21
52.999981689453023
 31
0.0
  0
LINE
  5
1B1
100
AcDbEntity
  8
0
  6
CONTINUOUS
 62
               7
100
AcDbLine
 10
12.149993847884389
 20
162.99998124945313
 30
0.0
 11
12.149993847884389
 21
52.999981689453023
 31
0.0
  0
LINE
  5
1B2
100
AcDbEntity
  8
0
  6
CONTINUOUS
 62
               7
100
AcDbLine
 10
7.8500060721156046
 20
162.99998124945313
 30
0.0
 11
7.8500060721156046
 21
52.999981689453023
 31
0.0
  0
LINE
  5
1B3
100
AcDbEntity
  8
0
  6
CONTINUOUS
 62
               7
100
AcDbLine
 10
52.15002423686218
 20
162.99998124945313
 30
0.0
 11
52.15002423686218
 21
52.999981689453023
 31
0.0
  0
LINE
  5
1B4
100
AcDbEntity
  8
0
  6
CONTINUOUS
 62
               7
100
AcDbLine
 10
47.850005960715521
 20
162.99998124945313
 30
0.0
 11
47.850005960715521
 21
52.999981689453023
 31
0.0
  0
LINE
  5
1B5
100
AcDbEntity
  8
0
  6
CONTINUOUS
 62
               2
100
AcDbLine
 10
16.999984741210881
 20
-4.7200511326361152
 30
0.0
 11
16.999984741210881
 21
6.3704472763923832
 31
0.0
  0
LINE
  5
1B6
100
AcDbEntity
  8
0
  6
CONTINUOUS
 62
               7
100
AcDbLine
 10
-51.499984741210938
 20
51.499981689452966
 30
0.0
 11
-0.0000000000000568
 21
51.499981689452966
 31
0.0
  0
LINE
  5
1B7
100
AcDbEntity
  8
0
  6
CONTINUOUS
 62
               7
100
AcDbLine
 10
-51.499984741210938
 20
51.499981689452966
 30
0.0
 11
-51.499984741210938
 21
18.999981689452966
 31
0.0
  0
LINE
  5
1B8
100
AcDbEntity
  8
0
  6
CONTINUOUS
 62
               7
100
AcDbLine
 10
-0.0000000000000568
 20
18.999981689452966
 30
0.0
 11
-51.499984741210938
 21
18.999981689452966
 31
0.0
  0
LINE
  5
1B9
100
AcDbEntity
  8
0
  6
CONTINUOUS
 62
               7
100
AcDbLine
 10
289.79999542236317
 20
41.599984741210903
 30
0.0
 11
289.79999542236317
 21
31.19998321533194
 31
0.0
  0
LINE
  5
1BA
100
AcDbEntity
  8
0
  6
CONTINUOUS
 62
               7
100
AcDbLine
 10
292.19999694824213
 20
41.599984741210903
 30
0.0
 11
292.19999694824213
 21
31.19998321533194
 31
0.0
  0
LINE
  5
1BB
100
AcDbEntity
  8
0
  6
CONTINUOUS
 62
               7
100
AcDbLine
 10
289.79999542236317
 20
41.599984741210903
 30
0.0
 11
292.19999694824213
 21
41.599984741210903
 31
0.0
  0
LINE
  5
1BC
100
AcDbEntity
  8
0
  6
CONTINUOUS
 62
               7
100
AcDbLine
 10
289.79999542236317
 20
31.19998321533194
 30
0.0
 11
292.19999694824213
 21
31.19998321533194
 31
0.0
  0
LINE
  5
1BD
100
AcDbEntity
  8
0
  6
CONTINUOUS
 62
               7
100
AcDbLine
 10
-0.0000000000000568
 20
3.1999816894530682
 30
0.0
 11
297.99999999999989
 21
3.1999816894530682
 31
0.0
  0
LINE
  5
1BE
100
AcDbEntity
  8
0
  6
CONTINUOUS
 62
               7
100
AcDbLine
 10
304.58218361933359
 20
5.1999816894530113
 30
0.0
 11
297.99999999999989
 21
5.1999816894530113
 31
0.0
  0
LINE
  5
1BF
100
AcDbEntity
  8
0
  6
CONTINUOUS
 62
               7
100
AcDbLine
 10
297.99999999999989
 20
5.1999816894530113
 30
0.0
 11
297.99999999999989
 21
3.1999816894530682
 31
0.0
  0
LINE
  5
1C0
100
AcDbEntity
  8
0
  6
CONTINUOUS
 62
               2
100
AcDbLine
 10
282.99999999999989
 20
-4.7200511326361152
 30
0.0
 11
282.99999999999989
 21
6.3704472763923832
 31
0.0
  0
LINE
  5
1C1
100
AcDbEntity
  8
0
  6
CONTINUOUS
 62
               2
100
AcDbLine
 10
-6.8981315421011118
 20
107.99998146945308
 30
0.0
 11
2.398989219129362
 21
107.99998146945308
 31
0.0
  0
LINE
  5
1C2
100
AcDbEntity
  8
0
  6
CONTINUOUS
 62
               7
100
AcDbLine
 10
-5.5000150680542674
 20
104.49998146945305
 30
0.0
 11
-1.8000152587891876
 21
104.49998146945305
 31
0.0
  0
LINE
  5
1C3
100
AcDbEntity
  8
0
  6
CONTINUOUS
 62
               7
100
AcDbLine
 10
-5.5000150257498603
 20
104.49998188647479
 30
0.0
 11
-5.8000151449591044
 21
105.01959752130739
 31
0.0
  0
LINE
  5
1C4
100
AcDbEntity
  8
0
  6
CONTINUOUS
 62
               7
100
AcDbLine
 10
-5.5000150680542674
 20
111.49998146945308
 30
0.0
 11
-5.5000150680542674
 21
104.49998146945305
 31
0.0
  0
LINE
  5
1C5
100
AcDbEntity
  8
0
  6
CONTINUOUS
 62
               7
100
AcDbLine
 10
-5.8000152587891876
 20
110.98036629611323
 30
0.0
 11
-5.8000152587891876
 21
105.01959759646724
 31
0.0
  0
LINE
  5
1C6
100
AcDbEntity
  8
0
  6
CONTINUOUS
 62
               7
100
AcDbLine
 10
-5.5000152314013349
 20
111.49998137806386
 30
0.0
 11
-5.8000152194804286
 21
110.98036626347275
 31
0.0
  0
LINE
  5
1C7
100
AcDbEntity
  8
0
  6
CONTINUOUS
 62
               7
100
AcDbLine
 10
-5.5000150680542674
 20
111.49998146945308
 30
0.0
 11
-1.8000152587891876
 21
111.49998146945308
 31
0.0
  0
LINE
  5
1C8
100
AcDbEntity
  8
0
  6
CONTINUOUS
 62
               7
100
AcDbLine
 10
-5.1000152587891989
 20
114.08186050406812
 30
0.0
 11
-5.1000152587891989
 21
123.4999814694531
 31
0.0
  0
LINE
  5
1C9
100
AcDbEntity
  8
0
  6
CONTINUOUS
 62
               7
100
AcDbLine
 10
-5.1000152587891989
 20
123.4999814694531
 30
0.0
 11
-0.0000152587891762
 21
123.4999814694531
 31
0.0
  0
LINE
  5
1CA
100
AcDbEntity
  8
0
  6
CONTINUOUS
 62
               7
100
AcDbLine
 10
-1.8000152587891876
 20
102.99998146945308
 30
0.0
 11
-0.0000152587891762
 21
102.99998146945308
 31
0.0
  0
LINE
  5
1CB
100
AcDbEntity
  8
0
  6
CONTINUOUS
 62
               7
100
AcDbLine
 10
-1.8000152587891876
 20
102.99998146945308
 30
0.0
 11
-1.8000152587891876
 21
123.4999814694531
 31
0.0
  0
LINE
  5
1CC
100
AcDbEntity
  8
0
  6
CONTINUOUS
 62
               7
100
AcDbLine
 10
-1.8000152892552137
 20
113.4999814694531
 30
0.0
 11
-5.1000153011760858
 21
114.08186051154206
 31
0.0
  0
LINE
  5
1CD
100
AcDbEntity
  8
0
  6
CONTINUOUS
 62
               7
100
AcDbLine
 10
-5.1000152587891989
 20
121.49998146945313
 30
0.0
 11
-1.8000152587891876
 21
121.49998146945313
 31
0.0
  0
LINE
  5
1CE
100
AcDbEntity
  8
0
  6
CONTINUOUS
 62
               7
100
AcDbLine
 10
-5.1000152587891989
 20
116.49998146945313
 30
0.0
 11
-1.8000152587891876
 21
116.49998146945313
 31
0.0
  0
LINE
  5
1CF
100
AcDbEntity
  8
0
  6
CONTINUOUS
 62
               7
100
AcDbLine
 10
-3.4000152587891534
 20
116.49998146945313
 30
0.0
 11
-3.4000152587891534
 21
121.49998146945313
 31
0.0
  0
LINE
  5
1D0
100
AcDbEntity
  8
0
  6
CONTINUOUS
 62
               2
100
AcDbLine
 10
5.4507258058073944
 20
56.999981689453023
 30
0.0
 11
14.77447164075852
 21
56.999981689453023
 31
0.0
  0
LINE
  5
1D1
100
AcDbEntity
  8
0
  6
CONTINUOUS
 62
               2
100
AcDbLine
 10
34.868334853862052
 20
56.999981689453023
 30
0.0
 11
25.23171164189921
 21
56.999981689453023
 31
0.0
  0
LINE
  5
1D2
100
AcDbEntity
  8
0
  6
CONTINUOUS
 62
               7
100
AcDbLine
 10
7.8499908447264488
 20
60.999981689452994
 30
0.0
 11
12.149978637695256
 21
60.999981689452994
 31
0.0
  0
LINE
  5
1D3
100
AcDbEntity
  8
0
  6
CONTINUOUS
 62
               7
100
AcDbLine
 10
27.849990844726449
 20
60.999981689452994
 30
0.0
 11
32.149978637695256
 21
60.999981689452994
 31
0.0
  0
CIRCLE
  5
1D4
100
AcDbEntity
  8
0
  6
CONTINUOUS
 62
               2
100
AcDbCircle
 10
9.9999847412108238
 20
56.999981689453023
 30
0.0
 40
2.0
  0
CIRCLE
  5
1D5
100
AcDbEntity
  8
0
  6
CONTINUOUS
 62
               7
100
AcDbCircle
 10
9.9999847412108238
 20
56.999981689453023
 30
0.0
 40
1.4999999999999998
  0
CIRCLE
  5
1D6
100
AcDbEntity
  8
0
  6
CONTINUOUS
 62
               7
100
AcDbCircle
 10
29.999984741210824
 20
56.999981689453023
 30
0.0
 40
1.4999999999999998
  0
CIRCLE
  5
1D7
100
AcDbEntity
  8
0
  6
CONTINUOUS
 62
               2
100
AcDbCircle
 10
29.999984741210824
 20
56.999981689453023
 30
0.0
 40
2.0
  0
LINE
  5
1D8
100
AcDbEntity
  8
0
  6
CONTINUOUS
 62
               7
100
AcDbLine
 10
20.99999983999993
 20
205.9999812494531
 30
0.0
 11
20.99999983999993
 21
172.99998124945313
 31
0.0
  0
LINE
  5
1D9
100
AcDbEntity
  8
0
  6
CONTINUOUS
 62
               7
100
AcDbLine
 10
58.99999983999993
 20
205.9999812494531
 30
0.0
 11
58.99999983999993
 21
172.99998124945313
 31
0.0
  0
LINE
  5
1DA
100
AcDbEntity
  8
0
  6
CONTINUOUS
 62
               7
100
AcDbLine
 10
54.499999839999987
 20
206.49998124945313
 30
0.0
 11
58.49999983999993
 21
206.49998124945313
 31
0.0
  0
ARC
  5
1DB
100
AcDbEntity
  8
0
  6
CONTINUOUS
 62
               7
100
AcDbCircle
 10
22.129653770663992
 20
179.9999812494531
 30
0.0
 40
6.3296561241149902
100
AcDbArc
 50
160.85729336935006
 51
199.14270298818428
  0
ARC
  5
1DC
100
AcDbEntity
  8
0
  6
CONTINUOUS
 62
               7
100
AcDbCircle
 10
22.129653770663992
 20
187.99998124945313
 30
0.0
 40
6.3296561241149902
100
AcDbArc
 50
160.85729336935006
 51
199.14270298818428
  0
ARC
  5
1DD
100
AcDbEntity
  8
0
  6
CONTINUOUS
 62
               7
100
AcDbCircle
 10
53.870345909335924
 20
180.99998124945307
 30
0.0
 40
6.3296561241149902
100
AcDbArc
 50
340.85729006794099
 51
19.142706516964399
  0
ARC
  5
1DE
100
AcDbEntity
  8
0
  6
CONTINUOUS
 62
               7
100
AcDbCircle
 10
53.870345909335924
 20
194.9999812494531
 30
0.0
 40
6.3296561241149902
100
AcDbArc
 50
340.85729006794099
 51
19.142706516964399
  0
ARC
  5
1DF
100
AcDbEntity
  8
0
  6
CONTINUOUS
 62
               7
100
AcDbCircle
 10
51.49999983999993
 20
201.99998124945316
 30
0.0
 40
2.4000000953674316
100
AcDbArc
 50
331.17621921195268
 51
163.04248945089057
  0
ARC
  5
1E0
100
AcDbEntity
  8
0
  6
CONTINUOUS
 62
               7
100
AcDbCircle
 10
28.49999983999993
 20
201.99998124945316
 30
0.0
 40
2.4000000953674316
100
AcDbArc
 50
16.957513850518463
 51
208.82378579700367
  0
ARC
  5
1E1
100
AcDbEntity
  8
0
  6
CONTINUOUS
 62
               7
100
AcDbCircle
 10
55.99999983999993
 20
175.99998124945307
 30
0.0
 40
2.9999999999999996
100
AcDbArc
 50
269.99999749552182
 51
0.0
  0
ARC
  5
1E2
100
AcDbEntity
  8
0
  6
CONTINUOUS
 62
               7
100
AcDbCircle
 10
50.792892296054674
 20
200.3999751459375
 30
0.0
 40
2.2999999523162842
100
AcDbArc
 50
45.00000125223908
 51
90.000002504478161
  0
ARC
  5
1E3
100
AcDbEntity
  8
0
  6
CONTINUOUS
 62
               7
100
AcDbCircle
 10
24.499999839999987
 20
193.99580034124997
 30
0.0
 40
3.4999999999999996
100
AcDbArc
 50
135.00000034162267
 51
180.00000500895632
  0
ARC
  5
1E4
100
AcDbEntity
  8
0
  6
CONTINUOUS
 62
               7
100
AcDbCircle
 10
55.499999839999987
 20
193.99580034124997
 30
0.0
 40
3.4999999999999996
100
AcDbArc
 50
0.0000000000000509
 51
45.00000125223908
  0
ARC
  5
1E5
100
AcDbEntity
  8
0
  6
CONTINUOUS
 62
               7
100
AcDbCircle
 10
29.207107383945299
 20
200.3999751459375
 30
0.0
 40
2.2999999523162842
100
AcDbArc
 50
90.000002504478161
 51
135.00000034162267
  0
ARC
  5
1E6
100
AcDbEntity
  8
0
  6
CONTINUOUS
 62
               7
100
AcDbCircle
 10
23.99999983999993
 20
175.99998124945307
 30
0.0
 40
2.9999999999999996
100
AcDbArc
 50
179.99999134857799
 51
270.00000068324533
  0
ARC
  5
1E7
100
AcDbEntity
  8
0
  6
CONTINUOUS
 62
               7
100
AcDbCircle
 10
52.999999839999987
 20
203.4999812494531
 30
0.0
 40
1.4999999999999998
100
AcDbArc
 50
45.00000125223908
 51
90.000002504478161
  0
ARC
  5
1E8
100
AcDbEntity
  8
0
  6
CONTINUOUS
 62
               7
100
AcDbCircle
 10
58.49999983999993
 20
205.9999812494531
 30
0.0
 40
0.5
100
AcDbArc
 50
7.4208451464152363
 51
90.000002504478161
  0
ARC
  5
1E9
100
AcDbEntity
  8
0
  6
CONTINUOUS
 62
               7
100
AcDbCircle
 10
54.499999839999987
 20
205.9999812494531
 30
0.0
 40
0.5
100
AcDbArc
 50
90.000002504478161
 51
180.00000500895632
  0
ARC
  5
1EA
100
AcDbEntity
  8
0
  6
CONTINUOUS
 62
               7
100
AcDbCircle
 10
25.499999839999987
 20
205.9999812494531
 30
0.0
 40
0.5
100
AcDbArc
 50
0.0
 51
90.000002504478161
  0
ARC
  5
1EB
100
AcDbEntity
  8
0
  6
CONTINUOUS
 62
               7
100
AcDbCircle
 10
21.49999983999993
 20
205.9999812494531
 30
0.0
 40
0.5
100
AcDbArc
 50
89.999995674288996
 51
172.57915473989922
  0
ARC
  5
1EC
100
AcDbEntity
  8
0
  6
CONTINUOUS
 62
               7
100
AcDbCircle
 10
301.94665527343733
 20
49.99998168945308
 30
0.0
 40
2.9999999999999996
100
AcDbArc
 50
18.575665919617233
 51
90.000002504478161
  0
ARC
  5
1ED
100
AcDbEntity
  8
0
  6
CONTINUOUS
 62
               7
100
AcDbCircle
 10
304.58218383789051
 20
10.199963378906091
 30
0.0
 40
5.0
100
AcDbArc
 50
269.99999749552182
 51
354.62440334723948
  0
ARC
  5
1EE
100
AcDbEntity
  8
0
  6
CONTINUOUS
 62
               7
100
AcDbCircle
 10
300.88339233398426
 20
52.999981689453023
 30
0.0
 40
2.9999999999999996
100
AcDbArc
 50
20.455793309426426
 51
90.000002504478161
  0
ARC
  5
1EF
100
AcDbEntity
  8
0
  6
CONTINUOUS
 62
               7
100
AcDbCircle
 10
209.99999999999986
 20
19.099987792968648
 30
0.0
 40
100.0
100
AcDbArc
 50
354.62440334723948
 51
20.455793309426426
  0
ARC
  5
1F0
100
AcDbEntity
  8
0
  6
CONTINUOUS
 62
               7
100
AcDbCircle
 10
300.11416625976551
 20
49.99998168945308
 30
0.0
 40
2.9999999999999996
100
AcDbArc
 50
4.8539097921627041
 51
90.000002504478161
  0
ARC
  5
1F1
100
AcDbEntity
  8
0
  6
CONTINUOUS
 62
               7
100
AcDbCircle
 10
300.11416625976551
 20
8.1999633789060908
 30
0.0
 40
2.9999999999999996
100
AcDbArc
 50
269.99999749552182
 51
355.14609020783729
  0
ARC
  5
1F2
100
AcDbEntity
  8
0
  6
CONTINUOUS
 62
               7
100
AcDbCircle
 10
53.999999999999886
 20
29.099987792968648
 30
0.0
 40
250.0
100
AcDbArc
 50
355.14609020783729
 51
4.8539097921627041
  0
LINE
  5
1F3
100
AcDbEntity
  8
0
  6
CONTINUOUS
 62
               7
100
AcDbLine
 10
280.49999999999989
 20
61.999981689453023
 30
0.0
 11
280.49999999999989
 21
55.999981689452966
 31
0.0
  0
LINE
  5
1F4
100
AcDbEntity
  8
0
  6
CONTINUOUS
 62
               7
100
AcDbLine
 10
238.49999999999994
 20
61.999981689453023
 30
0.0
 11
238.49999999999994
 21
55.999981689452966
 31
0.0
  0
LINE
  5
1F5
100
AcDbEntity
  8
0
  6
CONTINUOUS
 62
               7
100
AcDbLine
 10
238.49999999999994
 20
61.999981689453023
 30
0.0
 11
280.49999999999989
 21
61.999981689453023
 31
0.0
  0
LINE
  5
1F6
100
AcDbEntity
  8
0
  6
CONTINUOUS
 62
               7
100
AcDbLine
 10
16.149993736484305
 20
177.92435869085941
 30
0.0
 11
16.149993736484305
 21
182.07563432562497
 31
0.0
  0
LINE
  5
1F7
100
AcDbEntity
  8
0
  6
CONTINUOUS
 62
               7
100
AcDbLine
 10
16.150003496505235
 20
177.9243630349626
 30
0.0
 11
16.999997642744916
 21
177.84999818332034
 31
0.0
  0
LINE
  5
1F8
100
AcDbEntity
  8
0
  6
CONTINUOUS
 62
               7
100
AcDbLine
 10
16.15000141268689
 20
182.07562190949596
 30
0.0
 11
17.000010759651616
 21
182.14998809102929
 31
0.0
  0
LINE
  5
1F9
100
AcDbEntity
  8
0
  6
CONTINUOUS
 62
               7
100
AcDbLine
 10
16.149993736484305
 20
185.92435869085935
 30
0.0
 11
16.149993736484305
 21
190.075634325625
 31
0.0
  0
LINE
  5
1FA
100
AcDbEntity
  8
0
  6
CONTINUOUS
 62
               7
100
AcDbLine
 10
16.14999785577271
 20
185.92434952452911
 30
0.0
 11
17.000007202737436
 21
185.8499833429957
 31
0.0
  0
LINE
  5
1FB
100
AcDbEntity
  8
0
  6
CONTINUOUS
 62
               7
100
AcDbLine
 10
16.150004393637232
 20
190.07563880051265
 30
0.0
 11
16.999998539876799
 21
190.15000365215488
 31
0.0
  0
LINE
  5
1FC
100
AcDbEntity
  8
0
  6
CONTINUOUS
 62
               7
100
AcDbLine
 10
59.850005943515555
 20
183.07560380804688
 30
0.0
 11
59.850005943515555
 21
178.92435869085938
 31
0.0
  0
LINE
  5
1FD
100
AcDbEntity
  8
0
  6
CONTINUOUS
 62
               7
100
AcDbLine
 10
59.85000578065916
 20
183.07562785776298
 30
0.0
 11
59.000011634419593
 21
183.14999270940521
 31
0.0
  0
LINE
  5
1FE
100
AcDbEntity
  8
0
  6
CONTINUOUS
 62
               7
100
AcDbLine
 10
59.849992376589
 20
178.92436791239393
 30
0.0
 11
58.999998230349433
 21
178.8500030607517
 31
0.0
  0
LINE
  5
1FF
100
AcDbEntity
  8
0
  6
CONTINUOUS
 62
               7
100
AcDbLine
 10
59.850005943515555
 20
197.07563432562497
 30
0.0
 11
59.850005943515555
 21
192.92435869085941
 31
0.0
  0
LINE
  5
200
100
AcDbEntity
  8
0
  6
CONTINUOUS
 62
               7
100
AcDbLine
 10
59.850001039449637
 20
197.07561908275665
 30
0.0
 11
59.00000689321007
 21
197.14998393439888
 31
0.0
  0
LINE
  5
201
100
AcDbEntity
  8
0
  6
CONTINUOUS
 62
               7
100
AcDbLine
 10
59.849997117798523
 20
192.9243591373876
 30
0.0
 11
59.000002971558956
 21
192.84999428574537
 31
0.0
  0
LINE
  5
202
100
AcDbEntity
  8
0
  6
CONTINUOUS
 62
               7
100
AcDbLine
 10
16.999999839999987
 20
190.69999345648435
 30
0.0
 11
16.999999839999987
 21
177.29996904242191
 31
0.0
  0
LINE
  5
203
100
AcDbEntity
  8
0
  6
CONTINUOUS
 62
               7
100
AcDbLine
 10
20.99999983999993
 20
177.29996904242191
 30
0.0
 11
16.999999839999987
 21
177.29996904242191
 31
0.0
  0
LINE
  5
204
100
AcDbEntity
  8
0
  6
CONTINUOUS
 62
               7
100
AcDbLine
 10
20.99999983999993
 20
190.69999345648435
 30
0.0
 11
16.999999839999987
 21
190.69999345648435
 31
0.0
  0
LINE
  5
205
100
AcDbEntity
  8
0
  6
CONTINUOUS
 62
               7
100
AcDbLine
 10
22.025124274287123
 20
196.47068690160782
 30
0.0
 11
27.580750465120275
 21
202.02631309244106
 31
0.0
  0
LINE
  5
206
100
AcDbEntity
  8
0
  6
CONTINUOUS
 62
               7
100
AcDbLine
 10
57.974861408784022
 20
196.47066532242178
 30
0.0
 11
52.419224428357722
 21
202.02630230284799
 31
0.0
  0
LINE
  5
207
100
AcDbEntity
  8
0
  6
CONTINUOUS
 62
               2
100
AcDbLine
 10
23.49999983999993
 20
207.52763017523441
 30
0.0
 11
23.49999983999993
 21
200.01981767523435
 31
0.0
  0
LINE
  5
208
100
AcDbEntity
  8
0
  6
CONTINUOUS
 62
               7
100
AcDbLine
 10
25.99999983999993
 20
205.9999812494531
 30
0.0
 11
25.99999983999993
 21
200.44556246732068
 31
0.0
  0
LINE
  5
209
100
AcDbEntity
  8
0
  6
CONTINUOUS
 62
               7
100
AcDbLine
 10
50.792892296054674
 20
202.69996293890622
 30
0.0
 11
29.207107383945299
 21
202.69996293890622
 31
0.0
  0
LINE
  5
20A
100
AcDbEntity
  8
0
  6
CONTINUOUS
 62
               7
100
AcDbLine
 10
54.060645216640353
 20
204.56062665226335
 30
0.0
 11
53.99999983999993
 21
204.62127202890375
 31
0.0
  0
LINE
  5
20B
100
AcDbEntity
  8
0
  6
CONTINUOUS
 62
               7
100
AcDbLine
 10
52.999999839999987
 20
204.9999812494531
 30
0.0
 11
26.121320183560726
 21
204.9999812494531
 31
0.0
  0
LINE
  5
20C
100
AcDbEntity
  8
0
  6
CONTINUOUS
 62
               7
100
AcDbLine
 10
25.499999839999987
 20
206.49998124945313
 30
0.0
 11
21.49999983999993
 21
206.49998124945313
 31
0.0
  0
LINE
  5
20D
100
AcDbEntity
  8
0
  6
CONTINUOUS
 62
               2
100
AcDbLine
 10
56.49999983999993
 20
207.52763017523441
 30
0.0
 11
56.49999983999993
 21
200.01981767523435
 31
0.0
  0
LINE
  5
20E
100
AcDbEntity
  8
0
  6
CONTINUOUS
 62
               7
100
AcDbLine
 10
53.99999983999993
 20
205.9999812494531
 30
0.0
 11
53.99999983999993
 21
200.44552689120579
 31
0.0
  0
LINE
  5
20F
100
AcDbEntity
  8
0
  6
CONTINUOUS
 62
               2
100
AcDbLine
 10
259.49999999999989
 20
63.2266365680604
 30
0.0
 11
259.49999999999989
 21
52.258029425344262
 31
0.0
  0
LINE
  5
210
100
AcDbEntity
  8
0
  6
CONTINUOUS
 62
               7
100
AcDbLine
 10
-0.0000152587891762
 20
162.99998168945302
 30
0.0
 11
59.99999983999993
 21
162.99998168945302
 31
0.0
  0
LINE
  5
211
100
AcDbEntity
  8
0
  6
CONTINUOUS
 62
               2
100
AcDbLine
 10
9.9999847412108238
 20
61.549240624856424
 30
0.0
 11
9.9999847412108238
 21
52.225494789905326
 31
0.0
  0
LINE
  5
212
100
AcDbEntity
  8
0
  6
CONTINUOUS
 62
               2
100
AcDbLine
 10
29.999984741210824
 20
52.131631576801794
 30
0.0
 11
29.999984741210824
 21
61.768254788764665
 31
0.0
  0
LINE
  5
213
100
AcDbEntity
  8
0
  6
CONTINUOUS
 62
               7
100
AcDbLine
 10
284.99999999999989
 20
52.999981689453023
 30
0.0
 11
284.99999999999989
 21
55.999981689452966
 31
0.0
  0
LINE
  5
214
100
AcDbEntity
  8
0
  6
CONTINUOUS
 62
               7
100
AcDbLine
 10
-0.0000152587891762
 20
52.999981689453023
 30
0.0
 11
301.94665527343733
 21
52.999981689453023
 31
0.0
  0
LINE
  5
215
100
AcDbEntity
  8
0
  6
CONTINUOUS
 62
               7
100
AcDbLine
 10
276.99999999999989
 20
0.0
 30
0.0
 11
288.99999999999989
 21
0.0
 31
0.0
  0
LINE
  5
216
100
AcDbEntity
  8
0
  6
CONTINUOUS
 62
               7
100
AcDbLine
 10
18.399999839999907
 20
172.99998124945313
 30
0.0
 11
59.99999983999993
 21
172.99998124945313
 31
0.0
  0
LINE
  5
217
100
AcDbEntity
  8
0
  6
CONTINUOUS
 62
               7
100
AcDbLine
 10
288.99999999999989
 20
0.0
 30
0.0
 11
288.99999999999989
 21
3.1999816894530682
 31
0.0
  0
LINE
  5
218
100
AcDbEntity
  8
0
  6
CONTINUOUS
 62
               7
100
AcDbLine
 10
276.99999999999989
 20
0.0
 30
0.0
 11
276.99999999999989
 21
3.1999816894530682
 31
0.0
  0
LINE
  5
219
100
AcDbEntity
  8
0
  6
CONTINUOUS
 62
               7
100
AcDbLine
 10
10.999984741210824
 20
0.0
 30
0.0
 11
10.999984741210824
 21
3.1999816894530682
 31
0.0
  0
LINE
  5
21A
100
AcDbEntity
  8
0
  6
CONTINUOUS
 62
               7
100
AcDbLine
 10
22.999984741210824
 20
0.0
 30
0.0
 11
22.999984741210824
 21
3.1999816894530682
 31
0.0
  0
LINE
  5
21B
100
AcDbEntity
  8
0
  6
CONTINUOUS
 62
               7
100
AcDbLine
 10
299.99999999999989
 20
5.1999633789060908
 30
0.0
 11
299.99999999999989
 21
55.999981689452966
 31
0.0
  0
LINE
  5
21C
100
AcDbEntity
  8
0
  6
CONTINUOUS
 62
               7
100
AcDbLine
 10
10.999984741210824
 20
0.0
 30
0.0
 11
22.999984741210824
 21
0.0
 31
0.0
  0
LINE
  5
21D
100
AcDbEntity
  8
0
  6
CONTINUOUS
 62
               7
100
AcDbLine
 10
4.9393398282201133
 20
10.739327621188863
 30
0.0
 11
7.060660171779773
 21
12.860647964748409
 31
0.0
  0
LINE
  5
21E
100
AcDbEntity
  8
0
  6
CONTINUOUS
 62
               7
100
AcDbLine
 10
4.9393398282201133
 20
12.860647964748409
 30
0.0
 11
7.060660171779773
 21
10.739327621188863
 31
0.0
  0
LINE
  5
21F
100
AcDbEntity
  8
0
  6
CONTINUOUS
 62
               7
100
AcDbLine
 10
147.4393398282206
 20
10.739327621188863
 30
0.0
 11
149.56066017178026
 21
12.860647964748409
 31
0.0
  0
LINE
  5
220
100
AcDbEntity
  8
0
  6
CONTINUOUS
 62
               7
100
AcDbLine
 10
147.4393398282206
 20
12.860647964748409
 30
0.0
 11
149.56066017178026
 21
10.739327621188863
 31
0.0
  0
LINE
  5
221
100
AcDbEntity
  8
0
  6
CONTINUOUS
 62
               7
100
AcDbLine
 10
289.93933982822057
 20
10.739327621188863
 30
0.0
 11
292.06066017178023
 21
12.860647964748409
 31
0.0
  0
LINE
  5
222
100
AcDbEntity
  8
0
  6
CONTINUOUS
 62
               7
100
AcDbLine
 10
289.93933982822057
 20
12.860647964748409
 30
0.0
 11
292.06066017178023
 21
10.739327621188863
 31
0.0
  0
ENDBLK
  5
223
100
AcDbEntity
  8
0
100
AcDbBlockEnd
  0
BLOCK
  5
224
100
AcDbEntity
  8
0
100
AcDbBlockBegin
  2
DTRB-AS2-3
 70
               0
 10
0.0
 20
0.0
 30
0.0
  3
DTRB-AS2-3
  1

  0
LINE
  5
225
100
AcDbEntity
  8
0
  6
CONTINUOUS
 62
               7
100
AcDbLine
 10
91.500000337021675
 20
5.5000226551443347
 30
0.0
 11
92.01961597185425
 21
5.8000227743535788
 31
0.0
  0
LINE
  5
226
100
AcDbEntity
  8
0
  6
CONTINUOUS
 62
               7
100
AcDbLine
 10
98.499999919999937
 20
5.5000226974487987
 30
0.0
 11
91.499999919999937
 21
5.5000226974487987
 31
0.0
  0
LINE
  5
227
100
AcDbEntity
  8
0
  6
CONTINUOUS
 62
               7
100
AcDbLine
 10
97.980384746660093
 20
5.800022888183662
 30
0.0
 11
92.019616047014097
 21
5.800022888183662
 31
0.0
  0
LINE
  5
228
100
AcDbEntity
  8
0
  6
CONTINUOUS
 62
               7
100
AcDbLine
 10
98.499999828610726
 20
5.5000228607957524
 30
0.0
 11
97.980384714019692
 21
5.8000228488748462
 31
0.0
  0
LINE
  5
229
100
AcDbEntity
  8
0
  6
CONTINUOUS
 62
               7
100
AcDbLine
 10
98.499999919999937
 20
5.5000226974487987
 30
0.0
 11
98.499999919999937
 21
5.0999999999999091
 31
0.0
  0
LINE
  5
22A
100
AcDbEntity
  8
0
  6
CONTINUOUS
 62
               7
100
AcDbLine
 10
91.499999919999937
 20
5.5000226974487987
 30
0.0
 11
91.499999919999937
 21
5.0999999999999091
 31
0.0
  0
LINE
  5
22B
100
AcDbEntity
  8
0
  6
CONTINUOUS
 62
               2
100
AcDbLine
 10
94.999999919999937
 20
6.8981391714955862
 30
0.0
 11
94.999999919999937
 21
-2.3989815897349445
 31
0.0
  0
LINE
  5
22C
100
AcDbEntity
  8
0
  6
CONTINUOUS
 62
               7
100
AcDbLine
 10
89.899999919999914
 20
1.7999999999999545
 30
0.0
 11
100.09999991999996
 21
1.7999999999999545
 31
0.0
  0
LINE
  5
22D
100
AcDbEntity
  8
0
  6
CONTINUOUS
 62
               7
100
AcDbLine
 10
100.09999991999996
 20
5.0999999999999091
 30
0.0
 11
100.09999991999996
 21
0.0
 31
0.0
  0
LINE
  5
22E
100
AcDbEntity
  8
0
  6
CONTINUOUS
 62
               7
100
AcDbLine
 10
89.899999919999914
 20
5.0999999999999091
 30
0.0
 11
89.899999919999914
 21
0.0
 31
0.0
  0
LINE
  5
22F
100
AcDbEntity
  8
0
  6
CONTINUOUS
 62
               7
100
AcDbLine
 10
89.899999919999914
 20
5.0999999999999091
 30
0.0
 11
100.09999991999996
 21
5.0999999999999091
 31
0.0
  0
LINE
  5
230
100
AcDbEntity
  8
0
  6
CONTINUOUS
 62
               7
100
AcDbLine
 10
106.2999791343309
 20
-2.963749196832282
 30
0.0
 11
105.00001312362929
 21
-2.8500169082589082
 31
0.0
  0
LINE
  5
231
100
AcDbEntity
  8
0
  6
CONTINUOUS
 62
               7
100
AcDbLine
 10
106.30001368997273
 20
-9.0362756811817917
 30
0.0
 11
104.99998687637071
 21
-9.1500132893195314
 31
0.0
  0
LINE
  5
232
100
AcDbEntity
  8
0
  6
CONTINUOUS
 62
               7
100
AcDbLine
 10
106.29998697395342
 20
-9.0362760701261777
 30
0.0
 11
106.29998697395342
 21
-2.9637357869230527
 31
0.0
  0
ARC
  5
233
100
AcDbEntity
  8
0
  6
CONTINUOUS
 62
               7
100
AcDbCircle
 10
98.91760172004706
 20
-6.0000211873137914
 30
0.0
 40
7.9824194908142081
100
AcDbArc
 50
337.64346078089295
 51
22.356542861572724
  0
LINE
  5
234
100
AcDbEntity
  8
0
  6
CONTINUOUS
 62
               7
100
AcDbLine
 10
106.2999791343309
 20
-145.46374919683277
 30
0.0
 11
105.00001312362929
 21
-145.35001690825939
 31
0.0
  0
LINE
  5
235
100
AcDbEntity
  8
0
  6
CONTINUOUS
 62
               7
100
AcDbLine
 10
106.30001368997273
 20
-151.53627568118227
 30
0.0
 11
104.99998687637071
 21
-151.65001328932013
 31
0.0
  0
LINE
  5
236
100
AcDbEntity
  8
0
  6
CONTINUOUS
 62
               7
100
AcDbLine
 10
106.29998697395342
 20
-151.53627607012672
 30
0.0
 11
106.29998697395342
 21
-145.46373578692359
 31
0.0
  0
ARC
  5
237
100
AcDbEntity
  8
0
  6
CONTINUOUS
 62
               7
100
AcDbCircle
 10
98.91760172004706
 20
-148.50002118731427
 30
0.0
 40
7.9824194908142081
100
AcDbArc
 50
337.64346078089295
 51
22.356542861572724
  0
LINE
  5
238
100
AcDbEntity
  8
0
  6
CONTINUOUS
 62
               7
100
AcDbLine
 10
106.2999791343309
 20
-287.96374919683274
 30
0.0
 11
105.00001312362929
 21
-287.85001690825936
 31
0.0
  0
LINE
  5
239
100
AcDbEntity
  8
0
  6
CONTINUOUS
 62
               7
100
AcDbLine
 10
106.30001368997273
 20
-294.03627568118225
 30
0.0
 11
104.99998687637071
 21
-294.1500132893201
 31
0.0
  0
LINE
  5
23A
100
AcDbEntity
  8
0
  6
CONTINUOUS
 62
               7
100
AcDbLine
 10
106.29998697395342
 20
-294.03627607012669
 30
0.0
 11
106.29998697395342
 21
-287.96373578692356
 31
0.0
  0
ARC
  5
23B
100
AcDbEntity
  8
0
  6
CONTINUOUS
 62
               7
100
AcDbCircle
 10
98.91760172004706
 20
-291.00002118731425
 30
0.0
 40
7.9824194908142081
100
AcDbArc
 50
337.64346078089295
 51
22.356542861572724
  0
ARC
  5
23C
100
AcDbEntity
  8
0
  6
CONTINUOUS
 62
               7
100
AcDbCircle
 10
-98.917601720047031
 20
-6.0000211873137914
 30
0.0
 40
7.9824194908142081
100
AcDbArc
 50
157.64345713842727
 51
202.35653921910705
  0
LINE
  5
23D
100
AcDbEntity
  8
0
  6
CONTINUOUS
 62
               7
100
AcDbLine
 10
-106.29998697395342
 20
-9.0362760701261777
 30
0.0
 11
-106.29998697395342
 21
-2.9637357869230527
 31
0.0
  0
LINE
  5
23E
100
AcDbEntity
  8
0
  6
CONTINUOUS
 62
               7
100
AcDbLine
 10
-106.30001368997276
 20
-9.0362756811817917
 30
0.0
 11
-104.99998687637068
 21
-9.1500132893195314
 31
0.0
  0
LINE
  5
23F
100
AcDbEntity
  8
0
  6
CONTINUOUS
 62
               7
100
AcDbLine
 10
-106.29997913433093
 20
-2.963749196832282
 30
0.0
 11
-105.00001312362932
 21
-2.8500169082589082
 31
0.0
  0
ARC
  5
240
100
AcDbEntity
  8
0
  6
CONTINUOUS
 62
               7
100
AcDbCircle
 10
-98.917601720047031
 20
-148.50002118731427
 30
0.0
 40
7.9824194908142081
100
AcDbArc
 50
157.64345713842727
 51
202.35653921910705
  0
LINE
  5
241
100
AcDbEntity
  8
0
  6
CONTINUOUS
 62
               7
100
AcDbLine
 10
-106.29998697395342
 20
-151.53627607012672
 30
0.0
 11
-106.29998697395342
 21
-145.46373578692359
 31
0.0
  0
LINE
  5
242
100
AcDbEntity
  8
0
  6
CONTINUOUS
 62
               7
100
AcDbLine
 10
-106.30001368997276
 20
-151.53627568118227
 30
0.0
 11
-104.99998687637068
 21
-151.65001328932013
 31
0.0
  0
LINE
  5
243
100
AcDbEntity
  8
0
  6
CONTINUOUS
 62
               7
100
AcDbLine
 10
-106.29997913433093
 20
-145.46374919683277
 30
0.0
 11
-105.00001312362932
 21
-145.35001690825939
 31
0.0
  0
ARC
  5
244
100
AcDbEntity
  8
0
  6
CONTINUOUS
 62
               7
100
AcDbCircle
 10
-98.917601720047031
 20
-291.00002118731425
 30
0.0
 40
7.9824194908142081
100
AcDbArc
 50
157.64345713842727
 51
202.35653921910705
  0
LINE
  5
245
100
AcDbEntity
  8
0
  6
CONTINUOUS
 62
               7
100
AcDbLine
 10
-106.29998697395342
 20
-294.03627607012669
 30
0.0
 11
-106.29998697395342
 21
-287.96373578692356
 31
0.0
  0
LINE
  5
246
100
AcDbEntity
  8
0
  6
CONTINUOUS
 62
               7
100
AcDbLine
 10
-106.30001368997276
 20
-294.03627568118225
 30
0.0
 11
-104.99998687637068
 21
-294.1500132893201
 31
0.0
  0
LINE
  5
247
100
AcDbEntity
  8
0
  6
CONTINUOUS
 62
               7
100
AcDbLine
 10
-106.29997913433093
 20
-287.96374919683274
 30
0.0
 11
-105.00001312362932
 21
-287.85001690825936
 31
0.0
  0
CIRCLE
  5
248
100
AcDbEntity
  8
0
  6
CONTINUOUS
 62
               7
100
AcDbCircle
 10
-40.0
 20
-6.0
 30
0.0
 40
3.0350000858306885
  0
CIRCLE
  5
249
100
AcDbEntity
  8
0
  6
CONTINUOUS
 62
               7
100
AcDbCircle
 10
-40.0
 20
-6.0
 30
0.0
 40
3.1500000953674316
  0
CIRCLE
  5
24A
100
AcDbEntity
  8
0
  6
CONTINUOUS
 62
               7
100
AcDbCircle
 10
40.0
 20
-6.0
 30
0.0
 40
3.1500000953674316
  0
CIRCLE
  5
24B
100
AcDbEntity
  8
0
  6
CONTINUOUS
 62
               7
100
AcDbCircle
 10
40.0
 20
-6.0
 30
0.0
 40
3.0350000858306885
  0
CIRCLE
  5
24C
100
AcDbEntity
  8
0
  6
CONTINUOUS
 62
               7
100
AcDbCircle
 10
-40.0
 20
-291.20002730582053
 30
0.0
 40
3.1500000953674316
  0
CIRCLE
  5
24D
100
AcDbEntity
  8
0
  6
CONTINUOUS
 62
               7
100
AcDbCircle
 10
-40.0
 20
-291.20002730582053
 30
0.0
 40
3.0350000858306885
  0
CIRCLE
  5
24E
100
AcDbEntity
  8
0
  6
CONTINUOUS
 62
               7
100
AcDbCircle
 10
40.0
 20
-291.20002730582053
 30
0.0
 40
3.1500000953674316
  0
CIRCLE
  5
24F
100
AcDbEntity
  8
0
  6
CONTINUOUS
 62
               7
100
AcDbCircle
 10
40.0
 20
-291.20002730582053
 30
0.0
 40
3.0350000858306885
  0
LINE
  5
250
100
AcDbEntity
  8
0
  6
CONTINUOUS
 62
               7
100
AcDbLine
 10
-14.000000000000057
 20
53.499969642421661
 30
0.0
 11
-14.000000000000057
 21
0.0
 31
0.0
  0
LINE
  5
251
100
AcDbEntity
  8
0
  6
CONTINUOUS
 62
               7
100
AcDbLine
 10
18.499999999999943
 20
53.499969642421661
 30
0.0
 11
18.499999999999943
 21
0.0000001599998996
 31
0.0
  0
LINE
  5
252
100
AcDbEntity
  8
0
  6
CONTINUOUS
 62
               2
100
AcDbLine
 10
181.99999999999989
 20
-20.149822714732068
 30
0.0
 11
181.99999999999989
 21
-11.263104931265957
 31
0.0
  0
ARC
  5
253
100
AcDbEntity
  8
0
  6
CONTINUOUS
 62
               7
100
AcDbCircle
 10
173.99999999999989
 20
-18.400015098789027
 30
0.0
 40
3.4999999999999996
100
AcDbArc
 50
90.0
 51
180.0
  0
LINE
  5
254
100
AcDbEntity
  8
0
  6
CONTINUOUS
 62
               7
100
AcDbLine
 10
188.49999999999977
 20
-13.900015098789027
 30
0.0
 11
175.49999999999989
 21
-13.900015098789027
 31
0.0
  0
LINE
  5
255
100
AcDbEntity
  8
0
  6
CONTINUOUS
 62
               7
100
AcDbLine
 10
173.99999999999989
 20
-14.900015098789027
 30
0.0
 11
189.99999999999989
 21
-14.900015098789027
 31
0.0
  0
ARC
  5
256
100
AcDbEntity
  8
0
  6
CONTINUOUS
 62
               7
100
AcDbCircle
 10
188.49999999999977
 20
-14.900015098789027
 30
0.0
 40
1.0
100
AcDbArc
 50
0.0
 51
90.0
  0
ARC
  5
257
100
AcDbEntity
  8
0
  6
CONTINUOUS
 62
               7
100
AcDbCircle
 10
175.49999999999989
 20
-14.900015098789027
 30
0.0
 40
1.0
100
AcDbArc
 50
90.0
 51
180.0
  0
ARC
  5
258
100
AcDbEntity
  8
0
  6
CONTINUOUS
 62
               7
100
AcDbCircle
 10
189.99999999999989
 20
-18.400015098789027
 30
0.0
 40
3.4999999999999996
100
AcDbArc
 50
0.0
 51
90.0
  0
LINE
  5
259
100
AcDbEntity
  8
0
  6
CONTINUOUS
 62
               7
100
AcDbLine
 10
194.99999999999989
 20
-18.400015098789027
 30
0.0
 11
116.99993896484318
 21
-18.400015098789027
 31
0.0
  0
SPLINE
  5
25A
100
AcDbEntity
  8
0
  6
CONTINUOUS
 62
               7
100
AcDbSpline
210
0.0
220
0.0
230
1.0
 70
               0
 71
               3
 72
               0
 73
               0
 74
               3
 44
0.000001
 12
-0.9941629446599528
 22
-0.1078890145707695
 32
0.0
 13
-0.9999789424324792
 23
0.0064895833163881
 33
0.0
 11
44.349999999999937
 21
-306.43387917200994
 31
0.0
 11
39.579992163618613
 21
-306.84770192408291
 31
0.0
 11
31.650000000000027
 21
-307.07907477820004
 31
0.0
  0
LINE
  5
25B
100
AcDbEntity
  8
0
  6
CONTINUOUS
 62
               7
100
AcDbLine
 10
23.499999999999943
 20
55.499969642421661
 30
0.0
 11
-19.000000000000057
 21
55.499969642421661
 31
0.0
  0
LINE
  5
25C
100
AcDbEntity
  8
0
  6
CONTINUOUS
 62
               7
100
AcDbLine
 10
-19.000000000000057
 20
55.499969642421661
 30
0.0
 11
-19.000000000000057
 21
0.0
 31
0.0
  0
ARC
  5
25D
100
AcDbEntity
  8
0
  6
CONTINUOUS
 62
               7
100
AcDbCircle
 10
0.0
 20
609.99998490121084
 30
0.0
 40
920.0
100
AcDbArc
 50
272.76310112686076
 51
276.49788211075821
  0
LINE
  5
25E
100
AcDbEntity
  8
0
  6
CONTINUOUS
 62
               7
100
AcDbLine
 10
31.650000000000034
 20
-325.49999999999892
 30
0.0
 11
31.650000000000034
 21
-307.07907477820004
 31
0.0
  0
LINE
  5
25F
100
AcDbEntity
  8
0
  6
CONTINUOUS
 62
               7
100
AcDbLine
 10
44.349999999999909
 20
-325.49999999999892
 30
0.0
 11
44.349999999999909
 21
-306.43387917200994
 31
0.0
  0
LINE
  5
260
100
AcDbEntity
  8
0
  6
CONTINUOUS
 62
               7
100
AcDbLine
 10
32.5
 20
-327.99999999999892
 30
0.0
 11
32.5
 21
-326.49999999999881
 31
0.0
  0
LINE
  5
261
100
AcDbEntity
  8
0
  6
CONTINUOUS
 62
               7
100
AcDbLine
 10
43.500000000000057
 20
-327.99999999999892
 30
0.0
 11
43.500000000000057
 21
-326.49999999999881
 31
0.0
  0
LINE
  5
262
100
AcDbEntity
  8
0
  6
CONTINUOUS
 62
               7
100
AcDbLine
 10
32.5
 20
-327.99999999999892
 30
0.0
 11
43.500000000000057
 21
-327.99999999999892
 31
0.0
  0
LINE
  5
263
100
AcDbEntity
  8
0
  6
CONTINUOUS
 62
               7
100
AcDbLine
 10
32.5
 20
-326.49999999999881
 30
0.0
 11
31.650000000000034
 21
-325.49999999999892
 31
0.0
  0
LINE
  5
264
100
AcDbEntity
  8
0
  6
CONTINUOUS
 62
               7
100
AcDbLine
 10
44.349999999999909
 20
-325.49999999999892
 30
0.0
 11
43.500000000000057
 21
-326.49999999999881
 31
0.0
  0
LINE
  5
265
100
AcDbEntity
  8
0
  6
CONTINUOUS
 62
               7
100
AcDbLine
 10
32.5
 20
-326.49999999999881
 30
0.0
 11
43.500000000000057
 21
-326.49999999999881
 31
0.0
  0
LINE
  5
266
100
AcDbEntity
  8
0
  6
CONTINUOUS
 62
               7
100
AcDbLine
 10
44.349999999999909
 20
-325.49999999999892
 30
0.0
 11
31.650000000000034
 21
-325.49999999999892
 31
0.0
  0
LINE
  5
267
100
AcDbEntity
  8
0
  6
CONTINUOUS
 62
               2
100
AcDbLine
 10
38.0
 20
-329.7107083904109
 30
0.0
 11
38.0
 21
-305.60936428611711
 31
0.0
  0
LINE
  5
268
100
AcDbEntity
  8
0
  6
CONTINUOUS
 62
               7
100
AcDbLine
 10
-105.0
 20
-59.000015098789191
 30
0.0
 11
-105.0
 21
-303.09638961050797
 31
0.0
  0
LINE
  5
269
100
AcDbEntity
  8
0
  6
CONTINUOUS
 62
               7
100
AcDbLine
 10
-31.060660171779887
 20
-7.0606751394348066
 30
0.0
 11
-28.939339828220227
 21
-4.9393547958752606
 31
0.0
  0
LINE
  5
26A
100
AcDbEntity
  8
0
  6
CONTINUOUS
 62
               7
100
AcDbLine
 10
-31.060660171779887
 20
-4.9393547958752606
 30
0.0
 11
-28.939339828220227
 21
-7.0606751394348066
 31
0.0
  0
LINE
  5
26B
100
AcDbEntity
  8
0
  6
CONTINUOUS
 62
               7
100
AcDbLine
 10
28.939339828220113
 20
-7.0606751394348066
 30
0.0
 11
31.060660171779773
 21
-4.9393547958752606
 31
0.0
  0
LINE
  5
26C
100
AcDbEntity
  8
0
  6
CONTINUOUS
 62
               7
100
AcDbLine
 10
28.939339828220113
 20
-4.9393547958752606
 30
0.0
 11
31.060660171779773
 21
-7.0606751394348066
 31
0.0
  0
CIRCLE
  5
26D
100
AcDbEntity
  8
0
  6
CONTINUOUS
 62
               7
100
AcDbCircle
 10
-30.000000000000057
 20
-6.0000149676550336
 30
0.0
 40
2.1499999999999999
  0
CIRCLE
  5
26E
100
AcDbEntity
  8
0
  6
CONTINUOUS
 62
               7
100
AcDbCircle
 10
30.0
 20
-6.0000149676550336
 30
0.0
 40
2.1499999999999999
  0
CIRCLE
  5
26F
100
AcDbEntity
  8
0
  6
CONTINUOUS
 62
               7
100
AcDbCircle
 10
30.0
 20
-6.0000149676550336
 30
0.0
 40
2.5
  0
CIRCLE
  5
270
100
AcDbEntity
  8
0
  6
CONTINUOUS
 62
               7
100
AcDbCircle
 10
-30.000000000000057
 20
-6.0000149676550336
 30
0.0
 40
2.5
  0
LINE
  5
271
100
AcDbEntity
  8
0
  6
CONTINUOUS
 62
               7
100
AcDbLine
 10
-35.0
 20
-60.000015098789191
 30
0.0
 11
-35.0
 21
-300.20002730582047
 31
0.0
  0
LINE
  5
272
100
AcDbEntity
  8
0
  6
CONTINUOUS
 62
               7
100
AcDbLine
 10
-25.0
 20
-60.000015098789191
 30
0.0
 11
-25.0
 21
-300.20002730582047
 31
0.0
  0
LINE
  5
273
100
AcDbEntity
  8
0
  6
CONTINUOUS
 62
               7
100
AcDbLine
 10
-19.499999999999972
 20
-60.000015098789191
 30
0.0
 11
-19.499999999999972
 21
-238.50001509878925
 31
0.0
  0
LINE
  5
274
100
AcDbEntity
  8
0
  6
CONTINUOUS
 62
               7
100
AcDbLine
 10
-13.500000000000057
 20
-60.000015098789191
 30
0.0
 11
-13.500000000000057
 21
-238.50001509878925
 31
0.0
  0
LINE
  5
275
100
AcDbEntity
  8
0
  6
CONTINUOUS
 62
               7
100
AcDbLine
 10
13.500000000000057
 20
-60.000015098789191
 30
0.0
 11
13.500000000000057
 21
-238.50001509878925
 31
0.0
  0
LINE
  5
276
100
AcDbEntity
  8
0
  6
CONTINUOUS
 62
               7
100
AcDbLine
 10
19.499999999999972
 20
-60.000015098789191
 30
0.0
 11
19.499999999999972
 21
-238.50001509878925
 31
0.0
  0
LINE
  5
277
100
AcDbEntity
  8
0
  6
CONTINUOUS
 62
               7
100
AcDbLine
 10
25.0
 20
-60.000015098789191
 30
0.0
 11
25.0
 21
-300.20002730582047
 31
0.0
  0
LINE
  5
278
100
AcDbEntity
  8
0
  6
CONTINUOUS
 62
               7
100
AcDbLine
 10
35.0
 20
-60.000015098789191
 30
0.0
 11
35.0
 21
-300.20002730582047
 31
0.0
  0
LINE
  5
279
100
AcDbEntity
  8
0
  6
CONTINUOUS
 62
               7
100
AcDbLine
 10
105.0
 20
0.0
 30
0.0
 11
105.0
 21
-19.9999998400001
 31
0.0
  0
LINE
  5
27A
100
AcDbEntity
  8
0
  6
CONTINUOUS
 62
               7
100
AcDbLine
 10
105.0
 20
0.0
 30
0.0
 11
-105.0
 21
0.0
 31
0.0
  0
LINE
  5
27B
100
AcDbEntity
  8
0
  6
CONTINUOUS
 62
               7
100
AcDbLine
 10
104.99999983999987
 20
-19.9999998400001
 30
0.0
 11
104.99999983999987
 21
-21.000015098789277
 31
0.0
  0
LINE
  5
27C
100
AcDbEntity
  8
0
  6
CONTINUOUS
 62
               7
100
AcDbLine
 10
-105.0
 20
-19.9999998400001
 30
0.0
 11
104.99999983999987
 21
-19.9999998400001
 31
0.0
  0
LINE
  5
27D
100
AcDbEntity
  8
0
  6
CONTINUOUS
 62
               7
100
AcDbLine
 10
107.0
 20
-17.000024635532327
 30
0.0
 11
117.64999992253604
 21
-17.000024635532327
 31
0.0
  0
LINE
  5
27E
100
AcDbEntity
  8
0
  6
CONTINUOUS
 62
               7
100
AcDbLine
 10
117.5
 20
-17.000024635532327
 30
0.0
 11
117.5
 21
-18.400015098789027
 31
0.0
  0
ARC
  5
27F
100
AcDbEntity
  8
0
  6
CONTINUOUS
 62
               7
100
AcDbCircle
 10
122.0
 20
-24.000024635532327
 30
0.0
 40
6.3499999999999996
100
AcDbArc
 50
61.871354031374729
 51
84.698108691994832
  0
ARC
  5
280
100
AcDbEntity
  8
0
  6
CONTINUOUS
 62
               7
100
AcDbCircle
 10
115.50000000000023
 20
-22.129680473545136
 30
0.0
 40
6.3296561241149902
100
AcDbArc
 50
70.857292686105737
 51
109.14270913512912
  0
ARC
  5
281
100
AcDbEntity
  8
0
  6
CONTINUOUS
 62
               7
100
AcDbCircle
 10
120.50000000000023
 20
-23.529661400058671
 30
0.0
 40
6.3296561241149902
100
AcDbArc
 50
70.857292686107982
 51
109.14270913513137
  0
LINE
  5
282
100
AcDbEntity
  8
0
  6
CONTINUOUS
 62
               7
100
AcDbLine
 10
117.57563471794128
 20
-16.150024611690469
 30
0.0
 11
113.42436528205883
 21
-16.150024611690696
 31
0.0
  0
LINE
  5
283
100
AcDbEntity
  8
0
  6
CONTINUOUS
 62
               7
100
AcDbLine
 10
117.5756345582538
 20
-16.150024634019701
 30
0.0
 11
117.64999992253604
 21
-17.000024639761591
 31
0.0
  0
LINE
  5
284
100
AcDbEntity
  8
0
  6
CONTINUOUS
 62
               7
100
AcDbLine
 10
113.42436544174586
 20
-16.150024634019701
 30
0.0
 11
113.35000007746362
 21
-17.000024639761591
 31
0.0
  0
LINE
  5
285
100
AcDbEntity
  8
0
  6
CONTINUOUS
 62
               7
100
AcDbLine
 10
122.57563471794128
 20
-17.550005538204005
 30
0.0
 11
118.42436528205883
 21
-17.550005538204232
 31
0.0
  0
LINE
  5
286
100
AcDbEntity
  8
0
  6
CONTINUOUS
 62
               7
100
AcDbLine
 10
122.57563455825402
 20
-17.55000556053335
 30
0.0
 11
122.64999992253627
 21
-18.400005566275354
 31
0.0
  0
LINE
  5
287
100
AcDbEntity
  8
0
  6
CONTINUOUS
 62
               7
100
AcDbLine
 10
118.4243654417462
 20
-17.550005560533464
 30
0.0
 11
118.35000007746396
 21
-18.400005566275354
 31
0.0
  0
LINE
  5
288
100
AcDbEntity
  8
0
  6
CONTINUOUS
 62
               7
100
AcDbLine
 10
107.0
 20
-21.000024635532441
 30
0.0
 11
107.0
 21
-17.000024635532327
 31
0.0
  0
LINE
  5
289
100
AcDbEntity
  8
0
  6
CONTINUOUS
 62
               7
100
AcDbLine
 10
118.41561493994732
 20
-17.650024254062714
 30
0.0
 11
117.5
 21
-17.650024254062714
 31
0.0
  0
ARC
  5
28A
100
AcDbEntity
  8
0
  6
CONTINUOUS
 62
               7
100
AcDbCircle
 10
-104.50000000399996
 20
-19.499999844000172
 30
0.0
 40
0.4999999959999999
100
AcDbArc
 50
179.99999749552182
 51
270.0
  0
ARC
  5
28B
100
AcDbEntity
  8
0
  6
CONTINUOUS
 62
               7
100
AcDbCircle
 10
-85.500000156000141
 20
-19.499999844000172
 30
0.0
 40
0.4999999959999999
100
AcDbArc
 50
270.0
 51
0.0000025044781673
  0
ARC
  5
28C
100
AcDbEntity
  8
0
  6
CONTINUOUS
 62
               7
100
AcDbCircle
 10
-85.500000156000141
 20
-0.5000001560001692
 30
0.0
 40
0.4999999959999999
100
AcDbArc
 50
359.99999749552182
 51
90.0
  0
ARC
  5
28D
100
AcDbEntity
  8
0
  6
CONTINUOUS
 62
               7
100
AcDbCircle
 10
-104.50000000399996
 20
-0.5000001560001692
 30
0.0
 40
0.4999999959999999
100
AcDbArc
 50
90.0
 51
180.00000250447818
  0
ARC
  5
28E
100
AcDbEntity
  8
0
  6
CONTINUOUS
 62
               7
100
AcDbCircle
 10
85.499999835999915
 20
-19.499999844000172
 30
0.0
 40
0.4999999959999999
100
AcDbArc
 50
179.99999749552182
 51
270.0
  0
ARC
  5
28F
100
AcDbEntity
  8
0
  6
CONTINUOUS
 62
               7
100
AcDbCircle
 10
104.4999996839997
 20
-19.499999844000172
 30
0.0
 40
0.4999999959999999
100
AcDbArc
 50
270.0
 51
0.0000025044781673
  0
ARC
  5
290
100
AcDbEntity
  8
0
  6
CONTINUOUS
 62
               7
100
AcDbCircle
 10
104.4999996839997
 20
-0.5000001560001692
 30
0.0
 40
0.4999999959999999
100
AcDbArc
 50
359.99999749552182
 51
90.0
  0
ARC
  5
291
100
AcDbEntity
  8
0
  6
CONTINUOUS
 62
               7
100
AcDbCircle
 10
85.499999835999915
 20
-0.5000001560001692
 30
0.0
 40
0.4999999959999999
100
AcDbArc
 50
90.0
 51
180.00000250447818
  0
LINE
  5
292
100
AcDbEntity
  8
0
  6
CONTINUOUS
 62
               7
100
AcDbLine
 10
105.0
 20
-15.9999998400001
 30
0.0
 11
84.999999839999873
 21
-15.9999998400001
 31
0.0
  0
LINE
  5
293
100
AcDbEntity
  8
0
  6
CONTINUOUS
 62
               7
100
AcDbLine
 10
84.999999839999873
 20
-19.9999998400001
 30
0.0
 11
84.999999839999873
 21
0.0
 31
0.0
  0
LINE
  5
294
100
AcDbEntity
  8
0
  6
CONTINUOUS
 62
               7
100
AcDbLine
 10
-85.0
 20
-19.9999998400001
 30
0.0
 11
-85.0
 21
0.0
 31
0.0
  0
LINE
  5
295
100
AcDbEntity
  8
0
  6
CONTINUOUS
 62
               7
100
AcDbLine
 10
49.800003051757813
 20
-290.00002272818381
 30
0.0
 11
60.199996948242244
 21
-290.00002272818381
 31
0.0
  0
LINE
  5
296
100
AcDbEntity
  8
0
  6
CONTINUOUS
 62
               7
100
AcDbLine
 10
49.800003051757813
 20
-292.40002425406277
 30
0.0
 11
60.199996948242244
 21
-292.40002425406277
 31
0.0
  0
LINE
  5
297
100
AcDbEntity
  8
0
  6
CONTINUOUS
 62
               7
100
AcDbLine
 10
-60.19999933242795
 20
-292.40002425406277
 30
0.0
 11
-60.19999933242795
 21
-290.00002272818381
 31
0.0
  0
LINE
  5
298
100
AcDbEntity
  8
0
  6
CONTINUOUS
 62
               7
100
AcDbLine
 10
60.199996948242244
 20
-292.40002425406277
 30
0.0
 11
60.199996948242244
 21
-290.00002272818381
 31
0.0
  0
LINE
  5
299
100
AcDbEntity
  8
0
  6
CONTINUOUS
 62
               7
100
AcDbLine
 10
-49.79999923706049
 20
-292.40002425406277
 30
0.0
 11
-49.79999923706049
 21
-290.00002272818381
 31
0.0
  0
LINE
  5
29A
100
AcDbEntity
  8
0
  6
CONTINUOUS
 62
               7
100
AcDbLine
 10
49.800003051757813
 20
-292.40002425406277
 30
0.0
 11
49.800003051757813
 21
-290.00002272818381
 31
0.0
  0
LINE
  5
29B
100
AcDbEntity
  8
0
  6
CONTINUOUS
 62
               7
100
AcDbLine
 10
-60.19999933242795
 20
-290.00002272818381
 30
0.0
 11
-49.79999923706049
 21
-290.00002272818381
 31
0.0
  0
LINE
  5
29C
100
AcDbEntity
  8
0
  6
CONTINUOUS
 62
               7
100
AcDbLine
 10
-60.19999933242795
 20
-292.40002425406277
 30
0.0
 11
-49.79999923706049
 21
-292.40002425406277
 31
0.0
  0
LINE
  5
29D
100
AcDbEntity
  8
0
  6
CONTINUOUS
 62
               2
100
AcDbLine
 10
-75.000000000000085
 20
-12.677133681425175
 30
0.0
 11
-75.000000000000085
 21
-66.791279276665506
 31
0.0
  0
LINE
  5
29E
100
AcDbEntity
  8
0
  6
CONTINUOUS
 62
               2
100
AcDbLine
 10
74.999999999999886
 20
-12.677133681425175
 30
0.0
 11
74.999999999999886
 21
-66.791279276665506
 31
0.0
  0
LINE
  5
29F
100
AcDbEntity
  8
0
  6
CONTINUOUS
 62
               7
100
AcDbLine
 10
-15.778312325477543
 20
-247.75001509878922
 30
0.0
 11
-17.221685886383
 21
-247.75001509878922
 31
0.0
  0
LINE
  5
2A0
100
AcDbEntity
  8
0
  6
CONTINUOUS
 62
               7
100
AcDbLine
 10
-15.778315862125311
 20
-247.75000843813717
 30
0.0
 11
-15.056633851975874
 21
-246.5000142299443
 31
0.0
  0
LINE
  5
2A1
100
AcDbEntity
  8
0
  6
CONTINUOUS
 62
               7
100
AcDbLine
 10
-15.05663434079321
 20
-246.50001493148224
 30
0.0
 11
-15.778317680765525
 21
-245.25002258157267
 31
0.0
  0
LINE
  5
2A2
100
AcDbEntity
  8
0
  6
CONTINUOUS
 62
               7
100
AcDbLine
 10
-15.778314462677685
 20
-245.25002892706718
 30
0.0
 11
-17.221686712280842
 21
-245.2500298807405
 31
0.0
  0
LINE
  5
2A3
100
AcDbEntity
  8
0
  6
CONTINUOUS
 62
               7
100
AcDbLine
 10
-17.221683148344312
 20
-245.25002281319198
 30
0.0
 11
-17.943365902974449
 21
-246.50001653960854
 31
0.0
  0
LINE
  5
2A4
100
AcDbEntity
  8
0
  6
CONTINUOUS
 62
               7
100
AcDbLine
 10
-17.943365865992604
 20
-246.50001538336565
 30
0.0
 11
-17.221681486603472
 21
-247.75000836991322
 31
0.0
  0
CIRCLE
  5
2A5
100
AcDbEntity
  8
0
  6
CONTINUOUS
 62
               7
100
AcDbCircle
 10
-16.499999999999943
 20
-246.50001509878922
 30
0.0
 40
2.75
  0
LINE
  5
2A6
100
AcDbEntity
  8
0
  6
CONTINUOUS
 62
               7
100
AcDbLine
 10
17.221687674522343
 20
-247.75001509878922
 30
0.0
 11
15.778314113616887
 21
-247.75001509878922
 31
0.0
  0
LINE
  5
2A7
100
AcDbEntity
  8
0
  6
CONTINUOUS
 62
               7
100
AcDbLine
 10
17.221684137874547
 20
-247.75000843813717
 30
0.0
 11
17.943366148024012
 21
-246.5000142299443
 31
0.0
  0
LINE
  5
2A8
100
AcDbEntity
  8
0
  6
CONTINUOUS
 62
               7
100
AcDbLine
 10
17.943365659206648
 20
-246.50001493148224
 30
0.0
 11
17.221682319234333
 21
-245.25002258157267
 31
0.0
  0
LINE
  5
2A9
100
AcDbEntity
  8
0
  6
CONTINUOUS
 62
               7
100
AcDbLine
 10
17.221685537322344
 20
-245.25002892706718
 30
0.0
 11
15.778313287719044
 21
-245.2500298807405
 31
0.0
  0
LINE
  5
2AA
100
AcDbEntity
  8
0
  6
CONTINUOUS
 62
               7
100
AcDbLine
 10
15.778316851655546
 20
-245.25002281319198
 30
0.0
 11
15.056634097025579
 21
-246.50001653960854
 31
0.0
  0
LINE
  5
2AB
100
AcDbEntity
  8
0
  6
CONTINUOUS
 62
               7
100
AcDbLine
 10
15.056634134007254
 20
-246.50001538336565
 30
0.0
 11
15.778318513396556
 21
-247.75000836991322
 31
0.0
  0
CIRCLE
  5
2AC
100
AcDbEntity
  8
0
  6
CONTINUOUS
 62
               7
100
AcDbCircle
 10
16.499999999999943
 20
-246.50001509878922
 30
0.0
 40
2.75
  0
LINE
  5
2AD
100
AcDbEntity
  8
0
  6
CONTINUOUS
 62
               7
100
AcDbLine
 10
17.221687674522343
 20
-273.75001509878916
 30
0.0
 11
15.778314113616887
 21
-273.75001509878916
 31
0.0
  0
LINE
  5
2AE
100
AcDbEntity
  8
0
  6
CONTINUOUS
 62
               7
100
AcDbLine
 10
17.221684137874547
 20
-273.75000843813712
 30
0.0
 11
17.943366148024012
 21
-272.50001422994433
 31
0.0
  0
LINE
  5
2AF
100
AcDbEntity
  8
0
  6
CONTINUOUS
 62
               7
100
AcDbLine
 10
17.943365659206648
 20
-272.50001493148227
 30
0.0
 11
17.221682319234333
 21
-271.25002258157269
 31
0.0
  0
LINE
  5
2B0
100
AcDbEntity
  8
0
  6
CONTINUOUS
 62
               7
100
AcDbLine
 10
17.221685537322344
 20
-271.25002892706721
 30
0.0
 11
15.778313287719044
 21
-271.2500298807405
 31
0.0
  0
LINE
  5
2B1
100
AcDbEntity
  8
0
  6
CONTINUOUS
 62
               7
100
AcDbLine
 10
15.778316851655546
 20
-271.250022813192
 30
0.0
 11
15.056634097025579
 21
-272.50001653960862
 31
0.0
  0
LINE
  5
2B2
100
AcDbEntity
  8
0
  6
CONTINUOUS
 62
               7
100
AcDbLine
 10
15.056634134007254
 20
-272.50001538336574
 30
0.0
 11
15.778318513396556
 21
-273.75000836991319
 31
0.0
  0
CIRCLE
  5
2B3
100
AcDbEntity
  8
0
  6
CONTINUOUS
 62
               7
100
AcDbCircle
 10
16.499999999999943
 20
-272.50001509878916
 30
0.0
 40
2.75
  0
LINE
  5
2B4
100
AcDbEntity
  8
0
  6
CONTINUOUS
 62
               7
100
AcDbLine
 10
-15.778312325477543
 20
-273.75001509878916
 30
0.0
 11
-17.221685886383
 21
-273.75001509878916
 31
0.0
  0
LINE
  5
2B5
100
AcDbEntity
  8
0
  6
CONTINUOUS
 62
               7
100
AcDbLine
 10
-15.778315862125311
 20
-273.75000843813712
 30
0.0
 11
-15.056633851975874
 21
-272.50001422994433
 31
0.0
  0
LINE
  5
2B6
100
AcDbEntity
  8
0
  6
CONTINUOUS
 62
               7
100
AcDbLine
 10
-15.05663434079321
 20
-272.50001493148227
 30
0.0
 11
-15.778317680765525
 21
-271.25002258157269
 31
0.0
  0
LINE
  5
2B7
100
AcDbEntity
  8
0
  6
CONTINUOUS
 62
               7
100
AcDbLine
 10
-15.778314462677685
 20
-271.25002892706721
 30
0.0
 11
-17.221686712280842
 21
-271.2500298807405
 31
0.0
  0
LINE
  5
2B8
100
AcDbEntity
  8
0
  6
CONTINUOUS
 62
               7
100
AcDbLine
 10
-17.221683148344312
 20
-271.250022813192
 30
0.0
 11
-17.943365902974449
 21
-272.50001653960862
 31
0.0
  0
LINE
  5
2B9
100
AcDbEntity
  8
0
  6
CONTINUOUS
 62
               7
100
AcDbLine
 10
-17.943365865992604
 20
-272.50001538336574
 30
0.0
 11
-17.221681486603472
 21
-273.75000836991319
 31
0.0
  0
CIRCLE
  5
2BA
100
AcDbEntity
  8
0
  6
CONTINUOUS
 62
               7
100
AcDbCircle
 10
-16.499999999999943
 20
-272.50001509878916
 30
0.0
 40
2.75
  0
LINE
  5
2BB
100
AcDbEntity
  8
0
  6
CONTINUOUS
 62
               7
100
AcDbLine
 10
118.42436539558616
 20
-59.850015119204869
 30
0.0
 11
118.35000002964989
 21
-59.000015094559814
 31
0.0
  0
LINE
  5
2BC
100
AcDbEntity
  8
0
  6
CONTINUOUS
 62
               7
100
AcDbLine
 10
122.57563460441372
 20
-59.850015119205096
 30
0.0
 11
122.64999997034988
 21
-59.000015094560041
 31
0.0
  0
LINE
  5
2BD
100
AcDbEntity
  8
0
  6
CONTINUOUS
 62
               7
100
AcDbLine
 10
122.57563471794128
 20
-59.850015122631277
 30
0.0
 11
118.42436528205883
 21
-59.850015122630936
 31
0.0
  0
ARC
  5
2BE
100
AcDbEntity
  8
0
  6
CONTINUOUS
 62
               7
100
AcDbCircle
 10
120.50000000000023
 20
-53.870359260776496
 30
0.0
 40
6.3296561241149902
100
AcDbArc
 50
250.85729086486964
 51
289.14270731389303
  0
CIRCLE
  5
2BF
100
AcDbEntity
  8
0
  6
CONTINUOUS
 62
               7
100
AcDbCircle
 10
62.0
 20
-23.500015098789277
 30
0.0
 40
1.25
  0
CIRCLE
  5
2C0
100
AcDbEntity
  8
0
  6
CONTINUOUS
 62
               2
100
AcDbCircle
 10
62.0
 20
-23.500015098789277
 30
0.0
 40
1.4999999999999998
  0
CIRCLE
  5
2C1
100
AcDbEntity
  8
0
  6
CONTINUOUS
 62
               7
100
AcDbCircle
 10
87.999999999999886
 20
-23.500015098789277
 30
0.0
 40
1.25
  0
CIRCLE
  5
2C2
100
AcDbEntity
  8
0
  6
CONTINUOUS
 62
               2
100
AcDbCircle
 10
87.999999999999886
 20
-23.500015098789277
 30
0.0
 40
1.4999999999999998
  0
CIRCLE
  5
2C3
100
AcDbEntity
  8
0
  6
CONTINUOUS
 62
               7
100
AcDbCircle
 10
87.999999999999886
 20
-56.500015098789078
 30
0.0
 40
1.25
  0
CIRCLE
  5
2C4
100
AcDbEntity
  8
0
  6
CONTINUOUS
 62
               2
100
AcDbCircle
 10
87.999999999999886
 20
-56.500015098789078
 30
0.0
 40
1.4999999999999998
  0
CIRCLE
  5
2C5
100
AcDbEntity
  8
0
  6
CONTINUOUS
 62
               7
100
AcDbCircle
 10
62.0
 20
-56.500015098789078
 30
0.0
 40
1.25
  0
CIRCLE
  5
2C6
100
AcDbEntity
  8
0
  6
CONTINUOUS
 62
               2
100
AcDbCircle
 10
62.0
 20
-56.500015098789078
 30
0.0
 40
1.4999999999999998
  0
ARC
  5
2C7
100
AcDbEntity
  8
0
  6
CONTINUOUS
 62
               7
100
AcDbCircle
 10
65.499999999999886
 20
-29.500015098789163
 30
0.0
 40
3.25
100
AcDbArc
 50
63.164683533596474
 51
116.83531282393785
  0
ARC
  5
2C8
100
AcDbEntity
  8
0
  6
CONTINUOUS
 62
               7
100
AcDbCircle
 10
84.5
 20
-29.500015098789163
 30
0.0
 40
3.25
100
AcDbArc
 50
63.164683533596474
 51
116.83531282393785
  0
ARC
  5
2C9
100
AcDbEntity
  8
0
  6
CONTINUOUS
 62
               7
100
AcDbCircle
 10
65.499999999999886
 20
-50.500015098789191
 30
0.0
 40
3.25
100
AcDbArc
 50
243.16468023218744
 51
296.835316352718
  0
ARC
  5
2CA
100
AcDbEntity
  8
0
  6
CONTINUOUS
 62
               7
100
AcDbCircle
 10
84.5
 20
-50.500015098789191
 30
0.0
 40
3.25
100
AcDbArc
 50
243.16468023218744
 51
296.835316352718
  0
ARC
  5
2CB
100
AcDbEntity
  8
0
  6
CONTINUOUS
 62
               7
100
AcDbCircle
 10
-108.67529296874994
 20
-57.000015098789191
 30
0.0
 40
2.0
100
AcDbArc
 50
202.13136085930475
 51
270.00000250447806
  0
ARC
  5
2CC
100
AcDbEntity
  8
0
  6
CONTINUOUS
 62
               7
100
AcDbCircle
 10
-108.67529296874994
 20
-23.000015098789163
 30
0.0
 40
2.0
100
AcDbArc
 50
89.999991348577993
 51
157.86863048927324
  0
ARC
  5
2CD
100
AcDbEntity
  8
0
  6
CONTINUOUS
 62
               7
100
AcDbCircle
 10
-104.95202636718756
 20
-23.000015098789163
 30
0.0
 40
2.0
100
AcDbArc
 50
89.999991348577993
 51
170.84680953499787
  0
ARC
  5
2CE
100
AcDbEntity
  8
0
  6
CONTINUOUS
 62
               7
100
AcDbCircle
 10
-104.95202636718756
 20
-57.000015098789191
 30
0.0
 40
2.0
100
AcDbArc
 50
189.15318181358012
 51
270.00000250447806
  0
ARC
  5
2CF
100
AcDbEntity
  8
0
  6
CONTINUOUS
 62
               7
100
AcDbCircle
 10
-66.875
 20
-40.000015098789191
 30
0.0
 40
47.125
100
AcDbArc
 50
157.86864096192809
 51
202.13136085930475
  0
ARC
  5
2D0
100
AcDbEntity
  8
0
  6
CONTINUOUS
 62
               7
100
AcDbCircle
 10
0.5552978515624716
 20
-40.000015098789191
 30
0.0
 40
108.86813354492186
100
AcDbArc
 50
170.84681317746356
 51
189.15318181358012
  0
ARC
  5
2D1
100
AcDbEntity
  8
0
  6
CONTINUOUS
 62
               7
100
AcDbCircle
 10
-16.499999999999943
 20
-282.00001509878928
 30
0.0
 40
2.9999999999999996
100
AcDbArc
 50
179.99999749552182
 51
0.0000025044781673
  0
ARC
  5
2D2
100
AcDbEntity
  8
0
  6
CONTINUOUS
 62
               7
100
AcDbCircle
 10
16.499999999999943
 20
-282.00001509878928
 30
0.0
 40
2.9999999999999996
100
AcDbArc
 50
179.99999749552182
 51
0.0000025044781673
  0
CIRCLE
  5
2D3
100
AcDbEntity
  8
0
  6
CONTINUOUS
 62
               7
100
AcDbCircle
 10
16.499999999999943
 20
-246.50001509878922
 30
0.0
 40
1.7499999999999998
  0
CIRCLE
  5
2D4
100
AcDbEntity
  8
0
  6
CONTINUOUS
 62
               7
100
AcDbCircle
 10
16.499999999999943
 20
-246.50001509878922
 30
0.0
 40
3.25
  0
CIRCLE
  5
2D5
100
AcDbEntity
  8
0
  6
CONTINUOUS
 62
               7
100
AcDbCircle
 10
16.499999999999943
 20
-272.50001509878916
 30
0.0
 40
3.25
  0
CIRCLE
  5
2D6
100
AcDbEntity
  8
0
  6
CONTINUOUS
 62
               7
100
AcDbCircle
 10
16.499999999999943
 20
-272.50001509878916
 30
0.0
 40
1.7499999999999998
  0
CIRCLE
  5
2D7
100
AcDbEntity
  8
0
  6
CONTINUOUS
 62
               7
100
AcDbCircle
 10
-16.499999999999943
 20
-272.50001509878916
 30
0.0
 40
1.7499999999999998
  0
CIRCLE
  5
2D8
100
AcDbEntity
  8
0
  6
CONTINUOUS
 62
               7
100
AcDbCircle
 10
-16.499999999999943
 20
-272.50001509878916
 30
0.0
 40
3.25
  0
CIRCLE
  5
2D9
100
AcDbEntity
  8
0
  6
CONTINUOUS
 62
               2
100
AcDbCircle
 10
21.999999999999972
 20
-277.50001509878916
 30
0.0
 40
1.4999999999999998
  0
CIRCLE
  5
2DA
100
AcDbEntity
  8
0
  6
CONTINUOUS
 62
               7
100
AcDbCircle
 10
21.999999999999972
 20
-277.50001509878916
 30
0.0
 40
1.25
  0
CIRCLE
  5
2DB
100
AcDbEntity
  8
0
  6
CONTINUOUS
 62
               7
100
AcDbCircle
 10
-21.999999999999972
 20
-277.50001509878916
 30
0.0
 40
1.25
  0
CIRCLE
  5
2DC
100
AcDbEntity
  8
0
  6
CONTINUOUS
 62
               2
100
AcDbCircle
 10
-21.999999999999972
 20
-277.50001509878916
 30
0.0
 40
1.4999999999999998
  0
CIRCLE
  5
2DD
100
AcDbEntity
  8
0
  6
CONTINUOUS
 62
               2
100
AcDbCircle
 10
-21.999999999999972
 20
-241.50001509878922
 30
0.0
 40
1.4999999999999998
  0
CIRCLE
  5
2DE
100
AcDbEntity
  8
0
  6
CONTINUOUS
 62
               7
100
AcDbCircle
 10
-21.999999999999972
 20
-241.50001509878922
 30
0.0
 40
1.25
  0
ARC
  5
2DF
100
AcDbEntity
  8
0
  6
CONTINUOUS
 62
               7
100
AcDbCircle
 10
-21.999999999999972
 20
-241.50001509878922
 30
0.0
 40
2.9999999999999996
100
AcDbArc
 50
89.999991348577993
 51
180.00000068324533
  0
ARC
  5
2E0
100
AcDbEntity
  8
0
  6
CONTINUOUS
 62
               7
100
AcDbCircle
 10
-21.999999999999972
 20
-277.50001509878916
 30
0.0
 40
2.9999999999999996
100
AcDbArc
 50
179.99999749552182
 51
270.0
  0
ARC
  5
2E1
100
AcDbEntity
  8
0
  6
CONTINUOUS
 62
               7
100
AcDbCircle
 10
21.999999999999972
 20
-277.50001509878916
 30
0.0
 40
2.9999999999999996
100
AcDbArc
 50
270.0
 51
0.0000025044781673
  0
ARC
  5
2E2
100
AcDbEntity
  8
0
  6
CONTINUOUS
 62
               7
100
AcDbCircle
 10
21.999999999999972
 20
-241.50001509878922
 30
0.0
 40
2.9999999999999996
100
AcDbArc
 50
0.0000025044781673
 51
90.000005008956336
  0
CIRCLE
  5
2E3
100
AcDbEntity
  8
0
  6
CONTINUOUS
 62
               7
100
AcDbCircle
 10
21.999999999999972
 20
-241.50001509878922
 30
0.0
 40
1.25
  0
CIRCLE
  5
2E4
100
AcDbEntity
  8
0
  6
CONTINUOUS
 62
               2
100
AcDbCircle
 10
21.999999999999972
 20
-241.50001509878922
 30
0.0
 40
1.4999999999999998
  0
CIRCLE
  5
2E5
100
AcDbEntity
  8
0
  6
CONTINUOUS
 62
               7
100
AcDbCircle
 10
-16.499999999999943
 20
-246.50001509878922
 30
0.0
 40
3.25
  0
CIRCLE
  5
2E6
100
AcDbEntity
  8
0
  6
CONTINUOUS
 62
               7
100
AcDbCircle
 10
-16.499999999999943
 20
-246.50001509878922
 30
0.0
 40
1.7499999999999998
  0
ARC
  5
2E7
100
AcDbEntity
  8
0
  6
CONTINUOUS
 62
               7
100
AcDbCircle
 10
0.0
 20
-169.06358321402357
 30
0.0
 40
135.72679138183594
100
AcDbArc
 50
255.0562291149291
 51
284.94377088507088
  0
ARC
  5
2E8
100
AcDbEntity
  8
0
  6
CONTINUOUS
 62
               7
100
AcDbCircle
 10
103.99999999999989
 20
-301.99205001089859
 30
0.0
 40
1.0
100
AcDbArc
 50
271.98128483929463
 51
0.0000025044781673
  0
ARC
  5
2E9
100
AcDbEntity
  8
0
  6
CONTINUOUS
 62
               7
100
AcDbCircle
 10
-103.99999999999994
 20
-301.99205001089859
 30
0.0
 40
1.0
100
AcDbArc
 50
179.99999749552182
 51
268.01871516070537
  0
ARC
  5
2EA
100
AcDbEntity
  8
0
  6
CONTINUOUS
 62
               7
100
AcDbCircle
 10
0.0
 20
2704.3327485730852
 30
0.0
 40
3009.123046875
100
AcDbArc
 50
268.01871516070537
 51
271.98128484826367
  0
ARC
  5
2EB
100
AcDbEntity
  8
0
  6
CONTINUOUS
 62
               7
100
AcDbCircle
 10
103.99999999999989
 20
-303.00001509878922
 30
0.0
 40
1.0
100
AcDbArc
 50
270.0
 51
0.0000025044781673
  0
ARC
  5
2EC
100
AcDbEntity
  8
0
  6
CONTINUOUS
 62
               7
100
AcDbCircle
 10
103.99999999999989
 20
-303.09638961050797
 30
0.0
 40
1.0
100
AcDbArc
 50
276.49788211075821
 51
0.0000025044781673
  0
ARC
  5
2ED
100
AcDbEntity
  8
0
  6
CONTINUOUS
 62
               7
100
AcDbCircle
 10
-103.99999999999994
 20
-303.09638961050797
 30
0.0
 40
1.0
100
AcDbArc
 50
179.99999749552182
 51
263.50211788924179
  0
ARC
  5
2EE
100
AcDbEntity
  8
0
  6
CONTINUOUS
 62
               7
100
AcDbCircle
 10
0.0
 20
609.99998490121084
 30
0.0
 40
920.0
100
AcDbArc
 50
263.50211788924179
 51
271.97148838100151
  0
LINE
  5
2EF
100
AcDbEntity
  8
0
  6
CONTINUOUS
 62
               2
100
AcDbLine
 10
37.694308743115812
 20
-59.500015098789191
 30
0.0
 11
-37.822453857322415
 21
-59.500015098789191
 31
0.0
  0
LINE
  5
2F0
100
AcDbEntity
  8
0
  6
CONTINUOUS
 62
               2
100
AcDbLine
 10
38.460976383729417
 20
-259.50001509878928
 30
0.0
 11
-38.972455318242794
 21
-259.50001509878928
 31
0.0
  0
LINE
  5
2F1
100
AcDbEntity
  8
0
  6
CONTINUOUS
 62
               7
100
AcDbLine
 10
23.499999999999943
 20
55.499969642421661
 30
0.0
 11
23.499999999999943
 21
0.0000001599998996
 31
0.0
  0
LINE
  5
2F2
100
AcDbEntity
  8
0
  6
CONTINUOUS
 62
               7
100
AcDbLine
 10
95.999999999999886
 20
-26.599990684726777
 30
0.0
 11
95.999999999999886
 21
-21.000015098789277
 31
0.0
  0
LINE
  5
2F3
100
AcDbEntity
  8
0
  6
CONTINUOUS
 62
               7
100
AcDbLine
 10
95.999999999999886
 20
-26.000015098789277
 30
0.0
 11
53.999999999999943
 21
-26.000015098789277
 31
0.0
  0
LINE
  5
2F4
100
AcDbEntity
  8
0
  6
CONTINUOUS
 62
               7
100
AcDbLine
 10
53.999999999999943
 20
-26.599990684726777
 30
0.0
 11
53.999999999999943
 21
-21.000015098789277
 31
0.0
  0
LINE
  5
2F5
100
AcDbEntity
  8
0
  6
CONTINUOUS
 62
               2
100
AcDbLine
 10
62.0
 20
-26.000015098789277
 30
0.0
 11
62.0
 21
-21.000015098789277
 31
0.0
  0
LINE
  5
2F6
100
AcDbEntity
  8
0
  6
CONTINUOUS
 62
               2
100
AcDbLine
 10
59.5
 20
-23.500015098789277
 30
0.0
 11
64.5
 21
-23.500015098789277
 31
0.0
  0
LINE
  5
2F7
100
AcDbEntity
  8
0
  6
CONTINUOUS
 62
               2
100
AcDbLine
 10
87.999999999999886
 20
-26.000015098789277
 30
0.0
 11
87.999999999999886
 21
-21.000015098789277
 31
0.0
  0
LINE
  5
2F8
100
AcDbEntity
  8
0
  6
CONTINUOUS
 62
               2
100
AcDbLine
 10
85.499999999999886
 20
-23.500015098789277
 30
0.0
 11
90.499999999999886
 21
-23.500015098789277
 31
0.0
  0
LINE
  5
2F9
100
AcDbEntity
  8
0
  6
CONTINUOUS
 62
               2
100
AcDbLine
 10
87.999999999999886
 20
-59.000015098789078
 30
0.0
 11
87.999999999999886
 21
-54.000015098789078
 31
0.0
  0
LINE
  5
2FA
100
AcDbEntity
  8
0
  6
CONTINUOUS
 62
               2
100
AcDbLine
 10
85.499999999999886
 20
-56.500015098789078
 30
0.0
 11
90.499999999999886
 21
-56.500015098789078
 31
0.0
  0
LINE
  5
2FB
100
AcDbEntity
  8
0
  6
CONTINUOUS
 62
               2
100
AcDbLine
 10
62.0
 20
-59.000015098789078
 30
0.0
 11
62.0
 21
-54.000015098789078
 31
0.0
  0
LINE
  5
2FC
100
AcDbEntity
  8
0
  6
CONTINUOUS
 62
               2
100
AcDbLine
 10
59.5
 20
-56.500015098789078
 30
0.0
 11
64.5
 21
-56.500015098789078
 31
0.0
  0
LINE
  5
2FD
100
AcDbEntity
  8
0
  6
CONTINUOUS
 62
               7
100
AcDbLine
 10
53.999999999999943
 20
-59.000015098789078
 30
0.0
 11
53.999999999999943
 21
-53.400039512851578
 31
0.0
  0
LINE
  5
2FE
100
AcDbEntity
  8
0
  6
CONTINUOUS
 62
               7
100
AcDbLine
 10
95.999999999999886
 20
-59.000015098789078
 30
0.0
 11
95.999999999999886
 21
-53.400039512851578
 31
0.0
  0
LINE
  5
2FF
100
AcDbEntity
  8
0
  6
CONTINUOUS
 62
               7
100
AcDbLine
 10
95.999999999999886
 20
-54.000015098789078
 30
0.0
 11
53.999999999999943
 21
-54.000015098789078
 31
0.0
  0
LINE
  5
300
100
AcDbEntity
  8
0
  6
CONTINUOUS
 62
               7
100
AcDbLine
 10
117.0
 20
-26.600005943515725
 30
0.0
 11
-101.99999999999997
 21
-26.600005943515725
 31
0.0
  0
LINE
  5
301
100
AcDbEntity
  8
0
  6
CONTINUOUS
 62
               7
100
AcDbLine
 10
117.0
 20
-28.800018150546975
 30
0.0
 11
-101.99999999999997
 21
-28.800018150546975
 31
0.0
  0
LINE
  5
302
100
AcDbEntity
  8
0
  6
CONTINUOUS
 62
               7
100
AcDbLine
 10
117.0
 20
-51.200012047031379
 30
0.0
 11
-101.99999999999997
 21
-51.200012047031379
 31
0.0
  0
LINE
  5
303
100
AcDbEntity
  8
0
  6
CONTINUOUS
 62
               7
100
AcDbLine
 10
117.0
 20
-53.400008995273566
 30
0.0
 11
-101.99999999999997
 21
-53.400008995273566
 31
0.0
  0
LINE
  5
304
100
AcDbEntity
  8
0
  6
CONTINUOUS
 62
               7
100
AcDbLine
 10
117.0
 20
-59.000015098789191
 30
0.0
 11
-108.67529296874994
 21
-59.000015098789191
 31
0.0
  0
LINE
  5
305
100
AcDbEntity
  8
0
  6
CONTINUOUS
 62
               7
100
AcDbLine
 10
117.0
 20
-21.000015098789277
 30
0.0
 11
-108.67529296874994
 21
-21.000015098789277
 31
0.0
  0
LINE
  5
306
100
AcDbEntity
  8
0
  6
CONTINUOUS
 62
               7
100
AcDbLine
 10
-101.99999999999997
 20
-59.000015098789191
 30
0.0
 11
-101.99999999999997
 21
-21.000015098789277
 31
0.0
  0
LINE
  5
307
100
AcDbEntity
  8
0
  6
CONTINUOUS
 62
               7
100
AcDbLine
 10
193.85473632812489
 20
-53.830016929843879
 30
0.0
 11
117.86614990234386
 21
-53.830016929843879
 31
0.0
  0
LINE
  5
308
100
AcDbEntity
  8
0
  6
CONTINUOUS
 62
               7
100
AcDbLine
 10
194.99999999999989
 20
-59.000015098789191
 30
0.0
 11
117.0
 21
-59.000015098789191
 31
0.0
  0
LINE
  5
309
100
AcDbEntity
  8
0
  6
CONTINUOUS
 62
               7
100
AcDbLine
 10
194.99999999999989
 20
-59.000015098789191
 30
0.0
 11
194.99999999999989
 21
-18.400015098789027
 31
0.0
  0
LINE
  5
30A
100
AcDbEntity
  8
0
  6
CONTINUOUS
 62
               7
100
AcDbLine
 10
117.0
 20
-59.000015098789191
 30
0.0
 11
117.0
 21
-18.400015098789027
 31
0.0
  0
LINE
  5
30B
100
AcDbEntity
  8
0
  6
CONTINUOUS
 62
               7
100
AcDbLine
 10
193.67431640624989
 20
-26.170013267734475
 30
0.0
 11
118.04644775390625
 21
-26.170013267734475
 31
0.0
  0
LINE
  5
30C
100
AcDbEntity
  8
0
  6
CONTINUOUS
 62
               2
100
AcDbLine
 10
200.16662597656239
 20
-40.000015098789191
 30
0.0
 11
-118.8177490234375
 21
-40.000015098789191
 31
0.0
  0
LINE
  5
30D
100
AcDbEntity
  8
0
  6
CONTINUOUS
 62
               7
100
AcDbLine
 10
25.0
 20
0.0
 30
0.0
 11
25.0
 21
-19.9999998400001
 31
0.0
  0
LINE
  5
30E
100
AcDbEntity
  8
0
  6
CONTINUOUS
 62
               7
100
AcDbLine
 10
-25.0
 20
0.0
 30
0.0
 11
-25.0
 21
-19.9999998400001
 31
0.0
  0
LINE
  5
30F
100
AcDbEntity
  8
0
  6
CONTINUOUS
 62
               7
100
AcDbLine
 10
19.499999999999972
 20
-280.50001509878928
 30
0.0
 11
19.499999999999972
 21
-282.00001509878928
 31
0.0
  0
LINE
  5
310
100
AcDbEntity
  8
0
  6
CONTINUOUS
 62
               7
100
AcDbLine
 10
13.500000000000057
 20
-280.50001509878928
 30
0.0
 11
13.500000000000057
 21
-282.00001509878928
 31
0.0
  0
LINE
  5
311
100
AcDbEntity
  8
0
  6
CONTINUOUS
 62
               7
100
AcDbLine
 10
-19.499999999999972
 20
-280.50001509878928
 30
0.0
 11
-19.499999999999972
 21
-282.00001509878928
 31
0.0
  0
LINE
  5
312
100
AcDbEntity
  8
0
  6
CONTINUOUS
 62
               7
100
AcDbLine
 10
-13.500000000000057
 20
-280.50001509878928
 30
0.0
 11
-13.500000000000057
 21
-282.00001509878928
 31
0.0
  0
LINE
  5
313
100
AcDbEntity
  8
0
  6
CONTINUOUS
 62
               2
100
AcDbLine
 10
24.499999999999972
 20
-277.50001509878916
 30
0.0
 11
19.499999999999972
 21
-277.50001509878916
 31
0.0
  0
LINE
  5
314
100
AcDbEntity
  8
0
  6
CONTINUOUS
 62
               2
100
AcDbLine
 10
21.999999999999972
 20
-275.00001509878916
 30
0.0
 11
21.999999999999972
 21
-280.00001509878916
 31
0.0
  0
LINE
  5
315
100
AcDbEntity
  8
0
  6
CONTINUOUS
 62
               2
100
AcDbLine
 10
-21.999999999999972
 20
-275.00001509878916
 30
0.0
 11
-21.999999999999972
 21
-280.00001509878916
 31
0.0
  0
LINE
  5
316
100
AcDbEntity
  8
0
  6
CONTINUOUS
 62
               2
100
AcDbLine
 10
-19.499999999999972
 20
-277.50001509878916
 30
0.0
 11
-24.499999999999972
 21
-277.50001509878916
 31
0.0
  0
LINE
  5
317
100
AcDbEntity
  8
0
  6
CONTINUOUS
 62
               2
100
AcDbLine
 10
-21.999999999999972
 20
-239.00001509878922
 30
0.0
 11
-21.999999999999972
 21
-244.00001509878922
 31
0.0
  0
LINE
  5
318
100
AcDbEntity
  8
0
  6
CONTINUOUS
 62
               2
100
AcDbLine
 10
-19.499999999999972
 20
-241.50001509878922
 30
0.0
 11
-24.499999999999972
 21
-241.50001509878922
 31
0.0
  0
LINE
  5
319
100
AcDbEntity
  8
0
  6
CONTINUOUS
 62
               2
100
AcDbLine
 10
21.999999999999972
 20
-239.00001509878922
 30
0.0
 11
21.999999999999972
 21
-244.00001509878922
 31
0.0
  0
LINE
  5
31A
100
AcDbEntity
  8
0
  6
CONTINUOUS
 62
               2
100
AcDbLine
 10
24.499999999999972
 20
-241.50001509878922
 30
0.0
 11
19.499999999999972
 21
-241.50001509878922
 31
0.0
  0
LINE
  5
31B
100
AcDbEntity
  8
0
  6
CONTINUOUS
 62
               7
100
AcDbLine
 10
21.999999999999972
 20
-280.50001509878928
 30
0.0
 11
-21.999999999999972
 21
-280.50001509878928
 31
0.0
  0
LINE
  5
31C
100
AcDbEntity
  8
0
  6
CONTINUOUS
 62
               7
100
AcDbLine
 10
21.999999999999972
 20
-238.50001509878925
 30
0.0
 11
-21.999999999999972
 21
-238.50001509878925
 31
0.0
  0
LINE
  5
31D
100
AcDbEntity
  8
0
  6
CONTINUOUS
 62
               7
100
AcDbLine
 10
-35.0
 20
0.0
 30
0.0
 11
-35.0
 21
-19.9999998400001
 31
0.0
  0
LINE
  5
31E
100
AcDbEntity
  8
0
  6
CONTINUOUS
 62
               7
100
AcDbLine
 10
35.0
 20
0.0
 30
0.0
 11
35.0
 21
-19.9999998400001
 31
0.0
  0
LINE
  5
31F
100
AcDbEntity
  8
0
  6
CONTINUOUS
 62
               7
100
AcDbLine
 10
105.0
 20
-59.000015098789191
 30
0.0
 11
105.0
 21
-303.00001509878922
 31
0.0
  0
LINE
  5
320
100
AcDbEntity
  8
0
  6
CONTINUOUS
 62
               2
100
AcDbLine
 10
0.0
 20
58.265974619630015
 30
0.0
 11
0.0
 21
-315.46725509870839
 31
0.0
  0
LINE
  5
321
100
AcDbEntity
  8
0
  6
CONTINUOUS
 62
               7
100
AcDbLine
 10
-105.0
 20
-60.000015098789191
 30
0.0
 11
105.0
 21
-60.000015098789191
 31
0.0
  0
LINE
  5
322
100
AcDbEntity
  8
0
  6
CONTINUOUS
 62
               7
100
AcDbLine
 10
-105.0
 20
-300.20002730582047
 30
0.0
 11
105.0
 21
-300.20002730582047
 31
0.0
  0
LINE
  5
323
100
AcDbEntity
  8
0
  6
CONTINUOUS
 62
               7
100
AcDbLine
 10
-105.0
 20
0.0000001599998996
 30
0.0
 11
-105.0
 21
-21.000015098789277
 31
0.0
  0
LINE
  5
324
100
AcDbEntity
  8
0
  6
CONTINUOUS
 62
               7
100
AcDbLine
 10
-41.06066017177983
 20
-7.060660171779773
 30
0.0
 11
-38.93933982822017
 21
-4.939339828220227
 31
0.0
  0
LINE
  5
325
100
AcDbEntity
  8
0
  6
CONTINUOUS
 62
               7
100
AcDbLine
 10
-41.06066017177983
 20
-4.939339828220227
 30
0.0
 11
-38.93933982822017
 21
-7.060660171779773
 31
0.0
  0
LINE
  5
326
100
AcDbEntity
  8
0
  6
CONTINUOUS
 62
               7
100
AcDbLine
 10
38.93933982822017
 20
-7.060660171779773
 30
0.0
 11
41.06066017177983
 21
-4.939339828220227
 31
0.0
  0
LINE
  5
327
100
AcDbEntity
  8
0
  6
CONTINUOUS
 62
               7
100
AcDbLine
 10
38.93933982822017
 20
-4.939339828220227
 30
0.0
 11
41.06066017177983
 21
-7.060660171779773
 31
0.0
  0
LINE
  5
328
100
AcDbEntity
  8
0
  6
CONTINUOUS
 62
               7
100
AcDbLine
 10
-41.06066017177983
 20
-292.2606874776003
 30
0.0
 11
-38.93933982822017
 21
-290.13936713404075
 31
0.0
  0
LINE
  5
329
100
AcDbEntity
  8
0
  6
CONTINUOUS
 62
               7
100
AcDbLine
 10
-41.06066017177983
 20
-290.13936713404075
 30
0.0
 11
-38.93933982822017
 21
-292.2606874776003
 31
0.0
  0
LINE
  5
32A
100
AcDbEntity
  8
0
  6
CONTINUOUS
 62
               7
100
AcDbLine
 10
38.93933982822017
 20
-292.2606874776003
 30
0.0
 11
41.06066017177983
 21
-290.13936713404075
 31
0.0
  0
LINE
  5
32B
100
AcDbEntity
  8
0
  6
CONTINUOUS
 62
               7
100
AcDbLine
 10
38.93933982822017
 20
-290.13936713404075
 30
0.0
 11
41.06066017177983
 21
-292.2606874776003
 31
0.0
  0
ENDBLK
  5
32C
100
AcDbEntity
  8
0
100
AcDbBlockEnd
  0
BLOCK
  5
22
100
AcDbEntity
  8
0
  6
ByBlock
 62
               0
100
AcDbBlockBegin
  2
_OPEN30
 70
               2
 10
0.0
 20
0.0
 30
0.0
  3
_OPEN30
  1

  0
LINE
  5
23
100
AcDbEntity
  8
0
  6
ByBlock
 62
               0
100
AcDbLine
 10
-1.0
 20
0.267949
 30
0.0
 11
0.0
 21
0.0
 31
0.0
  0
LINE
  5
24
100
AcDbEntity
  8
0
  6
ByBlock
 62
               0
100
AcDbLine
 10
0.0
 20
0.0
 30
0.0
 11
-1.0
 21
-0.267949
 31
0.0
  0
LINE
  5
25
100
AcDbEntity
  8
0
  6
ByBlock
 62
               0
100
AcDbLine
 10
0.0
 20
0.0
 30
0.0
 11
-1.0
 21
0.0
 31
0.0
  0
ENDBLK
  5
26
100
AcDbEntity
  8
0
  6
ByBlock
 62
               0
100
AcDbBlockEnd
  0
BLOCK
  5
333
100
AcDbEntity
  8
0
  6
ByBlock
 62
               0
100
AcDbBlockBegin
  2
*D4
 70
               1
 10
0.0
 20
0.0
 30
0.0
  3
*D4
  1

  0
LINE
  5
334
100
AcDbEntity
  8
0
  6
CONTINUOUS
 62
               2
100
AcDbLine
 10
57.812534425643889
 20
10.499984901210752
 30
0.0
 11
57.812534425643889
 21
210.49998490121072
 31
0.0
  0
LINE
  5
335
100
AcDbEntity
  8
0
  6
CONTINUOUS
 62
               2
100
AcDbLine
 10
198.77705774107358
 20
10.499984901210752
 30
0.0
 11
56.312534425643889
 21
10.499984901210752
 31
0.0
  0
LINE
  5
336
100
AcDbEntity
  8
0
  6
CONTINUOUS
 62
               2
100
AcDbLine
 10
236.47136316099545
 20
210.49998490121072
 30
0.0
 11
56.312534425643889
 21
210.49998490121072
 31
0.0
  0
INSERT
  5
337
100
AcDbEntity
  8
0
  6
CONTINUOUS
 62
               2
100
AcDbBlockReference
  2
_OPEN30
 10
57.812534425643889
 20
10.499984901210752
 30
0.0
 41
8.3100000000000005
 42
8.3100000000000005
 43
8.3100000000000005
 50
270.0
  0
INSERT
  5
338
100
AcDbEntity
  8
0
  6
CONTINUOUS
 62
               2
100
AcDbBlockReference
  2
_OPEN30
 10
57.812534425643889
 20
210.49998490121072
 30
0.0
 41
8.3100000000000005
 42
8.3100000000000005
 43
8.3100000000000005
 50
90.0
  0
MTEXT
  5
33A
100
AcDbEntity
  8
0
  6
CONTINUOUS
 62
               2
100
AcDbMText
 10
52.312534425643889
 20
110.49998490121075
 30
0.0
 40
9.0
 41
0.0
 71
               5
 72
               1
  1
\A1;Y-STORKE(200)
  7
MX_DIMTXSTY_2
 11
0.0000000000000001
 21
1.0
 31
0.0
  0
POINT
  5
33B
100
AcDbEntity
  8
DEFPOINTS
  6
CONTINUOUS
 62
               0
100
AcDbPoint
 10
200.27705774107358
 20
10.499984901210752
 30
0.0
  0
POINT
  5
33C
100
AcDbEntity
  8
DEFPOINTS
  6
CONTINUOUS
 62
               0
100
AcDbPoint
 10
237.97136316099545
 20
210.49998490121072
 30
0.0
  0
POINT
  5
33D
100
AcDbEntity
  8
DEFPOINTS
  6
CONTINUOUS
 62
               0
100
AcDbPoint
 10
57.812534425643889
 20
210.49998490121072
 30
0.0
  0
ENDBLK
  5
33E
100
AcDbEntity
  8
0
  6
ByBlock
 62
               0
100
AcDbBlockEnd
  0
BLOCK
  5
341
100
AcDbEntity
  8
0
  6
ByBlock
 62
               0
100
AcDbBlockBegin
  2
*D5
 70
               1
 10
0.0
 20
0.0
 30
0.0
  3
*D5
  1

  0
LINE
  5
342
100
AcDbEntity
  8
0
  6
CONTINUOUS
 62
               2
100
AcDbLine
 10
154.99999999999994
 20
352.81993307392133
 30
0.0
 11
304.99999999999989
 21
352.81993307392133
 31
0.0
  0
LINE
  5
343
100
AcDbEntity
  8
0
  6
CONTINUOUS
 62
               2
100
AcDbLine
 10
154.99999999999994
 20
250.22757925312055
 30
0.0
 11
154.99999999999994
 21
354.31993307392133
 31
0.0
  0
LINE
  5
344
100
AcDbEntity
  8
0
  6
CONTINUOUS
 62
               2
100
AcDbLine
 10
304.99999999999989
 20
250.22757925312055
 30
0.0
 11
304.99999999999989
 21
354.31993307392133
 31
0.0
  0
INSERT
  5
345
100
AcDbEntity
  8
0
  6
CONTINUOUS
 62
               2
100
AcDbBlockReference
  2
_OPEN30
 10
154.99999999999994
 20
352.81993307392133
 30
0.0
 41
8.3100000000000005
 42
8.3100000000000005
 43
8.3100000000000005
 50
180.0
  0
INSERT
  5
346
100
AcDbEntity
  8
0
  6
CONTINUOUS
 62
               2
100
AcDbBlockReference
  2
_OPEN30
 10
304.99999999999989
 20
352.81993307392133
 30
0.0
 41
8.3100000000000005
 42
8.3100000000000005
 43
8.3100000000000005
  0
MTEXT
  5
347
100
AcDbEntity
  8
0
  6
CONTINUOUS
 62
               2
100
AcDbMText
 10
237.99999999999994
 20
358.31993307392133
 30
0.0
 40
9.0
 41
0.0
 71
               5
 72
               1
  1
\A1;X-STROKE(150)
  7
MX_DIMTXSTY_2
  0
POINT
  5
348
100
AcDbEntity
  8
DEFPOINTS
  6
CONTINUOUS
 62
               0
100
AcDbPoint
 10
154.99999999999994
 20
248.72757925312055
 30
0.0
  0
POINT
  5
349
100
AcDbEntity
  8
DEFPOINTS
  6
CONTINUOUS
 62
               0
100
AcDbPoint
 10
304.99999999999989
 20
248.72757925312055
 30
0.0
  0
POINT
  5
34A
100
AcDbEntity
  8
DEFPOINTS
  6
CONTINUOUS
 62
               0
100
AcDbPoint
 10
304.99999999999989
 20
352.81993307392133
 30
0.0
  0
ENDBLK
  5
34B
100
AcDbEntity
  8
0
  6
ByBlock
 62
               0
100
AcDbBlockEnd
  0
ENDSEC
  0
SECTION
  2
ENTITIES
  0
INSERT
  5
32D
100
AcDbEntity
  8
0
  6
ByBlock
100
AcDbBlockReference
  2
DTRB-AS2-3
 10
230.0
 20
270.0
 30
0.0
  0
INSERT
  5
32E
100
AcDbEntity
  8
0
  6
ByBlock
100
AcDbBlockReference
  2
DTRB-AS2-2
 10
-350.0
 20
-310.0
 30
0.0
  0
INSERT
  5
32F
100
AcDbEntity
  8
0
  6
ByBlock
100
AcDbBlockReference
  2
DTRB-AS2-1
 10
230.0
 20
-310.0
 30
0.0
  0
MTEXT
  5
330
100
AcDbEntity
  8
0
  6
CONTINUOUS
 62
               7
100
AcDbMText
 10
-516.08806047499559
 20
393.0
 30
0.0
 40
12.5
 41
0.0
 71
               4
 72
               1
  1
\W1.038;\A1;CELL MASTER
  0
MTEXT
  5
331
100
AcDbEntity
  8
0
  6
CONTINUOUS
 62
               7
100
AcDbMText
 10
-497.41667429606122
 20
378.0
 30
0.0
 40
12.5
 41
0.0
 71
               4
 72
               1
  1
\A1;DTRB-AS2
  0
DIMENSION
  5
33F
100
AcDbEntity
  8
0
  6
CONTINUOUS
 62
               2
100
AcDbDimension
  2
*D4
 10
57.812534425643889
 20
210.49998490121072
 30
0.0
 11
57.812534425643889
 21
110.49998490121075
 31
0.0
 70
             128
  1
Y-STORKE(200)
  3
MXDIMSTYLE
100
AcDbAlignedDimension
 13
200.27705774107358
 23
10.499984901210752
 33
0.0
 14
237.97136316099545
 24
210.49998490121072
 34
0.0
 50
90.0
100
AcDbRotatedDimension
1001
ACAD
1000
DSTYLE
1002
{
1070
              41
1040
8.3100000000000005
1070
             140
1040
9.0
1070
             340
1005
339
1002
}
  0
DIMENSION
  5
34C
100
AcDbEntity
  8
0
  6
CONTINUOUS
 62
               2
100
AcDbDimension
  2
*D5
 10
304.99999999999989
 20
352.81993307392133
 30
0.0
 11
237.99999999999994
 21
352.81993307392133
 31
0.0
 70
             128
  1
X-STROKE(150)
  3
MXDIMSTYLE
100
AcDbAlignedDimension
 13
154.99999999999994
 23
248.72757925312055
 33
0.0
 14
304.99999999999989
 24
248.72757925312055
 34
0.0
100
AcDbRotatedDimension
1001
ACAD
1000
DSTYLE
1002
{
1070
              41
1040
8.3100000000000005
1070
             140
1040
9.0
1070
             340
1005
339
1002
}
  0
LINE
  5
34D
100
AcDbEntity
  8
0
  6
CONTINUOUS
 62
               7
100
AcDbLine
 10
-564.5
 20
370.5
 30
0.0
 11
-334.5
 21
370.5
 31
0.0
  0
LINE
  5
34E
100
AcDbEntity
  8
0
  6
CONTINUOUS
 62
               7
100
AcDbLine
 10
-334.5
 20
400.5
 30
0.0
 11
-334.5
 21
370.5
 31
0.0
  0
LINE
  5
34F
100
AcDbEntity
  8
0
  6
CONTINUOUS
 62
               7
100
AcDbLine
 10
344.5
 20
-370.5
 30
0.0
 11
574.5
 21
-370.5
 31
0.0
  0
LINE
  5
350
100
AcDbEntity
  8
0
  6
CONTINUOUS
 62
               7
100
AcDbLine
 10
344.5
 20
-370.5
 30
0.0
 11
344.5
 21
-400.5
 31
0.0
  0
MTEXT
  5
351
100
AcDbEntity
  8
0
  6
CONTINUOUS
 62
               7
100
AcDbMText
 10
350.86206895687951
 20
-385.5
 30
0.0
 40
18.0
 41
0.0
 71
               4
 72
               1
  1
\W1.121;\A1;KOGANEI CORP.
  0
LINE
  5
352
100
AcDbEntity
  8
0
  6
CONTINUOUS
 62
               7
100
AcDbLine
 10
344.5
 20
370.5
 30
0.0
 11
574.5
 21
370.5
 31
0.0
  0
LINE
  5
353
100
AcDbEntity
  8
0
  6
CONTINUOUS
 62
               7
100
AcDbLine
 10
344.5
 20
400.5
 30
0.0
 11
344.5
 21
370.5
 31
0.0
  0
MTEXT
  5
354
100
AcDbEntity
  8
0
  6
CONTINUOUS
 62
               7
100
AcDbMText
 10
412.30898151623751
 20
385.5
 30
0.0
 40
12.5
 41
0.0
 71
               4
 72
               1
  1
\W1.348;\A1;Ver. 1.1
  0
LINE
  5
355
100
AcDbEntity
  8
0
  6
CONTINUOUS
 62
               7
100
AcDbLine
 10
574.5
 20
400.5
 30
0.0
 11
574.5
 21
-400.5
 31
0.0
  0
LINE
  5
356
100
AcDbEntity
  8
0
  6
CONTINUOUS
 62
               7
100
AcDbLine
 10
-564.5
 20
400.5
 30
0.0
 11
574.5
 21
400.5
 31
0.0
  0
LINE
  5
357
100
AcDbEntity
  8
0
  6
CONTINUOUS
 62
               7
100
AcDbLine
 10
-564.5
 20
-400.5
 30
0.0
 11
574.5
 21
-400.5
 31
0.0
  0
LINE
  5
358
100
AcDbEntity
  8
0
  6
CONTINUOUS
 62
               7
100
AcDbLine
 10
-564.5
 20
400.5
 30
0.0
 11
-564.5
 21
-400.5
 31
0.0
  0
MTEXT
  5
359
100
AcDbEntity
  8
0
  6
CONTINUOUS
 62
               7
100
AcDbMText
 10
-538.5625006215181
 20
340.5
 30
0.0
 40
12.5
 41
0.0
 71
               4
 72
               1
  1
\W1.050;\A1;MODEL:DTRB-AS2
  0
ENDSEC
  0
SECTION
  2
OBJECTS
  0
DICTIONARY
  5
19
100
AcDbDictionary
  3
ACAD_GROUP
350
1A
  3
ACAD_MLINESTYLE
350
1B
  0
DICTIONARY
  5
1A
102
{ACAD_REACTORS
330
19
102
}
100
AcDbDictionary
  0
DICTIONARY
  5
1B
102
{ACAD_REACTORS
330
19
102
}
100
AcDbDictionary
  3
STANDARD
350
1C
  0
MLINESTYLE
  5
1C
102
{ACAD_REACTORS
330
1B
102
}
100
AcDbMlineStyle
  2
Standard
 70
               0
  3

 62
               0
 51
90.0
 52
90.0
 71
               2
 49
0.5
 62
             256
  6
ByLayer
 49
-0.5
 62
             256
  6
ByLayer
  0
ENDSEC
  0
EOF
