  0
SECTION
  2
HEADER
  9
$ACADVER
  1
AC1012
  9
$DWGCODEPAGE
  3
dos932
  9
$INSBASE
 10
0.0
 20
0.0
 30
0.0
  9
$EXTMIN
 10
-820.5
 20
-574.5
 30
0.0
  9
$EXTMAX
 10
820.5
 20
575.5
 30
0.0
  9
$LIMMIN
 10
-840.50000000000011
 20
-594.5
  9
$LIMMAX
 10
840.50000000000011
 20
594.5
  9
$ORTHOMODE
 70
               0
  9
$REGENMODE
 70
               1
  9
$FILLMODE
 70
               1
  9
$QTEXTMODE
 70
               0
  9
$MIRRTEXT
 70
               1
  9
$DRAGMODE
 70
               2
  9
$LTSCALE
 40
1.0
  9
$OSMODE
 70
               0
  9
$ATTMODE
 70
               1
  9
$TEXTSIZE
 40
3.2000000476837158
  9
$TRACEWID
 40
0.05
  9
$TEXTSTYLE
  7
MX_NOTE_STANDARD
  9
$CLAYER
  8
0
  9
$CELTYPE
  6
CONTINUOUS
  9
$CECOLOR
 62
             256
  9
$CELTSCALE
 40
1.0
  9
$DELOBJ
 70
               1
  9
$DISPSILH
 70
               0
  9
$DIMSCALE
 40
1.0
  9
$DIMASZ
 40
2.5
  9
$DIMEXO
 40
1.5
  9
$DIMDLI
 40
3.75
  9
$DIMRND
 40
0.0
  9
$DIMDLE
 40
0.0
  9
$DIMEXE
 40
1.5
  9
$DIMTP
 40
0.0
  9
$DIMTM
 40
0.0
  9
$DIMTXT
 40
3.2000000476837158
  9
$DIMCEN
 40
2.5
  9
$DIMTSZ
 40
0.0
  9
$DIMTOL
 70
               0
  9
$DIMLIM
 70
               0
  9
$DIMTIH
 70
               0
  9
$DIMTOH
 70
               0
  9
$DIMSE1
 70
               0
  9
$DIMSE2
 70
               0
  9
$DIMTAD
 70
               1
  9
$DIMZIN
 70
               8
  9
$DIMBLK
  1

  9
$DIMASO
 70
               1
  9
$DIMSHO
 70
               1
  9
$DIMPOST
  1

  9
$DIMAPOST
  1

  9
$DIMALT
 70
               0
  9
$DIMALTD
 70
               4
  9
$DIMALTF
 40
0.03937007874016
  9
$DIMLFAC
 40
1.0
  9
$DIMTOFL
 70
               1
  9
$DIMTVP
 40
0.0
  9
$DIMTIX
 70
               0
  9
$DIMSOXD
 70
               0
  9
$DIMSAH
 70
               1
  9
$DIMBLK1
  1
_OPEN30
  9
$DIMBLK2
  1
_OPEN30
  9
$DIMSTYLE
  2
MXDIMSTYLE
  9
$DIMCLRD
 70
               0
  9
$DIMCLRE
 70
               0
  9
$DIMCLRT
 70
               0
  9
$DIMTFAC
 40
1.0
  9
$DIMGAP
 40
1.0
  9
$DIMJUST
 70
               0
  9
$DIMSD1
 70
               0
  9
$DIMSD2
 70
               0
  9
$DIMTOLJ
 70
               0
  9
$DIMTZIN
 70
               0
  9
$DIMALTZ
 70
               0
  9
$DIMALTTZ
 70
               0
  9
$DIMFIT
 70
               3
  9
$DIMUPT
 70
               1
  9
$DIMUNIT
 70
               2
  9
$DIMDEC
 70
               2
  9
$DIMTDEC
 70
               2
  9
$DIMALTU
 70
               2
  9
$DIMALTTD
 70
               4
  9
$DIMTXSTY
  7
MX_NOTE_STANDARD
  9
$DIMAUNIT
 70
               0
  9
$LUNITS
 70
               2
  9
$LUPREC
 70
               4
  9
$SKETCHINC
 40
0.1
  9
$FILLETRAD
 40
0.0
  9
$AUNITS
 70
               0
  9
$AUPREC
 70
               0
  9
$MENU
  1
acad
  9
$ELEVATION
 40
0.0
  9
$PELEVATION
 40
0.0
  9
$THICKNESS
 40
0.0
  9
$LIMCHECK
 70
               0
  9
$BLIPMODE
 70
               1
  9
$CHAMFERA
 40
0.0
  9
$CHAMFERB
 40
0.0
  9
$CHAMFERC
 40
0.0
  9
$CHAMFERD
 40
0.0
  9
$SKPOLY
 70
               0
  9
$TDCREATE
 40
2453916.737175926
  9
$TDUPDATE
 40
2453916.737175926
  9
$TDINDWG
 40
0.0000000000
  9
$TDUSRTIMER
 40
0.0000000000
  9
$USRTIMER
 70
               1
  9
$ANGBASE
 50
0.0
  9
$ANGDIR
 70
               0
  9
$PDMODE
 70
               0
  9
$PDSIZE
 40
0.0
  9
$PLINEWID
 40
0.0
  9
$COORDS
 70
               1
  9
$SPLFRAME
 70
               0
  9
$SPLINETYPE
 70
               6
  9
$SPLINESEGS
 70
               8
  9
$ATTDIA
 70
               0
  9
$ATTREQ
 70
               1
  9
$HANDLING
 70
               1
  9
$HANDSEED
  5
472
  9
$SURFTAB1
 70
               6
  9
$SURFTAB2
 70
               6
  9
$SURFTYPE
 70
               6
  9
$SURFU
 70
               6
  9
$SURFV
 70
               6
  9
$UCSNAME
  2

  9
$UCSORG
 10
0.0
 20
0.0
 30
0.0
  9
$UCSXDIR
 10
1.0
 20
0.0
 30
0.0
  9
$UCSYDIR
 10
0.0
 20
1.0
 30
0.0
  9
$PUCSNAME
  2

  9
$PUCSORG
 10
0.0
 20
0.0
 30
0.0
  9
$PUCSXDIR
 10
1.0
 20
0.0
 30
0.0
  9
$PUCSYDIR
 10
0.0
 20
1.0
 30
0.0
  9
$USERI1
 70
               0
  9
$USERI2
 70
               0
  9
$USERI3
 70
               0
  9
$USERI4
 70
               0
  9
$USERI5
 70
               0
  9
$USERR1
 40
0.0
  9
$USERR2
 40
0.0
  9
$USERR3
 40
0.0
  9
$USERR4
 40
0.0
  9
$USERR5
 40
0.0
  9
$WORLDVIEW
 70
               1
  9
$SHADEDGE
 70
               3
  9
$SHADEDIF
 70
              70
  9
$TILEMODE
 70
               1
  9
$MAXACTVP
 70
              16
  9
$PINSBASE
 10
0.0
 20
0.0
 30
0.0
  9
$PLIMCHECK
 70
               0
  9
$PEXTMIN
 10
1.0000000000000000E+20
 20
1.0000000000000000E+20
 30
1.0000000000000000E+20
  9
$PEXTMAX
 10
-1.0000000000000000E+20
 20
-1.0000000000000000E+20
 30
-1.0000000000000000E+20
  9
$PLIMMIN
 10
0.0
 20
0.0
  9
$PLIMMAX
 10
12.0
 20
9.0
  9
$UNITMODE
 70
               0
  9
$VISRETAIN
 70
               0
  9
$PLINEGEN
 70
               1
  9
$PSLTSCALE
 70
               0
  9
$TREEDEPTH
 70
            3020
  9
$PICKSTYLE
 70
               1
  9
$CMLSTYLE
  2
Standard
  9
$CMLJUST
 70
               0
  9
$CMLSCALE
 40
1.0
  9
$SAVEIMAGES
 70
               0
  0
ENDSEC
  0
SECTION
  2
CLASSES
  0
CLASS
  1
LWPOLYLINE
  2
AcDbPolyline
  3
"AutoCAD"
 90
    32768
280
               0
281
               1
  0
CLASS
  1
IMAGE
  2
AcDbRasterImage
  3
ISM
 90
    32895
280
               0
281
               1
  0
CLASS
  1
OLE2FRAME
  2
AcDbOle2Frame
  3
""
 90
    32768
280
               0
281
               1
  0
CLASS
  1
HATCH
  2
AcDbHatch
  3
"ACAD_SEDONA"
 90
    32768
280
               0
281
               1
  0
CLASS
  1
DICTIONARYVAR
  2
AcDbDictionaryVar
  3
"AutoCAD"
 90
    32768
280
               0
281
               0
  0
CLASS
  1
RASTERVARIABLES
  2
AcDbRasterVariables
  3
ISM
 90
    32768
280
               0
281
               0
  0
CLASS
  1
IMAGEDEF
  2
AcDbRasterImageDef
  3
ISM
 90
    32768
280
               0
281
               0
  0
CLASS
  1
IMAGEDEF_REACTOR
  2
AcDbRasterImageDefReactor
  3
ISM
 90
    32769
280
               0
281
               0
  0
CLASS
  1
IDBUFFER
  2
AcDbIdBuffer
  3
"Acad"
 90
    32768
280
               0
281
               0
  0
CLASS
  1
SPATIAL_FILTER
  2
AcDbSpatialFilter
  3
"Acad"
 90
    32768
280
               0
281
               0
  0
CLASS
  1
XRECORD
  2
AcDbXrecord
  3
"<Built In>"
 90
    32768
280
               0
281
               0
  0
CLASS
  1
SORTENTSTABLE
  2
AcDbSortentsTable
  3
"AutoCAD"
 90
    32768
280
               0
281
               0
  0
CLASS
  1
LAYER_INDEX
  2
AcDbLayerIndex
  3
"Acad"
 90
    32768
280
               0
281
               0
  0
CLASS
  1
SPATIAL_INDEX
  2
AcDbSpatialIndex
  3
"Acad"
 90
    32768
280
               0
281
               0
  0
CLASS
  1
OBJECT_PTR
  2
CAseDLPNTableRecord
  3
"ASE-LPNTableRecord"
 90
    32769
280
               0
281
               0
  0
CLASS
  1
LAYOUT
  2
AcDbLayout
  3
"AutoCAD 2000"
 90
    32768
280
               0
281
               0
  0
CLASS
  1
PLOTSETTINGS
  2
AcDbPlotSettings
  3
"AutoCAD 2000"
 90
    32768
280
               0
281
               0
  0
CLASS
  1
ACDBDICTIONARYWDFLT
  2
AcDbDictionaryWithDefault
  3
"AutoCAD 2000"
 90
    32768
280
               0
281
               0
  0
CLASS
  1
ACDBPLACEHOLDER
  2
AcDbPlaceHolder
  3
"AutoCAD 2000"
 90
    32768
280
               0
281
               0
  0
ENDSEC
  0
SECTION
  2
TABLES
  0
TABLE
  2
VPORT
  5
7
100
AcDbSymbolTable
 70
               1
  0
VPORT
  5
15
100
AcDbSymbolTableRecord
100
AcDbViewportTableRecord
  2
*ACTIVE
 70
               0
 10
0.0
 20
0.0
 11
1.0
 21
1.0
 12
0.0
 22
0.0
 13
0.0
 23
0.0
 14
1.0
 24
1.0
 15
0.0
 25
0.0
 16
0.0
 26
0.0
 36
1.0
 17
0.0
 27
0.0
 37
0.0
 40
1200.8900000000001
 41
1.7320508075688772
 42
50.0
 43
0.0
 44
0.0
 50
0.0
 51
0.0
 71
               0
 72
             100
 73
               1
 74
               1
 75
               0
 76
               0
 77
               0
 78
               0
  0
ENDTAB
  0
TABLE
  2
LTYPE
  5
4
100
AcDbSymbolTable
 70
               4
  0
LTYPE
  5
11
100
AcDbSymbolTableRecord
100
AcDbLinetypeTableRecord
  2
BYBLOCK
 70
              64
  3

 72
              65
 73
               0
 40
0.0
  0
LTYPE
  5
12
100
AcDbSymbolTableRecord
100
AcDbLinetypeTableRecord
  2
BYLAYER
 70
              64
  3

 72
              65
 73
               0
 40
0.0
  0
LTYPE
  5
13
100
AcDbSymbolTableRecord
100
AcDbLinetypeTableRecord
  2
CONTINUOUS
 70
              64
  3
Solid line
 72
              65
 73
               0
 40
0.0
  0
LTYPE
  5
2A
100
AcDbSymbolTableRecord
100
AcDbLinetypeTableRecord
  2
DASHED
 70
              64
  3
Dashed __ __ __ __ __ __ __ __ __ __ __ __ __ _
 72
              65
 73
               2
 40
19.049999999999997
 49
12.699999999999999
 74
               0
 49
-6.3499999999999996
 74
               0
  0
ENDTAB
  0
TABLE
  2
LAYER
  5
2
100
AcDbSymbolTable
 70
               2
  0
LAYER
  5
14
100
AcDbSymbolTableRecord
100
AcDbLayerTableRecord
  2
0
 70
               0
 62
               7
  6
CONTINUOUS
  0
LAYER
  5
1D
100
AcDbSymbolTableRecord
100
AcDbLayerTableRecord
  2
DEFPOINTS
 70
               0
 62
               7
  6
CONTINUOUS
  0
ENDTAB
  0
TABLE
  2
STYLE
  5
3
100
AcDbSymbolTable
 70
               3
  0
STYLE
  5
17
100
AcDbSymbolTableRecord
100
AcDbTextStyleTableRecord
  2
MX_NOTE_STANDARD
 70
               0
 40
0.0
 41
1.0
 50
0.0
 71
               0
 42
3.2000000476837158
  3
txt.shx
  4
extfont.shx
  0
STYLE
  5
43B
100
AcDbSymbolTableRecord
100
AcDbTextStyleTableRecord
  2
MX_DIMTXSTY_2
 70
               0
 40
0.0
 41
1.05
 50
0.0
 71
               0
 42
3.2000000476837158
  3
txt.shx
  4
extfont.shx
  0
STYLE
  5
44C
100
AcDbSymbolTableRecord
100
AcDbTextStyleTableRecord
  2
MX_DIMTXSTY_3
 70
               0
 40
0.0
 41
1.1000000000000001
 50
0.0
 71
               0
 42
3.2000000476837158
  3
txt.shx
  4
extfont.shx
  0
ENDTAB
  0
TABLE
  2
VIEW
  5
5
100
AcDbSymbolTable
 70
               0
  0
ENDTAB
  0
TABLE
  2
UCS
  5
6
100
AcDbSymbolTable
 70
               0
  0
ENDTAB
  0
TABLE
  2
APPID
  5
8
100
AcDbSymbolTable
 70
               1
  0
APPID
  5
16
100
AcDbSymbolTableRecord
100
AcDbRegAppTableRecord
  2
ACAD
 70
               0
  0
ENDTAB
  0
TABLE
  2
DIMSTYLE
  5
9
100
AcDbSymbolTable
 70
               1
  0
DIMSTYLE
105
18
100
AcDbSymbolTableRecord
100
AcDbDimStyleTableRecord
  2
MXDIMSTYLE
 70
               0
  3

  4

  5

  6
_OPEN30
  7
_OPEN30
 40
1.0
 41
2.5
 42
1.5
 43
3.75
 44
1.5
 45
0.0
 46
0.0
 47
0.0
 48
0.0
 71
               0
 72
               0
 73
               0
 74
               0
 75
               0
 76
               0
 77
               1
 78
               8
140
3.2000000476837158
141
2.5
142
0.0
143
0.03937007874016
144
1.0
145
0.0
146
1.0
147
1.0
170
               0
171
               4
172
               1
173
               1
174
               0
175
               0
176
               0
177
               0
178
               0
270
               2
271
               2
272
               2
273
               2
274
               4
275
               0
280
               0
281
               0
282
               0
283
               0
284
               0
285
               0
286
               0
287
               3
288
               1
340
17
  0
ENDTAB
  0
TABLE
  2
BLOCK_RECORD
  5
1
100
AcDbSymbolTable
 70
               7
  0
BLOCK_RECORD
  5
A
100
AcDbSymbolTableRecord
100
AcDbBlockTableRecord
  2
*MODEL_SPACE
  0
BLOCK_RECORD
  5
B
100
AcDbSymbolTableRecord
100
AcDbBlockTableRecord
  2
*PAPER_SPACE
  0
BLOCK_RECORD
  5
1E
100
AcDbSymbolTableRecord
100
AcDbBlockTableRecord
  2
DTRB-AS3-1
  0
BLOCK_RECORD
  5
1F
100
AcDbSymbolTableRecord
100
AcDbBlockTableRecord
  2
DTRB-AS3-2
  0
BLOCK_RECORD
  5
20
100
AcDbSymbolTableRecord
100
AcDbBlockTableRecord
  2
DTRB-AS3-3
  0
BLOCK_RECORD
  5
21
100
AcDbSymbolTableRecord
100
AcDbBlockTableRecord
  2
_OPEN30
  0
BLOCK_RECORD
  5
433
100
AcDbSymbolTableRecord
100
AcDbBlockTableRecord
  2
*D4
  0
BLOCK_RECORD
  5
445
100
AcDbSymbolTableRecord
100
AcDbBlockTableRecord
  2
*D5
  0
BLOCK_RECORD
  5
453
100
AcDbSymbolTableRecord
100
AcDbBlockTableRecord
  2
*D6
  0
ENDTAB
  0
ENDSEC
  0
SECTION
  2
BLOCKS
  0
BLOCK
  5
D
100
AcDbEntity
  8
0
100
AcDbBlockBegin
  2
*MODEL_SPACE
 70
               0
 10
0.0
 20
0.0
 30
0.0
  3
*MODEL_SPACE
  1

  0
ENDBLK
  5
E
100
AcDbEntity
  8
0
100
AcDbBlockEnd
  0
BLOCK
  5
F
100
AcDbEntity
 67
               1
  8
0
100
AcDbBlockBegin
  2
*PAPER_SPACE
 70
               0
 10
0.0
 20
0.0
 30
0.0
  3
*PAPER_SPACE
  1

  0
ENDBLK
  5
10
100
AcDbEntity
 67
               1
  8
0
100
AcDbBlockEnd
  0
BLOCK
  5
27
100
AcDbEntity
  8
0
100
AcDbBlockBegin
  2
DTRB-AS3-1
 70
               0
 10
0.0
 20
0.0
 30
0.0
  3
DTRB-AS3-1
  1

  0
LINE
  5
28
100
AcDbEntity
  8
0
  6
CONTINUOUS
 62
               2
100
AcDbLine
 10
98.999998663567666
 20
201.00246194977416
 30
0.0
 11
50.999999978999767
 21
201.00246194977416
 31
0.0
  0
LINE
  5
29
100
AcDbEntity
  8
0
  6
CONTINUOUS
 62
               2
100
AcDbLine
 10
98.999998663567666
 20
251.00246194977416
 30
0.0
 11
50.999999978999767
 21
251.00246194977416
 31
0.0
  0
LINE
  5
2B
100
AcDbEntity
  8
0
  6
DASHED
 62
               7
100
AcDbLine
 10
-91.0
 20
53.000000000000057
 30
0.0
 11
-99.000000000000057
 21
53.000000000000057
 31
0.0
  0
LINE
  5
2C
100
AcDbEntity
  8
0
  6
CONTINUOUS
 62
               7
100
AcDbLine
 10
36.999999999999773
 20
19.950000000000102
 30
0.0
 11
36.999999999999773
 21
19.35000000000008
 31
0.0
  0
LINE
  5
2D
100
AcDbEntity
  8
0
  6
CONTINUOUS
 62
               7
100
AcDbLine
 10
32.508187912901349
 20
19.35000000000008
 30
0.0
 11
36.999999999999773
 21
19.35000000000008
 31
0.0
  0
LINE
  5
2E
100
AcDbEntity
  8
0
  6
CONTINUOUS
 62
               7
100
AcDbLine
 10
32.508187912901349
 20
19.950000000000102
 30
0.0
 11
36.999999999999773
 21
19.950000000000102
 31
0.0
  0
CIRCLE
  5
2F
100
AcDbEntity
  8
0
  6
CONTINUOUS
 62
               7
100
AcDbCircle
 10
37.999999999999773
 20
19.650000000000091
 30
0.0
 40
6.5000000000000009
  0
CIRCLE
  5
30
100
AcDbEntity
  8
0
  6
CONTINUOUS
 62
               7
100
AcDbCircle
 10
37.999999999999773
 20
19.650000000000091
 30
0.0
 40
5.5
  0
CIRCLE
  5
31
100
AcDbEntity
  8
0
  6
CONTINUOUS
 62
               7
100
AcDbCircle
 10
37.999999999999773
 20
19.650000000000091
 30
0.0
 40
6.3499999999999996
  0
CIRCLE
  5
32
100
AcDbEntity
  8
0
  6
CONTINUOUS
 62
               7
100
AcDbCircle
 10
37.999999999999886
 20
19.64999999999992
 30
0.0
 40
10.0
  0
LINE
  5
33
100
AcDbEntity
  8
0
  6
CONTINUOUS
 62
               7
100
AcDbLine
 10
48.899980926513535
 20
364.50246199177406
 30
0.0
 11
48.899980926513535
 21
351.50246199177411
 31
0.0
  0
LINE
  5
34
100
AcDbEntity
  8
0
  6
CONTINUOUS
 62
               7
100
AcDbLine
 10
49.899980926513535
 20
350.00246199177411
 30
0.0
 11
49.899980926513535
 21
366.00246199177406
 31
0.0
  0
ARC
  5
35
100
AcDbEntity
  8
0
  6
CONTINUOUS
 62
               7
100
AcDbCircle
 10
49.899980926513535
 20
364.50246199177406
 30
0.0
 40
1.0
100
AcDbArc
 50
90.0
 51
180.0
  0
ARC
  5
36
100
AcDbEntity
  8
0
  6
CONTINUOUS
 62
               7
100
AcDbCircle
 10
53.399980926513649
 20
366.00246199177406
 30
0.0
 40
3.5000000000000004
100
AcDbArc
 50
90.0
 51
180.0
  0
ARC
  5
37
100
AcDbEntity
  8
0
  6
CONTINUOUS
 62
               7
100
AcDbCircle
 10
53.399980926513649
 20
350.00246199177411
 30
0.0
 40
3.5000000000000004
100
AcDbArc
 50
180.0
 51
270.0
  0
ARC
  5
38
100
AcDbEntity
  8
0
  6
CONTINUOUS
 62
               7
100
AcDbCircle
 10
49.899980926513535
 20
351.50246199177411
 30
0.0
 40
1.0
100
AcDbArc
 50
180.0
 51
270.0
  0
LINE
  5
39
100
AcDbEntity
  8
0
  6
CONTINUOUS
 62
               2
100
AcDbLine
 10
55.149788542456577
 20
358.00246199177406
 30
0.0
 11
46.26307075899058
 21
358.00246199177406
 31
0.0
  0
LINE
  5
3A
100
AcDbEntity
  8
0
  6
CONTINUOUS
 62
               7
100
AcDbLine
 10
53.399999999999977
 20
371.00246199177406
 30
0.0
 11
53.399999999999977
 21
293.00246199177406
 31
0.0
  0
CIRCLE
  5
3B
100
AcDbEntity
  8
0
  6
CONTINUOUS
 62
               7
100
AcDbCircle
 10
189.99999999999977
 20
189.00000000000003
 30
0.0
 40
1.7500000000000002
  0
LINE
  5
3C
100
AcDbEntity
  8
0
  6
CONTINUOUS
 62
               7
100
AcDbLine
 10
-19.0
 20
58.000000000000057
 30
0.0
 11
-25.0
 21
58.000000000000057
 31
0.0
  0
LINE
  5
3D
100
AcDbEntity
  8
0
  6
CONTINUOUS
 62
               7
100
AcDbLine
 10
13.999999999999886
 20
58.000000000000057
 30
0.0
 11
-14.0
 21
58.000000000000057
 31
0.0
  0
LINE
  5
3E
100
AcDbEntity
  8
0
  6
CONTINUOUS
 62
               2
100
AcDbLine
 10
-16.5
 20
63.48244924910199
 30
0.0
 11
-16.5
 21
53.851372362311452
 31
0.0
  0
LINE
  5
3F
100
AcDbEntity
  8
0
  6
CONTINUOUS
 62
               7
100
AcDbLine
 10
-14.0
 20
58.000000000000057
 30
0.0
 11
-14.0
 21
56.0
 31
0.0
  0
LINE
  5
40
100
AcDbEntity
  8
0
  6
CONTINUOUS
 62
               7
100
AcDbLine
 10
-19.0
 20
58.000000000000057
 30
0.0
 11
-19.0
 21
56.0
 31
0.0
  0
LINE
  5
41
100
AcDbEntity
  8
0
  6
CONTINUOUS
 62
               7
100
AcDbLine
 10
-32.0756380997218
 20
54.850002456953973
 30
0.0
 11
-32.142463798605377
 21
54.086181221316167
 31
0.0
  0
LINE
  5
42
100
AcDbEntity
  8
0
  6
CONTINUOUS
 62
               7
100
AcDbLine
 10
-29.29180908203125
 20
54.850006103515739
 30
0.0
 11
-32.07562255859375
 21
54.850006103515739
 31
0.0
  0
ARC
  5
43
100
AcDbEntity
  8
0
  6
CONTINUOUS
 62
               7
100
AcDbCircle
 10
-30.0
 20
48.870330810546875
 30
0.0
 40
6.3296561241149902
100
AcDbArc
 50
77.07456800075721
 51
109.14270913512811
  0
LINE
  5
44
100
AcDbEntity
  8
0
  6
CONTINUOUS
 62
               7
100
AcDbLine
 10
-24.999990533184246
 20
55.999989511135993
 30
0.0
 11
-36.196098885373431
 21
53.000001294651213
 31
0.0
  0
LINE
  5
45
100
AcDbEntity
  8
0
  6
CONTINUOUS
 62
               7
100
AcDbLine
 10
-25.0
 20
62.000000000000057
 30
0.0
 11
-25.0
 21
58.000000000000057
 31
0.0
  0
LINE
  5
46
100
AcDbEntity
  8
0
  6
CONTINUOUS
 62
               7
100
AcDbLine
 10
-102.00000000000011
 20
173.00000000000003
 30
0.0
 11
-105.0
 21
169.99999999999991
 31
0.0
  0
LINE
  5
47
100
AcDbEntity
  8
0
  6
CONTINUOUS
 62
               7
100
AcDbLine
 10
104.99999999999989
 20
170.00000000000003
 30
0.0
 11
101.99999999999989
 21
173.00000000000006
 31
0.0
  0
ARC
  5
48
100
AcDbEntity
  8
0
  6
CONTINUOUS
 62
               7
100
AcDbCircle
 10
55.650024391712464
 20
298.00246199177411
 30
0.0
 40
3.0
100
AcDbArc
 50
138.59108219069708
 51
168.66758377997829
  0
LINE
  5
49
100
AcDbEntity
  8
0
  6
CONTINUOUS
 62
               7
100
AcDbLine
 10
53.399999999999977
 20
293.50258399701954
 30
0.0
 11
51.999999976999788
 21
293.50258399701954
 31
0.0
  0
LINE
  5
4A
100
AcDbEntity
  8
0
  6
CONTINUOUS
 62
               7
100
AcDbLine
 10
55.99999998099986
 20
283.00258398651948
 30
0.0
 11
51.999999976999788
 21
283.00258398651948
 31
0.0
  0
LINE
  5
4B
100
AcDbEntity
  8
0
  6
CONTINUOUS
 62
               7
100
AcDbLine
 10
51.999999976999788
 20
293.65258396751955
 30
0.0
 11
51.999999976999788
 21
283.00258398651948
 31
0.0
  0
ARC
  5
4C
100
AcDbEntity
  8
0
  6
CONTINUOUS
 62
               7
100
AcDbCircle
 10
57.129655820142148
 20
291.50258399501973
 30
0.0
 40
6.3296561304446461
100
AcDbArc
 50
160.85729268610697
 51
199.14270913513036
  0
LINE
  5
4D
100
AcDbEntity
  8
0
  6
CONTINUOUS
 62
               7
100
AcDbLine
 10
51.149999952308008
 20
293.57821871503648
 30
0.0
 11
51.149999952308008
 21
289.4269492750027
 31
0.0
  0
LINE
  5
4E
100
AcDbEntity
  8
0
  6
CONTINUOUS
 62
               7
100
AcDbLine
 10
51.149999955733961
 20
293.57821860150909
 30
0.0
 11
51.999999981228939
 21
293.65258396751955
 31
0.0
  0
LINE
  5
4F
100
AcDbEntity
  8
0
  6
CONTINUOUS
 62
               7
100
AcDbLine
 10
51.149999955734074
 20
289.42694938853003
 30
0.0
 11
51.999999981229166
 21
289.35258402251958
 31
0.0
  0
LINE
  5
50
100
AcDbEntity
  8
0
  6
CONTINUOUS
 62
               7
100
AcDbLine
 10
52.65002439171235
 20
294.41807638493646
 30
0.0
 11
52.65002439171235
 21
293.50258399701954
 31
0.0
  0
LINE
  5
51
100
AcDbEntity
  8
0
  6
CONTINUOUS
 62
               7
100
AcDbLine
 10
55.99999998099986
 20
293.00246199177411
 30
0.0
 11
55.99999998099986
 21
167.32716889734886
 31
0.0
  0
LINE
  5
52
100
AcDbEntity
  8
0
  6
CONTINUOUS
 62
               7
100
AcDbLine
 10
53.999999978999767
 20
256.47246195527418
 30
0.0
 11
53.999999978999767
 21
194.87245579015851
 31
0.0
  0
LINE
  5
53
100
AcDbEntity
  8
0
  6
CONTINUOUS
 62
               7
100
AcDbLine
 10
96.000000020999778
 20
256.47246195527418
 30
0.0
 11
95.999984741210824
 21
194.89999389648449
 31
0.0
  0
LINE
  5
54
100
AcDbEntity
  8
0
  6
CONTINUOUS
 62
               7
100
AcDbLine
 10
65.212782055593038
 20
163.00000000000003
 30
0.0
 11
-105.0
 21
163.00000000000003
 31
0.0
  0
LINE
  5
55
100
AcDbEntity
  8
0
  6
CONTINUOUS
 62
               7
100
AcDbLine
 10
55.99999998099986
 20
173.00000000000003
 30
0.0
 11
-107.02777125836218
 21
173.00000000000003
 31
0.0
  0
LINE
  5
56
100
AcDbEntity
  8
0
  6
CONTINUOUS
 62
               7
100
AcDbLine
 10
55.99999998099986
 20
182.80000000000007
 30
0.0
 11
-102.00000000000011
 21
182.80000000000007
 31
0.0
  0
LINE
  5
57
100
AcDbEntity
  8
0
  6
CONTINUOUS
 62
               7
100
AcDbLine
 10
55.99999998099986
 20
186.20000000000007
 30
0.0
 11
-102.00000000000011
 21
186.20000000000007
 31
0.0
  0
LINE
  5
58
100
AcDbEntity
  8
0
  6
CONTINUOUS
 62
               7
100
AcDbLine
 10
55.99999998099986
 20
194.00000000000009
 30
0.0
 11
-102.00000000000011
 21
194.00000000000009
 31
0.0
  0
LINE
  5
59
100
AcDbEntity
  8
0
  6
CONTINUOUS
 62
               7
100
AcDbLine
 10
88.400024427462199
 20
293.00246199177411
 30
0.0
 11
88.400024427462199
 21
174.00246187277421
 31
0.0
  0
LINE
  5
5A
100
AcDbEntity
  8
0
  6
CONTINUOUS
 62
               7
100
AcDbLine
 10
61.599975572537119
 20
293.00246199177411
 30
0.0
 11
61.599975572537119
 21
174.00246187277421
 31
0.0
  0
LINE
  5
5B
100
AcDbEntity
  8
0
  6
CONTINUOUS
 62
               7
100
AcDbLine
 10
63.799987781768664
 20
293.00246199177411
 30
0.0
 11
63.799987781768664
 21
174.00246187277421
 31
0.0
  0
LINE
  5
5C
100
AcDbEntity
  8
0
  6
CONTINUOUS
 62
               7
100
AcDbLine
 10
94.000000018999913
 20
371.00246199177406
 30
0.0
 11
94.000000018999913
 21
167.32716889734886
 31
0.0
  0
LINE
  5
5D
100
AcDbEntity
  8
0
  6
CONTINUOUS
 62
               7
100
AcDbLine
 10
86.200012218231109
 20
293.00246199177411
 30
0.0
 11
86.200012218231109
 21
174.00246187277421
 31
0.0
  0
LINE
  5
5E
100
AcDbEntity
  8
0
  6
CONTINUOUS
 62
               7
100
AcDbLine
 10
94.8500000402654
 20
294.42682738878449
 30
0.0
 11
94.000000014770421
 21
294.3524620227742
 31
0.0
  0
LINE
  5
5F
100
AcDbEntity
  8
0
  6
CONTINUOUS
 62
               7
100
AcDbLine
 10
94.850000040265854
 20
298.57809660176355
 30
0.0
 11
94.000000014770762
 21
298.65246196777412
 31
0.0
  0
LINE
  5
60
100
AcDbEntity
  8
0
  6
CONTINUOUS
 62
               7
100
AcDbLine
 10
94.850000043691807
 20
298.57809671529105
 30
0.0
 11
94.85000004369158
 21
294.42682727525727
 31
0.0
  0
ARC
  5
61
100
AcDbEntity
  8
0
  6
CONTINUOUS
 62
               7
100
AcDbCircle
 10
88.870344175857554
 20
296.5024619952743
 30
0.0
 40
6.3296561304446461
100
AcDbArc
 50
340.85729086486964
 51
19.142707313893034
  0
LINE
  5
62
100
AcDbEntity
  8
0
  6
CONTINUOUS
 62
               7
100
AcDbLine
 10
52.549999959734123
 20
298.57809660176372
 30
0.0
 11
53.399999985229329
 21
298.65246196777412
 31
0.0
  0
LINE
  5
63
100
AcDbEntity
  8
0
  6
CONTINUOUS
 62
               7
100
AcDbLine
 10
52.549999959734009
 20
294.4268273887846
 30
0.0
 11
53.399999985228987
 21
294.3524620227742
 31
0.0
  0
LINE
  5
64
100
AcDbEntity
  8
0
  6
CONTINUOUS
 62
               7
100
AcDbLine
 10
52.549999956307829
 20
294.42682727525727
 30
0.0
 11
52.54999995630817
 21
298.57809671529105
 31
0.0
  0
ARC
  5
65
100
AcDbEntity
  8
0
  6
CONTINUOUS
 62
               7
100
AcDbCircle
 10
58.529655824142196
 20
296.50246199527385
 30
0.0
 40
6.3296561304446461
100
AcDbArc
 50
160.85729086486964
 51
199.14270731389303
  0
CIRCLE
  5
66
100
AcDbEntity
  8
0
  6
CONTINUOUS
 62
               7
100
AcDbCircle
 10
58.499999983499833
 20
238.00246193677413
 30
0.0
 40
1.2500000012500001
  0
CIRCLE
  5
67
100
AcDbEntity
  8
0
  6
CONTINUOUS
 62
               2
100
AcDbCircle
 10
58.499999983499833
 20
238.00246193677413
 30
0.0
 40
1.5000000014999999
  0
CIRCLE
  5
68
100
AcDbEntity
  8
0
  6
CONTINUOUS
 62
               7
100
AcDbCircle
 10
58.499999983499833
 20
264.00246196277413
 30
0.0
 40
1.2500000012500001
  0
CIRCLE
  5
69
100
AcDbEntity
  8
0
  6
CONTINUOUS
 62
               2
100
AcDbCircle
 10
58.499999983499833
 20
264.00246196277413
 30
0.0
 40
1.5000000014999999
  0
CIRCLE
  5
6A
100
AcDbEntity
  8
0
  6
CONTINUOUS
 62
               7
100
AcDbCircle
 10
91.500000016499826
 20
264.00246196277413
 30
0.0
 40
1.2500000012500001
  0
CIRCLE
  5
6B
100
AcDbEntity
  8
0
  6
CONTINUOUS
 62
               2
100
AcDbCircle
 10
91.500000016499826
 20
264.00246196277413
 30
0.0
 40
1.5000000014999999
  0
CIRCLE
  5
6C
100
AcDbEntity
  8
0
  6
CONTINUOUS
 62
               7
100
AcDbCircle
 10
91.500000016499826
 20
238.00246193677413
 30
0.0
 40
1.2500000012500001
  0
CIRCLE
  5
6D
100
AcDbEntity
  8
0
  6
CONTINUOUS
 62
               2
100
AcDbCircle
 10
91.500000016499826
 20
238.00246193677413
 30
0.0
 40
1.5000000014999999
  0
ARC
  5
6E
100
AcDbEntity
  8
0
  6
CONTINUOUS
 62
               7
100
AcDbCircle
 10
64.499999989499884
 20
241.50246194027415
 30
0.0
 40
3.2500000032500003
100
AcDbArc
 50
153.16468353359647
 51
206.8353264843162
  0
ARC
  5
6F
100
AcDbEntity
  8
0
  6
CONTINUOUS
 62
               7
100
AcDbCircle
 10
64.499999989499884
 20
260.50246195927406
 30
0.0
 40
3.2500000032500003
100
AcDbArc
 50
153.16468353359647
 51
206.8353264843162
  0
ARC
  5
70
100
AcDbEntity
  8
0
  6
CONTINUOUS
 62
               7
100
AcDbCircle
 10
85.500000010499775
 20
241.50246194027415
 30
0.0
 40
3.2500000032500003
100
AcDbArc
 50
333.16467852464012
 51
26.835321475359859
  0
ARC
  5
71
100
AcDbEntity
  8
0
  6
CONTINUOUS
 62
               7
100
AcDbCircle
 10
85.500000010499775
 20
260.50246195927406
 30
0.0
 40
3.2500000032500003
100
AcDbArc
 50
333.16467852464012
 51
26.835321475359859
  0
LINE
  5
72
100
AcDbEntity
  8
0
  6
CONTINUOUS
 62
               7
100
AcDbLine
 10
94.000000018999913
 20
256.47246195527418
 30
0.0
 11
96.000000020999778
 21
256.47246195527418
 31
0.0
  0
LINE
  5
73
100
AcDbEntity
  8
0
  6
CONTINUOUS
 62
               7
100
AcDbLine
 10
55.99999998099986
 20
206.50243138769605
 30
0.0
 11
53.999999978999767
 21
206.50243138769605
 31
0.0
  0
LINE
  5
74
100
AcDbEntity
  8
0
  6
CONTINUOUS
 62
               7
100
AcDbLine
 10
61.599975572537119
 20
272.00246197077422
 30
0.0
 11
55.99999998099986
 21
272.00246197077422
 31
0.0
  0
LINE
  5
75
100
AcDbEntity
  8
0
  6
CONTINUOUS
 62
               7
100
AcDbLine
 10
60.999999985999807
 20
272.00246197077422
 30
0.0
 11
60.999999985999807
 21
230.0024619287741
 31
0.0
  0
LINE
  5
76
100
AcDbEntity
  8
0
  6
CONTINUOUS
 62
               7
100
AcDbLine
 10
88.83001710367364
 20
369.85719831875394
 30
0.0
 11
88.83001710367364
 21
293.8686118949841
 31
0.0
  0
LINE
  5
77
100
AcDbEntity
  8
0
  6
CONTINUOUS
 62
               7
100
AcDbLine
 10
61.599975572537119
 20
230.0024619287741
 30
0.0
 11
55.99999998099986
 21
230.0024619287741
 31
0.0
  0
LINE
  5
78
100
AcDbEntity
  8
0
  6
CONTINUOUS
 62
               7
100
AcDbLine
 10
94.000000018999913
 20
371.00246199177406
 30
0.0
 11
53.399999999999977
 21
371.00246199177406
 31
0.0
  0
LINE
  5
79
100
AcDbEntity
  8
0
  6
CONTINUOUS
 62
               2
100
AcDbLine
 10
60.999999985999807
 20
238.00246193677413
 30
0.0
 11
55.99999998099986
 21
238.00246193677413
 31
0.0
  0
LINE
  5
7A
100
AcDbEntity
  8
0
  6
CONTINUOUS
 62
               2
100
AcDbLine
 10
58.499999983499833
 20
235.50246193427409
 30
0.0
 11
58.499999983499833
 21
240.5024619392741
 31
0.0
  0
LINE
  5
7B
100
AcDbEntity
  8
0
  6
CONTINUOUS
 62
               2
100
AcDbLine
 10
60.999999985999807
 20
264.00246196277413
 30
0.0
 11
55.99999998099986
 21
264.00246196277413
 31
0.0
  0
LINE
  5
7C
100
AcDbEntity
  8
0
  6
CONTINUOUS
 62
               2
100
AcDbLine
 10
58.499999983499833
 20
261.50246196027416
 30
0.0
 11
58.499999983499833
 21
266.50246196527416
 31
0.0
  0
LINE
  5
7D
100
AcDbEntity
  8
0
  6
CONTINUOUS
 62
               2
100
AcDbLine
 10
94.000000018999913
 20
264.00246196277413
 30
0.0
 11
89.000000013999852
 21
264.00246196277413
 31
0.0
  0
LINE
  5
7E
100
AcDbEntity
  8
0
  6
CONTINUOUS
 62
               2
100
AcDbLine
 10
91.500000016499826
 20
261.50246196027416
 30
0.0
 11
91.500000016499826
 21
266.50246196527416
 31
0.0
  0
LINE
  5
7F
100
AcDbEntity
  8
0
  6
CONTINUOUS
 62
               2
100
AcDbLine
 10
94.000000018999913
 20
238.00246193677413
 30
0.0
 11
89.000000013999852
 21
238.00246193677413
 31
0.0
  0
LINE
  5
80
100
AcDbEntity
  8
0
  6
CONTINUOUS
 62
               2
100
AcDbLine
 10
91.500000016499826
 20
235.50246193427409
 30
0.0
 11
91.500000016499826
 21
240.5024619392741
 31
0.0
  0
LINE
  5
81
100
AcDbEntity
  8
0
  6
CONTINUOUS
 62
               7
100
AcDbLine
 10
94.000000018999913
 20
230.0024619287741
 30
0.0
 11
88.400024427462199
 21
230.0024619287741
 31
0.0
  0
LINE
  5
82
100
AcDbEntity
  8
0
  6
CONTINUOUS
 62
               7
100
AcDbLine
 10
94.000000018999913
 20
272.00246197077422
 30
0.0
 11
88.400024427462199
 21
272.00246197077422
 31
0.0
  0
LINE
  5
83
100
AcDbEntity
  8
0
  6
CONTINUOUS
 62
               7
100
AcDbLine
 10
94.000000018999913
 20
293.00246199177411
 30
0.0
 11
53.399999999999977
 21
293.00246199177411
 31
0.0
  0
LINE
  5
84
100
AcDbEntity
  8
0
  6
CONTINUOUS
 62
               7
100
AcDbLine
 10
61.169982896326019
 20
369.67690046701108
 30
0.0
 11
61.169982896326019
 21
294.04897078188321
 31
0.0
  0
LINE
  5
85
100
AcDbEntity
  8
0
  6
CONTINUOUS
 62
               7
100
AcDbLine
 10
89.000000013999852
 20
272.00246197077422
 30
0.0
 11
89.000000013999852
 21
230.0024619287741
 31
0.0
  0
LINE
  5
86
100
AcDbEntity
  8
0
  6
CONTINUOUS
 62
               7
100
AcDbLine
 10
53.999999978999767
 20
256.47246195527418
 30
0.0
 11
55.99999998099986
 21
256.47246195527418
 31
0.0
  0
ARC
  5
87
100
AcDbEntity
  8
0
  6
CONTINUOUS
 62
               7
100
AcDbCircle
 10
92.000000016999707
 20
167.32716889734886
 30
0.0
 40
2.0000000020000002
100
AcDbArc
 50
292.13136085930472
 51
0.0
  0
ARC
  5
88
100
AcDbEntity
  8
0
  6
CONTINUOUS
 62
               7
100
AcDbCircle
 10
57.999999982999611
 20
167.32716889734886
 30
0.0
 40
2.0000000020000002
100
AcDbArc
 50
180.00000500895632
 51
247.86863048927324
  0
ARC
  5
89
100
AcDbEntity
  8
0
  6
CONTINUOUS
 62
               7
100
AcDbCircle
 10
57.999999982999611
 20
171.05046602021275
 30
0.0
 40
2.0000000020000002
100
AcDbArc
 50
180.00000500895632
 51
260.84680953499787
  0
ARC
  5
8A
100
AcDbEntity
  8
0
  6
CONTINUOUS
 62
               7
100
AcDbCircle
 10
92.000000016999707
 20
171.05046602021275
 30
0.0
 40
2.0000000020000002
100
AcDbArc
 50
279.15318181358009
 51
0.0
  0
ARC
  5
8B
100
AcDbEntity
  8
0
  6
CONTINUOUS
 62
               7
100
AcDbCircle
 10
74.999999999999886
 20
209.12746190789917
 30
0.0
 40
47.125000047124999
100
AcDbArc
 50
247.86864096192809
 51
292.13136085930472
  0
ARC
  5
8C
100
AcDbEntity
  8
0
  6
CONTINUOUS
 62
               7
100
AcDbCircle
 10
74.999999999999886
 20
276.55782086204829
 30
0.0
 40
108.86813365378998
100
AcDbArc
 50
260.84681317746356
 51
279.15318181358009
  0
LINE
  5
8D
100
AcDbEntity
  8
0
  6
CONTINUOUS
 62
               7
100
AcDbLine
 10
94.000000018999913
 20
174.00246187277421
 30
0.0
 11
55.99999998099986
 21
174.00246187277421
 31
0.0
  0
LINE
  5
8E
100
AcDbEntity
  8
0
  6
CONTINUOUS
 62
               7
100
AcDbLine
 10
55.99999998099986
 20
194.87245579015851
 30
0.0
 11
53.999999978999767
 21
194.87245579015851
 31
0.0
  0
LINE
  5
8F
100
AcDbEntity
  8
0
  6
CONTINUOUS
 62
               7
100
AcDbLine
 10
94.000000018999913
 20
206.50246190527415
 30
0.0
 11
95.999984762210829
 21
206.50246190527415
 31
0.0
  0
LINE
  5
90
100
AcDbEntity
  8
0
  6
CONTINUOUS
 62
               7
100
AcDbLine
 10
94.000000018999913
 20
194.87245579015851
 30
0.0
 11
95.999984762210829
 21
194.87245579015851
 31
0.0
  0
LINE
  5
91
100
AcDbEntity
  8
0
  6
CONTINUOUS
 62
               2
100
AcDbLine
 10
74.999999999999886
 20
376.16914900865964
 30
0.0
 11
74.999999999999886
 21
154.03579447392357
 31
0.0
  0
ARC
  5
92
100
AcDbEntity
  8
0
  6
CONTINUOUS
 62
               7
100
AcDbCircle
 10
-98.9176025390625
 20
11.799981689453148
 30
0.0
 40
7.982419490814209
100
AcDbArc
 50
157.64345713842727
 51
202.35653921910705
  0
LINE
  5
93
100
AcDbEntity
  8
0
  6
CONTINUOUS
 62
               7
100
AcDbLine
 10
-106.29998779296892
 20
8.7637268066407046
 30
0.0
 11
-106.29998779296892
 21
14.83626708984383
 31
0.0
  0
LINE
  5
94
100
AcDbEntity
  8
0
  6
CONTINUOUS
 62
               7
100
AcDbLine
 10
-106.30001450898817
 20
8.7637271955851475
 30
0.0
 11
-104.99998769538615
 21
8.6499895874473509
 31
0.0
  0
LINE
  5
95
100
AcDbEntity
  8
0
  6
CONTINUOUS
 62
               7
100
AcDbLine
 10
-106.29997995334634
 20
14.836253679934657
 30
0.0
 11
-105.00001394264473
 21
14.949985968508031
 31
0.0
  0
ARC
  5
96
100
AcDbEntity
  8
0
  6
CONTINUOUS
 62
               7
100
AcDbCircle
 10
98.917541503906136
 20
11.799987769126972
 30
0.0
 40
7.982419490814209
100
AcDbArc
 50
337.64346066720742
 51
22.356539332792593
  0
LINE
  5
97
100
AcDbEntity
  8
0
  6
CONTINUOUS
 62
               7
100
AcDbLine
 10
106.29998779296875
 20
8.7637328863145285
 30
0.0
 11
106.29998779296875
 21
14.836273169517654
 31
0.0
  0
LINE
  5
98
100
AcDbEntity
  8
0
  6
CONTINUOUS
 62
               7
100
AcDbLine
 10
106.29997228135471
 20
14.836267295419646
 30
0.0
 11
105.0000062706531
 21
14.949999583993019
 31
0.0
  0
LINE
  5
99
100
AcDbEntity
  8
0
  6
CONTINUOUS
 62
               7
100
AcDbLine
 10
106.30000683699654
 20
8.763725739447807
 30
0.0
 11
105.00004082629493
 21
8.6499934508744332
 31
0.0
  0
LINE
  5
9A
100
AcDbEntity
  8
0
  6
CONTINUOUS
 62
               2
100
AcDbLine
 10
16.499999999999886
 20
63.48244924910199
 30
0.0
 11
16.5
 21
53.851372362311452
 31
0.0
  0
CIRCLE
  5
9B
100
AcDbEntity
  8
0
  6
CONTINUOUS
 62
               7
100
AcDbCircle
 10
-36.000000000000114
 20
19.300000000000011
 30
0.0
 40
2.1000000000000001
  0
CIRCLE
  5
9C
100
AcDbEntity
  8
0
  6
CONTINUOUS
 62
               7
100
AcDbCircle
 10
-46.0
 20
19.300000000000011
 30
0.0
 40
2.1000000000000001
  0
LINE
  5
9D
100
AcDbEntity
  8
0
  6
CONTINUOUS
 62
               7
100
AcDbLine
 10
-56.5
 20
11.300000000000068
 30
0.0
 11
-89.500000000000114
 21
11.300000000000068
 31
0.0
  0
LINE
  5
9E
100
AcDbEntity
  8
0
  6
CONTINUOUS
 62
               7
100
AcDbLine
 10
-89.500000000000114
 20
27.300000000000011
 30
0.0
 11
-89.500000000000114
 21
11.300000000000068
 31
0.0
  0
LINE
  5
9F
100
AcDbEntity
  8
0
  6
CONTINUOUS
 62
               7
100
AcDbLine
 10
-56.5
 20
27.300000000000011
 30
0.0
 11
-89.500000000000114
 21
27.300000000000011
 31
0.0
  0
LINE
  5
A0
100
AcDbEntity
  8
0
  6
CONTINUOUS
 62
               7
100
AcDbLine
 10
-56.5
 20
27.300000000000011
 30
0.0
 11
-56.5
 21
11.300000000000068
 31
0.0
  0
LINE
  5
A1
100
AcDbEntity
  8
0
  6
CONTINUOUS
 62
               7
100
AcDbLine
 10
47.999999999999886
 20
24.150000000000034
 30
0.0
 11
47.999999999999886
 21
11.650000000000034
 31
0.0
  0
LINE
  5
A2
100
AcDbEntity
  8
0
  6
CONTINUOUS
 62
               7
100
AcDbLine
 10
82.000000000000114
 20
11.650000000000034
 30
0.0
 11
47.999999999999886
 21
11.650000000000034
 31
0.0
  0
LINE
  5
A3
100
AcDbEntity
  8
0
  6
CONTINUOUS
 62
               7
100
AcDbLine
 10
82.000000000000114
 20
24.150000000000034
 30
0.0
 11
82.000000000000114
 21
11.650000000000034
 31
0.0
  0
LINE
  5
A4
100
AcDbEntity
  8
0
  6
CONTINUOUS
 62
               7
100
AcDbLine
 10
82.000000000000114
 20
24.150000000000034
 30
0.0
 11
47.999999999999886
 21
24.150000000000034
 31
0.0
  0
LINE
  5
A5
100
AcDbEntity
  8
0
  6
CONTINUOUS
 62
               7
100
AcDbLine
 10
-80.000024437904358
 20
3.1999816894531818
 30
0.0
 11
-103.4000244140625
 21
3.1999816894531818
 31
0.0
  0
LINE
  5
A6
100
AcDbEntity
  8
0
  6
CONTINUOUS
 62
               7
100
AcDbLine
 10
80.000024437904131
 20
4.7999816894530909
 30
0.0
 11
80.000024437904131
 21
3.1999816894531818
 31
0.0
  0
LINE
  5
A7
100
AcDbEntity
  8
0
  6
CONTINUOUS
 62
               7
100
AcDbLine
 10
-80.000024437904358
 20
4.7999816894530909
 30
0.0
 11
-80.000024437904358
 21
3.1999816894531818
 31
0.0
  0
LINE
  5
A8
100
AcDbEntity
  8
0
  6
CONTINUOUS
 62
               7
100
AcDbLine
 10
-103.39999685287489
 20
5.199981689453125
 30
0.0
 11
-103.39999685287489
 21
4.7999816894530909
 31
0.0
  0
LINE
  5
A9
100
AcDbEntity
  8
0
  6
CONTINUOUS
 62
               7
100
AcDbLine
 10
-103.29999685287476
 20
5.199981689453125
 30
0.0
 11
-103.29999685287476
 21
4.7999816894530909
 31
0.0
  0
LINE
  5
AA
100
AcDbEntity
  8
0
  6
CONTINUOUS
 62
               7
100
AcDbLine
 10
-100.49999690055841
 20
5.199981689453125
 30
0.0
 11
-100.49999690055841
 21
4.7999816894530909
 31
0.0
  0
LINE
  5
AB
100
AcDbEntity
  8
0
  6
CONTINUOUS
 62
               7
100
AcDbLine
 10
-89.499997138977051
 20
5.199981689453125
 30
0.0
 11
-89.499997138977051
 21
4.7999816894530909
 31
0.0
  0
LINE
  5
AC
100
AcDbEntity
  8
0
  6
CONTINUOUS
 62
               7
100
AcDbLine
 10
103.40000305175784
 20
5.199981689453125
 30
0.0
 11
103.40000305175784
 21
4.7999816894530909
 31
0.0
  0
LINE
  5
AD
100
AcDbEntity
  8
0
  6
CONTINUOUS
 62
               7
100
AcDbLine
 10
103.30000305175781
 20
5.199981689453125
 30
0.0
 11
103.30000305175781
 21
4.7999816894530909
 31
0.0
  0
LINE
  5
AE
100
AcDbEntity
  8
0
  6
CONTINUOUS
 62
               7
100
AcDbLine
 10
100.49999999999989
 20
5.199981689453125
 30
0.0
 11
100.49999999999989
 21
4.7999816894530909
 31
0.0
  0
LINE
  5
AF
100
AcDbEntity
  8
0
  6
CONTINUOUS
 62
               7
100
AcDbLine
 10
89.500000000000114
 20
5.199981689453125
 30
0.0
 11
89.500000000000114
 21
4.7999816894530909
 31
0.0
  0
LINE
  5
B0
100
AcDbEntity
  8
0
  6
CONTINUOUS
 62
               7
100
AcDbLine
 10
103.40000305175784
 20
4.7999816894530909
 30
0.0
 11
-103.39999685287489
 21
4.7999816894530909
 31
0.0
  0
ARC
  5
B1
100
AcDbEntity
  8
0
  6
CONTINUOUS
 62
               7
100
AcDbCircle
 10
-103.4000244140625
 20
6.7999877929688068
 30
0.0
 40
1.6000000238418579
100
AcDbArc
 50
179.99999499104368
 51
269.99999749552182
  0
ARC
  5
B2
100
AcDbEntity
  8
0
  6
CONTINUOUS
 62
               7
100
AcDbCircle
 10
103.40002441406239
 20
6.7999877929688068
 30
0.0
 40
1.6000000238418579
100
AcDbArc
 50
269.99999749552182
 51
0.0000000000001018
  0
LINE
  5
B3
100
AcDbEntity
  8
0
  6
CONTINUOUS
 62
               7
100
AcDbLine
 10
104.99999999999989
 20
170.00000000000003
 30
0.0
 11
104.99999999999989
 21
4.7999877929688068
 31
0.0
  0
LINE
  5
B4
100
AcDbEntity
  8
0
  6
CONTINUOUS
 62
               7
100
AcDbLine
 10
103.40002441406239
 20
5.199981689453125
 30
0.0
 11
-103.4000244140625
 21
5.199981689453125
 31
0.0
  0
LINE
  5
B5
100
AcDbEntity
  8
0
  6
CONTINUOUS
 62
               2
100
AcDbLine
 10
-88.0
 20
-4.2377012841294004
 30
0.0
 11
-88.0
 21
6.7533858317011095
 31
0.0
  0
LINE
  5
B6
100
AcDbEntity
  8
0
  6
CONTINUOUS
 62
               2
100
AcDbLine
 10
87.999999999999886
 20
-4.5347576498258491
 30
0.0
 11
87.999999999999886
 21
7.3474986184758677
 31
0.0
  0
LINE
  5
B7
100
AcDbEntity
  8
0
  6
CONTINUOUS
 62
               2
100
AcDbLine
 10
-75.0
 20
207.09879596592393
 30
0.0
 11
-75.0
 21
154.03579447392357
 31
0.0
  0
LINE
  5
B8
100
AcDbEntity
  8
0
  6
CONTINUOUS
 62
               7
100
AcDbLine
 10
116.99999999999989
 20
186.20000000000007
 30
0.0
 11
94.000000018999913
 21
186.20000000000007
 31
0.0
  0
LINE
  5
B9
100
AcDbEntity
  8
0
  6
CONTINUOUS
 62
               7
100
AcDbLine
 10
116.99999999999989
 20
182.80000000000007
 30
0.0
 11
94.000000018999913
 21
182.80000000000007
 31
0.0
  0
LINE
  5
BA
100
AcDbEntity
  8
0
  6
CONTINUOUS
 62
               7
100
AcDbLine
 10
-50.250000953674316
 20
160.00003051757818
 30
0.0
 11
-54.749987602234
 21
160.00003051757818
 31
0.0
  0
LINE
  5
BB
100
AcDbEntity
  8
0
  6
CONTINUOUS
 62
               7
100
AcDbLine
 10
-49.750000000000114
 20
160.50003051757815
 30
0.0
 11
-49.750000000000114
 21
163.00003051757815
 31
0.0
  0
LINE
  5
BC
100
AcDbEntity
  8
0
  6
CONTINUOUS
 62
               7
100
AcDbLine
 10
-49.750005457296652
 20
160.50003497588682
 30
0.0
 11
-50.250004428654279
 21
160.00003790112987
 31
0.0
  0
LINE
  5
BD
100
AcDbEntity
  8
0
  6
CONTINUOUS
 62
               7
100
AcDbLine
 10
-49.75000095367443
 20
160.50003147125244
 30
0.0
 11
-55.25
 21
160.50003147125244
 31
0.0
  0
LINE
  5
BE
100
AcDbEntity
  8
0
  6
CONTINUOUS
 62
               7
100
AcDbLine
 10
-55.25
 20
163.00003051757815
 30
0.0
 11
-55.25
 21
160.50003051757815
 31
0.0
  0
LINE
  5
BF
100
AcDbEntity
  8
0
  6
CONTINUOUS
 62
               7
100
AcDbLine
 10
-54.749994391234736
 20
160.00003806971952
 30
0.0
 11
-55.249993404738916
 21
160.50003518662325
 31
0.0
  0
LINE
  5
C0
100
AcDbEntity
  8
0
  6
CONTINUOUS
 62
               7
100
AcDbLine
 10
69.74999904632557
 20
160.00003051757818
 30
0.0
 11
65.250012397766
 21
160.00003051757818
 31
0.0
  0
LINE
  5
C1
100
AcDbEntity
  8
0
  6
CONTINUOUS
 62
               7
100
AcDbLine
 10
70.249999999999886
 20
160.50003051757815
 30
0.0
 11
70.249999999999886
 21
162.21246292697211
 31
0.0
  0
LINE
  5
C2
100
AcDbEntity
  8
0
  6
CONTINUOUS
 62
               7
100
AcDbLine
 10
70.249994542703348
 20
160.50003497588682
 30
0.0
 11
69.749995571345721
 21
160.00003790112987
 31
0.0
  0
LINE
  5
C3
100
AcDbEntity
  8
0
  6
CONTINUOUS
 62
               7
100
AcDbLine
 10
70.24999904632557
 20
160.50003147125244
 30
0.0
 11
64.75
 21
160.50003147125244
 31
0.0
  0
LINE
  5
C4
100
AcDbEntity
  8
0
  6
CONTINUOUS
 62
               7
100
AcDbLine
 10
64.75
 20
163.00003051757815
 30
0.0
 11
64.75
 21
160.50003051757815
 31
0.0
  0
LINE
  5
C5
100
AcDbEntity
  8
0
  6
CONTINUOUS
 62
               7
100
AcDbLine
 10
65.250005608765264
 20
160.00003806971952
 30
0.0
 11
64.75000659526097
 21
160.50003518662325
 31
0.0
  0
CIRCLE
  5
C6
100
AcDbEntity
  8
0
  6
CONTINUOUS
 62
               7
100
AcDbCircle
 10
120.49999999999989
 20
181.0
 30
0.0
 40
2.1500000953674316
  0
CIRCLE
  5
C7
100
AcDbEntity
  8
0
  6
CONTINUOUS
 62
               7
100
AcDbCircle
 10
120.49999999999989
 20
181.0
 30
0.0
 40
2.0750000476837158
  0
CIRCLE
  5
C8
100
AcDbEntity
  8
0
  6
CONTINUOUS
 62
               7
100
AcDbCircle
 10
120.49999999999989
 20
195.00000000000003
 30
0.0
 40
2.1500000953674316
  0
CIRCLE
  5
C9
100
AcDbEntity
  8
0
  6
CONTINUOUS
 62
               7
100
AcDbCircle
 10
120.49999999999989
 20
195.00000000000003
 30
0.0
 40
2.0750000476837158
  0
ARC
  5
CA
100
AcDbEntity
  8
0
  6
CONTINUOUS
 62
               7
100
AcDbCircle
 10
-104.45025634765636
 20
197.69998168945312
 30
0.0
 40
5.0
100
AcDbArc
 50
90.000002504478161
 51
140.58004632746963
  0
ARC
  5
CB
100
AcDbEntity
  8
0
  6
CONTINUOUS
 62
               7
100
AcDbCircle
 10
-60.0
 20
185.00000000000003
 30
0.0
 40
50.0
100
AcDbArc
 50
161.77401403899248
 51
191.03970806633964
  0
ARC
  5
CC
100
AcDbEntity
  8
0
  6
CONTINUOUS
 62
               7
100
AcDbCircle
 10
-107.02777099609386
 20
179.00000000000009
 30
0.0
 40
5.9999999999999991
100
AcDbArc
 50
198.4084749552519
 51
269.99999749552182
  0
ARC
  5
CD
100
AcDbEntity
  8
0
  6
CONTINUOUS
 62
               7
100
AcDbCircle
 10
-106.13024902343761
 20
176.0
 30
0.0
 40
2.9999999999999996
100
AcDbArc
 50
191.03971170880533
 51
269.99999749552182
  0
ARC
  5
CE
100
AcDbEntity
  8
0
  6
CONTINUOUS
 62
               7
100
AcDbCircle
 10
-89.0
 20
185.00000000000003
 30
0.0
 40
25.0
100
AcDbArc
 50
140.58004632746963
 51
198.40848497316458
  0
ARC
  5
CF
100
AcDbEntity
  8
0
  6
CONTINUOUS
 62
               7
100
AcDbCircle
 10
-104.64202880859375
 20
199.69998168945315
 30
0.0
 40
2.9999999999999996
100
AcDbArc
 50
90.000002504478161
 51
161.77401403899248
  0
ARC
  5
D0
100
AcDbEntity
  8
0
  6
CONTINUOUS
 62
               7
100
AcDbCircle
 10
49.999999999999886
 20
44.699981689453182
 30
0.0
 40
1.299999952316284
100
AcDbArc
 50
90.000002504478161
 51
180.00000500895632
  0
ARC
  5
D1
100
AcDbEntity
  8
0
  6
CONTINUOUS
 62
               7
100
AcDbCircle
 10
49.999999999999886
 20
35.699981689453182
 30
0.0
 40
1.299999952316284
100
AcDbArc
 50
179.99999499104368
 51
269.99999749552182
  0
ARC
  5
D2
100
AcDbEntity
  8
0
  6
CONTINUOUS
 62
               7
100
AcDbCircle
 10
79.999999999999886
 20
35.699981689453182
 30
0.0
 40
1.299999952316284
100
AcDbArc
 50
269.99999749552182
 51
0.0
  0
ARC
  5
D3
100
AcDbEntity
  8
0
  6
CONTINUOUS
 62
               7
100
AcDbCircle
 10
79.999999999999886
 20
44.699981689453182
 30
0.0
 40
1.299999952316284
100
AcDbArc
 50
0.0
 51
90.000002504478161
  0
ARC
  5
D4
100
AcDbEntity
  8
0
  6
CONTINUOUS
 62
               7
100
AcDbCircle
 10
-97.000000000000114
 20
34.199981689453239
 30
0.0
 40
1.299999952316284
100
AcDbArc
 50
179.99999499104368
 51
269.99999749552182
  0
ARC
  5
D5
100
AcDbEntity
  8
0
  6
CONTINUOUS
 62
               7
100
AcDbCircle
 10
-49.0
 20
34.199981689453239
 30
0.0
 40
1.299999952316284
100
AcDbArc
 50
269.99999749552182
 51
0.0
  0
ARC
  5
D6
100
AcDbEntity
  8
0
  6
CONTINUOUS
 62
               7
100
AcDbCircle
 10
-49.0
 20
46.199981689453182
 30
0.0
 40
1.299999952316284
100
AcDbArc
 50
0.0
 51
90.000002504478161
  0
ARC
  5
D7
100
AcDbEntity
  8
0
  6
CONTINUOUS
 62
               7
100
AcDbCircle
 10
-97.000000000000114
 20
46.199981689453182
 30
0.0
 40
1.299999952316284
100
AcDbArc
 50
90.000002504478161
 51
180.00000500895632
  0
ARC
  5
D8
100
AcDbEntity
  8
0
  6
CONTINUOUS
 62
               7
100
AcDbCircle
 10
49.999999999999886
 20
35.699981689453182
 30
0.0
 40
1.0
100
AcDbArc
 50
179.99999499104368
 51
269.99999749552182
  0
ARC
  5
D9
100
AcDbEntity
  8
0
  6
CONTINUOUS
 62
               7
100
AcDbCircle
 10
79.999999999999886
 20
35.699981689453182
 30
0.0
 40
1.0
100
AcDbArc
 50
269.99999749552182
 51
0.0
  0
ARC
  5
DA
100
AcDbEntity
  8
0
  6
CONTINUOUS
 62
               7
100
AcDbCircle
 10
-49.0
 20
46.199981689453182
 30
0.0
 40
1.0
100
AcDbArc
 50
0.0
 51
90.000002504478161
  0
ARC
  5
DB
100
AcDbEntity
  8
0
  6
CONTINUOUS
 62
               7
100
AcDbCircle
 10
-97.000000000000114
 20
34.199981689453239
 30
0.0
 40
1.0
100
AcDbArc
 50
179.99999499104368
 51
269.99999749552182
  0
ARC
  5
DC
100
AcDbEntity
  8
0
  6
CONTINUOUS
 62
               7
100
AcDbCircle
 10
-97.000000000000114
 20
46.199981689453182
 30
0.0
 40
1.0
100
AcDbArc
 50
90.000002504478161
 51
180.00000500895632
  0
ARC
  5
DD
100
AcDbEntity
  8
0
  6
CONTINUOUS
 62
               7
100
AcDbCircle
 10
-49.0
 20
34.199981689453239
 30
0.0
 40
1.0
100
AcDbArc
 50
269.99999749552182
 51
0.0
  0
ARC
  5
DE
100
AcDbEntity
  8
0
  6
CONTINUOUS
 62
               7
100
AcDbCircle
 10
79.999999999999886
 20
44.699981689453182
 30
0.0
 40
1.0
100
AcDbArc
 50
0.0
 51
90.000002504478161
  0
ARC
  5
DF
100
AcDbEntity
  8
0
  6
CONTINUOUS
 62
               7
100
AcDbCircle
 10
49.999999999999886
 20
44.699981689453182
 30
0.0
 40
1.0
100
AcDbArc
 50
90.000002504478161
 51
180.00000500895632
  0
ARC
  5
E0
100
AcDbEntity
  8
0
  6
CONTINUOUS
 62
               7
100
AcDbCircle
 10
0.0
 20
372.41571044921875
 30
0.0
 40
321.4600830078125
100
AcDbArc
 50
263.53481531014523
 51
276.46516769591074
  0
CIRCLE
  5
E1
100
AcDbEntity
  8
0
  6
CONTINUOUS
 62
               7
100
AcDbCircle
 10
-36.000000000000114
 20
19.331939697265682
 30
0.0
 40
2.7000000476837158
  0
CIRCLE
  5
E2
100
AcDbEntity
  8
0
  6
CONTINUOUS
 62
               7
100
AcDbCircle
 10
-36.000000000000114
 20
19.331939697265682
 30
0.0
 40
3.2000000476837158
  0
CIRCLE
  5
E3
100
AcDbEntity
  8
0
  6
CONTINUOUS
 62
               7
100
AcDbCircle
 10
-46.000000000000114
 20
19.299987792968807
 30
0.0
 40
3.2000000476837158
  0
CIRCLE
  5
E4
100
AcDbEntity
  8
0
  6
CONTINUOUS
 62
               7
100
AcDbCircle
 10
-46.000000000000114
 20
19.299987792968807
 30
0.0
 40
2.7000000476837158
  0
ARC
  5
E5
100
AcDbEntity
  8
0
  6
CONTINUOUS
 62
               7
100
AcDbCircle
 10
29.999999999999886
 20
48.870330810546875
 30
0.0
 40
6.3296561241149902
100
AcDbArc
 50
70.857290864871885
 51
102.92543199924279
  0
ARC
  5
E6
100
AcDbEntity
  8
0
  6
CONTINUOUS
 62
               7
100
AcDbCircle
 10
103.40002441406239
 20
51.399993896484489
 30
0.0
 40
1.6000000238418579
100
AcDbArc
 50
0.0000000000000509
 51
90.000002504478161
  0
ARC
  5
E7
100
AcDbEntity
  8
0
  6
CONTINUOUS
 62
               7
100
AcDbCircle
 10
103.40002441406239
 20
4.7999877929688068
 30
0.0
 40
1.6000000238418579
100
AcDbArc
 50
269.99999749552182
 51
0.0000000000001018
  0
ARC
  5
E8
100
AcDbEntity
  8
0
  6
CONTINUOUS
 62
               7
100
AcDbCircle
 10
-103.4000244140625
 20
51.399993896484489
 30
0.0
 40
1.6000000238418579
100
AcDbArc
 50
90.000002504478161
 51
180.00000500895632
  0
ARC
  5
E9
100
AcDbEntity
  8
0
  6
CONTINUOUS
 62
               7
100
AcDbCircle
 10
-103.4000244140625
 20
4.7999877929688068
 30
0.0
 40
1.6000000238418579
100
AcDbArc
 50
179.99999499104368
 51
269.99999749552182
  0
LINE
  5
EA
100
AcDbEntity
  8
0
  6
CONTINUOUS
 62
               7
100
AcDbLine
 10
116.99999999999989
 20
194.00000000000009
 30
0.0
 11
94.000000018999913
 21
194.00000000000009
 31
0.0
  0
LINE
  5
EB
100
AcDbEntity
  8
0
  6
CONTINUOUS
 62
               7
100
AcDbLine
 10
194.99999999999977
 20
173.00000000000003
 30
0.0
 11
94.000000018999913
 21
173.00000000000003
 31
0.0
  0
LINE
  5
EC
100
AcDbEntity
  8
0
  6
CONTINUOUS
 62
               7
100
AcDbLine
 10
104.99999999999989
 20
163.00000000000003
 30
0.0
 11
84.787217944406734
 21
163.00000000000003
 31
0.0
  0
LINE
  5
ED
100
AcDbEntity
  8
0
  6
CONTINUOUS
 62
               7
100
AcDbLine
 10
-106.00000000000017
 20
187.00000000000006
 30
0.0
 11
-106.00000000000017
 21
186.50000000000009
 31
0.0
  0
LINE
  5
EE
100
AcDbEntity
  8
0
  6
CONTINUOUS
 62
               7
100
AcDbLine
 10
-102.00000000000011
 20
186.50000000000009
 30
0.0
 11
-106.00000000000017
 21
186.50000000000009
 31
0.0
  0
LINE
  5
EF
100
AcDbEntity
  8
0
  6
CONTINUOUS
 62
               7
100
AcDbLine
 10
-102.00000000000011
 20
192.50000000000003
 30
0.0
 11
-106.00000000000017
 21
192.50000000000003
 31
0.0
  0
LINE
  5
F0
100
AcDbEntity
  8
0
  6
CONTINUOUS
 62
               7
100
AcDbLine
 10
-106.00000000000017
 20
192.50000000000003
 30
0.0
 11
-106.00000000000017
 21
192.00000000000006
 31
0.0
  0
LINE
  5
F1
100
AcDbEntity
  8
0
  6
CONTINUOUS
 62
               7
100
AcDbLine
 10
-102.00000000000011
 20
192.00000000000006
 30
0.0
 11
-106.00000000000017
 21
192.00000000000006
 31
0.0
  0
LINE
  5
F2
100
AcDbEntity
  8
0
  6
CONTINUOUS
 62
               7
100
AcDbLine
 10
-102.00000000000011
 20
187.00000000000006
 30
0.0
 11
-106.00000000000017
 21
187.00000000000006
 31
0.0
  0
LINE
  5
F3
100
AcDbEntity
  8
0
  6
CONTINUOUS
 62
               7
100
AcDbLine
 10
-102.00000000000011
 20
202.70001220703128
 30
0.0
 11
-104.45025634765636
 21
202.70001220703128
 31
0.0
  0
LINE
  5
F4
100
AcDbEntity
  8
0
  6
CONTINUOUS
 62
               7
100
AcDbLine
 10
53.999999999999886
 20
198.86450195312509
 30
0.0
 11
-102.00000000000011
 21
198.86450195312509
 31
0.0
  0
LINE
  5
F5
100
AcDbEntity
  8
0
  6
CONTINUOUS
 62
               7
100
AcDbLine
 10
116.99999999999989
 20
205.50000000000003
 30
0.0
 11
116.99999999999989
 21
173.00000000000003
 31
0.0
  0
LINE
  5
F6
100
AcDbEntity
  8
0
  6
CONTINUOUS
 62
               7
100
AcDbLine
 10
116.99999999999989
 20
195.94641113281259
 30
0.0
 11
96.0
 21
195.94641113281259
 31
0.0
  0
LINE
  5
F7
100
AcDbEntity
  8
0
  6
CONTINUOUS
 62
               7
100
AcDbLine
 10
116.99999999999989
 20
198.86450195312509
 30
0.0
 11
96.0
 21
198.86450195312509
 31
0.0
  0
LINE
  5
F8
100
AcDbEntity
  8
0
  6
CONTINUOUS
 62
               7
100
AcDbLine
 10
53.999999999999886
 20
201.3999938964844
 30
0.0
 11
-102.00000000000011
 21
201.3999938964844
 31
0.0
  0
LINE
  5
F9
100
AcDbEntity
  8
0
  6
CONTINUOUS
 62
               7
100
AcDbLine
 10
116.99999999999989
 20
201.3999938964844
 30
0.0
 11
96.0
 21
201.3999938964844
 31
0.0
  0
LINE
  5
FA
100
AcDbEntity
  8
0
  6
CONTINUOUS
 62
               7
100
AcDbLine
 10
-102.00000000000011
 20
202.70001220703128
 30
0.0
 11
-102.00000000000011
 21
173.00000000000003
 31
0.0
  0
LINE
  5
FB
100
AcDbEntity
  8
0
  6
CONTINUOUS
 62
               7
100
AcDbLine
 10
194.99999999999977
 20
205.50000000000003
 30
0.0
 11
116.99999999999989
 21
205.50000000000003
 31
0.0
  0
LINE
  5
FC
100
AcDbEntity
  8
0
  6
CONTINUOUS
 62
               7
100
AcDbLine
 10
194.99999999999977
 20
205.50000000000003
 30
0.0
 11
194.99999999999977
 21
173.00000000000003
 31
0.0
  0
LINE
  5
FD
100
AcDbEntity
  8
0
  6
CONTINUOUS
 62
               7
100
AcDbLine
 10
194.06762695312477
 20
200.32843017578134
 30
0.0
 11
117.74291992187489
 21
200.32843017578134
 31
0.0
  0
LINE
  5
FE
100
AcDbEntity
  8
0
  6
CONTINUOUS
 62
               7
100
AcDbLine
 10
53.999999999999886
 20
195.94641113281259
 30
0.0
 11
-102.00000000000011
 21
195.94641113281259
 31
0.0
  0
LINE
  5
FF
100
AcDbEntity
  8
0
  6
CONTINUOUS
 62
               7
100
AcDbLine
 10
48.700012207031136
 20
35.699981689453182
 30
0.0
 11
48.700012207031136
 21
44.699981689453182
 31
0.0
  0
LINE
  5
100
100
AcDbEntity
  8
0
  6
CONTINUOUS
 62
               7
100
AcDbLine
 10
79.999999999999886
 20
34.399993896484432
 30
0.0
 11
49.999999999999886
 21
34.399993896484432
 31
0.0
  0
LINE
  5
101
100
AcDbEntity
  8
0
  6
CONTINUOUS
 62
               7
100
AcDbLine
 10
81.29998779296875
 20
35.699981689453182
 30
0.0
 11
81.29998779296875
 21
44.699981689453182
 31
0.0
  0
LINE
  5
102
100
AcDbEntity
  8
0
  6
CONTINUOUS
 62
               7
100
AcDbLine
 10
79.999999999999886
 20
45.999969482421932
 30
0.0
 11
49.999999999999886
 21
45.999969482421932
 31
0.0
  0
LINE
  5
103
100
AcDbEntity
  8
0
  6
CONTINUOUS
 62
               7
100
AcDbLine
 10
-49.0
 20
32.899993896484432
 30
0.0
 11
-97.000000000000114
 21
32.899993896484432
 31
0.0
  0
LINE
  5
104
100
AcDbEntity
  8
0
  6
CONTINUOUS
 62
               7
100
AcDbLine
 10
-47.700012207031364
 20
34.199981689453239
 30
0.0
 11
-47.700012207031364
 21
46.199981689453182
 31
0.0
  0
LINE
  5
105
100
AcDbEntity
  8
0
  6
CONTINUOUS
 62
               7
100
AcDbLine
 10
-49.0
 20
47.499969482421932
 30
0.0
 11
-97.000000000000114
 21
47.499969482421932
 31
0.0
  0
LINE
  5
106
100
AcDbEntity
  8
0
  6
CONTINUOUS
 62
               7
100
AcDbLine
 10
-98.299987792968864
 20
34.199981689453239
 30
0.0
 11
-98.299987792968864
 21
46.199981689453182
 31
0.0
  0
LINE
  5
107
100
AcDbEntity
  8
0
  6
CONTINUOUS
 62
               7
100
AcDbLine
 10
79.999999999999886
 20
34.699981689453182
 30
0.0
 11
49.999999999999886
 21
34.699981689453182
 31
0.0
  0
LINE
  5
108
100
AcDbEntity
  8
0
  6
CONTINUOUS
 62
               7
100
AcDbLine
 10
79.999999999999886
 20
45.699981689453182
 30
0.0
 11
49.999999999999886
 21
45.699981689453182
 31
0.0
  0
LINE
  5
109
100
AcDbEntity
  8
0
  6
CONTINUOUS
 62
               7
100
AcDbLine
 10
81.0
 20
35.699981689453182
 30
0.0
 11
81.0
 21
44.699981689453182
 31
0.0
  0
LINE
  5
10A
100
AcDbEntity
  8
0
  6
CONTINUOUS
 62
               7
100
AcDbLine
 10
48.999999999999886
 20
35.699981689453182
 30
0.0
 11
48.999999999999886
 21
44.699981689453182
 31
0.0
  0
LINE
  5
10B
100
AcDbEntity
  8
0
  6
CONTINUOUS
 62
               7
100
AcDbLine
 10
-49.0
 20
47.199981689453182
 30
0.0
 11
-97.000000000000114
 21
47.199981689453182
 31
0.0
  0
LINE
  5
10C
100
AcDbEntity
  8
0
  6
CONTINUOUS
 62
               7
100
AcDbLine
 10
-49.0
 20
33.199981689453182
 30
0.0
 11
-97.000000000000114
 21
33.199981689453182
 31
0.0
  0
LINE
  5
10D
100
AcDbEntity
  8
0
  6
CONTINUOUS
 62
               7
100
AcDbLine
 10
-98.000000000000114
 20
34.199981689453239
 30
0.0
 11
-98.000000000000114
 21
46.199981689453182
 31
0.0
  0
LINE
  5
10E
100
AcDbEntity
  8
0
  6
CONTINUOUS
 62
               7
100
AcDbLine
 10
-48.000000000000114
 20
34.199981689453239
 30
0.0
 11
-48.000000000000114
 21
46.199981689453182
 31
0.0
  0
LINE
  5
10F
100
AcDbEntity
  8
0
  6
CONTINUOUS
 62
               7
100
AcDbLine
 10
24.999999999999886
 20
56.0
 30
0.0
 11
-24.999990533184246
 21
56.0
 31
0.0
  0
LINE
  5
110
100
AcDbEntity
  8
0
  6
CONTINUOUS
 62
               7
100
AcDbLine
 10
24.999999999999886
 20
62.000000000000057
 30
0.0
 11
24.999999999999886
 21
58.000000000000057
 31
0.0
  0
LINE
  5
111
100
AcDbEntity
  8
0
  6
CONTINUOUS
 62
               7
100
AcDbLine
 10
24.999999999999886
 20
58.000000000000057
 30
0.0
 11
18.999999999999886
 21
58.000000000000057
 31
0.0
  0
LINE
  5
112
100
AcDbEntity
  8
0
  6
CONTINUOUS
 62
               7
100
AcDbLine
 10
24.999999999999886
 20
62.000000000000057
 30
0.0
 11
-25.0
 21
62.000000000000057
 31
0.0
  0
LINE
  5
113
100
AcDbEntity
  8
0
  6
CONTINUOUS
 62
               7
100
AcDbLine
 10
13.999999999999886
 20
58.000000000000057
 30
0.0
 11
13.999999999999886
 21
56.0
 31
0.0
  0
LINE
  5
114
100
AcDbEntity
  8
0
  6
CONTINUOUS
 62
               7
100
AcDbLine
 10
18.999999999999886
 20
58.000000000000057
 30
0.0
 11
18.999999999999886
 21
56.0
 31
0.0
  0
LINE
  5
115
100
AcDbEntity
  8
0
  6
CONTINUOUS
 62
               7
100
AcDbLine
 10
29.291809082031136
 20
54.850006103515739
 30
0.0
 11
32.075622558593636
 21
54.850006103515739
 31
0.0
  0
LINE
  5
116
100
AcDbEntity
  8
0
  6
CONTINUOUS
 62
               7
100
AcDbLine
 10
32.075638099721687
 20
54.850002456953973
 30
0.0
 11
32.142463798605263
 21
54.086181221316167
 31
0.0
  0
LINE
  5
117
100
AcDbEntity
  8
0
  6
CONTINUOUS
 62
               7
100
AcDbLine
 10
92.8499755859375
 20
163.00000000000003
 30
0.0
 11
92.8499755859375
 21
53.000000000000057
 31
0.0
  0
LINE
  5
118
100
AcDbEntity
  8
0
  6
CONTINUOUS
 62
               7
100
AcDbLine
 10
97.150024414062386
 20
163.00000000000003
 30
0.0
 11
97.150024414062386
 21
53.000000000000057
 31
0.0
  0
LINE
  5
119
100
AcDbEntity
  8
0
  6
CONTINUOUS
 62
               7
100
AcDbLine
 10
-97.1500244140625
 20
163.00000000000003
 30
0.0
 11
-97.1500244140625
 21
53.000000000000057
 31
0.0
  0
LINE
  5
11A
100
AcDbEntity
  8
0
  6
CONTINUOUS
 62
               7
100
AcDbLine
 10
-92.849975585937671
 20
163.00000000000003
 30
0.0
 11
-92.849975585937671
 21
53.000000000000057
 31
0.0
  0
LINE
  5
11B
100
AcDbEntity
  8
0
  6
CONTINUOUS
 62
               2
100
AcDbLine
 10
67.499999999999886
 20
174.42561074498505
 30
0.0
 11
67.499999999999886
 21
158.40612340583451
 31
0.0
  0
LINE
  5
11C
100
AcDbEntity
  8
0
  6
CONTINUOUS
 62
               2
100
AcDbLine
 10
-52.5
 20
175.4452354904831
 30
0.0
 11
-52.5
 21
158.11876523644526
 31
0.0
  0
LINE
  5
11D
100
AcDbEntity
  8
0
  6
CONTINUOUS
 62
               7
100
AcDbLine
 10
-85.0
 20
163.00000000000003
 30
0.0
 11
-85.0
 21
53.000000000000057
 31
0.0
  0
LINE
  5
11E
100
AcDbEntity
  8
0
  6
CONTINUOUS
 62
               7
100
AcDbLine
 10
84.999999999999886
 20
163.00000000000003
 30
0.0
 11
84.999999999999886
 21
53.000000000000057
 31
0.0
  0
LINE
  5
11F
100
AcDbEntity
  8
0
  6
CONTINUOUS
 62
               7
100
AcDbLine
 10
104.99999999999989
 20
53.000000000000057
 30
0.0
 11
36.196105957031136
 21
53.000000000000057
 31
0.0
  0
LINE
  5
120
100
AcDbEntity
  8
0
  6
CONTINUOUS
 62
               7
100
AcDbLine
 10
81.999999999999886
 20
0.0000000000000568
 30
0.0
 11
93.999999999999886
 21
0.0000000000000568
 31
0.0
  0
LINE
  5
121
100
AcDbEntity
  8
0
  6
CONTINUOUS
 62
               7
100
AcDbLine
 10
81.999999999999886
 20
0.0000000000000568
 30
0.0
 11
81.999999999999886
 21
3.1999816894531818
 31
0.0
  0
LINE
  5
122
100
AcDbEntity
  8
0
  6
CONTINUOUS
 62
               7
100
AcDbLine
 10
93.999999999999886
 20
0.0000000000000568
 30
0.0
 11
93.999999999999886
 21
3.1999816894531818
 31
0.0
  0
LINE
  5
123
100
AcDbEntity
  8
0
  6
CONTINUOUS
 62
               7
100
AcDbLine
 10
24.999990533184246
 20
55.999989511135993
 30
0.0
 11
36.196098885373317
 21
53.000001294651213
 31
0.0
  0
LINE
  5
124
100
AcDbEntity
  8
0
  6
CONTINUOUS
 62
               7
100
AcDbLine
 10
-105.0
 20
53.000000000000057
 30
0.0
 11
-36.196103717077449
 21
53.000000000000057
 31
0.0
  0
LINE
  5
125
100
AcDbEntity
  8
0
  6
CONTINUOUS
 62
               2
100
AcDbLine
 10
0.0
 20
67.851828241579199
 30
0.0
 11
0.0
 21
-2.6515960693358807
 31
0.0
  0
LINE
  5
126
100
AcDbEntity
  8
0
  6
CONTINUOUS
 62
               7
100
AcDbLine
 10
-105.0
 20
169.99999999999991
 30
0.0
 11
-105.0
 21
53.000000000000057
 31
0.0
  0
LINE
  5
127
100
AcDbEntity
  8
0
  6
CONTINUOUS
 62
               7
100
AcDbLine
 10
103.40002441406239
 20
3.1999816894531818
 30
0.0
 11
80.000024437904131
 21
3.1999816894531818
 31
0.0
  0
LINE
  5
128
100
AcDbEntity
  8
0
  6
CONTINUOUS
 62
               7
100
AcDbLine
 10
-82.000000000000114
 20
0.0000000000000568
 30
0.0
 11
-94.0
 21
0.0000000000000568
 31
0.0
  0
LINE
  5
129
100
AcDbEntity
  8
0
  6
CONTINUOUS
 62
               7
100
AcDbLine
 10
-82.000000000000114
 20
0.0000000000000568
 30
0.0
 11
-82.000000000000114
 21
3.1999816894531818
 31
0.0
  0
LINE
  5
12A
100
AcDbEntity
  8
0
  6
CONTINUOUS
 62
               7
100
AcDbLine
 10
-94.0
 20
0.0000000000000568
 30
0.0
 11
-94.0
 21
3.1999816894531818
 31
0.0
  0
LINE
  5
12B
100
AcDbEntity
  8
0
  6
CONTINUOUS
 62
               7
100
AcDbLine
 10
-105.0
 20
4.7999877929688068
 30
0.0
 11
-105.0
 21
51.399993896484489
 31
0.0
  0
LINE
  5
12C
100
AcDbEntity
  8
0
  6
CONTINUOUS
 62
               7
100
AcDbLine
 10
119.43933982822011
 20
193.93933982822023
 30
0.0
 11
121.56066017177989
 21
196.06066017177983
 31
0.0
  0
LINE
  5
12D
100
AcDbEntity
  8
0
  6
CONTINUOUS
 62
               7
100
AcDbLine
 10
119.43933982822011
 20
196.06066017177983
 30
0.0
 11
121.56066017177989
 21
193.93933982822023
 31
0.0
  0
LINE
  5
12E
100
AcDbEntity
  8
0
  6
CONTINUOUS
 62
               7
100
AcDbLine
 10
119.43933982822011
 20
179.93933982822023
 30
0.0
 11
121.56066017177989
 21
182.06066017177983
 31
0.0
  0
LINE
  5
12F
100
AcDbEntity
  8
0
  6
CONTINUOUS
 62
               7
100
AcDbLine
 10
119.43933982822011
 20
182.06066017177983
 30
0.0
 11
121.56066017177989
 21
179.93933982822023
 31
0.0
  0
ENDBLK
  5
130
100
AcDbEntity
  8
0
100
AcDbBlockEnd
  0
BLOCK
  5
131
100
AcDbEntity
  8
0
100
AcDbBlockBegin
  2
DTRB-AS3-2
 70
               0
 10
0.0
 20
0.0
 30
0.0
  3
DTRB-AS3-2
  1

  0
LINE
  5
132
100
AcDbEntity
  8
0
  6
CONTINUOUS
 62
               7
100
AcDbLine
 10
-3.4000152587891534
 20
143.99998168945297
 30
0.0
 11
-3.4000152587891534
 21
148.99998168945299
 31
0.0
  0
LINE
  5
133
100
AcDbEntity
  8
0
  6
CONTINUOUS
 62
               7
100
AcDbLine
 10
-5.1000152587891989
 20
143.99998168945297
 30
0.0
 11
-1.8000152587892444
 21
143.99998168945297
 31
0.0
  0
LINE
  5
134
100
AcDbEntity
  8
0
  6
CONTINUOUS
 62
               7
100
AcDbLine
 10
-5.1000152587891989
 20
148.99998168945299
 30
0.0
 11
-1.8000152587892444
 21
148.99998168945299
 31
0.0
  0
LINE
  5
135
100
AcDbEntity
  8
0
  6
CONTINUOUS
 62
               7
100
AcDbLine
 10
-1.8000152892552705
 20
140.99998168945297
 30
0.0
 11
-5.1000153011760858
 21
141.58186073154195
 31
0.0
  0
LINE
  5
136
100
AcDbEntity
  8
0
  6
CONTINUOUS
 62
               7
100
AcDbLine
 10
-1.8000152587892444
 20
130.49998168945291
 30
0.0
 11
-1.8000152587892444
 21
150.99998168945294
 31
0.0
  0
LINE
  5
137
100
AcDbEntity
  8
0
  6
CONTINUOUS
 62
               7
100
AcDbLine
 10
-5.1000152587891989
 20
141.58186072406801
 30
0.0
 11
-5.1000152587891989
 21
150.99998168945294
 31
0.0
  0
LINE
  5
138
100
AcDbEntity
  8
0
  6
CONTINUOUS
 62
               7
100
AcDbLine
 10
-5.5000150680542674
 20
138.99998168945291
 30
0.0
 11
-1.8000152587892444
 21
138.99998168945291
 31
0.0
  0
LINE
  5
139
100
AcDbEntity
  8
0
  6
CONTINUOUS
 62
               7
100
AcDbLine
 10
-5.5000152314013349
 20
138.9999815980637
 30
0.0
 11
-5.8000152194804286
 21
138.48036648347261
 31
0.0
  0
LINE
  5
13A
100
AcDbEntity
  8
0
  6
CONTINUOUS
 62
               7
100
AcDbLine
 10
-5.8000152587892444
 20
138.48036651611307
 30
0.0
 11
-5.8000152587892444
 21
132.51959781646707
 31
0.0
  0
LINE
  5
13B
100
AcDbEntity
  8
0
  6
CONTINUOUS
 62
               7
100
AcDbLine
 10
-5.5000150680542674
 20
138.99998168945291
 30
0.0
 11
-5.5000150680542674
 21
131.99998168945285
 31
0.0
  0
LINE
  5
13C
100
AcDbEntity
  8
0
  6
CONTINUOUS
 62
               7
100
AcDbLine
 10
-5.5000150257498603
 20
131.99998210647459
 30
0.0
 11
-5.8000151449591613
 21
132.51959774130722
 31
0.0
  0
LINE
  5
13D
100
AcDbEntity
  8
0
  6
CONTINUOUS
 62
               7
100
AcDbLine
 10
-5.5000150680542674
 20
131.99998168945285
 30
0.0
 11
-1.8000152587892444
 21
131.99998168945285
 31
0.0
  0
LINE
  5
13E
100
AcDbEntity
  8
0
  6
CONTINUOUS
 62
               2
100
AcDbLine
 10
-6.8981315421009981
 20
135.49998168945291
 30
0.0
 11
2.398989219129362
 21
135.49998168945291
 31
0.0
  0
LINE
  5
13F
100
AcDbEntity
  8
0
  6
CONTINUOUS
 62
               7
100
AcDbLine
 10
-5.1000152587891989
 20
150.99998168945294
 30
0.0
 11
-0.0000152587891762
 21
150.99998168945294
 31
0.0
  0
LINE
  5
140
100
AcDbEntity
  8
0
  6
CONTINUOUS
 62
               7
100
AcDbLine
 10
-1.8000152587892444
 20
130.49998168945291
 30
0.0
 11
-0.0000152587891762
 21
130.49998168945291
 31
0.0
  0
LINE
  5
141
100
AcDbEntity
  8
0
  6
CONTINUOUS
 62
               7
100
AcDbLine
 10
-49.499984741210994
 20
46.499981689452966
 30
0.0
 11
0.0
 21
46.499981689452966
 31
0.0
  0
CIRCLE
  5
142
100
AcDbEntity
  8
0
  6
CONTINUOUS
 62
               7
100
AcDbCircle
 10
77.799996830441955
 20
358.00244368122685
 30
0.0
 40
11.5
  0
CIRCLE
  5
143
100
AcDbEntity
  8
0
  6
CONTINUOUS
 62
               7
100
AcDbCircle
 10
77.799996830441955
 20
358.00244368122685
 30
0.0
 40
5.5
  0
CIRCLE
  5
144
100
AcDbEntity
  8
0
  6
CONTINUOUS
 62
               7
100
AcDbCircle
 10
77.799996830441955
 20
358.00244368122685
 30
0.0
 40
7.5
  0
ARC
  5
145
100
AcDbEntity
  8
0
  6
CONTINUOUS
 62
               7
100
AcDbCircle
 10
14.89999983999985
 20
178.4999873529687
 30
0.0
 40
1.0
100
AcDbArc
 50
180.0
 51
270.0
  0
LINE
  5
146
100
AcDbEntity
  8
0
  6
CONTINUOUS
 62
               7
100
AcDbLine
 10
18.399999839999964
 20
177.2999790424218
 30
0.0
 11
18.399999839999964
 21
172.99998735296867
 31
0.0
  0
LINE
  5
147
100
AcDbEntity
  8
0
  6
CONTINUOUS
 62
               7
100
AcDbLine
 10
18.899999839999907
 20
172.99998735296867
 30
0.0
 11
18.899999839999907
 21
177.2999790424218
 31
0.0
  0
ARC
  5
148
100
AcDbEntity
  8
0
  6
CONTINUOUS
 62
               7
100
AcDbCircle
 10
18.399999839999964
 20
176.9999873529687
 30
0.0
 40
3.5000000000000004
100
AcDbArc
 50
180.0
 51
270.0
  0
LINE
  5
149
100
AcDbEntity
  8
0
  6
CONTINUOUS
 62
               7
100
AcDbLine
 10
13.899999839999907
 20
191.4999873529687
 30
0.0
 11
13.899999839999907
 21
178.4999873529687
 31
0.0
  0
LINE
  5
14A
100
AcDbEntity
  8
0
  6
CONTINUOUS
 62
               7
100
AcDbLine
 10
17.549999838487395
 20
197.07562580770684
 30
0.0
 11
18.399999844229228
 21
197.14999117198911
 31
0.0
  0
LINE
  5
14B
100
AcDbEntity
  8
0
  6
CONTINUOUS
 62
               7
100
AcDbLine
 10
17.549999838487224
 20
192.92435669119925
 30
0.0
 11
18.399999844229114
 21
192.84999132691695
 31
0.0
  0
LINE
  5
14C
100
AcDbEntity
  8
0
  6
CONTINUOUS
 62
               7
100
AcDbLine
 10
17.549999816158049
 20
192.92435653151179
 30
0.0
 11
17.549999816158049
 21
197.07562596739433
 31
0.0
  0
ARC
  5
14D
100
AcDbEntity
  8
0
  6
CONTINUOUS
 62
               7
100
AcDbCircle
 10
23.529655678012546
 20
194.99999124945285
 30
0.0
 40
6.3296561241149902
100
AcDbArc
 50
160.85729086486964
 51
199.14270731389303
  0
ARC
  5
14E
100
AcDbEntity
  8
0
  6
CONTINUOUS
 62
               7
100
AcDbCircle
 10
18.399999839999964
 20
192.99998735296867
 30
0.0
 40
3.5000000000000004
100
AcDbArc
 50
107.58284247057495
 51
180.0
  0
ARC
  5
14F
100
AcDbEntity
  8
0
  6
CONTINUOUS
 62
               7
100
AcDbCircle
 10
21.899999839999907
 20
196.26942118554652
 30
0.0
 40
3.0
100
AcDbArc
 50
134.96855723541546
 51
180.0
  0
ARC
  5
150
100
AcDbEntity
  8
0
  6
CONTINUOUS
 62
               7
100
AcDbCircle
 10
21.899999839999907
 20
196.26942118554663
 30
0.0
 40
3.5000000000000004
100
AcDbArc
 50
134.9685572354158
 51
179.99999999999997
  0
LINE
  5
151
100
AcDbEntity
  8
0
  6
CONTINUOUS
 62
               7
100
AcDbLine
 10
18.899999839999907
 20
190.70000345648432
 30
0.0
 11
18.899999839999907
 21
196.26942118554652
 31
0.0
  0
LINE
  5
152
100
AcDbEntity
  8
0
  6
CONTINUOUS
 62
               7
100
AcDbLine
 10
21.004187720728567
 20
200.32162511577292
 30
0.0
 11
19.426484639077785
 21
198.74565270759931
 31
0.0
  0
LINE
  5
153
100
AcDbEntity
  8
0
  6
CONTINUOUS
 62
               7
100
AcDbLine
 10
21.004187720728567
 20
199.61490606126804
 30
0.0
 11
19.779843953495288
 21
198.39190534730599
 31
0.0
  0
ARC
  5
154
100
AcDbEntity
  8
0
  6
CONTINUOUS
 62
               7
100
AcDbCircle
 10
14.89999983999985
 20
191.4999873529687
 30
0.0
 40
1.0
100
AcDbArc
 50
90.0
 51
180.0
  0
LINE
  5
155
100
AcDbEntity
  8
0
  6
CONTINUOUS
 62
               7
100
AcDbLine
 10
14.89999983999985
 20
176.9999873529687
 30
0.0
 11
14.89999983999985
 21
192.99998735296867
 31
0.0
  0
LINE
  5
156
100
AcDbEntity
  8
0
  6
CONTINUOUS
 62
               7
100
AcDbLine
 10
18.399999839999964
 20
197.14999117198911
 30
0.0
 11
18.399999839999964
 21
190.70000345648432
 31
0.0
  0
LINE
  5
157
100
AcDbEntity
  8
0
  6
CONTINUOUS
 62
               7
100
AcDbLine
 10
19.999999839999873
 20
169.99998124945304
 30
0.0
 11
59.999999839999873
 21
169.99998124945304
 31
0.0
  0
LINE
  5
158
100
AcDbEntity
  8
0
  6
CONTINUOUS
 62
               2
100
AcDbLine
 10
107.93590966165794
 20
251.00250467438335
 30
0.0
 11
83.088685424853793
 21
251.00250467438335
 31
0.0
  0
CIRCLE
  5
159
100
AcDbEntity
  8
0
  6
CONTINUOUS
 62
               7
100
AcDbCircle
 10
6.0
 20
11.799987792968579
 30
0.0
 40
3.1500000953674316
  0
CIRCLE
  5
15A
100
AcDbEntity
  8
0
  6
CONTINUOUS
 62
               7
100
AcDbCircle
 10
6.0
 20
11.799987792968579
 30
0.0
 40
3.0350000858306885
  0
CIRCLE
  5
15B
100
AcDbEntity
  8
0
  6
CONTINUOUS
 62
               7
100
AcDbCircle
 10
60.0
 20
19.799987792968579
 30
0.0
 40
1.1499999999999999
  0
CIRCLE
  5
15C
100
AcDbEntity
  8
0
  6
CONTINUOUS
 62
               7
100
AcDbCircle
 10
60.0
 20
19.799987792968579
 30
0.0
 40
1.5000000000000002
  0
CIRCLE
  5
15D
100
AcDbEntity
  8
0
  6
CONTINUOUS
 62
               7
100
AcDbCircle
 10
60.0
 20
19.799987792968579
 30
0.0
 40
3.0000000000000004
  0
CIRCLE
  5
15E
100
AcDbEntity
  8
0
  6
CONTINUOUS
 62
               7
100
AcDbCircle
 10
20.0
 20
19.799987792968579
 30
0.0
 40
3.0000000000000004
  0
CIRCLE
  5
15F
100
AcDbEntity
  8
0
  6
CONTINUOUS
 62
               7
100
AcDbCircle
 10
20.0
 20
19.799987792968579
 30
0.0
 40
1.5000000000000002
  0
CIRCLE
  5
160
100
AcDbEntity
  8
0
  6
CONTINUOUS
 62
               7
100
AcDbCircle
 10
20.0
 20
19.799987792968579
 30
0.0
 40
1.1499999999999999
  0
CIRCLE
  5
161
100
AcDbEntity
  8
0
  6
CONTINUOUS
 62
               7
100
AcDbCircle
 10
148.50000000000045
 20
11.799987792968579
 30
0.0
 40
3.0350000858306885
  0
CIRCLE
  5
162
100
AcDbEntity
  8
0
  6
CONTINUOUS
 62
               7
100
AcDbCircle
 10
148.50000000000045
 20
11.799987792968579
 30
0.0
 40
3.1500000953674316
  0
ARC
  5
163
100
AcDbEntity
  8
0
  6
CONTINUOUS
 62
               7
100
AcDbCircle
 10
148.54998779296875
 20
29.799987792968579
 30
0.0
 40
1.0499999523162844
100
AcDbArc
 50
90.000002504478161
 51
270.00000068324533
  0
ARC
  5
164
100
AcDbEntity
  8
0
  6
CONTINUOUS
 62
               7
100
AcDbCircle
 10
148.54998779296875
 20
39.799987792968579
 30
0.0
 40
1.0499999523162844
100
AcDbArc
 50
90.000002504478161
 51
270.00000068324533
  0
LINE
  5
165
100
AcDbEntity
  8
0
  6
CONTINUOUS
 62
               7
100
AcDbLine
 10
156.04998779296875
 20
43.749984741210824
 30
0.0
 11
163.95001220703131
 21
43.749984741210824
 31
0.0
  0
LINE
  5
166
100
AcDbEntity
  8
0
  6
CONTINUOUS
 62
               7
100
AcDbLine
 10
156.04998779296875
 20
45.849990844726449
 30
0.0
 11
163.95001220703131
 21
45.849990844726449
 31
0.0
  0
LINE
  5
167
100
AcDbEntity
  8
0
  6
CONTINUOUS
 62
               7
100
AcDbLine
 10
156.04998779296875
 20
33.749984741210824
 30
0.0
 11
163.95001220703131
 21
33.749984741210824
 31
0.0
  0
LINE
  5
168
100
AcDbEntity
  8
0
  6
CONTINUOUS
 62
               7
100
AcDbLine
 10
156.04998779296875
 20
35.849990844726449
 30
0.0
 11
163.95001220703131
 21
35.849990844726449
 31
0.0
  0
LINE
  5
169
100
AcDbEntity
  8
0
  6
CONTINUOUS
 62
               7
100
AcDbLine
 10
156.04998779296875
 20
23.749984741210824
 30
0.0
 11
163.95001220703131
 21
23.749984741210824
 31
0.0
  0
LINE
  5
16A
100
AcDbEntity
  8
0
  6
CONTINUOUS
 62
               7
100
AcDbLine
 10
156.04998779296875
 20
25.849990844726449
 30
0.0
 11
163.95001220703131
 21
25.849990844726449
 31
0.0
  0
ARC
  5
16B
100
AcDbEntity
  8
0
  6
CONTINUOUS
 62
               7
100
AcDbCircle
 10
156.04998779296875
 20
24.799987792968579
 30
0.0
 40
1.0499999523162844
100
AcDbArc
 50
90.000002504478161
 51
270.00000068324533
  0
ARC
  5
16C
100
AcDbEntity
  8
0
  6
CONTINUOUS
 62
               7
100
AcDbCircle
 10
156.45001220703136
 20
29.799987792968579
 30
0.0
 40
1.0499999523162844
100
AcDbArc
 50
269.99999749552182
 51
90.000002504478161
  0
ARC
  5
16D
100
AcDbEntity
  8
0
  6
CONTINUOUS
 62
               7
100
AcDbCircle
 10
156.04998779296875
 20
34.799987792968579
 30
0.0
 40
1.0499999523162844
100
AcDbArc
 50
90.000002504478161
 51
270.00000068324533
  0
ARC
  5
16E
100
AcDbEntity
  8
0
  6
CONTINUOUS
 62
               7
100
AcDbCircle
 10
156.45001220703136
 20
39.799987792968579
 30
0.0
 40
1.0499999523162844
100
AcDbArc
 50
269.99999749552182
 51
90.000002504478161
  0
ARC
  5
16F
100
AcDbEntity
  8
0
  6
CONTINUOUS
 62
               7
100
AcDbCircle
 10
156.04998779296875
 20
44.799987792968579
 30
0.0
 40
1.0499999523162844
100
AcDbArc
 50
90.000002504478161
 51
270.00000068324533
  0
ARC
  5
170
100
AcDbEntity
  8
0
  6
CONTINUOUS
 62
               7
100
AcDbCircle
 10
163.95001220703131
 20
44.799987792968579
 30
0.0
 40
1.0499999523162844
100
AcDbArc
 50
269.99999749552182
 51
90.000002504478161
  0
ARC
  5
171
100
AcDbEntity
  8
0
  6
CONTINUOUS
 62
               7
100
AcDbCircle
 10
163.95001220703131
 20
34.799987792968579
 30
0.0
 40
1.0499999523162844
100
AcDbArc
 50
269.99999749552182
 51
90.000002504478161
  0
ARC
  5
172
100
AcDbEntity
  8
0
  6
CONTINUOUS
 62
               7
100
AcDbCircle
 10
163.95001220703131
 20
24.799987792968579
 30
0.0
 40
1.0499999523162844
100
AcDbArc
 50
269.99999749552182
 51
90.000002504478161
  0
LINE
  5
173
100
AcDbEntity
  8
0
  6
CONTINUOUS
 62
               7
100
AcDbLine
 10
171.04998779296875
 20
43.749984741210824
 30
0.0
 11
178.95001220703131
 21
43.749984741210824
 31
0.0
  0
LINE
  5
174
100
AcDbEntity
  8
0
  6
CONTINUOUS
 62
               7
100
AcDbLine
 10
171.04998779296875
 20
45.849990844726449
 30
0.0
 11
178.95001220703131
 21
45.849990844726449
 31
0.0
  0
LINE
  5
175
100
AcDbEntity
  8
0
  6
CONTINUOUS
 62
               7
100
AcDbLine
 10
163.54998779296875
 20
38.749984741210824
 30
0.0
 11
171.45001220703131
 21
38.749984741210824
 31
0.0
  0
LINE
  5
176
100
AcDbEntity
  8
0
  6
CONTINUOUS
 62
               7
100
AcDbLine
 10
163.54998779296875
 20
40.849990844726449
 30
0.0
 11
171.45001220703131
 21
40.849990844726449
 31
0.0
  0
LINE
  5
177
100
AcDbEntity
  8
0
  6
CONTINUOUS
 62
               7
100
AcDbLine
 10
171.04998779296875
 20
33.749984741210824
 30
0.0
 11
178.95001220703131
 21
33.749984741210824
 31
0.0
  0
LINE
  5
178
100
AcDbEntity
  8
0
  6
CONTINUOUS
 62
               7
100
AcDbLine
 10
171.04998779296875
 20
35.849990844726449
 30
0.0
 11
178.95001220703131
 21
35.849990844726449
 31
0.0
  0
LINE
  5
179
100
AcDbEntity
  8
0
  6
CONTINUOUS
 62
               7
100
AcDbLine
 10
163.54998779296875
 20
30.849990844726449
 30
0.0
 11
171.45001220703131
 21
30.849990844726449
 31
0.0
  0
LINE
  5
17A
100
AcDbEntity
  8
0
  6
CONTINUOUS
 62
               7
100
AcDbLine
 10
163.54998779296875
 20
28.749984741210824
 30
0.0
 11
171.45001220703131
 21
28.749984741210824
 31
0.0
  0
LINE
  5
17B
100
AcDbEntity
  8
0
  6
CONTINUOUS
 62
               7
100
AcDbLine
 10
171.04998779296875
 20
23.749984741210824
 30
0.0
 11
178.95001220703131
 21
23.749984741210824
 31
0.0
  0
LINE
  5
17C
100
AcDbEntity
  8
0
  6
CONTINUOUS
 62
               7
100
AcDbLine
 10
171.04998779296875
 20
25.849990844726449
 30
0.0
 11
178.95001220703131
 21
25.849990844726449
 31
0.0
  0
ARC
  5
17D
100
AcDbEntity
  8
0
  6
CONTINUOUS
 62
               7
100
AcDbCircle
 10
171.04998779296875
 20
24.799987792968579
 30
0.0
 40
1.0499999523162844
100
AcDbArc
 50
90.000002504478161
 51
270.00000068324533
  0
ARC
  5
17E
100
AcDbEntity
  8
0
  6
CONTINUOUS
 62
               7
100
AcDbCircle
 10
171.45001220703131
 20
29.799987792968579
 30
0.0
 40
1.0499999523162844
100
AcDbArc
 50
269.99999749552182
 51
90.000002504478161
  0
ARC
  5
17F
100
AcDbEntity
  8
0
  6
CONTINUOUS
 62
               7
100
AcDbCircle
 10
171.04998779296875
 20
34.799987792968579
 30
0.0
 40
1.0499999523162844
100
AcDbArc
 50
90.000002504478161
 51
270.00000068324533
  0
ARC
  5
180
100
AcDbEntity
  8
0
  6
CONTINUOUS
 62
               7
100
AcDbCircle
 10
171.45001220703131
 20
39.799987792968579
 30
0.0
 40
1.0499999523162844
100
AcDbArc
 50
269.99999749552182
 51
90.000002504478161
  0
ARC
  5
181
100
AcDbEntity
  8
0
  6
CONTINUOUS
 62
               7
100
AcDbCircle
 10
171.04998779296875
 20
44.799987792968579
 30
0.0
 40
1.0499999523162844
100
AcDbArc
 50
90.000002504478161
 51
270.00000068324533
  0
ARC
  5
182
100
AcDbEntity
  8
0
  6
CONTINUOUS
 62
               7
100
AcDbCircle
 10
178.95001220703131
 20
44.799987792968579
 30
0.0
 40
1.0499999523162844
100
AcDbArc
 50
269.99999749552182
 51
90.000002504478161
  0
ARC
  5
183
100
AcDbEntity
  8
0
  6
CONTINUOUS
 62
               7
100
AcDbCircle
 10
163.54998779296875
 20
39.799987792968579
 30
0.0
 40
1.0499999523162844
100
AcDbArc
 50
90.000002504478161
 51
270.00000068324533
  0
ARC
  5
184
100
AcDbEntity
  8
0
  6
CONTINUOUS
 62
               7
100
AcDbCircle
 10
163.54998779296875
 20
29.799987792968579
 30
0.0
 40
1.0499999523162844
100
AcDbArc
 50
90.000002504478161
 51
270.00000068324533
  0
ARC
  5
185
100
AcDbEntity
  8
0
  6
CONTINUOUS
 62
               7
100
AcDbCircle
 10
178.95001220703131
 20
34.799987792968579
 30
0.0
 40
1.0499999523162844
100
AcDbArc
 50
269.99999749552182
 51
90.000002504478161
  0
ARC
  5
186
100
AcDbEntity
  8
0
  6
CONTINUOUS
 62
               7
100
AcDbCircle
 10
178.95001220703131
 20
24.799987792968579
 30
0.0
 40
1.0499999523162844
100
AcDbArc
 50
269.99999749552182
 51
90.000002504478161
  0
LINE
  5
187
100
AcDbEntity
  8
0
  6
CONTINUOUS
 62
               7
100
AcDbLine
 10
186.04998779296881
 20
43.749984741210824
 30
0.0
 11
193.95001220703125
 21
43.749984741210824
 31
0.0
  0
LINE
  5
188
100
AcDbEntity
  8
0
  6
CONTINUOUS
 62
               7
100
AcDbLine
 10
186.04998779296881
 20
45.849990844726449
 30
0.0
 11
193.95001220703125
 21
45.849990844726449
 31
0.0
  0
LINE
  5
189
100
AcDbEntity
  8
0
  6
CONTINUOUS
 62
               7
100
AcDbLine
 10
178.54998779296875
 20
38.749984741210824
 30
0.0
 11
186.45001220703125
 21
38.749984741210824
 31
0.0
  0
LINE
  5
18A
100
AcDbEntity
  8
0
  6
CONTINUOUS
 62
               7
100
AcDbLine
 10
178.54998779296875
 20
40.849990844726449
 30
0.0
 11
186.45001220703125
 21
40.849990844726449
 31
0.0
  0
LINE
  5
18B
100
AcDbEntity
  8
0
  6
CONTINUOUS
 62
               7
100
AcDbLine
 10
186.04998779296881
 20
33.749984741210824
 30
0.0
 11
193.95001220703125
 21
33.749984741210824
 31
0.0
  0
LINE
  5
18C
100
AcDbEntity
  8
0
  6
CONTINUOUS
 62
               7
100
AcDbLine
 10
186.04998779296881
 20
35.849990844726449
 30
0.0
 11
193.95001220703125
 21
35.849990844726449
 31
0.0
  0
LINE
  5
18D
100
AcDbEntity
  8
0
  6
CONTINUOUS
 62
               7
100
AcDbLine
 10
178.54998779296875
 20
30.849990844726449
 30
0.0
 11
186.45001220703125
 21
30.849990844726449
 31
0.0
  0
LINE
  5
18E
100
AcDbEntity
  8
0
  6
CONTINUOUS
 62
               7
100
AcDbLine
 10
178.54998779296875
 20
28.749984741210824
 30
0.0
 11
186.45001220703125
 21
28.749984741210824
 31
0.0
  0
LINE
  5
18F
100
AcDbEntity
  8
0
  6
CONTINUOUS
 62
               7
100
AcDbLine
 10
186.04998779296881
 20
23.749984741210824
 30
0.0
 11
193.95001220703125
 21
23.749984741210824
 31
0.0
  0
LINE
  5
190
100
AcDbEntity
  8
0
  6
CONTINUOUS
 62
               7
100
AcDbLine
 10
186.04998779296881
 20
25.849990844726449
 30
0.0
 11
193.95001220703125
 21
25.849990844726449
 31
0.0
  0
ARC
  5
191
100
AcDbEntity
  8
0
  6
CONTINUOUS
 62
               7
100
AcDbCircle
 10
186.04998779296881
 20
24.799987792968579
 30
0.0
 40
1.0499999523162844
100
AcDbArc
 50
90.000002504478161
 51
270.00000068324533
  0
ARC
  5
192
100
AcDbEntity
  8
0
  6
CONTINUOUS
 62
               7
100
AcDbCircle
 10
186.45001220703125
 20
29.799987792968579
 30
0.0
 40
1.0499999523162844
100
AcDbArc
 50
269.99999749552182
 51
90.000002504478161
  0
ARC
  5
193
100
AcDbEntity
  8
0
  6
CONTINUOUS
 62
               7
100
AcDbCircle
 10
186.04998779296881
 20
34.799987792968579
 30
0.0
 40
1.0499999523162844
100
AcDbArc
 50
90.000002504478161
 51
270.00000068324533
  0
ARC
  5
194
100
AcDbEntity
  8
0
  6
CONTINUOUS
 62
               7
100
AcDbCircle
 10
186.45001220703125
 20
39.799987792968579
 30
0.0
 40
1.0499999523162844
100
AcDbArc
 50
269.99999749552182
 51
90.000002504478161
  0
ARC
  5
195
100
AcDbEntity
  8
0
  6
CONTINUOUS
 62
               7
100
AcDbCircle
 10
186.04998779296881
 20
44.799987792968579
 30
0.0
 40
1.0499999523162844
100
AcDbArc
 50
90.000002504478161
 51
270.00000068324533
  0
ARC
  5
196
100
AcDbEntity
  8
0
  6
CONTINUOUS
 62
               7
100
AcDbCircle
 10
193.95001220703125
 20
44.799987792968579
 30
0.0
 40
1.0499999523162844
100
AcDbArc
 50
269.99999749552182
 51
90.000002504478161
  0
ARC
  5
197
100
AcDbEntity
  8
0
  6
CONTINUOUS
 62
               7
100
AcDbCircle
 10
178.54998779296875
 20
39.799987792968579
 30
0.0
 40
1.0499999523162844
100
AcDbArc
 50
90.000002504478161
 51
270.00000068324533
  0
ARC
  5
198
100
AcDbEntity
  8
0
  6
CONTINUOUS
 62
               7
100
AcDbCircle
 10
178.54998779296875
 20
29.799987792968579
 30
0.0
 40
1.0499999523162844
100
AcDbArc
 50
90.000002504478161
 51
270.00000068324533
  0
ARC
  5
199
100
AcDbEntity
  8
0
  6
CONTINUOUS
 62
               7
100
AcDbCircle
 10
193.95001220703125
 20
34.799987792968579
 30
0.0
 40
1.0499999523162844
100
AcDbArc
 50
269.99999749552182
 51
90.000002504478161
  0
ARC
  5
19A
100
AcDbEntity
  8
0
  6
CONTINUOUS
 62
               7
100
AcDbCircle
 10
193.95001220703125
 20
24.799987792968579
 30
0.0
 40
1.0499999523162844
100
AcDbArc
 50
269.99999749552182
 51
90.000002504478161
  0
LINE
  5
19B
100
AcDbEntity
  8
0
  6
CONTINUOUS
 62
               7
100
AcDbLine
 10
148.54998779296875
 20
28.749984741210824
 30
0.0
 11
156.45001220703136
 21
28.749984741210824
 31
0.0
  0
LINE
  5
19C
100
AcDbEntity
  8
0
  6
CONTINUOUS
 62
               7
100
AcDbLine
 10
148.54998779296875
 20
30.849990844726449
 30
0.0
 11
156.45001220703136
 21
30.849990844726449
 31
0.0
  0
LINE
  5
19D
100
AcDbEntity
  8
0
  6
CONTINUOUS
 62
               7
100
AcDbLine
 10
148.54998779296875
 20
40.849990844726449
 30
0.0
 11
156.45001220703136
 21
40.849990844726449
 31
0.0
  0
LINE
  5
19E
100
AcDbEntity
  8
0
  6
CONTINUOUS
 62
               7
100
AcDbLine
 10
148.54998779296875
 20
38.749984741210824
 30
0.0
 11
156.45001220703136
 21
38.749984741210824
 31
0.0
  0
LINE
  5
19F
100
AcDbEntity
  8
0
  6
CONTINUOUS
 62
               7
100
AcDbLine
 10
96.04998779296875
 20
25.849990844726449
 30
0.0
 11
103.95001220703131
 21
25.849990844726449
 31
0.0
  0
LINE
  5
1A0
100
AcDbEntity
  8
0
  6
CONTINUOUS
 62
               7
100
AcDbLine
 10
96.04998779296875
 20
23.749984741210824
 30
0.0
 11
103.95001220703131
 21
23.749984741210824
 31
0.0
  0
LINE
  5
1A1
100
AcDbEntity
  8
0
  6
CONTINUOUS
 62
               7
100
AcDbLine
 10
111.04998779296875
 20
25.849990844726449
 30
0.0
 11
118.95001220703131
 21
25.849990844726449
 31
0.0
  0
LINE
  5
1A2
100
AcDbEntity
  8
0
  6
CONTINUOUS
 62
               7
100
AcDbLine
 10
111.04998779296875
 20
23.749984741210824
 30
0.0
 11
118.95001220703131
 21
23.749984741210824
 31
0.0
  0
LINE
  5
1A3
100
AcDbEntity
  8
0
  6
CONTINUOUS
 62
               7
100
AcDbLine
 10
126.04998779296875
 20
23.749984741210824
 30
0.0
 11
133.95001220703136
 21
23.749984741210824
 31
0.0
  0
LINE
  5
1A4
100
AcDbEntity
  8
0
  6
CONTINUOUS
 62
               7
100
AcDbLine
 10
126.04998779296875
 20
25.849990844726449
 30
0.0
 11
133.95001220703136
 21
25.849990844726449
 31
0.0
  0
LINE
  5
1A5
100
AcDbEntity
  8
0
  6
CONTINUOUS
 62
               7
100
AcDbLine
 10
141.04998779296875
 20
23.749984741210824
 30
0.0
 11
148.94999694824219
 21
23.749984741210824
 31
0.0
  0
LINE
  5
1A6
100
AcDbEntity
  8
0
  6
CONTINUOUS
 62
               7
100
AcDbLine
 10
141.04998779296875
 20
25.849990844726449
 30
0.0
 11
148.94999694824219
 21
25.849990844726449
 31
0.0
  0
LINE
  5
1A7
100
AcDbEntity
  8
0
  6
CONTINUOUS
 62
               7
100
AcDbLine
 10
133.54998779296875
 20
30.617828369140511
 30
0.0
 11
141.45001220703136
 21
30.617828369140511
 31
0.0
  0
LINE
  5
1A8
100
AcDbEntity
  8
0
  6
CONTINUOUS
 62
               7
100
AcDbLine
 10
133.54998779296875
 20
28.517837524413949
 30
0.0
 11
141.45001220703136
 21
28.517837524413949
 31
0.0
  0
LINE
  5
1A9
100
AcDbEntity
  8
0
  6
CONTINUOUS
 62
               7
100
AcDbLine
 10
118.54998779296875
 20
28.749984741210824
 30
0.0
 11
126.45001220703131
 21
28.749984741210824
 31
0.0
  0
LINE
  5
1AA
100
AcDbEntity
  8
0
  6
CONTINUOUS
 62
               7
100
AcDbLine
 10
118.54998779296875
 20
30.849990844726449
 30
0.0
 11
126.45001220703131
 21
30.849990844726449
 31
0.0
  0
LINE
  5
1AB
100
AcDbEntity
  8
0
  6
CONTINUOUS
 62
               7
100
AcDbLine
 10
103.54998779296875
 20
28.749984741210824
 30
0.0
 11
111.45001220703131
 21
28.749984741210824
 31
0.0
  0
LINE
  5
1AC
100
AcDbEntity
  8
0
  6
CONTINUOUS
 62
               7
100
AcDbLine
 10
103.54998779296875
 20
30.849990844726449
 30
0.0
 11
111.45001220703131
 21
30.849990844726449
 31
0.0
  0
LINE
  5
1AD
100
AcDbEntity
  8
0
  6
CONTINUOUS
 62
               7
100
AcDbLine
 10
96.04998779296875
 20
35.849990844726449
 30
0.0
 11
103.95001220703131
 21
35.849990844726449
 31
0.0
  0
LINE
  5
1AE
100
AcDbEntity
  8
0
  6
CONTINUOUS
 62
               7
100
AcDbLine
 10
96.04998779296875
 20
33.749984741210824
 30
0.0
 11
103.95001220703131
 21
33.749984741210824
 31
0.0
  0
LINE
  5
1AF
100
AcDbEntity
  8
0
  6
CONTINUOUS
 62
               7
100
AcDbLine
 10
111.04998779296875
 20
35.849990844726449
 30
0.0
 11
118.95001220703131
 21
35.849990844726449
 31
0.0
  0
LINE
  5
1B0
100
AcDbEntity
  8
0
  6
CONTINUOUS
 62
               7
100
AcDbLine
 10
111.04998779296875
 20
33.749984741210824
 30
0.0
 11
118.95001220703131
 21
33.749984741210824
 31
0.0
  0
LINE
  5
1B1
100
AcDbEntity
  8
0
  6
CONTINUOUS
 62
               7
100
AcDbLine
 10
126.04998779296875
 20
33.749984741210824
 30
0.0
 11
133.95001220703136
 21
33.749984741210824
 31
0.0
  0
LINE
  5
1B2
100
AcDbEntity
  8
0
  6
CONTINUOUS
 62
               7
100
AcDbLine
 10
126.04998779296875
 20
35.849990844726449
 30
0.0
 11
133.95001220703136
 21
35.849990844726449
 31
0.0
  0
LINE
  5
1B3
100
AcDbEntity
  8
0
  6
CONTINUOUS
 62
               7
100
AcDbLine
 10
140.9508056640625
 20
35.849990844726449
 30
0.0
 11
148.85079956054699
 21
35.849990844726449
 31
0.0
  0
LINE
  5
1B4
100
AcDbEntity
  8
0
  6
CONTINUOUS
 62
               7
100
AcDbLine
 10
140.9508056640625
 20
33.749984741210824
 30
0.0
 11
148.85079956054699
 21
33.749984741210824
 31
0.0
  0
LINE
  5
1B5
100
AcDbEntity
  8
0
  6
CONTINUOUS
 62
               7
100
AcDbLine
 10
133.54998779296875
 20
38.749984741210824
 30
0.0
 11
141.45001220703136
 21
38.749984741210824
 31
0.0
  0
LINE
  5
1B6
100
AcDbEntity
  8
0
  6
CONTINUOUS
 62
               7
100
AcDbLine
 10
133.54998779296875
 20
40.849990844726449
 30
0.0
 11
141.45001220703136
 21
40.849990844726449
 31
0.0
  0
LINE
  5
1B7
100
AcDbEntity
  8
0
  6
CONTINUOUS
 62
               7
100
AcDbLine
 10
118.54998779296875
 20
40.849990844726449
 30
0.0
 11
126.45001220703131
 21
40.849990844726449
 31
0.0
  0
LINE
  5
1B8
100
AcDbEntity
  8
0
  6
CONTINUOUS
 62
               7
100
AcDbLine
 10
118.54998779296875
 20
38.749984741210824
 30
0.0
 11
126.45001220703131
 21
38.749984741210824
 31
0.0
  0
LINE
  5
1B9
100
AcDbEntity
  8
0
  6
CONTINUOUS
 62
               7
100
AcDbLine
 10
103.54998779296875
 20
40.849990844726449
 30
0.0
 11
111.45001220703131
 21
40.849990844726449
 31
0.0
  0
LINE
  5
1BA
100
AcDbEntity
  8
0
  6
CONTINUOUS
 62
               7
100
AcDbLine
 10
103.54998779296875
 20
38.749984741210824
 30
0.0
 11
111.45001220703131
 21
38.749984741210824
 31
0.0
  0
LINE
  5
1BB
100
AcDbEntity
  8
0
  6
CONTINUOUS
 62
               7
100
AcDbLine
 10
96.04998779296875
 20
43.749984741210824
 30
0.0
 11
103.95001220703131
 21
43.749984741210824
 31
0.0
  0
LINE
  5
1BC
100
AcDbEntity
  8
0
  6
CONTINUOUS
 62
               7
100
AcDbLine
 10
96.04998779296875
 20
45.849990844726449
 30
0.0
 11
103.95001220703131
 21
45.849990844726449
 31
0.0
  0
LINE
  5
1BD
100
AcDbEntity
  8
0
  6
CONTINUOUS
 62
               7
100
AcDbLine
 10
111.04998779296875
 20
45.849990844726449
 30
0.0
 11
118.95001220703131
 21
45.849990844726449
 31
0.0
  0
LINE
  5
1BE
100
AcDbEntity
  8
0
  6
CONTINUOUS
 62
               7
100
AcDbLine
 10
111.04998779296875
 20
43.749984741210824
 30
0.0
 11
118.95001220703131
 21
43.749984741210824
 31
0.0
  0
LINE
  5
1BF
100
AcDbEntity
  8
0
  6
CONTINUOUS
 62
               7
100
AcDbLine
 10
126.04998779296875
 20
43.749984741210824
 30
0.0
 11
133.95001220703136
 21
43.749984741210824
 31
0.0
  0
LINE
  5
1C0
100
AcDbEntity
  8
0
  6
CONTINUOUS
 62
               7
100
AcDbLine
 10
126.04998779296875
 20
45.849990844726449
 30
0.0
 11
133.95001220703136
 21
45.849990844726449
 31
0.0
  0
LINE
  5
1C1
100
AcDbEntity
  8
0
  6
CONTINUOUS
 62
               7
100
AcDbLine
 10
141.04998779296875
 20
45.849990844726449
 30
0.0
 11
148.94999694824219
 21
45.849990844726449
 31
0.0
  0
LINE
  5
1C2
100
AcDbEntity
  8
0
  6
CONTINUOUS
 62
               7
100
AcDbLine
 10
141.04998779296875
 20
43.749984741210824
 30
0.0
 11
148.94999694824219
 21
43.749984741210824
 31
0.0
  0
ARC
  5
1C3
100
AcDbEntity
  8
0
  6
CONTINUOUS
 62
               7
100
AcDbCircle
 10
96.04998779296875
 20
24.799987792968579
 30
0.0
 40
1.0499999523162844
100
AcDbArc
 50
90.000002504478161
 51
270.00000068324533
  0
ARC
  5
1C4
100
AcDbEntity
  8
0
  6
CONTINUOUS
 62
               7
100
AcDbCircle
 10
103.95001220703131
 20
24.799987792968579
 30
0.0
 40
1.0499999523162844
100
AcDbArc
 50
269.99999749552182
 51
90.000002504478161
  0
ARC
  5
1C5
100
AcDbEntity
  8
0
  6
CONTINUOUS
 62
               7
100
AcDbCircle
 10
111.04998779296875
 20
24.799987792968579
 30
0.0
 40
1.0499999523162844
100
AcDbArc
 50
90.000002504478161
 51
270.00000068324533
  0
ARC
  5
1C6
100
AcDbEntity
  8
0
  6
CONTINUOUS
 62
               7
100
AcDbCircle
 10
118.95001220703131
 20
24.799987792968579
 30
0.0
 40
1.0499999523162844
100
AcDbArc
 50
269.99999749552182
 51
90.000002504478161
  0
ARC
  5
1C7
100
AcDbEntity
  8
0
  6
CONTINUOUS
 62
               7
100
AcDbCircle
 10
126.04998779296875
 20
24.799987792968579
 30
0.0
 40
1.0499999523162844
100
AcDbArc
 50
90.000002504478161
 51
270.00000068324533
  0
ARC
  5
1C8
100
AcDbEntity
  8
0
  6
CONTINUOUS
 62
               7
100
AcDbCircle
 10
133.95001220703136
 20
24.799987792968579
 30
0.0
 40
1.0499999523162844
100
AcDbArc
 50
269.99999749552182
 51
90.000002504478161
  0
ARC
  5
1C9
100
AcDbEntity
  8
0
  6
CONTINUOUS
 62
               7
100
AcDbCircle
 10
141.04998779296875
 20
24.799987792968579
 30
0.0
 40
1.0499999523162844
100
AcDbArc
 50
90.000002504478161
 51
270.00000068324533
  0
ARC
  5
1CA
100
AcDbEntity
  8
0
  6
CONTINUOUS
 62
               7
100
AcDbCircle
 10
148.94999694824219
 20
24.799987792968579
 30
0.0
 40
1.0499999523162844
100
AcDbArc
 50
269.99999749552182
 51
90.000002504478161
  0
ARC
  5
1CB
100
AcDbEntity
  8
0
  6
CONTINUOUS
 62
               7
100
AcDbCircle
 10
141.45001220703136
 20
29.567840576171761
 30
0.0
 40
1.0499999523162844
100
AcDbArc
 50
269.99999749552182
 51
90.000002504478161
  0
ARC
  5
1CC
100
AcDbEntity
  8
0
  6
CONTINUOUS
 62
               7
100
AcDbCircle
 10
133.54998779296875
 20
29.567840576171761
 30
0.0
 40
1.0499999523162844
100
AcDbArc
 50
90.000002504478161
 51
270.00000068324533
  0
ARC
  5
1CD
100
AcDbEntity
  8
0
  6
CONTINUOUS
 62
               7
100
AcDbCircle
 10
126.45001220703131
 20
29.799987792968579
 30
0.0
 40
1.0499999523162844
100
AcDbArc
 50
269.99999749552182
 51
90.000002504478161
  0
ARC
  5
1CE
100
AcDbEntity
  8
0
  6
CONTINUOUS
 62
               7
100
AcDbCircle
 10
118.54998779296875
 20
29.799987792968579
 30
0.0
 40
1.0499999523162844
100
AcDbArc
 50
90.000002504478161
 51
270.00000068324533
  0
ARC
  5
1CF
100
AcDbEntity
  8
0
  6
CONTINUOUS
 62
               7
100
AcDbCircle
 10
103.54998779296875
 20
29.799987792968579
 30
0.0
 40
1.0499999523162844
100
AcDbArc
 50
90.000002504478161
 51
270.00000068324533
  0
ARC
  5
1D0
100
AcDbEntity
  8
0
  6
CONTINUOUS
 62
               7
100
AcDbCircle
 10
111.45001220703131
 20
29.799987792968579
 30
0.0
 40
1.0499999523162844
100
AcDbArc
 50
269.99999749552182
 51
90.000002504478161
  0
ARC
  5
1D1
100
AcDbEntity
  8
0
  6
CONTINUOUS
 62
               7
100
AcDbCircle
 10
103.95001220703131
 20
34.799987792968579
 30
0.0
 40
1.0499999523162844
100
AcDbArc
 50
269.99999749552182
 51
90.000002504478161
  0
ARC
  5
1D2
100
AcDbEntity
  8
0
  6
CONTINUOUS
 62
               7
100
AcDbCircle
 10
96.04998779296875
 20
34.799987792968579
 30
0.0
 40
1.0499999523162844
100
AcDbArc
 50
90.000002504478161
 51
270.00000068324533
  0
ARC
  5
1D3
100
AcDbEntity
  8
0
  6
CONTINUOUS
 62
               7
100
AcDbCircle
 10
111.04998779296875
 20
34.799987792968579
 30
0.0
 40
1.0499999523162844
100
AcDbArc
 50
90.000002504478161
 51
270.00000068324533
  0
ARC
  5
1D4
100
AcDbEntity
  8
0
  6
CONTINUOUS
 62
               7
100
AcDbCircle
 10
118.95001220703131
 20
34.799987792968579
 30
0.0
 40
1.0499999523162844
100
AcDbArc
 50
269.99999749552182
 51
90.000002504478161
  0
ARC
  5
1D5
100
AcDbEntity
  8
0
  6
CONTINUOUS
 62
               7
100
AcDbCircle
 10
126.04998779296875
 20
34.799987792968579
 30
0.0
 40
1.0499999523162844
100
AcDbArc
 50
90.000002504478161
 51
270.00000068324533
  0
ARC
  5
1D6
100
AcDbEntity
  8
0
  6
CONTINUOUS
 62
               7
100
AcDbCircle
 10
133.95001220703136
 20
34.799987792968579
 30
0.0
 40
1.0499999523162844
100
AcDbArc
 50
269.99999749552182
 51
90.000002504478161
  0
ARC
  5
1D7
100
AcDbEntity
  8
0
  6
CONTINUOUS
 62
               7
100
AcDbCircle
 10
140.9508056640625
 20
34.799987792968579
 30
0.0
 40
1.0499999523162844
100
AcDbArc
 50
90.000002504478161
 51
270.00000068324533
  0
ARC
  5
1D8
100
AcDbEntity
  8
0
  6
CONTINUOUS
 62
               7
100
AcDbCircle
 10
148.85079956054699
 20
34.799987792968579
 30
0.0
 40
1.0499999523162844
100
AcDbArc
 50
269.99999749552182
 51
90.000002504478161
  0
ARC
  5
1D9
100
AcDbEntity
  8
0
  6
CONTINUOUS
 62
               7
100
AcDbCircle
 10
133.54998779296875
 20
39.799987792968579
 30
0.0
 40
1.0499999523162844
100
AcDbArc
 50
90.000002504478161
 51
270.00000068324533
  0
ARC
  5
1DA
100
AcDbEntity
  8
0
  6
CONTINUOUS
 62
               7
100
AcDbCircle
 10
141.45001220703136
 20
39.799987792968579
 30
0.0
 40
1.0499999523162844
100
AcDbArc
 50
269.99999749552182
 51
90.000002504478161
  0
ARC
  5
1DB
100
AcDbEntity
  8
0
  6
CONTINUOUS
 62
               7
100
AcDbCircle
 10
118.54998779296875
 20
39.799987792968579
 30
0.0
 40
1.0499999523162844
100
AcDbArc
 50
90.000002504478161
 51
270.00000068324533
  0
ARC
  5
1DC
100
AcDbEntity
  8
0
  6
CONTINUOUS
 62
               7
100
AcDbCircle
 10
126.45001220703131
 20
39.799987792968579
 30
0.0
 40
1.0499999523162844
100
AcDbArc
 50
269.99999749552182
 51
90.000002504478161
  0
ARC
  5
1DD
100
AcDbEntity
  8
0
  6
CONTINUOUS
 62
               7
100
AcDbCircle
 10
103.54998779296875
 20
39.799987792968579
 30
0.0
 40
1.0499999523162844
100
AcDbArc
 50
90.000002504478161
 51
270.00000068324533
  0
ARC
  5
1DE
100
AcDbEntity
  8
0
  6
CONTINUOUS
 62
               7
100
AcDbCircle
 10
111.45001220703131
 20
39.799987792968579
 30
0.0
 40
1.0499999523162844
100
AcDbArc
 50
269.99999749552182
 51
90.000002504478161
  0
ARC
  5
1DF
100
AcDbEntity
  8
0
  6
CONTINUOUS
 62
               7
100
AcDbCircle
 10
103.95001220703131
 20
44.799987792968579
 30
0.0
 40
1.0499999523162844
100
AcDbArc
 50
269.99999749552182
 51
90.000002504478161
  0
ARC
  5
1E0
100
AcDbEntity
  8
0
  6
CONTINUOUS
 62
               7
100
AcDbCircle
 10
96.04998779296875
 20
44.799987792968579
 30
0.0
 40
1.0499999523162844
100
AcDbArc
 50
90.000002504478161
 51
270.00000068324533
  0
ARC
  5
1E1
100
AcDbEntity
  8
0
  6
CONTINUOUS
 62
               7
100
AcDbCircle
 10
111.04998779296875
 20
44.799987792968579
 30
0.0
 40
1.0499999523162844
100
AcDbArc
 50
90.000002504478161
 51
270.00000068324533
  0
ARC
  5
1E2
100
AcDbEntity
  8
0
  6
CONTINUOUS
 62
               7
100
AcDbCircle
 10
118.95001220703131
 20
44.799987792968579
 30
0.0
 40
1.0499999523162844
100
AcDbArc
 50
269.99999749552182
 51
90.000002504478161
  0
ARC
  5
1E3
100
AcDbEntity
  8
0
  6
CONTINUOUS
 62
               7
100
AcDbCircle
 10
126.04998779296875
 20
44.799987792968579
 30
0.0
 40
1.0499999523162844
100
AcDbArc
 50
90.000002504478161
 51
270.00000068324533
  0
ARC
  5
1E4
100
AcDbEntity
  8
0
  6
CONTINUOUS
 62
               7
100
AcDbCircle
 10
133.95001220703136
 20
44.799987792968579
 30
0.0
 40
1.0499999523162844
100
AcDbArc
 50
269.99999749552182
 51
90.000002504478161
  0
ARC
  5
1E5
100
AcDbEntity
  8
0
  6
CONTINUOUS
 62
               7
100
AcDbCircle
 10
141.04998779296875
 20
44.799987792968579
 30
0.0
 40
1.0499999523162844
100
AcDbArc
 50
90.000002504478161
 51
270.00000068324533
  0
ARC
  5
1E6
100
AcDbEntity
  8
0
  6
CONTINUOUS
 62
               7
100
AcDbCircle
 10
148.94999694824219
 20
44.799987792968579
 30
0.0
 40
1.0499999523162844
100
AcDbArc
 50
269.99999749552182
 51
90.000002504478161
  0
CIRCLE
  5
1E7
100
AcDbEntity
  8
0
  6
CONTINUOUS
 62
               7
100
AcDbCircle
 10
291.00000000000045
 20
11.799987792968579
 30
0.0
 40
3.1500000953674316
  0
CIRCLE
  5
1E8
100
AcDbEntity
  8
0
  6
CONTINUOUS
 62
               7
100
AcDbCircle
 10
291.00000000000045
 20
11.799987792968579
 30
0.0
 40
3.0350000858306885
  0
LINE
  5
1E9
100
AcDbEntity
  8
0
  6
CONTINUOUS
 62
               7
100
AcDbLine
 10
72.010932662782579
 20
293.50247419880509
 30
0.0
 11
69.599984590910708
 21
293.50247419880509
 31
0.0
  0
LINE
  5
1EA
100
AcDbEntity
  8
0
  6
CONTINUOUS
 62
               7
100
AcDbLine
 10
75.449990704076129
 20
295.12409238845117
 30
0.0
 11
75.449990704076129
 21
293.50250465131626
 31
0.0
  0
LINE
  5
1EB
100
AcDbEntity
  8
0
  6
CONTINUOUS
 62
               7
100
AcDbLine
 10
84.000009004973208
 20
293.00247419880515
 30
0.0
 11
84.000009004973208
 21
293.50247419880509
 31
0.0
  0
LINE
  5
1EC
100
AcDbEntity
  8
0
  6
CONTINUOUS
 62
               7
100
AcDbLine
 10
69.599984590910708
 20
293.00247419880515
 30
0.0
 11
69.599984590910708
 21
293.50247419880509
 31
0.0
  0
ARC
  5
1ED
100
AcDbEntity
  8
0
  6
CONTINUOUS
 62
               7
100
AcDbCircle
 10
77.049996797941958
 20
302.2524741988052
 30
0.0
 40
1.7499999999999998
100
AcDbArc
 50
0.0
 51
180.0
  0
LINE
  5
1EE
100
AcDbEntity
  8
0
  6
CONTINUOUS
 62
               7
100
AcDbLine
 10
75.299996797941958
 20
302.2524741988052
 30
0.0
 11
75.299996797941958
 21
298.04276258431349
 31
0.0
  0
LINE
  5
1EF
100
AcDbEntity
  8
0
  6
CONTINUOUS
 62
               7
100
AcDbLine
 10
78.799996797942015
 20
302.2524741988052
 30
0.0
 11
78.799996797941958
 21
293.50247419880509
 31
0.0
  0
LINE
  5
1F0
100
AcDbEntity
  8
0
  6
CONTINUOUS
 62
               7
100
AcDbLine
 10
84.000009004973208
 20
293.50247419880509
 30
0.0
 11
81.589060955101274
 21
293.50247419880509
 31
0.0
  0
LINE
  5
1F1
100
AcDbEntity
  8
0
  6
CONTINUOUS
 62
               7
100
AcDbLine
 10
75.299996797941958
 20
294.96221240319068
 30
0.0
 11
75.299996797941958
 21
293.50247419880509
 31
0.0
  0
LINE
  5
1F2
100
AcDbEntity
  8
0
  6
CONTINUOUS
 62
               7
100
AcDbLine
 10
80.010932670782267
 20
293.50247419880509
 30
0.0
 11
73.589060947101586
 21
293.50247419880509
 31
0.0
  0
LINE
  5
1F3
100
AcDbEntity
  8
0
  6
CONTINUOUS
 62
               7
100
AcDbLine
 10
65.799996797941958
 20
293.00250471638327
 30
0.0
 11
69.599984590910708
 21
293.00250471638327
 31
0.0
  0
ARC
  5
1F4
100
AcDbEntity
  8
0
  6
CONTINUOUS
 62
               7
100
AcDbCircle
 10
70.799996802941905
 20
288.00250471138332
 30
0.0
 40
1.5000000014999999
100
AcDbArc
 50
117.81866648709736
 51
180.00000500895632
  0
CIRCLE
  5
1F5
100
AcDbEntity
  8
0
  6
CONTINUOUS
 62
               7
100
AcDbCircle
 10
72.799996804942111
 20
280.50250470388335
 30
0.0
 40
0.8
  0
CIRCLE
  5
1F6
100
AcDbEntity
  8
0
  6
CONTINUOUS
 62
               2
100
AcDbCircle
 10
72.799996804942111
 20
280.50250470388335
 30
0.0
 40
1.0
  0
CIRCLE
  5
1F7
100
AcDbEntity
  8
0
  6
CONTINUOUS
 62
               7
100
AcDbCircle
 10
80.799996812941799
 20
280.50250470388335
 30
0.0
 40
0.8
  0
CIRCLE
  5
1F8
100
AcDbEntity
  8
0
  6
CONTINUOUS
 62
               2
100
AcDbCircle
 10
80.799996812941799
 20
280.50250470388335
 30
0.0
 40
1.0
  0
LINE
  5
1F9
100
AcDbEntity
  8
0
  6
CONTINUOUS
 62
               7
100
AcDbLine
 10
82.799996814942006
 20
282.5025046403162
 30
0.0
 11
70.799996802941905
 21
282.5025046403162
 31
0.0
  0
LINE
  5
1FA
100
AcDbEntity
  8
0
  6
CONTINUOUS
 62
               7
100
AcDbLine
 10
95.500009034673099
 20
174.0024740798047
 30
0.0
 11
65.799996797941958
 21
174.0024740798047
 31
0.0
  0
LINE
  5
1FB
100
AcDbEntity
  8
0
  6
CONTINUOUS
 62
               7
100
AcDbLine
 10
95.500009034673099
 20
174.0024740798047
 30
0.0
 11
95.500009034673099
 21
171.55221772969821
 31
0.0
  0
LINE
  5
1FC
100
AcDbEntity
  8
0
  6
CONTINUOUS
 62
               7
100
AcDbLine
 10
79.799996811941867
 20
174.0024740798047
 30
0.0
 11
79.799996811941867
 21
170.00247407580463
 31
0.0
  0
LINE
  5
1FD
100
AcDbEntity
  8
0
  6
CONTINUOUS
 62
               7
100
AcDbLine
 10
84.799996816941814
 20
174.0024740798047
 30
0.0
 11
84.799996816941814
 21
170.00247407580463
 31
0.0
  0
LINE
  5
1FE
100
AcDbEntity
  8
0
  6
CONTINUOUS
 62
               7
100
AcDbLine
 10
85.299996817441979
 20
170.00247407580463
 30
0.0
 11
84.799996816941814
 21
170.00247407580463
 31
0.0
  0
LINE
  5
1FF
100
AcDbEntity
  8
0
  6
CONTINUOUS
 62
               7
100
AcDbLine
 10
85.299996817441979
 20
174.0024740798047
 30
0.0
 11
85.299996817441979
 21
170.00247407580463
 31
0.0
  0
LINE
  5
200
100
AcDbEntity
  8
0
  6
CONTINUOUS
 62
               7
100
AcDbLine
 10
79.299996811442099
 20
174.0024740798047
 30
0.0
 11
79.299996811442099
 21
170.00247407580463
 31
0.0
  0
LINE
  5
201
100
AcDbEntity
  8
0
  6
CONTINUOUS
 62
               7
100
AcDbLine
 10
79.799996811941867
 20
170.00247407580463
 30
0.0
 11
79.299996811442099
 21
170.00247407580463
 31
0.0
  0
ARC
  5
202
100
AcDbEntity
  8
0
  6
CONTINUOUS
 62
               7
100
AcDbCircle
 10
92.499978514094778
 20
171.36044526856892
 30
0.0
 40
3.0000000029999998
100
AcDbArc
 50
288.22598846548567
 51
0.0
  0
ARC
  5
203
100
AcDbEntity
  8
0
  6
CONTINUOUS
 62
               7
100
AcDbCircle
 10
77.799996809942058
 20
187.0024740928049
 30
0.0
 40
25.000000025000002
100
AcDbArc
 50
251.5915175313136
 51
309.41994593172478
  0
ARC
  5
204
100
AcDbEntity
  8
0
  6
CONTINUOUS
 62
               7
100
AcDbCircle
 10
68.799996800941699
 20
169.87222505223693
 30
0.0
 40
3.0000000029999998
100
AcDbArc
 50
180.00000500895632
 51
258.96028396548365
  0
ARC
  5
205
100
AcDbEntity
  8
0
  6
CONTINUOUS
 62
               7
100
AcDbCircle
 10
71.799996803941781
 20
168.9747335962613
 30
0.0
 40
6.0000000059999996
100
AcDbArc
 50
180.00000500895632
 51
251.59152071903708
  0
ARC
  5
206
100
AcDbEntity
  8
0
  6
CONTINUOUS
 62
               7
100
AcDbCircle
 10
77.799996809942058
 20
216.00247412180519
 30
0.0
 40
50.000000050000004
100
AcDbArc
 50
258.96028760794934
 51
288.22598846548567
  0
ARC
  5
207
100
AcDbEntity
  8
0
  6
CONTINUOUS
 62
               7
100
AcDbCircle
 10
90.49997851209497
 20
171.55221772969821
 30
0.0
 40
5.0000000050000004
100
AcDbArc
 50
309.41994593172478
 51
0.0
  0
LINE
  5
208
100
AcDbEntity
  8
0
  6
CONTINUOUS
 62
               7
100
AcDbLine
 10
63.199996794941853
 20
256.47244364472709
 30
0.0
 11
65.799996797941958
 21
256.47244364472709
 31
0.0
  0
LINE
  5
209
100
AcDbEntity
  8
0
  6
CONTINUOUS
 62
               7
100
AcDbLine
 10
20.19999675194174
 20
209.47243237102523
 30
0.0
 11
63.200021228694368
 21
256.472442700616
 31
0.0
  0
LINE
  5
20A
100
AcDbEntity
  8
0
  6
CONTINUOUS
 62
               7
100
AcDbLine
 10
83.500009022672998
 20
293.50250465131626
 30
0.0
 11
83.500009022672998
 21
283.00250464081626
 31
0.0
  0
LINE
  5
20B
100
AcDbEntity
  8
0
  6
CONTINUOUS
 62
               7
100
AcDbLine
 10
70.099984595210458
 20
293.50250465131626
 30
0.0
 11
70.099984595210458
 21
283.00250464081626
 31
0.0
  0
LINE
  5
20C
100
AcDbEntity
  8
0
  6
CONTINUOUS
 62
               7
100
AcDbLine
 10
99.299996831441888
 20
272.00250469538327
 30
0.0
 11
87.699990716326113
 21
272.00250469538327
 31
0.0
  0
LINE
  5
20D
100
AcDbEntity
  8
0
  6
CONTINUOUS
 62
               2
100
AcDbLine
 10
76.799996808941728
 20
305.08795388065153
 30
0.0
 11
76.799996808941728
 21
292.3815586746905
 31
0.0
  0
LINE
  5
20E
100
AcDbEntity
  8
0
  6
CONTINUOUS
 62
               7
100
AcDbLine
 10
87.699990716326113
 20
272.00250469538327
 30
0.0
 11
87.699990716326113
 21
230.00250465338345
 31
0.0
  0
LINE
  5
20F
100
AcDbEntity
  8
0
  6
CONTINUOUS
 62
               7
100
AcDbLine
 10
93.128427001051477
 20
370.07013166857581
 30
0.0
 11
93.128427001051477
 21
293.7454246390011
 31
0.0
  0
LINE
  5
210
100
AcDbEntity
  8
0
  6
CONTINUOUS
 62
               7
100
AcDbLine
 10
98.299996830441955
 20
371.00244368122691
 30
0.0
 11
65.799996797941958
 21
371.00244368122691
 31
0.0
  0
LINE
  5
211
100
AcDbEntity
  8
0
  6
CONTINUOUS
 62
               7
100
AcDbLine
 10
98.299996830441955
 20
371.00244368122691
 30
0.0
 11
98.299996830441955
 21
293.00244368122685
 31
0.0
  0
LINE
  5
212
100
AcDbEntity
  8
0
  6
CONTINUOUS
 62
               7
100
AcDbLine
 10
83.500009022672998
 20
283.00250464081626
 30
0.0
 11
70.099984595210458
 21
283.00250464081626
 31
0.0
  0
LINE
  5
213
100
AcDbEntity
  8
0
  6
CONTINUOUS
 62
               7
100
AcDbLine
 10
94.199990722826101
 20
293.00250471638327
 30
0.0
 11
94.199990722826101
 21
272.00250469538327
 31
0.0
  0
LINE
  5
214
100
AcDbEntity
  8
0
  6
CONTINUOUS
 62
               7
100
AcDbLine
 10
84.299996816442047
 20
288.00250471138332
 30
0.0
 11
84.299996816442047
 21
284.00250470738325
 31
0.0
  0
LINE
  5
215
100
AcDbEntity
  8
0
  6
CONTINUOUS
 62
               7
100
AcDbLine
 10
75.449990704076129
 20
302.96133278808242
 30
0.0
 11
75.449990704076129
 21
297.88091705131524
 31
0.0
  0
LINE
  5
216
100
AcDbEntity
  8
0
  6
CONTINUOUS
 62
               7
100
AcDbLine
 10
99.299996831441888
 20
230.00250465338345
 30
0.0
 11
87.699990716326113
 21
230.00250465338345
 31
0.0
  0
LINE
  5
217
100
AcDbEntity
  8
0
  6
CONTINUOUS
 62
               7
100
AcDbLine
 10
91.664498776931282
 20
293.00250471638327
 30
0.0
 11
91.664498776931282
 21
272.00250469538327
 31
0.0
  0
LINE
  5
218
100
AcDbEntity
  8
0
  6
CONTINUOUS
 62
               7
100
AcDbLine
 10
88.746407953700839
 20
293.00250471638327
 30
0.0
 11
88.746407953700839
 21
272.00250469538327
 31
0.0
  0
LINE
  5
219
100
AcDbEntity
  8
0
  6
CONTINUOUS
 62
               7
100
AcDbLine
 10
69.299996801441807
 20
288.00250471138332
 30
0.0
 11
69.299996801441807
 21
284.00250470738325
 31
0.0
  0
LINE
  5
21A
100
AcDbEntity
  8
0
  6
CONTINUOUS
 62
               7
100
AcDbLine
 10
78.150002913807384
 20
303.61353501488162
 30
0.0
 11
78.150002913807384
 21
293.50250465131626
 31
0.0
  0
LINE
  5
21B
100
AcDbEntity
  8
0
  6
CONTINUOUS
 62
               7
100
AcDbLine
 10
98.299996830441955
 20
293.00250471638327
 30
0.0
 11
83.500009022672998
 21
293.00250471638327
 31
0.0
  0
LINE
  5
21C
100
AcDbEntity
  8
0
  6
CONTINUOUS
 62
               7
100
AcDbLine
 10
99.299996831441888
 20
272.00250469538327
 30
0.0
 11
99.299996831441888
 21
230.00250465338345
 31
0.0
  0
ARC
  5
21D
100
AcDbEntity
  8
0
  6
CONTINUOUS
 62
               7
100
AcDbCircle
 10
82.799996814942006
 20
284.00250470738325
 30
0.0
 40
1.5000000014999999
100
AcDbArc
 50
270.0
 51
359.99999749552194
  0
ARC
  5
21E
100
AcDbEntity
  8
0
  6
CONTINUOUS
 62
               7
100
AcDbCircle
 10
70.799996802941905
 20
284.00250470738325
 30
0.0
 40
1.5000000014999999
100
AcDbArc
 50
180.00000865142201
 51
270.0
  0
ARC
  5
21F
100
AcDbEntity
  8
0
  6
CONTINUOUS
 62
               7
100
AcDbCircle
 10
82.799996814942006
 20
288.00250471138332
 30
0.0
 40
1.5000000014999999
100
AcDbArc
 50
359.99999749552194
 51
62.181333512918997
  0
CIRCLE
  5
220
100
AcDbEntity
  8
0
  6
CONTINUOUS
 62
               7
100
AcDbCircle
 10
87.799996819941953
 20
296.50250471988323
 30
0.0
 40
2.0750000497587155
  0
CIRCLE
  5
221
100
AcDbEntity
  8
0
  6
CONTINUOUS
 62
               7
100
AcDbCircle
 10
87.799996819941953
 20
296.50250471988323
 30
0.0
 40
2.1500000975174318
  0
CIRCLE
  5
222
100
AcDbEntity
  8
0
  6
CONTINUOUS
 62
               7
100
AcDbCircle
 10
73.799996805941646
 20
296.50250471988323
 30
0.0
 40
2.0750000497587155
  0
CIRCLE
  5
223
100
AcDbEntity
  8
0
  6
CONTINUOUS
 62
               7
100
AcDbCircle
 10
73.799996805941646
 20
296.50250471988323
 30
0.0
 40
2.1500000975174318
  0
CIRCLE
  5
224
100
AcDbEntity
  8
0
  6
CONTINUOUS
 62
               7
100
AcDbCircle
 10
80.799996812941799
 20
291.50250464931611
 30
0.0
 40
2.0750000497587155
  0
CIRCLE
  5
225
100
AcDbEntity
  8
0
  6
CONTINUOUS
 62
               7
100
AcDbCircle
 10
80.799996812941799
 20
291.50250464931611
 30
0.0
 40
2.1500000975174318
  0
CIRCLE
  5
226
100
AcDbEntity
  8
0
  6
CONTINUOUS
 62
               7
100
AcDbCircle
 10
72.799996804942111
 20
291.50250464931611
 30
0.0
 40
2.0750000497587155
  0
CIRCLE
  5
227
100
AcDbEntity
  8
0
  6
CONTINUOUS
 62
               7
100
AcDbCircle
 10
72.799996804942111
 20
291.50250464931611
 30
0.0
 40
2.1500000975174318
  0
LINE
  5
228
100
AcDbEntity
  8
0
  6
CONTINUOUS
 62
               7
100
AcDbLine
 10
20.750000757923999
 20
211.97244264655265
 30
0.0
 11
22.487240994782496
 21
211.97244264655265
 31
0.0
  0
LINE
  5
229
100
AcDbEntity
  8
0
  6
CONTINUOUS
 62
               7
100
AcDbLine
 10
20.750005261546221
 20
211.97243914191827
 30
0.0
 11
21.250004233403672
 21
212.47243621717527
 31
0.0
  0
LINE
  5
22A
100
AcDbEntity
  8
0
  6
CONTINUOUS
 62
               7
100
AcDbLine
 10
20.749999804249796
 20
211.97244360022705
 30
0.0
 11
20.749999804249796
 21
210.07360951459188
 31
0.0
  0
LINE
  5
22B
100
AcDbEntity
  8
0
  6
CONTINUOUS
 62
               7
100
AcDbLine
 10
21.250000758424108
 20
212.47244360072696
 30
0.0
 11
22.944688836115347
 21
212.47244360072696
 31
0.0
  0
LINE
  5
22C
100
AcDbEntity
  8
0
  6
CONTINUOUS
 62
               2
100
AcDbLine
 10
68.245144117581617
 20
248.50250467188332
 30
0.0
 11
60.859348224145435
 21
248.50250467188332
 31
0.0
  0
LINE
  5
22D
100
AcDbEntity
  8
0
  6
CONTINUOUS
 62
               2
100
AcDbLine
 10
68.245144117581617
 20
218.50247412430519
 30
0.0
 11
60.859348224145435
 21
218.50247412430519
 31
0.0
  0
LINE
  5
22E
100
AcDbEntity
  8
0
  6
CONTINUOUS
 62
               7
100
AcDbLine
 10
79.000009018173216
 20
282.5025046403162
 30
0.0
 11
79.000009018173216
 21
174.0024740798047
 31
0.0
  0
LINE
  5
22F
100
AcDbEntity
  8
0
  6
CONTINUOUS
 62
               7
100
AcDbLine
 10
75.600015118288752
 20
282.5025046403162
 30
0.0
 11
75.600015118288752
 21
174.0024740798047
 31
0.0
  0
LINE
  5
230
100
AcDbEntity
  8
0
  6
CONTINUOUS
 62
               7
100
AcDbLine
 10
91.664498776931282
 20
230.00250465338345
 30
0.0
 11
91.664498776931282
 21
174.0024740798047
 31
0.0
  0
LINE
  5
231
100
AcDbEntity
  8
0
  6
CONTINUOUS
 62
               7
100
AcDbLine
 10
65.799996797941958
 20
371.00244368122691
 30
0.0
 11
65.799996797941958
 21
168.9747335962613
 31
0.0
  0
LINE
  5
232
100
AcDbEntity
  8
0
  6
CONTINUOUS
 62
               7
100
AcDbLine
 10
86.79999681894202
 20
293.00250471638327
 30
0.0
 11
86.79999681894202
 21
174.0024740798047
 31
0.0
  0
LINE
  5
233
100
AcDbEntity
  8
0
  6
CONTINUOUS
 62
               7
100
AcDbLine
 10
94.199990722826101
 20
230.00250465338345
 30
0.0
 11
94.199990722826101
 21
174.0024740798047
 31
0.0
  0
LINE
  5
234
100
AcDbEntity
  8
0
  6
CONTINUOUS
 62
               7
100
AcDbLine
 10
88.746407953700839
 20
230.00250465338345
 30
0.0
 11
88.746407953700839
 21
174.0024740798047
 31
0.0
  0
LINE
  5
235
100
AcDbEntity
  8
0
  6
CONTINUOUS
 62
               7
100
AcDbLine
 10
20.19999675194174
 20
206.4999812494531
 30
0.0
 11
20.19999675194174
 21
209.47244359772702
 31
0.0
  0
LINE
  5
236
100
AcDbEntity
  8
0
  6
CONTINUOUS
 62
               7
100
AcDbLine
 10
20.19999675194174
 20
206.4999812494531
 30
0.0
 11
65.799996797941958
 21
206.4999812494531
 31
0.0
  0
CIRCLE
  5
237
100
AcDbEntity
  8
0
  6
CONTINUOUS
 62
               7
100
AcDbCircle
 10
50.000015210188621
 20
56.999981689452966
 30
0.0
 40
1.4999999999999998
  0
CIRCLE
  5
238
100
AcDbEntity
  8
0
  6
CONTINUOUS
 62
               2
100
AcDbCircle
 10
50.000015210188621
 20
56.999981689452966
 30
0.0
 40
2.0
  0
LINE
  5
239
100
AcDbEntity
  8
0
  6
CONTINUOUS
 62
               2
100
AcDbLine
 10
54.86836532283985
 20
56.999981689452966
 30
0.0
 11
45.231742110876894
 21
56.999981689452966
 31
0.0
  0
LINE
  5
23A
100
AcDbEntity
  8
0
  6
CONTINUOUS
 62
               2
100
AcDbLine
 10
50.000015210188621
 20
52.131631576801738
 30
0.0
 11
50.000015210188621
 21
61.768254788764636
 31
0.0
  0
LINE
  5
23B
100
AcDbEntity
  8
0
  6
CONTINUOUS
 62
               7
100
AcDbLine
 10
47.850021313704303
 20
60.999981689452966
 30
0.0
 11
52.150009106672996
 21
60.999981689452966
 31
0.0
  0
LINE
  5
23C
100
AcDbEntity
  8
0
  6
CONTINUOUS
 62
               7
100
AcDbLine
 10
325.49998490120964
 20
13.29998168945292
 30
0.0
 11
309.83165795076815
 21
13.29998168945292
 31
0.0
  0
LINE
  5
23D
100
AcDbEntity
  8
0
  6
CONTINUOUS
 62
               7
100
AcDbLine
 10
325.49998490120964
 20
25.999981689452852
 30
0.0
 11
309.76166640663365
 21
25.999981689452852
 31
0.0
  0
LINE
  5
23E
100
AcDbEntity
  8
0
  6
CONTINUOUS
 62
               7
100
AcDbLine
 10
327.99998490120964
 20
14.149981689452886
 30
0.0
 11
326.49998490120953
 21
14.149981689452886
 31
0.0
  0
LINE
  5
23F
100
AcDbEntity
  8
0
  6
CONTINUOUS
 62
               7
100
AcDbLine
 10
327.99998490120964
 20
25.149981689452943
 30
0.0
 11
326.49998490120953
 21
25.149981689452943
 31
0.0
  0
LINE
  5
240
100
AcDbEntity
  8
0
  6
CONTINUOUS
 62
               7
100
AcDbLine
 10
327.99998490120964
 20
14.149981689452886
 30
0.0
 11
327.99998490120964
 21
25.149981689452943
 31
0.0
  0
LINE
  5
241
100
AcDbEntity
  8
0
  6
CONTINUOUS
 62
               7
100
AcDbLine
 10
326.49998490120953
 20
14.149981689452886
 30
0.0
 11
325.49998490120964
 21
13.29998168945292
 31
0.0
  0
LINE
  5
242
100
AcDbEntity
  8
0
  6
CONTINUOUS
 62
               7
100
AcDbLine
 10
325.49998490120964
 20
25.999981689452852
 30
0.0
 11
326.49998490120953
 21
25.149981689452943
 31
0.0
  0
LINE
  5
243
100
AcDbEntity
  8
0
  6
CONTINUOUS
 62
               7
100
AcDbLine
 10
326.49998490120953
 20
14.149981689452886
 30
0.0
 11
326.49998490120953
 21
25.149981689452943
 31
0.0
  0
LINE
  5
244
100
AcDbEntity
  8
0
  6
CONTINUOUS
 62
               7
100
AcDbLine
 10
325.49998490120964
 20
25.999981689452852
 30
0.0
 11
325.49998490120964
 21
13.29998168945292
 31
0.0
  0
LINE
  5
245
100
AcDbEntity
  8
0
  6
CONTINUOUS
 62
               2
100
AcDbLine
 10
332.99998490120964
 20
19.649981689452943
 30
0.0
 11
306.44318415653356
 21
19.649981689452943
 31
0.0
  0
LINE
  5
246
100
AcDbEntity
  8
0
  6
CONTINUOUS
 62
               7
100
AcDbLine
 10
0.0000000800000635
 20
165.99998124945313
 30
0.0
 11
0.0000000800000635
 21
162.99998168945294
 31
0.0
  0
ARC
  5
247
100
AcDbEntity
  8
0
  6
CONTINUOUS
 62
               7
100
AcDbCircle
 10
26.121320183560783
 20
203.49998124945307
 30
0.0
 40
1.4999999999999998
100
AcDbArc
 50
90.0
 51
94.639163110140728
  0
LINE
  5
248
100
AcDbEntity
  8
0
  6
CONTINUOUS
 62
               7
100
AcDbLine
 10
19.999999839999873
 20
165.99998124945313
 30
0.0
 11
0.0000000800000635
 21
165.99998124945313
 31
0.0
  0
LINE
  5
249
100
AcDbEntity
  8
0
  6
CONTINUOUS
 62
               7
100
AcDbLine
 10
59.999999839999873
 20
55.999981689452909
 30
0.0
 11
300.88339233398426
 21
55.999981689452909
 31
0.0
  0
LINE
  5
24A
100
AcDbEntity
  8
0
  6
CONTINUOUS
 62
               7
100
AcDbLine
 10
59.999999839999873
 20
172.99998124945304
 30
0.0
 11
59.999999839999873
 21
162.99998124945304
 31
0.0
  0
LINE
  5
24B
100
AcDbEntity
  8
0
  6
CONTINUOUS
 62
               7
100
AcDbLine
 10
19.999999839999873
 20
172.99998124945304
 30
0.0
 11
19.999999839999873
 21
162.99998124945304
 31
0.0
  0
LINE
  5
24C
100
AcDbEntity
  8
0
  6
CONTINUOUS
 62
               7
100
AcDbLine
 10
0.0
 20
3.1999816894530113
 30
0.0
 11
0.0
 21
162.99998124945304
 31
0.0
  0
LINE
  5
24D
100
AcDbEntity
  8
0
  6
CONTINUOUS
 62
               7
100
AcDbLine
 10
59.999999839999873
 20
52.999981689452966
 30
0.0
 11
59.999999839999873
 21
162.99998124945304
 31
0.0
  0
LINE
  5
24E
100
AcDbEntity
  8
0
  6
CONTINUOUS
 62
               7
100
AcDbLine
 10
32.149993767884439
 20
162.99998124945304
 30
0.0
 11
32.149993767884439
 21
52.999981689452966
 31
0.0
  0
LINE
  5
24F
100
AcDbEntity
  8
0
  6
CONTINUOUS
 62
               7
100
AcDbLine
 10
27.850005992115712
 20
162.99998124945304
 30
0.0
 11
27.850005992115712
 21
52.999981689452966
 31
0.0
  0
LINE
  5
250
100
AcDbEntity
  8
0
  6
CONTINUOUS
 62
               7
100
AcDbLine
 10
12.149993847884389
 20
162.99998124945304
 30
0.0
 11
12.149993847884389
 21
52.999981689452966
 31
0.0
  0
LINE
  5
251
100
AcDbEntity
  8
0
  6
CONTINUOUS
 62
               7
100
AcDbLine
 10
7.8500060721155478
 20
162.99998124945304
 30
0.0
 11
7.8500060721155478
 21
52.999981689452966
 31
0.0
  0
LINE
  5
252
100
AcDbEntity
  8
0
  6
CONTINUOUS
 62
               7
100
AcDbLine
 10
52.150024236862293
 20
162.99998124945304
 30
0.0
 11
52.150024236862293
 21
52.999981689452966
 31
0.0
  0
LINE
  5
253
100
AcDbEntity
  8
0
  6
CONTINUOUS
 62
               7
100
AcDbLine
 10
47.850005960715521
 20
162.99998124945304
 30
0.0
 11
47.850005960715521
 21
52.999981689452966
 31
0.0
  0
LINE
  5
254
100
AcDbEntity
  8
0
  6
CONTINUOUS
 62
               2
100
AcDbLine
 10
16.999984741210937
 20
-4.720051132636172
 30
0.0
 11
16.999984741210937
 21
7.9540182852039152
 31
0.0
  0
LINE
  5
255
100
AcDbEntity
  8
0
  6
CONTINUOUS
 62
               7
100
AcDbLine
 10
-51.499984741210938
 20
51.499981689452966
 30
0.0
 11
0.0
 21
51.499981689452966
 31
0.0
  0
LINE
  5
256
100
AcDbEntity
  8
0
  6
CONTINUOUS
 62
               7
100
AcDbLine
 10
-51.499984741210938
 20
51.499981689452966
 30
0.0
 11
-51.499984741210938
 21
18.999981689452966
 31
0.0
  0
LINE
  5
257
100
AcDbEntity
  8
0
  6
CONTINUOUS
 62
               7
100
AcDbLine
 10
0.0
 20
18.999981689452966
 30
0.0
 11
-51.499984741210938
 21
18.999981689452966
 31
0.0
  0
LINE
  5
258
100
AcDbEntity
  8
0
  6
CONTINUOUS
 62
               7
100
AcDbLine
 10
289.79999542236322
 20
41.599984741210847
 30
0.0
 11
289.79999542236322
 21
31.199983215331883
 31
0.0
  0
LINE
  5
259
100
AcDbEntity
  8
0
  6
CONTINUOUS
 62
               7
100
AcDbLine
 10
292.19999694824224
 20
41.599984741210847
 30
0.0
 11
292.19999694824224
 21
31.199983215331883
 31
0.0
  0
LINE
  5
25A
100
AcDbEntity
  8
0
  6
CONTINUOUS
 62
               7
100
AcDbLine
 10
289.79999542236322
 20
41.599984741210847
 30
0.0
 11
292.19999694824224
 21
41.599984741210847
 31
0.0
  0
LINE
  5
25B
100
AcDbEntity
  8
0
  6
CONTINUOUS
 62
               7
100
AcDbLine
 10
289.79999542236322
 20
31.199983215331883
 30
0.0
 11
292.19999694824224
 21
31.199983215331883
 31
0.0
  0
LINE
  5
25C
100
AcDbEntity
  8
0
  6
CONTINUOUS
 62
               7
100
AcDbLine
 10
0.0
 20
3.1999816894530113
 30
0.0
 11
297.99999999999994
 21
3.1999816894530113
 31
0.0
  0
LINE
  5
25D
100
AcDbEntity
  8
0
  6
CONTINUOUS
 62
               7
100
AcDbLine
 10
304.58218361933359
 20
5.1999816894530113
 30
0.0
 11
297.99999999999994
 21
5.1999816894530113
 31
0.0
  0
LINE
  5
25E
100
AcDbEntity
  8
0
  6
CONTINUOUS
 62
               7
100
AcDbLine
 10
297.99999999999994
 20
5.1999816894530113
 30
0.0
 11
297.99999999999994
 21
3.1999816894530113
 31
0.0
  0
LINE
  5
25F
100
AcDbEntity
  8
0
  6
CONTINUOUS
 62
               2
100
AcDbLine
 10
282.99999999999994
 20
-4.720051132636172
 30
0.0
 11
282.99999999999994
 21
7.9540182852039152
 31
0.0
  0
LINE
  5
260
100
AcDbEntity
  8
0
  6
CONTINUOUS
 62
               2
100
AcDbLine
 10
-6.8981315021009095
 20
107.99998168945297
 30
0.0
 11
2.3989892591293938
 21
107.99998168945297
 31
0.0
  0
LINE
  5
261
100
AcDbEntity
  8
0
  6
CONTINUOUS
 62
               7
100
AcDbLine
 10
-5.5000150280542357
 20
104.49998168945291
 30
0.0
 11
-1.8000152187892127
 21
104.49998168945291
 31
0.0
  0
LINE
  5
262
100
AcDbEntity
  8
0
  6
CONTINUOUS
 62
               7
100
AcDbLine
 10
-5.5000149857497718
 20
104.49998210647465
 30
0.0
 11
-5.8000151049591295
 21
105.01959774130728
 31
0.0
  0
LINE
  5
263
100
AcDbEntity
  8
0
  6
CONTINUOUS
 62
               7
100
AcDbLine
 10
-5.5000150280542357
 20
111.49998168945297
 30
0.0
 11
-5.5000150280542357
 21
104.49998168945291
 31
0.0
  0
LINE
  5
264
100
AcDbEntity
  8
0
  6
CONTINUOUS
 62
               7
100
AcDbLine
 10
-5.8000152187892127
 20
110.98036651611312
 30
0.0
 11
-5.8000152187892127
 21
105.01959781646713
 31
0.0
  0
LINE
  5
265
100
AcDbEntity
  8
0
  6
CONTINUOUS
 62
               7
100
AcDbLine
 10
-5.5000151914012463
 20
111.49998159806375
 30
0.0
 11
-5.8000151794803401
 21
110.98036648347261
 31
0.0
  0
LINE
  5
266
100
AcDbEntity
  8
0
  6
CONTINUOUS
 62
               7
100
AcDbLine
 10
-5.5000150280542357
 20
111.49998168945297
 30
0.0
 11
-1.8000152187892127
 21
111.49998168945297
 31
0.0
  0
LINE
  5
267
100
AcDbEntity
  8
0
  6
CONTINUOUS
 62
               7
100
AcDbLine
 10
-5.1000152187891672
 20
114.08186072406801
 30
0.0
 11
-5.1000152187891672
 21
123.49998168945297
 31
0.0
  0
LINE
  5
268
100
AcDbEntity
  8
0
  6
CONTINUOUS
 62
               7
100
AcDbLine
 10
-5.1000152187891672
 20
123.49998168945297
 30
0.0
 11
-0.0000152187891445
 21
123.49998168945297
 31
0.0
  0
LINE
  5
269
100
AcDbEntity
  8
0
  6
CONTINUOUS
 62
               7
100
AcDbLine
 10
-1.8000152187892127
 20
102.99998168945297
 30
0.0
 11
-0.0000152187891445
 21
102.99998168945297
 31
0.0
  0
LINE
  5
26A
100
AcDbEntity
  8
0
  6
CONTINUOUS
 62
               7
100
AcDbLine
 10
-1.8000152187892127
 20
102.99998168945297
 30
0.0
 11
-1.8000152187892127
 21
123.49998168945297
 31
0.0
  0
LINE
  5
26B
100
AcDbEntity
  8
0
  6
CONTINUOUS
 62
               7
100
AcDbLine
 10
-1.8000152492552388
 20
113.49998168945297
 30
0.0
 11
-5.1000152611760541
 21
114.08186073154195
 31
0.0
  0
LINE
  5
26C
100
AcDbEntity
  8
0
  6
CONTINUOUS
 62
               7
100
AcDbLine
 10
-5.1000152187891672
 20
121.49998168945302
 30
0.0
 11
-1.8000152187892127
 21
121.49998168945302
 31
0.0
  0
LINE
  5
26D
100
AcDbEntity
  8
0
  6
CONTINUOUS
 62
               7
100
AcDbLine
 10
-5.1000152187891672
 20
116.49998168945302
 30
0.0
 11
-1.8000152187892127
 21
116.49998168945302
 31
0.0
  0
LINE
  5
26E
100
AcDbEntity
  8
0
  6
CONTINUOUS
 62
               7
100
AcDbLine
 10
-3.4000152187891217
 20
116.49998168945302
 30
0.0
 11
-3.4000152187891217
 21
121.49998168945302
 31
0.0
  0
LINE
  5
26F
100
AcDbEntity
  8
0
  6
CONTINUOUS
 62
               2
100
AcDbLine
 10
5.4507258058075081
 20
56.999981689452966
 30
0.0
 11
14.77447164075852
 21
56.999981689452966
 31
0.0
  0
LINE
  5
270
100
AcDbEntity
  8
0
  6
CONTINUOUS
 62
               2
100
AcDbLine
 10
34.868334853862109
 20
56.999981689452966
 30
0.0
 11
25.23171164189921
 21
56.999981689452966
 31
0.0
  0
LINE
  5
271
100
AcDbEntity
  8
0
  6
CONTINUOUS
 62
               7
100
AcDbLine
 10
7.8499908447264488
 20
60.999981689452966
 30
0.0
 11
12.149978637695312
 21
60.999981689452966
 31
0.0
  0
LINE
  5
272
100
AcDbEntity
  8
0
  6
CONTINUOUS
 62
               7
100
AcDbLine
 10
27.849990844726449
 20
60.999981689452966
 30
0.0
 11
32.149978637695369
 21
60.999981689452966
 31
0.0
  0
CIRCLE
  5
273
100
AcDbEntity
  8
0
  6
CONTINUOUS
 62
               2
100
AcDbCircle
 10
9.9999847412108238
 20
56.999981689452966
 30
0.0
 40
2.0
  0
CIRCLE
  5
274
100
AcDbEntity
  8
0
  6
CONTINUOUS
 62
               7
100
AcDbCircle
 10
9.9999847412108238
 20
56.999981689452966
 30
0.0
 40
1.4999999999999998
  0
CIRCLE
  5
275
100
AcDbEntity
  8
0
  6
CONTINUOUS
 62
               7
100
AcDbCircle
 10
29.999984741210824
 20
56.999981689452966
 30
0.0
 40
1.4999999999999998
  0
CIRCLE
  5
276
100
AcDbEntity
  8
0
  6
CONTINUOUS
 62
               2
100
AcDbCircle
 10
29.999984741210824
 20
56.999981689452966
 30
0.0
 40
2.0
  0
LINE
  5
277
100
AcDbEntity
  8
0
  6
CONTINUOUS
 62
               7
100
AcDbLine
 10
20.99999983999993
 20
205.99998124945301
 30
0.0
 11
20.99999983999993
 21
172.99998124945304
 31
0.0
  0
LINE
  5
278
100
AcDbEntity
  8
0
  6
CONTINUOUS
 62
               7
100
AcDbLine
 10
58.999999839999873
 20
205.99998124945301
 30
0.0
 11
58.999999839999873
 21
172.99998124945304
 31
0.0
  0
ARC
  5
279
100
AcDbEntity
  8
0
  6
CONTINUOUS
 62
               7
100
AcDbCircle
 10
22.129653770663936
 20
179.99998124945307
 30
0.0
 40
6.3296561241149902
100
AcDbArc
 50
160.85729336935006
 51
199.14270298818428
  0
ARC
  5
27A
100
AcDbEntity
  8
0
  6
CONTINUOUS
 62
               7
100
AcDbCircle
 10
22.129653770663936
 20
187.99998124945304
 30
0.0
 40
6.3296561241149902
100
AcDbArc
 50
160.85729336935006
 51
199.14270298818428
  0
ARC
  5
27B
100
AcDbEntity
  8
0
  6
CONTINUOUS
 62
               7
100
AcDbCircle
 10
53.870345909335924
 20
180.99998124945301
 30
0.0
 40
6.3296561241149902
100
AcDbArc
 50
340.85729006794099
 51
19.142706516964399
  0
ARC
  5
27C
100
AcDbEntity
  8
0
  6
CONTINUOUS
 62
               7
100
AcDbCircle
 10
53.870345909335924
 20
194.99998124945307
 30
0.0
 40
6.3296561241149902
100
AcDbArc
 50
340.85729006794099
 51
19.142706516964399
  0
ARC
  5
27D
100
AcDbEntity
  8
0
  6
CONTINUOUS
 62
               7
100
AcDbCircle
 10
51.499999839999873
 20
201.9999812494531
 30
0.0
 40
2.4000000953674316
100
AcDbArc
 50
331.17621921195268
 51
163.04248945089057
  0
ARC
  5
27E
100
AcDbEntity
  8
0
  6
CONTINUOUS
 62
               7
100
AcDbCircle
 10
28.49999983999993
 20
201.9999812494531
 30
0.0
 40
2.4000000953674316
100
AcDbArc
 50
16.957513850518463
 51
208.82378579700367
  0
ARC
  5
27F
100
AcDbEntity
  8
0
  6
CONTINUOUS
 62
               7
100
AcDbCircle
 10
55.99999983999993
 20
175.99998124945301
 30
0.0
 40
2.9999999999999996
100
AcDbArc
 50
269.99999749552182
 51
0.0
  0
ARC
  5
280
100
AcDbEntity
  8
0
  6
CONTINUOUS
 62
               7
100
AcDbCircle
 10
50.792892296054674
 20
200.39997514593747
 30
0.0
 40
2.2999999523162842
100
AcDbArc
 50
45.00000125223908
 51
90.000002504478161
  0
ARC
  5
281
100
AcDbEntity
  8
0
  6
CONTINUOUS
 62
               7
100
AcDbCircle
 10
24.499999839999987
 20
193.99580034124995
 30
0.0
 40
3.4999999999999996
100
AcDbArc
 50
135.00000034162267
 51
180.00000500895632
  0
ARC
  5
282
100
AcDbEntity
  8
0
  6
CONTINUOUS
 62
               7
100
AcDbCircle
 10
55.499999839999987
 20
193.99580034124995
 30
0.0
 40
3.4999999999999996
100
AcDbArc
 50
0.0000000000000509
 51
45.00000125223908
  0
ARC
  5
283
100
AcDbEntity
  8
0
  6
CONTINUOUS
 62
               7
100
AcDbCircle
 10
29.207107383945299
 20
200.39997514593747
 30
0.0
 40
2.2999999523162842
100
AcDbArc
 50
90.000002504478161
 51
135.00000034162267
  0
ARC
  5
284
100
AcDbEntity
  8
0
  6
CONTINUOUS
 62
               7
100
AcDbCircle
 10
23.999999839999873
 20
175.99998124945301
 30
0.0
 40
2.9999999999999996
100
AcDbArc
 50
179.99999134857799
 51
270.00000068324533
  0
ARC
  5
285
100
AcDbEntity
  8
0
  6
CONTINUOUS
 62
               7
100
AcDbCircle
 10
52.999999839999987
 20
203.49998124945301
 30
0.0
 40
1.4999999999999998
100
AcDbArc
 50
45.00000125223908
 51
90.000002504478161
  0
ARC
  5
286
100
AcDbEntity
  8
0
  6
CONTINUOUS
 62
               7
100
AcDbCircle
 10
58.49999983999993
 20
205.99998124945301
 30
0.0
 40
0.5
100
AcDbArc
 50
7.4208451464152363
 51
90.000002504478161
  0
ARC
  5
287
100
AcDbEntity
  8
0
  6
CONTINUOUS
 62
               7
100
AcDbCircle
 10
54.499999839999987
 20
205.99998124945301
 30
0.0
 40
0.5
100
AcDbArc
 50
90.000002504478161
 51
180.00000500895632
  0
ARC
  5
288
100
AcDbEntity
  8
0
  6
CONTINUOUS
 62
               7
100
AcDbCircle
 10
25.499999839999987
 20
205.99998124945301
 30
0.0
 40
0.5
100
AcDbArc
 50
0.0
 51
90.000002504478161
  0
ARC
  5
289
100
AcDbEntity
  8
0
  6
CONTINUOUS
 62
               7
100
AcDbCircle
 10
21.499999839999873
 20
205.99998124945301
 30
0.0
 40
0.5
100
AcDbArc
 50
89.999995674288996
 51
172.57915473989922
  0
ARC
  5
28A
100
AcDbEntity
  8
0
  6
CONTINUOUS
 62
               7
100
AcDbCircle
 10
301.94665527343744
 20
49.999981689453023
 30
0.0
 40
2.9999999999999996
100
AcDbArc
 50
18.575665919617233
 51
90.000002504478161
  0
ARC
  5
28B
100
AcDbEntity
  8
0
  6
CONTINUOUS
 62
               7
100
AcDbCircle
 10
304.58218383789057
 20
10.199963378906034
 30
0.0
 40
5.0
100
AcDbArc
 50
269.99999749552182
 51
354.62440334723948
  0
ARC
  5
28C
100
AcDbEntity
  8
0
  6
CONTINUOUS
 62
               7
100
AcDbCircle
 10
300.88339233398426
 20
52.999981689452966
 30
0.0
 40
2.9999999999999996
100
AcDbArc
 50
20.455793309426426
 51
90.000002504478161
  0
ARC
  5
28D
100
AcDbEntity
  8
0
  6
CONTINUOUS
 62
               7
100
AcDbCircle
 10
209.99999999999991
 20
19.099987792968591
 30
0.0
 40
100.0
100
AcDbArc
 50
354.62440334723948
 51
20.455793309426426
  0
ARC
  5
28E
100
AcDbEntity
  8
0
  6
CONTINUOUS
 62
               7
100
AcDbCircle
 10
300.11416625976551
 20
49.999981689453023
 30
0.0
 40
2.9999999999999996
100
AcDbArc
 50
4.8539097921627041
 51
90.000002504478161
  0
ARC
  5
28F
100
AcDbEntity
  8
0
  6
CONTINUOUS
 62
               7
100
AcDbCircle
 10
300.11416625976551
 20
8.1999633789060908
 30
0.0
 40
2.9999999999999996
100
AcDbArc
 50
269.99999749552182
 51
355.14609020783729
  0
ARC
  5
290
100
AcDbEntity
  8
0
  6
CONTINUOUS
 62
               7
100
AcDbCircle
 10
53.999999999999886
 20
29.099987792968591
 30
0.0
 40
250.0
100
AcDbArc
 50
355.14609020783729
 51
4.8539097921627041
  0
LINE
  5
291
100
AcDbEntity
  8
0
  6
CONTINUOUS
 62
               7
100
AcDbLine
 10
280.49999999999994
 20
61.999981689452966
 30
0.0
 11
280.49999999999994
 21
55.999981689452909
 31
0.0
  0
LINE
  5
292
100
AcDbEntity
  8
0
  6
CONTINUOUS
 62
               7
100
AcDbLine
 10
238.49999999999994
 20
61.999981689452966
 30
0.0
 11
238.49999999999994
 21
55.999981689452909
 31
0.0
  0
LINE
  5
293
100
AcDbEntity
  8
0
  6
CONTINUOUS
 62
               7
100
AcDbLine
 10
238.49999999999994
 20
61.999981689452966
 30
0.0
 11
280.49999999999994
 21
61.999981689452966
 31
0.0
  0
LINE
  5
294
100
AcDbEntity
  8
0
  6
CONTINUOUS
 62
               7
100
AcDbLine
 10
16.149993736484305
 20
177.92435869085935
 30
0.0
 11
16.149993736484305
 21
182.07563432562495
 31
0.0
  0
LINE
  5
295
100
AcDbEntity
  8
0
  6
CONTINUOUS
 62
               7
100
AcDbLine
 10
16.150003496505178
 20
177.92436303496257
 30
0.0
 11
16.999997642744916
 21
177.84999818332025
 31
0.0
  0
LINE
  5
296
100
AcDbEntity
  8
0
  6
CONTINUOUS
 62
               7
100
AcDbLine
 10
16.150001412686834
 20
182.07562190949588
 30
0.0
 11
17.000010759651616
 21
182.14998809102923
 31
0.0
  0
LINE
  5
297
100
AcDbEntity
  8
0
  6
CONTINUOUS
 62
               7
100
AcDbLine
 10
16.149993736484305
 20
185.92435869085932
 30
0.0
 11
16.149993736484305
 21
190.07563432562492
 31
0.0
  0
LINE
  5
298
100
AcDbEntity
  8
0
  6
CONTINUOUS
 62
               7
100
AcDbLine
 10
16.149997855772654
 20
185.92434952452905
 30
0.0
 11
17.000007202737379
 21
185.84998334299567
 31
0.0
  0
LINE
  5
299
100
AcDbEntity
  8
0
  6
CONTINUOUS
 62
               7
100
AcDbLine
 10
16.150004393637232
 20
190.07563880051262
 30
0.0
 11
16.999998539876742
 21
190.15000365215485
 31
0.0
  0
LINE
  5
29A
100
AcDbEntity
  8
0
  6
CONTINUOUS
 62
               7
100
AcDbLine
 10
59.850005943515498
 20
183.07560380804685
 30
0.0
 11
59.850005943515498
 21
178.92435869085929
 31
0.0
  0
LINE
  5
29B
100
AcDbEntity
  8
0
  6
CONTINUOUS
 62
               7
100
AcDbLine
 10
59.850005780659103
 20
183.07562785776295
 30
0.0
 11
59.000011634419593
 21
183.14999270940518
 31
0.0
  0
LINE
  5
29C
100
AcDbEntity
  8
0
  6
CONTINUOUS
 62
               7
100
AcDbLine
 10
59.849992376588943
 20
178.9243679123939
 30
0.0
 11
58.999998230349433
 21
178.85000306075167
 31
0.0
  0
LINE
  5
29D
100
AcDbEntity
  8
0
  6
CONTINUOUS
 62
               7
100
AcDbLine
 10
59.850005943515498
 20
197.07563432562495
 30
0.0
 11
59.850005943515498
 21
192.92435869085935
 31
0.0
  0
LINE
  5
29E
100
AcDbEntity
  8
0
  6
CONTINUOUS
 62
               7
100
AcDbLine
 10
59.85000103944958
 20
197.07561908275662
 30
0.0
 11
59.00000689321007
 21
197.14998393439885
 31
0.0
  0
LINE
  5
29F
100
AcDbEntity
  8
0
  6
CONTINUOUS
 62
               7
100
AcDbLine
 10
59.849997117798466
 20
192.92435913738757
 30
0.0
 11
59.000002971558956
 21
192.84999428574534
 31
0.0
  0
LINE
  5
2A0
100
AcDbEntity
  8
0
  6
CONTINUOUS
 62
               7
100
AcDbLine
 10
16.999999839999987
 20
190.69999345648426
 30
0.0
 11
16.999999839999987
 21
177.29996904242185
 31
0.0
  0
LINE
  5
2A1
100
AcDbEntity
  8
0
  6
CONTINUOUS
 62
               7
100
AcDbLine
 10
20.99999983999993
 20
177.29996904242185
 30
0.0
 11
16.999999839999987
 21
177.29996904242185
 31
0.0
  0
LINE
  5
2A2
100
AcDbEntity
  8
0
  6
CONTINUOUS
 62
               7
100
AcDbLine
 10
20.99999983999993
 20
190.69999345648426
 30
0.0
 11
16.999999839999987
 21
190.69999345648426
 31
0.0
  0
LINE
  5
2A3
100
AcDbEntity
  8
0
  6
CONTINUOUS
 62
               7
100
AcDbLine
 10
22.025124274287123
 20
196.47068690160779
 30
0.0
 11
27.580750465120218
 21
202.02631309244097
 31
0.0
  0
LINE
  5
2A4
100
AcDbEntity
  8
0
  6
CONTINUOUS
 62
               7
100
AcDbLine
 10
57.974861408784022
 20
196.47066532242175
 30
0.0
 11
52.419224428357722
 21
202.02630230284797
 31
0.0
  0
LINE
  5
2A5
100
AcDbEntity
  8
0
  6
CONTINUOUS
 62
               2
100
AcDbLine
 10
23.49999983999993
 20
213.58969272577866
 30
0.0
 11
23.49999983999993
 21
200.01981767523432
 31
0.0
  0
LINE
  5
2A6
100
AcDbEntity
  8
0
  6
CONTINUOUS
 62
               7
100
AcDbLine
 10
25.99999983999993
 20
205.99998124945301
 30
0.0
 11
25.99999983999993
 21
200.44556246732068
 31
0.0
  0
LINE
  5
2A7
100
AcDbEntity
  8
0
  6
CONTINUOUS
 62
               7
100
AcDbLine
 10
50.792892296054674
 20
202.69996293890614
 30
0.0
 11
29.207107383945299
 21
202.69996293890614
 31
0.0
  0
LINE
  5
2A8
100
AcDbEntity
  8
0
  6
CONTINUOUS
 62
               7
100
AcDbLine
 10
54.060645216640353
 20
204.56062665226327
 30
0.0
 11
53.999999839999873
 21
204.62127202890372
 31
0.0
  0
LINE
  5
2A9
100
AcDbEntity
  8
0
  6
CONTINUOUS
 62
               7
100
AcDbLine
 10
52.999999839999987
 20
204.99998124945307
 30
0.0
 11
26.121320183560783
 21
204.99998124945307
 31
0.0
  0
LINE
  5
2AA
100
AcDbEntity
  8
0
  6
CONTINUOUS
 62
               2
100
AcDbLine
 10
56.499999839999873
 20
213.58969272577866
 30
0.0
 11
56.499999839999873
 21
200.01981767523432
 31
0.0
  0
LINE
  5
2AB
100
AcDbEntity
  8
0
  6
CONTINUOUS
 62
               7
100
AcDbLine
 10
53.999999839999873
 20
205.99998124945301
 30
0.0
 11
53.999999839999873
 21
200.44552689120576
 31
0.0
  0
LINE
  5
2AC
100
AcDbEntity
  8
0
  6
CONTINUOUS
 62
               2
100
AcDbLine
 10
259.49999999999989
 20
63.226636568060371
 30
0.0
 11
259.49999999999989
 21
52.258029425344262
 31
0.0
  0
LINE
  5
2AD
100
AcDbEntity
  8
0
  6
CONTINUOUS
 62
               7
100
AcDbLine
 10
-0.0000152587891762
 20
162.99998168945294
 30
0.0
 11
59.999999839999873
 21
162.99998168945294
 31
0.0
  0
LINE
  5
2AE
100
AcDbEntity
  8
0
  6
CONTINUOUS
 62
               2
100
AcDbLine
 10
9.9999847412108238
 20
61.549240624856395
 30
0.0
 11
9.9999847412108238
 21
52.225494789905269
 31
0.0
  0
LINE
  5
2AF
100
AcDbEntity
  8
0
  6
CONTINUOUS
 62
               2
100
AcDbLine
 10
29.999984741210824
 20
52.131631576801738
 30
0.0
 11
29.999984741210824
 21
61.768254788764636
 31
0.0
  0
LINE
  5
2B0
100
AcDbEntity
  8
0
  6
CONTINUOUS
 62
               7
100
AcDbLine
 10
284.99999999999994
 20
52.999981689452966
 30
0.0
 11
284.99999999999994
 21
55.999981689452909
 31
0.0
  0
LINE
  5
2B1
100
AcDbEntity
  8
0
  6
CONTINUOUS
 62
               7
100
AcDbLine
 10
-0.0000152587891762
 20
52.999981689452966
 30
0.0
 11
301.94665527343744
 21
52.999981689452966
 31
0.0
  0
LINE
  5
2B2
100
AcDbEntity
  8
0
  6
CONTINUOUS
 62
               7
100
AcDbLine
 10
276.99999999999989
 20
0.0
 30
0.0
 11
288.99999999999989
 21
0.0
 31
0.0
  0
LINE
  5
2B3
100
AcDbEntity
  8
0
  6
CONTINUOUS
 62
               7
100
AcDbLine
 10
18.399999839999964
 20
172.99998124945304
 30
0.0
 11
59.999999839999873
 21
172.99998124945304
 31
0.0
  0
LINE
  5
2B4
100
AcDbEntity
  8
0
  6
CONTINUOUS
 62
               7
100
AcDbLine
 10
288.99999999999989
 20
0.0
 30
0.0
 11
288.99999999999989
 21
3.1999816894530113
 31
0.0
  0
LINE
  5
2B5
100
AcDbEntity
  8
0
  6
CONTINUOUS
 62
               7
100
AcDbLine
 10
276.99999999999989
 20
0.0
 30
0.0
 11
276.99999999999989
 21
3.1999816894530113
 31
0.0
  0
LINE
  5
2B6
100
AcDbEntity
  8
0
  6
CONTINUOUS
 62
               7
100
AcDbLine
 10
10.999984741210824
 20
0.0
 30
0.0
 11
10.999984741210824
 21
3.1999816894530113
 31
0.0
  0
LINE
  5
2B7
100
AcDbEntity
  8
0
  6
CONTINUOUS
 62
               7
100
AcDbLine
 10
22.999984741210824
 20
0.0
 30
0.0
 11
22.999984741210824
 21
3.1999816894530113
 31
0.0
  0
LINE
  5
2B8
100
AcDbEntity
  8
0
  6
CONTINUOUS
 62
               7
100
AcDbLine
 10
299.99999999999994
 20
5.199963378906034
 30
0.0
 11
299.99999999999994
 21
55.999981689452909
 31
0.0
  0
LINE
  5
2B9
100
AcDbEntity
  8
0
  6
CONTINUOUS
 62
               7
100
AcDbLine
 10
10.999984741210824
 20
0.0
 30
0.0
 11
22.999984741210824
 21
0.0
 31
0.0
  0
LINE
  5
2BA
100
AcDbEntity
  8
0
  6
CONTINUOUS
 62
               7
100
AcDbLine
 10
72.739336634161873
 20
295.44184454810346
 30
0.0
 11
74.860656977721646
 21
297.56316489166306
 31
0.0
  0
LINE
  5
2BB
100
AcDbEntity
  8
0
  6
CONTINUOUS
 62
               7
100
AcDbLine
 10
72.739336634161873
 20
297.56316489166306
 30
0.0
 11
74.860656977721646
 21
295.44184454810346
 31
0.0
  0
LINE
  5
2BC
100
AcDbEntity
  8
0
  6
CONTINUOUS
 62
               7
100
AcDbLine
 10
71.739336633162338
 20
290.44184447753634
 30
0.0
 11
73.860656976722112
 21
292.56316482109594
 31
0.0
  0
LINE
  5
2BD
100
AcDbEntity
  8
0
  6
CONTINUOUS
 62
               7
100
AcDbLine
 10
71.739336633162338
 20
292.56316482109594
 30
0.0
 11
73.860656976722112
 21
290.44184447753634
 31
0.0
  0
LINE
  5
2BE
100
AcDbEntity
  8
0
  6
CONTINUOUS
 62
               7
100
AcDbLine
 10
79.739336641162026
 20
290.44184447753634
 30
0.0
 11
81.8606569847218
 21
292.56316482109594
 31
0.0
  0
LINE
  5
2BF
100
AcDbEntity
  8
0
  6
CONTINUOUS
 62
               7
100
AcDbLine
 10
79.739336641162026
 20
292.56316482109594
 30
0.0
 11
81.8606569847218
 21
290.44184447753634
 31
0.0
  0
LINE
  5
2C0
100
AcDbEntity
  8
0
  6
CONTINUOUS
 62
               7
100
AcDbLine
 10
86.73933664816218
 20
295.44184454810346
 30
0.0
 11
88.860656991721953
 21
297.56316489166306
 31
0.0
  0
LINE
  5
2C1
100
AcDbEntity
  8
0
  6
CONTINUOUS
 62
               7
100
AcDbLine
 10
86.73933664816218
 20
297.56316489166306
 30
0.0
 11
88.860656991721953
 21
295.44184454810346
 31
0.0
  0
LINE
  5
2C2
100
AcDbEntity
  8
0
  6
CONTINUOUS
 62
               7
100
AcDbLine
 10
4.939339828220227
 20
10.739327621188806
 30
0.0
 11
7.0606601717800004
 21
12.860647964748409
 31
0.0
  0
LINE
  5
2C3
100
AcDbEntity
  8
0
  6
CONTINUOUS
 62
               7
100
AcDbLine
 10
4.939339828220227
 20
12.860647964748409
 30
0.0
 11
7.0606601717800004
 21
10.739327621188806
 31
0.0
  0
LINE
  5
2C4
100
AcDbEntity
  8
0
  6
CONTINUOUS
 62
               7
100
AcDbLine
 10
147.43933982822068
 20
10.739327621188806
 30
0.0
 11
149.56066017178046
 21
12.860647964748409
 31
0.0
  0
LINE
  5
2C5
100
AcDbEntity
  8
0
  6
CONTINUOUS
 62
               7
100
AcDbLine
 10
147.43933982822068
 20
12.860647964748409
 30
0.0
 11
149.56066017178046
 21
10.739327621188806
 31
0.0
  0
LINE
  5
2C6
100
AcDbEntity
  8
0
  6
CONTINUOUS
 62
               7
100
AcDbLine
 10
289.93933982822068
 20
10.739327621188806
 30
0.0
 11
292.06066017178046
 21
12.860647964748409
 31
0.0
  0
LINE
  5
2C7
100
AcDbEntity
  8
0
  6
CONTINUOUS
 62
               7
100
AcDbLine
 10
289.93933982822068
 20
12.860647964748409
 30
0.0
 11
292.06066017178046
 21
10.739327621188806
 31
0.0
  0
ENDBLK
  5
2C8
100
AcDbEntity
  8
0
100
AcDbBlockEnd
  0
BLOCK
  5
2C9
100
AcDbEntity
  8
0
100
AcDbBlockBegin
  2
DTRB-AS3-3
 70
               0
 10
0.0
 20
0.0
 30
0.0
  3
DTRB-AS3-3
  1

  0
CIRCLE
  5
2CA
100
AcDbEntity
  8
0
  6
CONTINUOUS
 62
               7
100
AcDbCircle
 10
-40.0
 20
-6.0
 30
0.0
 40
3.0350000858306885
  0
CIRCLE
  5
2CB
100
AcDbEntity
  8
0
  6
CONTINUOUS
 62
               7
100
AcDbCircle
 10
-40.0
 20
-6.0
 30
0.0
 40
3.1500000953674316
  0
CIRCLE
  5
2CC
100
AcDbEntity
  8
0
  6
CONTINUOUS
 62
               7
100
AcDbCircle
 10
40.0
 20
-6.0
 30
0.0
 40
3.0350000858306885
  0
CIRCLE
  5
2CD
100
AcDbEntity
  8
0
  6
CONTINUOUS
 62
               7
100
AcDbCircle
 10
40.0
 20
-6.0
 30
0.0
 40
3.1500000953674316
  0
LINE
  5
2CE
100
AcDbEntity
  8
0
  6
CONTINUOUS
 62
               7
100
AcDbLine
 10
93.000000012999749
 20
-19.800010500952226
 30
0.0
 11
96.000000020999778
 21
-19.800010500952226
 31
0.0
  0
LINE
  5
2CF
100
AcDbEntity
  8
0
  6
CONTINUOUS
 62
               7
100
AcDbLine
 10
72.500000012999749
 20
-18.400007441283265
 30
0.0
 11
72.500000012999749
 21
-28.600007452894829
 31
0.0
  0
LINE
  5
2D0
100
AcDbEntity
  8
0
  6
CONTINUOUS
 62
               7
100
AcDbLine
 10
91.000000012999749
 20
-28.600007452894829
 30
0.0
 11
72.500000012999749
 21
-28.600007452894829
 31
0.0
  0
LINE
  5
2D1
100
AcDbEntity
  8
0
  6
CONTINUOUS
 62
               7
100
AcDbLine
 10
91.000000012999749
 20
-18.400007452894783
 30
0.0
 11
72.499999993088636
 21
-18.400007452894783
 31
0.0
  0
LINE
  5
2D2
100
AcDbEntity
  8
0
  6
CONTINUOUS
 62
               7
100
AcDbLine
 10
82.500000012999749
 20
-18.400007441283265
 30
0.0
 11
82.500000012999749
 21
-28.600007452894829
 31
0.0
  0
LINE
  5
2D3
100
AcDbEntity
  8
0
  6
CONTINUOUS
 62
               7
100
AcDbLine
 10
81.918120958473537
 20
-18.400007441283265
 30
0.0
 11
81.918120958473537
 21
-28.600007429362336
 31
0.0
  0
LINE
  5
2D4
100
AcDbEntity
  8
0
  6
CONTINUOUS
 62
               7
100
AcDbLine
 10
79.499999993088522
 20
-26.000007452894806
 30
0.0
 11
74.499999993088522
 21
-26.000007452894806
 31
0.0
  0
LINE
  5
2D5
100
AcDbEntity
  8
0
  6
CONTINUOUS
 62
               7
100
AcDbLine
 10
79.499999993088522
 20
-21.000007452894806
 30
0.0
 11
74.499999993088522
 21
-21.000007452894806
 31
0.0
  0
LINE
  5
2D6
100
AcDbEntity
  8
0
  6
CONTINUOUS
 62
               7
100
AcDbLine
 10
74.499999993088522
 20
-18.400007441283265
 30
0.0
 11
74.499999993088522
 21
-21.000007452894806
 31
0.0
  0
LINE
  5
2D7
100
AcDbEntity
  8
0
  6
CONTINUOUS
 62
               7
100
AcDbLine
 10
79.499999993088522
 20
-18.400007441283265
 30
0.0
 11
79.499999993088522
 21
-21.000007452894806
 31
0.0
  0
LINE
  5
2D8
100
AcDbEntity
  8
0
  6
CONTINUOUS
 62
               7
100
AcDbLine
 10
74.499999993088522
 20
-26.000007452894806
 30
0.0
 11
74.499999993088522
 21
-28.600007429362336
 31
0.0
  0
LINE
  5
2D9
100
AcDbEntity
  8
0
  6
CONTINUOUS
 62
               7
100
AcDbLine
 10
79.499999993088522
 20
-26.000007452894806
 30
0.0
 11
79.499999993088522
 21
-28.600007429362336
 31
0.0
  0
LINE
  5
2DA
100
AcDbEntity
  8
0
  6
CONTINUOUS
 62
               7
100
AcDbLine
 10
82.500000012999749
 20
-26.000007452894806
 30
0.0
 11
81.918120958473537
 21
-26.000007452894806
 31
0.0
  0
LINE
  5
2DB
100
AcDbEntity
  8
0
  6
CONTINUOUS
 62
               7
100
AcDbLine
 10
82.500000012999749
 20
-21.000007452894806
 30
0.0
 11
81.918120958473537
 21
-21.000007452894806
 31
0.0
  0
LINE
  5
2DC
100
AcDbEntity
  8
0
  6
CONTINUOUS
 62
               2
100
AcDbLine
 10
91.470066898110304
 20
-23.500007452894806
 30
0.0
 11
84.47624879384307
 21
-23.500007452894806
 31
0.0
  0
LINE
  5
2DD
100
AcDbEntity
  8
0
  6
CONTINUOUS
 62
               2
100
AcDbLine
 10
88.000000012999749
 20
-19.766188291993728
 30
0.0
 11
88.000000012999749
 21
-27.211220431320953
 31
0.0
  0
ARC
  5
2DE
100
AcDbEntity
  8
0
  6
CONTINUOUS
 62
               7
100
AcDbCircle
 10
91.000000012999749
 20
-26.600007452894829
 30
0.0
 40
2.0
100
AcDbArc
 50
270.0
 51
0.0
  0
ARC
  5
2DF
100
AcDbEntity
  8
0
  6
CONTINUOUS
 62
               7
100
AcDbCircle
 10
91.000000012999749
 20
-20.40000745289484
 30
0.0
 40
2.0
100
AcDbArc
 50
0.0
 51
90.0
  0
LINE
  5
2E0
100
AcDbEntity
  8
0
  6
CONTINUOUS
 62
               7
100
AcDbLine
 10
91.500000337021675
 20
5.5000150857499648
 30
0.0
 11
92.01961597185425
 21
5.8000152049592089
 31
0.0
  0
LINE
  5
2E1
100
AcDbEntity
  8
0
  6
CONTINUOUS
 62
               7
100
AcDbLine
 10
98.499999919999937
 20
5.500015128054315
 30
0.0
 11
91.499999919999823
 21
5.500015128054315
 31
0.0
  0
LINE
  5
2E2
100
AcDbEntity
  8
0
  6
CONTINUOUS
 62
               7
100
AcDbLine
 10
97.980384746660093
 20
5.800015318789292
 30
0.0
 11
92.019616047014097
 21
5.800015318789292
 31
0.0
  0
LINE
  5
2E3
100
AcDbEntity
  8
0
  6
CONTINUOUS
 62
               7
100
AcDbLine
 10
98.499999828610726
 20
5.5000152914013825
 30
0.0
 11
97.980384714019578
 21
5.8000152794804762
 31
0.0
  0
LINE
  5
2E4
100
AcDbEntity
  8
0
  6
CONTINUOUS
 62
               7
100
AcDbLine
 10
98.499999919999937
 20
5.500015128054315
 30
0.0
 11
98.499999919999937
 21
5.1000000000000227
 31
0.0
  0
LINE
  5
2E5
100
AcDbEntity
  8
0
  6
CONTINUOUS
 62
               7
100
AcDbLine
 10
91.499999919999823
 20
5.500015128054315
 30
0.0
 11
91.499999919999823
 21
5.1000000000000227
 31
0.0
  0
LINE
  5
2E6
100
AcDbEntity
  8
0
  6
CONTINUOUS
 62
               2
100
AcDbLine
 10
94.999999919999937
 20
6.8981316021011025
 30
0.0
 11
94.999999919999937
 21
-2.3989891591292576
 31
0.0
  0
LINE
  5
2E7
100
AcDbEntity
  8
0
  6
CONTINUOUS
 62
               7
100
AcDbLine
 10
100.09999991999985
 20
1.8000000000000114
 30
0.0
 11
89.899999919999914
 21
1.8000000000000114
 31
0.0
  0
LINE
  5
2E8
100
AcDbEntity
  8
0
  6
CONTINUOUS
 62
               7
100
AcDbLine
 10
89.899999919999914
 20
5.1000000000000227
 30
0.0
 11
89.899999919999914
 21
0.0
 31
0.0
  0
LINE
  5
2E9
100
AcDbEntity
  8
0
  6
CONTINUOUS
 62
               7
100
AcDbLine
 10
100.09999991999985
 20
5.1000000000000227
 30
0.0
 11
100.09999991999985
 21
0.0
 31
0.0
  0
LINE
  5
2EA
100
AcDbEntity
  8
0
  6
CONTINUOUS
 62
               7
100
AcDbLine
 10
100.09999991999985
 20
5.1000000000000227
 30
0.0
 11
89.899999919999914
 21
5.1000000000000227
 31
0.0
  0
CIRCLE
  5
2EB
100
AcDbEntity
  8
0
  6
CONTINUOUS
 62
               7
100
AcDbCircle
 10
40.0
 20
-291.20002730582058
 30
0.0
 40
3.0350000858306885
  0
CIRCLE
  5
2EC
100
AcDbEntity
  8
0
  6
CONTINUOUS
 62
               7
100
AcDbCircle
 10
40.0
 20
-291.20002730582058
 30
0.0
 40
3.1500000953674316
  0
CIRCLE
  5
2ED
100
AcDbEntity
  8
0
  6
CONTINUOUS
 62
               7
100
AcDbCircle
 10
-40.0
 20
-291.20002730582058
 30
0.0
 40
3.0350000858306885
  0
CIRCLE
  5
2EE
100
AcDbEntity
  8
0
  6
CONTINUOUS
 62
               7
100
AcDbCircle
 10
-40.0
 20
-291.20002730582058
 30
0.0
 40
3.1500000953674316
  0
LINE
  5
2EF
100
AcDbEntity
  8
0
  6
CONTINUOUS
 62
               7
100
AcDbLine
 10
106.29998697395342
 20
-9.0362760701262914
 30
0.0
 11
106.29998697395342
 21
-2.9637357869231664
 31
0.0
  0
ARC
  5
2F0
100
AcDbEntity
  8
0
  6
CONTINUOUS
 62
               7
100
AcDbCircle
 10
98.917601720047173
 20
-6.0000211873139051
 30
0.0
 40
7.982419490814209
100
AcDbArc
 50
337.64346078089295
 51
22.356542861572724
  0
LINE
  5
2F1
100
AcDbEntity
  8
0
  6
CONTINUOUS
 62
               7
100
AcDbLine
 10
106.30001368997284
 20
-9.0362756811819054
 30
0.0
 11
104.99998687637083
 21
-9.1500132893197588
 31
0.0
  0
LINE
  5
2F2
100
AcDbEntity
  8
0
  6
CONTINUOUS
 62
               7
100
AcDbLine
 10
106.29997913433101
 20
-2.9637491968323957
 30
0.0
 11
105.0000131236294
 21
-2.8500169082590219
 31
0.0
  0
LINE
  5
2F3
100
AcDbEntity
  8
0
  6
CONTINUOUS
 62
               7
100
AcDbLine
 10
106.29998697395342
 20
-151.53627607012675
 30
0.0
 11
106.29998697395342
 21
-145.46373578692362
 31
0.0
  0
ARC
  5
2F4
100
AcDbEntity
  8
0
  6
CONTINUOUS
 62
               7
100
AcDbCircle
 10
98.917601720047173
 20
-148.5000211873143
 30
0.0
 40
7.982419490814209
100
AcDbArc
 50
337.64346078089295
 51
22.356542861572724
  0
LINE
  5
2F5
100
AcDbEntity
  8
0
  6
CONTINUOUS
 62
               7
100
AcDbLine
 10
106.30001368997284
 20
-151.5362756811823
 30
0.0
 11
104.99998687637083
 21
-151.6500132893201
 31
0.0
  0
LINE
  5
2F6
100
AcDbEntity
  8
0
  6
CONTINUOUS
 62
               7
100
AcDbLine
 10
106.29997913433101
 20
-145.46374919683279
 30
0.0
 11
105.0000131236294
 21
-145.35001690825942
 31
0.0
  0
LINE
  5
2F7
100
AcDbEntity
  8
0
  6
CONTINUOUS
 62
               7
100
AcDbLine
 10
106.29998697395342
 20
-294.03627607012669
 30
0.0
 11
106.29998697395342
 21
-287.96373578692356
 31
0.0
  0
ARC
  5
2F8
100
AcDbEntity
  8
0
  6
CONTINUOUS
 62
               7
100
AcDbCircle
 10
98.917601720047173
 20
-291.00002118731425
 30
0.0
 40
7.982419490814209
100
AcDbArc
 50
337.64346078089295
 51
22.356542861572724
  0
LINE
  5
2F9
100
AcDbEntity
  8
0
  6
CONTINUOUS
 62
               7
100
AcDbLine
 10
106.30001368997284
 20
-294.03627568118225
 30
0.0
 11
104.99998687637083
 21
-294.1500132893201
 31
0.0
  0
LINE
  5
2FA
100
AcDbEntity
  8
0
  6
CONTINUOUS
 62
               7
100
AcDbLine
 10
106.29997913433101
 20
-287.96374919683274
 30
0.0
 11
105.0000131236294
 21
-287.85001690825936
 31
0.0
  0
LINE
  5
2FB
100
AcDbEntity
  8
0
  6
CONTINUOUS
 62
               7
100
AcDbLine
 10
-106.29997913433101
 20
-2.9637491968323957
 30
0.0
 11
-105.0000131236294
 21
-2.8500169082590219
 31
0.0
  0
LINE
  5
2FC
100
AcDbEntity
  8
0
  6
CONTINUOUS
 62
               7
100
AcDbLine
 10
-106.30001368997284
 20
-9.0362756811819054
 30
0.0
 11
-104.99998687637083
 21
-9.1500132893197588
 31
0.0
  0
ARC
  5
2FD
100
AcDbEntity
  8
0
  6
CONTINUOUS
 62
               7
100
AcDbCircle
 10
-98.917601720047173
 20
-6.0000211873139051
 30
0.0
 40
7.982419490814209
100
AcDbArc
 50
157.64345713842727
 51
202.35653921910705
  0
LINE
  5
2FE
100
AcDbEntity
  8
0
  6
CONTINUOUS
 62
               7
100
AcDbLine
 10
-106.29998697395348
 20
-9.0362760701262914
 30
0.0
 11
-106.29998697395348
 21
-2.9637357869231664
 31
0.0
  0
LINE
  5
2FF
100
AcDbEntity
  8
0
  6
CONTINUOUS
 62
               7
100
AcDbLine
 10
-106.29997913433101
 20
-145.46374919683279
 30
0.0
 11
-105.0000131236294
 21
-145.35001690825942
 31
0.0
  0
LINE
  5
300
100
AcDbEntity
  8
0
  6
CONTINUOUS
 62
               7
100
AcDbLine
 10
-106.30001368997284
 20
-151.5362756811823
 30
0.0
 11
-104.99998687637083
 21
-151.6500132893201
 31
0.0
  0
ARC
  5
301
100
AcDbEntity
  8
0
  6
CONTINUOUS
 62
               7
100
AcDbCircle
 10
-98.917601720047173
 20
-148.5000211873143
 30
0.0
 40
7.982419490814209
100
AcDbArc
 50
157.64345713842727
 51
202.35653921910705
  0
LINE
  5
302
100
AcDbEntity
  8
0
  6
CONTINUOUS
 62
               7
100
AcDbLine
 10
-106.29998697395348
 20
-151.53627607012675
 30
0.0
 11
-106.29998697395348
 21
-145.46373578692362
 31
0.0
  0
LINE
  5
303
100
AcDbEntity
  8
0
  6
CONTINUOUS
 62
               7
100
AcDbLine
 10
-106.29997913433101
 20
-287.96374919683274
 30
0.0
 11
-105.0000131236294
 21
-287.85001690825936
 31
0.0
  0
LINE
  5
304
100
AcDbEntity
  8
0
  6
CONTINUOUS
 62
               7
100
AcDbLine
 10
-106.30001368997284
 20
-294.03627568118225
 30
0.0
 11
-104.99998687637083
 21
-294.1500132893201
 31
0.0
  0
ARC
  5
305
100
AcDbEntity
  8
0
  6
CONTINUOUS
 62
               7
100
AcDbCircle
 10
-98.917601720047173
 20
-291.00002118731425
 30
0.0
 40
7.982419490814209
100
AcDbArc
 50
157.64345713842727
 51
202.35653921910705
  0
LINE
  5
306
100
AcDbEntity
  8
0
  6
CONTINUOUS
 62
               7
100
AcDbLine
 10
-106.29998697395348
 20
-294.03627607012669
 30
0.0
 11
-106.29998697395348
 21
-287.96373578692356
 31
0.0
  0
LINE
  5
307
100
AcDbEntity
  8
0
  6
CONTINUOUS
 62
               2
100
AcDbLine
 10
91.499999999999773
 20
-100.72240740173538
 30
0.0
 11
91.499999999999773
 21
-92.819854662328339
 31
0.0
  0
LINE
  5
308
100
AcDbEntity
  8
0
  6
CONTINUOUS
 62
               2
100
AcDbLine
 10
58.499999999999886
 20
-100.72240740173538
 30
0.0
 11
58.499999999999886
 21
-92.819854662328339
 31
0.0
  0
LINE
  5
309
100
AcDbEntity
  8
0
  6
CONTINUOUS
 62
               7
100
AcDbLine
 10
55.999999999999886
 20
-98.800018236546975
 30
0.0
 11
55.999999999999886
 21
-93.117472712550466
 31
0.0
  0
ARC
  5
30A
100
AcDbEntity
  8
0
  6
CONTINUOUS
 62
               7
100
AcDbCircle
 10
56.499999999999773
 20
-98.800018236546975
 30
0.0
 40
0.5
100
AcDbArc
 50
187.42084514641525
 51
270.00000250447818
  0
LINE
  5
30B
100
AcDbEntity
  8
0
  6
CONTINUOUS
 62
               7
100
AcDbLine
 10
60.500000021855499
 20
-99.300018236547032
 30
0.0
 11
56.500000021855499
 21
-99.300018236547032
 31
0.0
  0
ARC
  5
30C
100
AcDbEntity
  8
0
  6
CONTINUOUS
 62
               7
100
AcDbCircle
 10
60.499999999999773
 20
-98.800018236546975
 30
0.0
 40
0.5
100
AcDbArc
 50
270.00000250447818
 51
0.0000050089563345
  0
LINE
  5
30D
100
AcDbEntity
  8
0
  6
CONTINUOUS
 62
               7
100
AcDbLine
 10
60.999999999999886
 20
-98.800018236546975
 30
0.0
 11
60.999999999999886
 21
-98.032061394836091
 31
0.0
  0
LINE
  5
30E
100
AcDbEntity
  8
0
  6
CONTINUOUS
 62
               7
100
AcDbLine
 10
88.999999999999773
 20
-98.800018236546975
 30
0.0
 11
88.999999999999773
 21
-98.032061394836035
 31
0.0
  0
ARC
  5
30F
100
AcDbEntity
  8
0
  6
CONTINUOUS
 62
               7
100
AcDbCircle
 10
89.499999999999659
 20
-98.800018236546975
 30
0.0
 40
0.5
100
AcDbArc
 50
180.0
 51
270.00000250447818
  0
LINE
  5
310
100
AcDbEntity
  8
0
  6
CONTINUOUS
 62
               7
100
AcDbLine
 10
93.499999962250854
 20
-99.300018236547032
 30
0.0
 11
89.500000021855385
 21
-99.300018236547032
 31
0.0
  0
ARC
  5
311
100
AcDbEntity
  8
0
  6
CONTINUOUS
 62
               7
100
AcDbCircle
 10
93.499999999999886
 20
-98.800018236546975
 30
0.0
 40
0.5
100
AcDbArc
 50
269.99999567428898
 51
352.5791547398992
  0
LINE
  5
312
100
AcDbEntity
  8
0
  6
CONTINUOUS
 62
               7
100
AcDbLine
 10
93.999999999999773
 20
-98.800018236546975
 30
0.0
 11
93.999999999999773
 21
-91.678703199784309
 31
0.0
  0
LINE
  5
313
100
AcDbEntity
  8
0
  6
CONTINUOUS
 62
               7
100
AcDbLine
 10
-14.000000000000114
 20
49.499969642421718
 30
0.0
 11
-14.000000000000114
 21
0.0
 31
0.0
  0
LINE
  5
314
100
AcDbEntity
  8
0
  6
CONTINUOUS
 62
               2
100
AcDbLine
 10
84.999999999999773
 20
-56.494443159055947
 30
0.0
 11
85.000000009999781
 21
-67.721283922986686
 31
0.0
  0
LINE
  5
315
100
AcDbEntity
  8
0
  6
CONTINUOUS
 62
               7
100
AcDbLine
 10
76.49999998008866
 20
-57.700018226547058
 30
0.0
 11
76.49999998008866
 21
-61.000018226547127
 31
0.0
  0
CIRCLE
  5
316
100
AcDbEntity
  8
0
  6
CONTINUOUS
 62
               7
100
AcDbCircle
 10
61.999999956666443
 20
-56.500015153789263
 30
0.0
 40
2.7500000091666661
  0
LINE
  5
317
100
AcDbEntity
  8
0
  6
CONTINUOUS
 62
               7
100
AcDbLine
 10
60.556623083372187
 20
-56.500006464422199
 30
0.0
 11
61.278303203432415
 21
-57.749992073601391
 31
0.0
  0
LINE
  5
318
100
AcDbEntity
  8
0
  6
CONTINUOUS
 62
               7
100
AcDbLine
 10
61.278359393124902
 20
-55.250032352816675
 30
0.0
 11
60.556680778605823
 21
-56.500018908336074
 31
0.0
  0
LINE
  5
319
100
AcDbEntity
  8
0
  6
CONTINUOUS
 62
               7
100
AcDbLine
 10
62.721690762332059
 20
-55.250025140877028
 30
0.0
 11
61.278331382520832
 21
-55.250026094541795
 31
0.0
  0
LINE
  5
31A
100
AcDbEntity
  8
0
  6
CONTINUOUS
 62
               7
100
AcDbLine
 10
63.443383988289838
 20
-56.49999879207212
 30
0.0
 11
62.721704341399686
 21
-55.250012838769294
 31
0.0
  0
LINE
  5
31B
100
AcDbEntity
  8
0
  6
CONTINUOUS
 62
               7
100
AcDbLine
 10
62.721676798017484
 20
-57.749992304460307
 30
0.0
 11
63.443354638258143
 21
-56.500005318786293
 31
0.0
  0
LINE
  5
31C
100
AcDbEntity
  8
0
  6
CONTINUOUS
 62
               7
100
AcDbLine
 10
62.721679646572056
 20
-57.750015157955886
 30
0.0
 11
61.278320266760829
 21
-57.750015157955886
 31
0.0
  0
LINE
  5
31D
100
AcDbEntity
  8
0
  6
CONTINUOUS
 62
               7
100
AcDbLine
 10
71.49999998008866
 20
-57.700018226547058
 30
0.0
 11
71.49999998008866
 21
-61.000018226547127
 31
0.0
  0
LINE
  5
31E
100
AcDbEntity
  8
0
  6
CONTINUOUS
 62
               7
100
AcDbLine
 10
69.499999980088546
 20
-57.700018226547058
 30
0.0
 11
69.499999980088546
 21
-62.800018226547081
 31
0.0
  0
LINE
  5
31F
100
AcDbEntity
  8
0
  6
CONTINUOUS
 62
               7
100
AcDbLine
 10
67.75000000916657
 20
-60.300018218213722
 30
0.0
 11
67.75000000916657
 21
-62.800018226547081
 31
0.0
  0
LINE
  5
320
100
AcDbEntity
  8
0
  6
CONTINUOUS
 62
               7
100
AcDbLine
 10
62.249999990833203
 20
-62.800018226547081
 30
0.0
 11
62.249999990833203
 21
-60.300018218213722
 31
0.0
  0
LINE
  5
321
100
AcDbEntity
  8
0
  6
CONTINUOUS
 62
               7
100
AcDbLine
 10
62.750055014695704
 20
-59.800042386399753
 30
0.0
 11
62.250042723241791
 21
-60.300052781202567
 31
0.0
  0
LINE
  5
322
100
AcDbEntity
  8
0
  6
CONTINUOUS
 62
               7
100
AcDbLine
 10
67.75000000916657
 20
-60.300018218213722
 30
0.0
 11
62.249999990833203
 21
-60.300018218213722
 31
0.0
  0
LINE
  5
323
100
AcDbEntity
  8
0
  6
CONTINUOUS
 62
               7
100
AcDbLine
 10
67.250000007499807
 20
-59.800018216547073
 30
0.0
 11
62.749999992499852
 21
-59.800018216547073
 31
0.0
  0
LINE
  5
324
100
AcDbEntity
  8
0
  6
CONTINUOUS
 62
               7
100
AcDbLine
 10
67.750026700158514
 20
-60.300020360692201
 30
0.0
 11
67.250035987932506
 21
-59.800031545035495
 31
0.0
  0
LINE
  5
325
100
AcDbEntity
  8
0
  6
CONTINUOUS
 62
               2
100
AcDbLine
 10
64.999999999999773
 20
-58.820609850902997
 30
0.0
 11
64.999999999999773
 21
-67.807398186550643
 31
0.0
  0
LINE
  5
326
100
AcDbEntity
  8
0
  6
CONTINUOUS
 62
               7
100
AcDbLine
 10
78.918120945473561
 20
-57.700018226547058
 30
0.0
 11
69.499999980088546
 21
-57.700018226547058
 31
0.0
  0
LINE
  5
327
100
AcDbEntity
  8
0
  6
CONTINUOUS
 62
               7
100
AcDbLine
 10
76.49999998008866
 20
-59.400018226547047
 30
0.0
 11
71.49999998008866
 21
-59.400018226547047
 31
0.0
  0
ARC
  5
328
100
AcDbEntity
  8
0
  6
CONTINUOUS
 62
               7
100
AcDbCircle
 10
88.000000043333216
 20
-56.500015153789263
 30
0.0
 40
2.7500000091666661
100
AcDbArc
 50
264.78409073216426
 51
213.0558071618525
  0
LINE
  5
329
100
AcDbEntity
  8
0
  6
CONTINUOUS
 62
               7
100
AcDbLine
 10
86.556623170038847
 20
-56.500006464422199
 30
0.0
 11
87.278303290099075
 21
-57.749992073601391
 31
0.0
  0
LINE
  5
32A
100
AcDbEntity
  8
0
  6
CONTINUOUS
 62
               7
100
AcDbLine
 10
87.278359479791561
 20
-55.250032352816675
 30
0.0
 11
86.556680865272369
 21
-56.500018908336074
 31
0.0
  0
LINE
  5
32B
100
AcDbEntity
  8
0
  6
CONTINUOUS
 62
               7
100
AcDbLine
 10
88.721690848998605
 20
-55.250025140877028
 30
0.0
 11
87.278331469187492
 21
-55.250026094541795
 31
0.0
  0
LINE
  5
32C
100
AcDbEntity
  8
0
  6
CONTINUOUS
 62
               7
100
AcDbLine
 10
89.443384074956498
 20
-56.49999879207212
 30
0.0
 11
88.721704428066346
 21
-55.250012838769294
 31
0.0
  0
LINE
  5
32D
100
AcDbEntity
  8
0
  6
CONTINUOUS
 62
               7
100
AcDbLine
 10
88.72167688468403
 20
-57.749992304460307
 30
0.0
 11
89.443354724924802
 21
-56.500005318786293
 31
0.0
  0
LINE
  5
32E
100
AcDbEntity
  8
0
  6
CONTINUOUS
 62
               7
100
AcDbLine
 10
88.721679733238716
 20
-57.750015157955886
 30
0.0
 11
87.278320353427489
 21
-57.750015157955886
 31
0.0
  0
LINE
  5
32F
100
AcDbEntity
  8
0
  6
CONTINUOUS
 62
               7
100
AcDbLine
 10
87.75000000916657
 20
-58.500018218213768
 30
0.0
 11
87.75000000916657
 21
-61.000018226547127
 31
0.0
  0
LINE
  5
330
100
AcDbEntity
  8
0
  6
CONTINUOUS
 62
               7
100
AcDbLine
 10
82.249999990833203
 20
-61.000018226547127
 30
0.0
 11
82.249999990833203
 21
-58.500018218213768
 31
0.0
  0
LINE
  5
331
100
AcDbEntity
  8
0
  6
CONTINUOUS
 62
               7
100
AcDbLine
 10
82.750055014695704
 20
-58.000042386399741
 30
0.0
 11
82.250042723241791
 21
-58.500052781202612
 31
0.0
  0
LINE
  5
332
100
AcDbEntity
  8
0
  6
CONTINUOUS
 62
               7
100
AcDbLine
 10
87.75000000916657
 20
-58.500018218213768
 30
0.0
 11
82.249999990833203
 21
-58.500018218213768
 31
0.0
  0
LINE
  5
333
100
AcDbEntity
  8
0
  6
CONTINUOUS
 62
               7
100
AcDbLine
 10
87.750026700158514
 20
-58.500020360692247
 30
0.0
 11
87.250035987932506
 21
-58.00003154503554
 31
0.0
  0
LINE
  5
334
100
AcDbEntity
  8
0
  6
CONTINUOUS
 62
               7
100
AcDbLine
 10
87.250000007499807
 20
-58.000018216547119
 30
0.0
 11
82.749999992499852
 21
-58.000018216547119
 31
0.0
  0
LINE
  5
335
100
AcDbEntity
  8
0
  6
CONTINUOUS
 62
               7
100
AcDbLine
 10
89.99999998008866
 20
-61.000018226547127
 30
0.0
 11
89.99999998008866
 21
-62.800018226547081
 31
0.0
  0
LINE
  5
336
100
AcDbEntity
  8
0
  6
CONTINUOUS
 62
               7
100
AcDbLine
 10
89.99999998008866
 20
-61.000018226547127
 30
0.0
 11
69.499999980088546
 21
-61.000018226547127
 31
0.0
  0
LINE
  5
337
100
AcDbEntity
  8
0
  6
CONTINUOUS
 62
               7
100
AcDbLine
 10
79.499999980088546
 20
-61.000018196080987
 30
0.0
 11
78.918120937999674
 21
-57.700018184160058
 31
0.0
  0
LINE
  5
338
100
AcDbEntity
  8
0
  6
CONTINUOUS
 62
               7
100
AcDbLine
 10
56.999999939999725
 20
-62.800018226547081
 30
0.0
 11
93.00000005999982
 21
-62.800018226547081
 31
0.0
  0
ARC
  5
339
100
AcDbEntity
  8
0
  6
CONTINUOUS
 62
               7
100
AcDbCircle
 10
56.89999999999975
 20
-89.069452069124964
 30
0.0
 40
3.5000000000000004
100
AcDbArc
 50
180.00000000000006
 51
225.03144276458423
  0
LINE
  5
33A
100
AcDbEntity
  8
0
  6
CONTINUOUS
 62
               7
100
AcDbLine
 10
52.54999999425786
 20
-89.876081294347728
 30
0.0
 11
53.39999999999975
 21
-89.950446658630028
 31
0.0
  0
LINE
  5
33B
100
AcDbEntity
  8
0
  6
CONTINUOUS
 62
               7
100
AcDbLine
 10
52.549999971928742
 20
-89.876081454035102
 30
0.0
 11
52.549999971928742
 21
-89.195235453792407
 31
0.0
  0
ARC
  5
33C
100
AcDbEntity
  8
0
  6
CONTINUOUS
 62
               7
100
AcDbCircle
 10
58.529655833783295
 20
-87.800446736094102
 30
0.0
 40
6.3296561241149902
100
AcDbArc
 50
192.18528551792392
 51
199.14270731389522
  0
LINE
  5
33D
100
AcDbEntity
  8
0
  6
CONTINUOUS
 62
               7
100
AcDbLine
 10
53.39999999999975
 20
-65.800018236547032
 30
0.0
 11
53.39999999999975
 21
-89.950446658630028
 31
0.0
  0
LINE
  5
33E
100
AcDbEntity
  8
0
  6
CONTINUOUS
 62
               7
100
AcDbLine
 10
53.89999999999975
 20
-65.800018236547032
 30
0.0
 11
53.39999999999975
 21
-65.800018236547032
 31
0.0
  0
ARC
  5
33F
100
AcDbEntity
  8
0
  6
CONTINUOUS
 62
               7
100
AcDbCircle
 10
53.39999999999975
 20
-69.800018236547032
 30
0.0
 40
3.5000000000000004
100
AcDbArc
 50
90.0
 51
180.0
  0
LINE
  5
340
100
AcDbEntity
  8
0
  6
CONTINUOUS
 62
               7
100
AcDbLine
 10
49.89999999999975
 20
-85.800018236547032
 30
0.0
 11
49.89999999999975
 21
-69.800018236547032
 31
0.0
  0
ARC
  5
341
100
AcDbEntity
  8
0
  6
CONTINUOUS
 62
               7
100
AcDbCircle
 10
53.39999999999975
 20
-85.800018236547032
 30
0.0
 40
3.5000000000000004
100
AcDbArc
 50
180.0
 51
270.0
  0
ARC
  5
342
100
AcDbEntity
  8
0
  6
CONTINUOUS
 62
               7
100
AcDbCircle
 10
49.89999999999975
 20
-84.300018236547032
 30
0.0
 40
1.0
100
AcDbArc
 50
180.0
 51
270.0
  0
LINE
  5
343
100
AcDbEntity
  8
0
  6
CONTINUOUS
 62
               7
100
AcDbLine
 10
48.89999999999975
 20
-71.300018236547032
 30
0.0
 11
48.89999999999975
 21
-84.300018236547032
 31
0.0
  0
ARC
  5
344
100
AcDbEntity
  8
0
  6
CONTINUOUS
 62
               7
100
AcDbCircle
 10
49.89999999999975
 20
-71.300018236547032
 30
0.0
 40
1.0
100
AcDbArc
 50
90.0
 51
180.0
  0
LINE
  5
345
100
AcDbEntity
  8
0
  6
CONTINUOUS
 62
               2
100
AcDbLine
 10
55.686247525045133
 20
-77.800018236546975
 30
0.0
 11
47.306153939269961
 21
-77.800018236546975
 31
0.0
  0
LINE
  5
346
100
AcDbEntity
  8
0
  6
CONTINUOUS
 62
               7
100
AcDbLine
 10
60.599710538158661
 20
-97.712137563010742
 30
0.0
 11
54.426484799077684
 21
-91.545683591177635
 31
0.0
  0
LINE
  5
347
100
AcDbEntity
  8
0
  6
CONTINUOUS
 62
               7
100
AcDbLine
 10
53.999999929999717
 20
-65.800018236547032
 30
0.0
 11
96.000000069999828
 21
-65.800018236547032
 31
0.0
  0
LINE
  5
348
100
AcDbEntity
  8
0
  6
CONTINUOUS
 62
               7
100
AcDbLine
 10
118.42436544174609
 20
-17.550005560533464
 30
0.0
 11
118.35000007746396
 21
-18.400005566275297
 31
0.0
  0
LINE
  5
349
100
AcDbEntity
  8
0
  6
CONTINUOUS
 62
               7
100
AcDbLine
 10
122.57563455825402
 20
-17.55000556053335
 30
0.0
 11
122.64999992253615
 21
-18.400005566275297
 31
0.0
  0
ARC
  5
34A
100
AcDbEntity
  8
0
  6
CONTINUOUS
 62
               7
100
AcDbCircle
 10
120.50000000000023
 20
-23.529661400058671
 30
0.0
 40
6.3296561241149902
100
AcDbArc
 50
70.857292686107982
 51
109.14270913513137
  0
LINE
  5
34B
100
AcDbEntity
  8
0
  6
CONTINUOUS
 62
               7
100
AcDbLine
 10
122.57563471794128
 20
-17.550005538204005
 30
0.0
 11
118.4243652820586
 21
-17.550005538204232
 31
0.0
  0
LINE
  5
34C
100
AcDbEntity
  8
0
  6
CONTINUOUS
 62
               7
100
AcDbLine
 10
188.49999999999989
 20
-13.899996025302812
 30
0.0
 11
175.49999999999989
 21
-13.899996025302812
 31
0.0
  0
LINE
  5
34D
100
AcDbEntity
  8
0
  6
CONTINUOUS
 62
               7
100
AcDbLine
 10
174.0
 20
-14.899996025302812
 30
0.0
 11
189.99999999999989
 21
-14.899996025302812
 31
0.0
  0
ARC
  5
34E
100
AcDbEntity
  8
0
  6
CONTINUOUS
 62
               7
100
AcDbCircle
 10
188.49999999999989
 20
-14.899996025302812
 30
0.0
 40
1.0
100
AcDbArc
 50
0.0
 51
90.0
  0
ARC
  5
34F
100
AcDbEntity
  8
0
  6
CONTINUOUS
 62
               7
100
AcDbCircle
 10
189.99999999999989
 20
-18.399996025302926
 30
0.0
 40
3.5000000000000004
100
AcDbArc
 50
0.0
 51
90.0
  0
ARC
  5
350
100
AcDbEntity
  8
0
  6
CONTINUOUS
 62
               7
100
AcDbCircle
 10
174.0
 20
-18.399996025302926
 30
0.0
 40
3.5000000000000004
100
AcDbArc
 50
90.0
 51
180.0
  0
ARC
  5
351
100
AcDbEntity
  8
0
  6
CONTINUOUS
 62
               7
100
AcDbCircle
 10
175.49999999999989
 20
-14.899996025302812
 30
0.0
 40
1.0
100
AcDbArc
 50
90.0
 51
180.0
  0
LINE
  5
352
100
AcDbEntity
  8
0
  6
CONTINUOUS
 62
               2
100
AcDbLine
 10
181.99999999999989
 20
-20.149803641245853
 30
0.0
 11
181.99999999999989
 21
-11.263085857779743
 31
0.0
  0
LINE
  5
353
100
AcDbEntity
  8
0
  6
CONTINUOUS
 62
               7
100
AcDbLine
 10
194.99999999999989
 20
-18.400015098789254
 30
0.0
 11
116.99999999999989
 21
-18.400015098789254
 31
0.0
  0
LINE
  5
354
100
AcDbEntity
  8
0
  6
CONTINUOUS
 62
               7
100
AcDbLine
 10
18.499999999999886
 20
49.499969642421718
 30
0.0
 11
18.499999999999886
 21
0.0000001599998996
 31
0.0
  0
LINE
  5
355
100
AcDbEntity
  8
0
  6
CONTINUOUS
 62
               7
100
AcDbLine
 10
56.999999981999849
 20
-62.800018226547081
 30
0.0
 11
56.999999981999849
 21
-19.800010500952226
 31
0.0
  0
LINE
  5
356
100
AcDbEntity
  8
0
  6
CONTINUOUS
 62
               7
100
AcDbLine
 10
93.000000017999696
 20
-62.800018226547081
 30
0.0
 11
93.000000017999696
 21
-19.800010500952226
 31
0.0
  0
LINE
  5
357
100
AcDbEntity
  8
0
  6
CONTINUOUS
 62
               7
100
AcDbLine
 10
60.585788448034805
 20
-97.714231469304195
 30
0.0
 11
57.02513642646602
 21
-94.153579447735638
 31
0.0
  0
LINE
  5
358
100
AcDbEntity
  8
0
  6
CONTINUOUS
 62
               7
100
AcDbLine
 10
84.999999839999759
 20
-18.400007452894783
 30
0.0
 11
84.999999839999759
 21
0.0
 31
0.0
  0
LINE
  5
359
100
AcDbEntity
  8
0
  6
CONTINUOUS
 62
               7
100
AcDbLine
 10
96.000000020999778
 20
-19.9999998400001
 30
0.0
 11
104.99999983999976
 21
-19.9999998400001
 31
0.0
  0
LINE
  5
35A
100
AcDbEntity
  8
0
  6
CONTINUOUS
 62
               7
100
AcDbLine
 10
53.999999978999767
 20
-21.000015098789277
 30
0.0
 11
-108.67529296875006
 21
-21.000015098789277
 31
0.0
  0
LINE
  5
35B
100
AcDbEntity
  8
0
  6
CONTINUOUS
 62
               7
100
AcDbLine
 10
53.999999978999767
 20
-26.600005943515725
 30
0.0
 11
-102.00000000000011
 21
-26.600005943515725
 31
0.0
  0
LINE
  5
35C
100
AcDbEntity
  8
0
  6
CONTINUOUS
 62
               7
100
AcDbLine
 10
53.999999978999767
 20
-28.800018150546975
 30
0.0
 11
-102.00000000000011
 21
-28.800018150546975
 31
0.0
  0
LINE
  5
35D
100
AcDbEntity
  8
0
  6
CONTINUOUS
 62
               7
100
AcDbLine
 10
53.999999978999767
 20
-51.200012047031407
 30
0.0
 11
-102.00000000000011
 21
-51.200012047031407
 31
0.0
  0
LINE
  5
35E
100
AcDbEntity
  8
0
  6
CONTINUOUS
 62
               7
100
AcDbLine
 10
53.999999978999767
 20
-53.400008995273538
 30
0.0
 11
-102.00000000000011
 21
-53.400008995273538
 31
0.0
  0
LINE
  5
35F
100
AcDbEntity
  8
0
  6
CONTINUOUS
 62
               7
100
AcDbLine
 10
96.000000020999778
 20
-60.000015098789163
 30
0.0
 11
105.0
 21
-60.000015098789163
 31
0.0
  0
LINE
  5
360
100
AcDbEntity
  8
0
  6
CONTINUOUS
 62
               7
100
AcDbLine
 10
53.999999978999767
 20
-59.000015098789163
 30
0.0
 11
-108.67529296875006
 21
-59.000015098789163
 31
0.0
  0
ARC
  5
361
100
AcDbEntity
  8
0
  6
CONTINUOUS
 62
               7
100
AcDbCircle
 10
104.5
 20
-0.5
 30
0.0
 40
0.5
100
AcDbArc
 50
0.0
 51
90.0
  0
LINE
  5
362
100
AcDbEntity
  8
0
  6
CONTINUOUS
 62
               2
100
AcDbLine
 10
74.999999999999773
 20
-12.677133654102306
 30
0.0
 11
74.999999999999773
 21
-101.67194861376032
 31
0.0
  0
LINE
  5
363
100
AcDbEntity
  8
0
  6
CONTINUOUS
 62
               7
100
AcDbLine
 10
94.850000040265627
 20
-85.724375962462773
 30
0.0
 11
94.000000014770649
 21
-85.650010596452546
 31
0.0
  0
LINE
  5
364
100
AcDbEntity
  8
0
  6
CONTINUOUS
 62
               7
100
AcDbLine
 10
94.850000040265513
 20
-89.875645175442003
 30
0.0
 11
94.000000014770421
 21
-89.95001054145223
 31
0.0
  0
LINE
  5
365
100
AcDbEntity
  8
0
  6
CONTINUOUS
 62
               7
100
AcDbLine
 10
94.85000004369158
 20
-89.875645288969281
 30
0.0
 11
94.850000043691807
 21
-85.724375848935495
 31
0.0
  0
ARC
  5
366
100
AcDbEntity
  8
0
  6
CONTINUOUS
 62
               7
100
AcDbCircle
 10
88.87034417585744
 20
-87.800010568952018
 30
0.0
 40
6.3296561304446461
100
AcDbArc
 50
340.85729268610248
 51
19.14270913512587
  0
LINE
  5
367
100
AcDbEntity
  8
0
  6
CONTINUOUS
 62
               7
100
AcDbLine
 10
94.850000040265627
 20
-71.724375948462864
 30
0.0
 11
94.000000014770649
 21
-71.650010582452239
 31
0.0
  0
LINE
  5
368
100
AcDbEntity
  8
0
  6
CONTINUOUS
 62
               7
100
AcDbLine
 10
94.850000040265513
 20
-75.875645161442094
 30
0.0
 11
94.000000014770421
 21
-75.950010527452321
 31
0.0
  0
LINE
  5
369
100
AcDbEntity
  8
0
  6
CONTINUOUS
 62
               7
100
AcDbLine
 10
94.85000004369158
 20
-75.875645274969372
 30
0.0
 11
94.850000043691807
 21
-71.724375834935586
 31
0.0
  0
ARC
  5
36A
100
AcDbEntity
  8
0
  6
CONTINUOUS
 62
               7
100
AcDbCircle
 10
88.87034417585744
 20
-73.800010554952109
 30
0.0
 40
6.3296561304446461
100
AcDbArc
 50
340.85729268610248
 51
19.14270913512587
  0
LINE
  5
36B
100
AcDbEntity
  8
0
  6
CONTINUOUS
 62
               7
100
AcDbLine
 10
88.721687688243833
 20
-24.750007454144622
 30
0.0
 11
87.278314125894894
 21
-24.750007454144622
 31
0.0
  0
LINE
  5
36C
100
AcDbEntity
  8
0
  6
CONTINUOUS
 62
               7
100
AcDbLine
 10
88.721684151596037
 20
-24.750000793492745
 30
0.0
 11
89.443366162467328
 21
-23.500006584049629
 31
0.0
  0
LINE
  5
36D
100
AcDbEntity
  8
0
  6
CONTINUOUS
 62
               7
100
AcDbLine
 10
89.443365673649964
 20
-23.500007285587969
 30
0.0
 11
88.721682332955993
 21
-22.250014934428179
 31
0.0
  0
LINE
  5
36E
100
AcDbEntity
  8
0
  6
CONTINUOUS
 62
               7
100
AcDbLine
 10
88.721685551044061
 20
-22.250021279922294
 30
0.0
 11
87.278313299997421
 21
-22.250022233595701
 31
0.0
  0
LINE
  5
36F
100
AcDbEntity
  8
0
  6
CONTINUOUS
 62
               7
100
AcDbLine
 10
87.27831686393381
 20
-22.250015166047319
 30
0.0
 11
86.556634108581989
 21
-23.500008893714039
 31
0.0
  0
LINE
  5
370
100
AcDbEntity
  8
0
  6
CONTINUOUS
 62
               7
100
AcDbLine
 10
86.556634145563748
 20
-23.500007737471151
 30
0.0
 11
87.278318525674649
 21
-24.750000725268535
 31
0.0
  0
CIRCLE
  5
371
100
AcDbEntity
  8
0
  6
CONTINUOUS
 62
               7
100
AcDbCircle
 10
88.000000012999749
 20
-23.500007452894806
 30
0.0
 40
2.7500000027499998
  0
LINE
  5
372
100
AcDbEntity
  8
0
  6
CONTINUOUS
 62
               7
100
AcDbLine
 10
62.72168766224388
 20
-24.750007454144622
 30
0.0
 11
61.278314099895056
 21
-24.750007454144622
 31
0.0
  0
LINE
  5
373
100
AcDbEntity
  8
0
  6
CONTINUOUS
 62
               7
100
AcDbLine
 10
62.721684125596084
 20
-24.750000793492745
 30
0.0
 11
63.443366136467262
 21
-23.500006584049629
 31
0.0
  0
LINE
  5
374
100
AcDbEntity
  8
0
  6
CONTINUOUS
 62
               7
100
AcDbLine
 10
63.443365647649898
 20
-23.500007285587969
 30
0.0
 11
62.721682306955927
 21
-22.250014934428179
 31
0.0
  0
LINE
  5
375
100
AcDbEntity
  8
0
  6
CONTINUOUS
 62
               7
100
AcDbLine
 10
62.721685525043881
 20
-22.250021279922294
 30
0.0
 11
61.278313273997242
 21
-22.250022233595701
 31
0.0
  0
LINE
  5
376
100
AcDbEntity
  8
0
  6
CONTINUOUS
 62
               7
100
AcDbLine
 10
61.278316837933744
 20
-22.250015166047319
 30
0.0
 11
60.556634082582036
 21
-23.500008893714039
 31
0.0
  0
LINE
  5
377
100
AcDbEntity
  8
0
  6
CONTINUOUS
 62
               7
100
AcDbLine
 10
60.556634119563796
 20
-23.500007737471151
 30
0.0
 11
61.278318499674697
 21
-24.750000725268535
 31
0.0
  0
CIRCLE
  5
378
100
AcDbEntity
  8
0
  6
CONTINUOUS
 62
               7
100
AcDbCircle
 10
61.999999986999796
 20
-23.500007452894806
 30
0.0
 40
2.7500000027499998
  0
ARC
  5
379
100
AcDbEntity
  8
0
  6
CONTINUOUS
 62
               7
100
AcDbCircle
 10
88.000000012999749
 20
-96.300010577452213
 30
0.0
 40
2.0000000020000002
100
AcDbArc
 50
270.0
 51
315.00000125223909
  0
ARC
  5
37A
100
AcDbEntity
  8
0
  6
CONTINUOUS
 62
               7
100
AcDbCircle
 10
61.999999986999796
 20
-96.300010577452213
 30
0.0
 40
2.0000000020000002
100
AcDbArc
 50
224.99999874776091
 51
270.0
  0
ARC
  5
37B
100
AcDbEntity
  8
0
  6
CONTINUOUS
 62
               7
100
AcDbCircle
 10
90.500000015499722
 20
-91.678703199784309
 30
0.0
 40
3.5000000034999998
100
AcDbArc
 50
315.00000125223909
 51
0.0000025044781673
  0
LINE
  5
37C
100
AcDbEntity
  8
0
  6
CONTINUOUS
 62
               7
100
AcDbLine
 10
89.41421155196474
 20
-97.714231469304195
 30
0.0
 11
92.974863573533526
 21
-94.153579447735638
 31
0.0
  0
LINE
  5
37D
100
AcDbEntity
  8
0
  6
CONTINUOUS
 62
               7
100
AcDbLine
 10
88.000000012999749
 20
-98.300010579452419
 30
0.0
 11
61.999999986999796
 21
-98.300010579452419
 31
0.0
  0
LINE
  5
37E
100
AcDbEntity
  8
0
  6
CONTINUOUS
 62
               7
100
AcDbLine
 10
94.000000018999799
 20
-91.678703199784309
 30
0.0
 11
94.000000018999799
 21
-65.800010546952421
 31
0.0
  0
LINE
  5
37F
100
AcDbEntity
  8
0
  6
CONTINUOUS
 62
               7
100
AcDbLine
 10
53.999999978999767
 20
-19.800010500952226
 30
0.0
 11
72.500000012999749
 21
-19.800010500952226
 31
0.0
  0
LINE
  5
380
100
AcDbEntity
  8
0
  6
CONTINUOUS
 62
               7
100
AcDbLine
 10
53.999999978999767
 20
-65.800010546952421
 30
0.0
 11
53.999999978999767
 21
-19.800010500952226
 31
0.0
  0
LINE
  5
381
100
AcDbEntity
  8
0
  6
CONTINUOUS
 62
               7
100
AcDbLine
 10
96.000000020999778
 20
-65.800010546952421
 30
0.0
 11
96.000000020999778
 21
-19.800010500952226
 31
0.0
  0
LINE
  5
382
100
AcDbEntity
  8
0
  6
CONTINUOUS
 62
               2
100
AcDbLine
 10
0.0
 20
54.265974619630015
 30
0.0
 11
0.0
 21
-315.46725509870834
 31
0.0
  0
LINE
  5
383
100
AcDbEntity
  8
0
  6
CONTINUOUS
 62
               7
100
AcDbLine
 10
23.499999999999886
 20
51.499969642421661
 30
0.0
 11
23.499999999999886
 21
0.0000001599998996
 31
0.0
  0
LINE
  5
384
100
AcDbEntity
  8
0
  6
CONTINUOUS
 62
               7
100
AcDbLine
 10
-19.000000000000114
 20
51.499969642421661
 30
0.0
 11
-19.000000000000114
 21
0.0
 31
0.0
  0
ARC
  5
385
100
AcDbEntity
  8
0
  6
CONTINUOUS
 62
               7
100
AcDbCircle
 10
0.0
 20
609.99998490121095
 30
0.0
 40
920.0
100
AcDbArc
 50
272.76310112686076
 51
276.49788211075821
  0
LINE
  5
386
100
AcDbEntity
  8
0
  6
CONTINUOUS
 62
               7
100
AcDbLine
 10
31.649999999999864
 20
-325.49999999999892
 30
0.0
 11
31.649999999999864
 21
-307.07907477819998
 31
0.0
  0
LINE
  5
387
100
AcDbEntity
  8
0
  6
CONTINUOUS
 62
               7
100
AcDbLine
 10
44.349999999999795
 20
-325.49999999999892
 30
0.0
 11
44.349999999999795
 21
-306.43387917200982
 31
0.0
  0
LINE
  5
388
100
AcDbEntity
  8
0
  6
CONTINUOUS
 62
               7
100
AcDbLine
 10
32.5
 20
-327.99999999999892
 30
0.0
 11
32.5
 21
-326.49999999999881
 31
0.0
  0
LINE
  5
389
100
AcDbEntity
  8
0
  6
CONTINUOUS
 62
               7
100
AcDbLine
 10
43.499999999999886
 20
-327.99999999999892
 30
0.0
 11
43.499999999999886
 21
-326.49999999999881
 31
0.0
  0
LINE
  5
38A
100
AcDbEntity
  8
0
  6
CONTINUOUS
 62
               7
100
AcDbLine
 10
32.5
 20
-327.99999999999892
 30
0.0
 11
43.499999999999886
 21
-327.99999999999892
 31
0.0
  0
LINE
  5
38B
100
AcDbEntity
  8
0
  6
CONTINUOUS
 62
               7
100
AcDbLine
 10
32.5
 20
-326.49999999999881
 30
0.0
 11
31.649999999999864
 21
-325.49999999999892
 31
0.0
  0
LINE
  5
38C
100
AcDbEntity
  8
0
  6
CONTINUOUS
 62
               7
100
AcDbLine
 10
44.349999999999795
 20
-325.49999999999892
 30
0.0
 11
43.499999999999886
 21
-326.49999999999881
 31
0.0
  0
LINE
  5
38D
100
AcDbEntity
  8
0
  6
CONTINUOUS
 62
               7
100
AcDbLine
 10
32.5
 20
-326.49999999999881
 30
0.0
 11
43.499999999999886
 21
-326.49999999999881
 31
0.0
  0
LINE
  5
38E
100
AcDbEntity
  8
0
  6
CONTINUOUS
 62
               7
100
AcDbLine
 10
44.349999999999795
 20
-325.49999999999892
 30
0.0
 11
31.649999999999864
 21
-325.49999999999892
 31
0.0
  0
LINE
  5
38F
100
AcDbEntity
  8
0
  6
CONTINUOUS
 62
               2
100
AcDbLine
 10
37.999999999999886
 20
-330.62900026204414
 30
0.0
 11
37.999999999999886
 21
-302.87576035950593
 31
0.0
  0
LINE
  5
390
100
AcDbEntity
  8
0
  6
CONTINUOUS
 62
               7
100
AcDbLine
 10
-105.00000000000011
 20
-59.000015098789163
 30
0.0
 11
-105.00000000000011
 21
-303.09638961050791
 31
0.0
  0
LINE
  5
391
100
AcDbEntity
  8
0
  6
CONTINUOUS
 62
               7
100
AcDbLine
 10
-31.06066017178
 20
-7.0606751394348066
 30
0.0
 11
-28.939339828220227
 21
-4.9393547958752038
 31
0.0
  0
LINE
  5
392
100
AcDbEntity
  8
0
  6
CONTINUOUS
 62
               7
100
AcDbLine
 10
-31.06066017178
 20
-4.9393547958752038
 30
0.0
 11
-28.939339828220227
 21
-7.0606751394348066
 31
0.0
  0
LINE
  5
393
100
AcDbEntity
  8
0
  6
CONTINUOUS
 62
               7
100
AcDbLine
 10
28.93933982822
 20
-7.0606751394348066
 30
0.0
 11
31.060660171779773
 21
-4.9393547958752038
 31
0.0
  0
LINE
  5
394
100
AcDbEntity
  8
0
  6
CONTINUOUS
 62
               7
100
AcDbLine
 10
28.93933982822
 20
-4.9393547958752038
 30
0.0
 11
31.060660171779773
 21
-7.0606751394348066
 31
0.0
  0
CIRCLE
  5
395
100
AcDbEntity
  8
0
  6
CONTINUOUS
 62
               7
100
AcDbCircle
 10
-30.000000000000227
 20
-6.0000149676550336
 30
0.0
 40
2.1499999999999999
  0
CIRCLE
  5
396
100
AcDbEntity
  8
0
  6
CONTINUOUS
 62
               7
100
AcDbCircle
 10
29.999999999999773
 20
-6.0000149676550336
 30
0.0
 40
2.1499999999999999
  0
CIRCLE
  5
397
100
AcDbEntity
  8
0
  6
CONTINUOUS
 62
               7
100
AcDbCircle
 10
29.999999999999773
 20
-6.0000149676550336
 30
0.0
 40
2.5
  0
CIRCLE
  5
398
100
AcDbEntity
  8
0
  6
CONTINUOUS
 62
               7
100
AcDbCircle
 10
-30.000000000000227
 20
-6.0000149676550336
 30
0.0
 40
2.5
  0
LINE
  5
399
100
AcDbEntity
  8
0
  6
CONTINUOUS
 62
               7
100
AcDbLine
 10
-35.0
 20
-60.000015098789163
 30
0.0
 11
-35.0
 21
-300.20002730582047
 31
0.0
  0
LINE
  5
39A
100
AcDbEntity
  8
0
  6
CONTINUOUS
 62
               7
100
AcDbLine
 10
-25.0
 20
-60.000015098789163
 30
0.0
 11
-25.0
 21
-300.20002730582047
 31
0.0
  0
LINE
  5
39B
100
AcDbEntity
  8
0
  6
CONTINUOUS
 62
               7
100
AcDbLine
 10
-19.500000000000114
 20
-60.000015098789163
 30
0.0
 11
-19.500000000000114
 21
-238.50001509878922
 31
0.0
  0
LINE
  5
39C
100
AcDbEntity
  8
0
  6
CONTINUOUS
 62
               7
100
AcDbLine
 10
-13.500000000000114
 20
-60.000015098789163
 30
0.0
 11
-13.500000000000114
 21
-238.50001509878922
 31
0.0
  0
LINE
  5
39D
100
AcDbEntity
  8
0
  6
CONTINUOUS
 62
               7
100
AcDbLine
 10
13.499999999999886
 20
-60.000015098789163
 30
0.0
 11
13.499999999999886
 21
-238.50001509878922
 31
0.0
  0
LINE
  5
39E
100
AcDbEntity
  8
0
  6
CONTINUOUS
 62
               7
100
AcDbLine
 10
19.5
 20
-60.000015098789163
 30
0.0
 11
19.5
 21
-238.50001509878922
 31
0.0
  0
LINE
  5
39F
100
AcDbEntity
  8
0
  6
CONTINUOUS
 62
               7
100
AcDbLine
 10
25.0
 20
-60.000015098789163
 30
0.0
 11
25.0
 21
-300.20002730582047
 31
0.0
  0
LINE
  5
3A0
100
AcDbEntity
  8
0
  6
CONTINUOUS
 62
               7
100
AcDbLine
 10
35.0
 20
-60.000015098789163
 30
0.0
 11
35.0
 21
-300.20002730582047
 31
0.0
  0
LINE
  5
3A1
100
AcDbEntity
  8
0
  6
CONTINUOUS
 62
               7
100
AcDbLine
 10
105.0
 20
0.0
 30
0.0
 11
105.0
 21
-19.9999998400001
 31
0.0
  0
LINE
  5
3A2
100
AcDbEntity
  8
0
  6
CONTINUOUS
 62
               7
100
AcDbLine
 10
105.0
 20
0.0
 30
0.0
 11
-105.00000000000011
 21
0.0
 31
0.0
  0
LINE
  5
3A3
100
AcDbEntity
  8
0
  6
CONTINUOUS
 62
               7
100
AcDbLine
 10
104.99999983999976
 20
-19.9999998400001
 30
0.0
 11
104.99999983999976
 21
-21.000015098789277
 31
0.0
  0
LINE
  5
3A4
100
AcDbEntity
  8
0
  6
CONTINUOUS
 62
               7
100
AcDbLine
 10
-105.00000000000011
 20
-19.9999998400001
 30
0.0
 11
53.999999978999767
 21
-19.9999998400001
 31
0.0
  0
LINE
  5
3A5
100
AcDbEntity
  8
0
  6
CONTINUOUS
 62
               7
100
AcDbLine
 10
107.0
 20
-17.000024635532327
 30
0.0
 11
117.64999992253604
 21
-17.000024635532327
 31
0.0
  0
LINE
  5
3A6
100
AcDbEntity
  8
0
  6
CONTINUOUS
 62
               7
100
AcDbLine
 10
117.5
 20
-17.000024635532327
 30
0.0
 11
117.5
 21
-18.400015098789254
 31
0.0
  0
ARC
  5
3A7
100
AcDbEntity
  8
0
  6
CONTINUOUS
 62
               7
100
AcDbCircle
 10
122.0
 20
-24.000024635532327
 30
0.0
 40
6.3499999999999996
100
AcDbArc
 50
61.871354031371389
 51
84.698108691995031
  0
ARC
  5
3A8
100
AcDbEntity
  8
0
  6
CONTINUOUS
 62
               7
100
AcDbCircle
 10
115.50000000000023
 20
-22.129680473545136
 30
0.0
 40
6.3296561241149902
100
AcDbArc
 50
70.857292686105737
 51
109.14270913512912
  0
LINE
  5
3A9
100
AcDbEntity
  8
0
  6
CONTINUOUS
 62
               7
100
AcDbLine
 10
117.57563471794128
 20
-16.150024611690412
 30
0.0
 11
113.4243652820586
 21
-16.150024611690583
 31
0.0
  0
LINE
  5
3AA
100
AcDbEntity
  8
0
  6
CONTINUOUS
 62
               7
100
AcDbLine
 10
117.57563455825368
 20
-16.150024634019701
 30
0.0
 11
117.64999992253604
 21
-17.000024639761591
 31
0.0
  0
LINE
  5
3AB
100
AcDbEntity
  8
0
  6
CONTINUOUS
 62
               7
100
AcDbLine
 10
113.42436544174586
 20
-16.150024634019701
 30
0.0
 11
113.35000007746351
 21
-17.000024639761591
 31
0.0
  0
LINE
  5
3AC
100
AcDbEntity
  8
0
  6
CONTINUOUS
 62
               7
100
AcDbLine
 10
107.0
 20
-21.000024635532441
 30
0.0
 11
107.0
 21
-17.000024635532327
 31
0.0
  0
LINE
  5
3AD
100
AcDbEntity
  8
0
  6
CONTINUOUS
 62
               7
100
AcDbLine
 10
118.41561493994709
 20
-17.650024254062714
 30
0.0
 11
117.5
 21
-17.650024254062714
 31
0.0
  0
ARC
  5
3AE
100
AcDbEntity
  8
0
  6
CONTINUOUS
 62
               7
100
AcDbCircle
 10
-104.50000000400007
 20
-19.499999844000229
 30
0.0
 40
0.4999999959999998
100
AcDbArc
 50
179.99999749552182
 51
270.0
  0
ARC
  5
3AF
100
AcDbEntity
  8
0
  6
CONTINUOUS
 62
               7
100
AcDbCircle
 10
-85.500000156000283
 20
-19.499999844000229
 30
0.0
 40
0.4999999959999998
100
AcDbArc
 50
270.0
 51
0.0000025044781673
  0
ARC
  5
3B0
100
AcDbEntity
  8
0
  6
CONTINUOUS
 62
               7
100
AcDbCircle
 10
-85.500000156000283
 20
-0.5000001560001692
 30
0.0
 40
0.4999999959999998
100
AcDbArc
 50
359.99999749552182
 51
90.0
  0
ARC
  5
3B1
100
AcDbEntity
  8
0
  6
CONTINUOUS
 62
               7
100
AcDbCircle
 10
-104.50000000400007
 20
-0.5000001560001692
 30
0.0
 40
0.4999999959999998
100
AcDbArc
 50
90.0
 51
180.00000250447818
  0
ARC
  5
3B2
100
AcDbEntity
  8
0
  6
CONTINUOUS
 62
               7
100
AcDbCircle
 10
104.49999968399959
 20
-19.499999844000229
 30
0.0
 40
0.4999999959999998
100
AcDbArc
 50
270.0
 51
0.0000025044781673
  0
ARC
  5
3B3
100
AcDbEntity
  8
0
  6
CONTINUOUS
 62
               7
100
AcDbCircle
 10
85.499999835999802
 20
-0.5000001560001692
 30
0.0
 40
0.4999999959999998
100
AcDbArc
 50
90.0
 51
180.00000250447818
  0
LINE
  5
3B4
100
AcDbEntity
  8
0
  6
CONTINUOUS
 62
               7
100
AcDbLine
 10
105.0
 20
-15.9999998400001
 30
0.0
 11
84.999999839999759
 21
-15.9999998400001
 31
0.0
  0
LINE
  5
3B5
100
AcDbEntity
  8
0
  6
CONTINUOUS
 62
               7
100
AcDbLine
 10
-85.000000000000114
 20
-19.9999998400001
 30
0.0
 11
-85.000000000000114
 21
0.0
 31
0.0
  0
LINE
  5
3B6
100
AcDbEntity
  8
0
  6
CONTINUOUS
 62
               7
100
AcDbLine
 10
49.800003051757699
 20
-290.00002272818375
 30
0.0
 11
60.199996948242188
 21
-290.00002272818375
 31
0.0
  0
LINE
  5
3B7
100
AcDbEntity
  8
0
  6
CONTINUOUS
 62
               7
100
AcDbLine
 10
49.800003051757699
 20
-292.40002425406271
 30
0.0
 11
60.199996948242188
 21
-292.40002425406271
 31
0.0
  0
LINE
  5
3B8
100
AcDbEntity
  8
0
  6
CONTINUOUS
 62
               7
100
AcDbLine
 10
-60.199999332428092
 20
-292.40002425406271
 30
0.0
 11
-60.199999332428092
 21
-290.00002272818375
 31
0.0
  0
LINE
  5
3B9
100
AcDbEntity
  8
0
  6
CONTINUOUS
 62
               7
100
AcDbLine
 10
60.199996948242188
 20
-292.40002425406271
 30
0.0
 11
60.199996948242188
 21
-290.00002272818375
 31
0.0
  0
LINE
  5
3BA
100
AcDbEntity
  8
0
  6
CONTINUOUS
 62
               7
100
AcDbLine
 10
-49.799999237060604
 20
-292.40002425406271
 30
0.0
 11
-49.799999237060604
 21
-290.00002272818375
 31
0.0
  0
LINE
  5
3BB
100
AcDbEntity
  8
0
  6
CONTINUOUS
 62
               7
100
AcDbLine
 10
49.800003051757699
 20
-292.40002425406271
 30
0.0
 11
49.800003051757699
 21
-290.00002272818375
 31
0.0
  0
LINE
  5
3BC
100
AcDbEntity
  8
0
  6
CONTINUOUS
 62
               7
100
AcDbLine
 10
-60.199999332428092
 20
-290.00002272818375
 30
0.0
 11
-49.799999237060604
 21
-290.00002272818375
 31
0.0
  0
LINE
  5
3BD
100
AcDbEntity
  8
0
  6
CONTINUOUS
 62
               7
100
AcDbLine
 10
-60.199999332428092
 20
-292.40002425406271
 30
0.0
 11
-49.799999237060604
 21
-292.40002425406271
 31
0.0
  0
LINE
  5
3BE
100
AcDbEntity
  8
0
  6
CONTINUOUS
 62
               2
100
AcDbLine
 10
-75.000000000000227
 20
-12.677133681425062
 30
0.0
 11
-75.000000000000227
 21
-66.791279276665534
 31
0.0
  0
LINE
  5
3BF
100
AcDbEntity
  8
0
  6
CONTINUOUS
 62
               7
100
AcDbLine
 10
-15.778312325477714
 20
-247.75001509878916
 30
0.0
 11
-17.22168588638317
 21
-247.75001509878916
 31
0.0
  0
LINE
  5
3C0
100
AcDbEntity
  8
0
  6
CONTINUOUS
 62
               7
100
AcDbLine
 10
-15.778315862125282
 20
-247.75000843813712
 30
0.0
 11
-15.056633851976017
 21
-246.50001422994421
 31
0.0
  0
LINE
  5
3C1
100
AcDbEntity
  8
0
  6
CONTINUOUS
 62
               7
100
AcDbLine
 10
-15.056634340793266
 20
-246.50001493148221
 30
0.0
 11
-15.778317680765554
 21
-245.25002258157258
 31
0.0
  0
LINE
  5
3C2
100
AcDbEntity
  8
0
  6
CONTINUOUS
 62
               7
100
AcDbLine
 10
-15.778314462677713
 20
-245.25002892706709
 30
0.0
 11
-17.221686712280984
 21
-245.2500298807405
 31
0.0
  0
LINE
  5
3C3
100
AcDbEntity
  8
0
  6
CONTINUOUS
 62
               7
100
AcDbLine
 10
-17.221683148344368
 20
-245.25002281319189
 30
0.0
 11
-17.943365902974506
 21
-246.50001653960857
 31
0.0
  0
LINE
  5
3C4
100
AcDbEntity
  8
0
  6
CONTINUOUS
 62
               7
100
AcDbLine
 10
-17.943365865992632
 20
-246.50001538336568
 30
0.0
 11
-17.221681486603643
 21
-247.75000836991325
 31
0.0
  0
CIRCLE
  5
3C5
100
AcDbEntity
  8
0
  6
CONTINUOUS
 62
               7
100
AcDbCircle
 10
-16.500000000000114
 20
-246.50001509878916
 30
0.0
 40
2.75
  0
LINE
  5
3C6
100
AcDbEntity
  8
0
  6
CONTINUOUS
 62
               7
100
AcDbLine
 10
17.221687674522286
 20
-247.75001509878916
 30
0.0
 11
15.77831411361683
 21
-247.75001509878916
 31
0.0
  0
LINE
  5
3C7
100
AcDbEntity
  8
0
  6
CONTINUOUS
 62
               7
100
AcDbLine
 10
17.221684137874377
 20
-247.75000843813712
 30
0.0
 11
17.943366148023983
 21
-246.50001422994421
 31
0.0
  0
LINE
  5
3C8
100
AcDbEntity
  8
0
  6
CONTINUOUS
 62
               7
100
AcDbLine
 10
17.943365659206506
 20
-246.50001493148221
 30
0.0
 11
17.221682319234333
 21
-245.25002258157258
 31
0.0
  0
LINE
  5
3C9
100
AcDbEntity
  8
0
  6
CONTINUOUS
 62
               7
100
AcDbLine
 10
17.221685537322287
 20
-245.25002892706709
 30
0.0
 11
15.778313287719016
 21
-245.2500298807405
 31
0.0
  0
LINE
  5
3CA
100
AcDbEntity
  8
0
  6
CONTINUOUS
 62
               7
100
AcDbLine
 10
15.778316851655404
 20
-245.25002281319189
 30
0.0
 11
15.056634097025608
 21
-246.50001653960857
 31
0.0
  0
LINE
  5
3CB
100
AcDbEntity
  8
0
  6
CONTINUOUS
 62
               7
100
AcDbLine
 10
15.056634134007254
 20
-246.50001538336568
 30
0.0
 11
15.778318513396471
 21
-247.75000836991325
 31
0.0
  0
CIRCLE
  5
3CC
100
AcDbEntity
  8
0
  6
CONTINUOUS
 62
               7
100
AcDbCircle
 10
16.499999999999886
 20
-246.50001509878916
 30
0.0
 40
2.75
  0
LINE
  5
3CD
100
AcDbEntity
  8
0
  6
CONTINUOUS
 62
               7
100
AcDbLine
 10
17.221687674522286
 20
-273.75001509878922
 30
0.0
 11
15.77831411361683
 21
-273.75001509878922
 31
0.0
  0
LINE
  5
3CE
100
AcDbEntity
  8
0
  6
CONTINUOUS
 62
               7
100
AcDbLine
 10
17.221684137874377
 20
-273.75000843813717
 30
0.0
 11
17.943366148023983
 21
-272.50001422994427
 31
0.0
  0
LINE
  5
3CF
100
AcDbEntity
  8
0
  6
CONTINUOUS
 62
               7
100
AcDbLine
 10
17.943365659206506
 20
-272.50001493148233
 30
0.0
 11
17.221682319234333
 21
-271.25002258157275
 31
0.0
  0
LINE
  5
3D0
100
AcDbEntity
  8
0
  6
CONTINUOUS
 62
               7
100
AcDbLine
 10
17.221685537322287
 20
-271.25002892706715
 30
0.0
 11
15.778313287719016
 21
-271.25002988074044
 31
0.0
  0
LINE
  5
3D1
100
AcDbEntity
  8
0
  6
CONTINUOUS
 62
               7
100
AcDbLine
 10
15.778316851655404
 20
-271.25002281319195
 30
0.0
 11
15.056634097025608
 21
-272.50001653960851
 31
0.0
  0
LINE
  5
3D2
100
AcDbEntity
  8
0
  6
CONTINUOUS
 62
               7
100
AcDbLine
 10
15.056634134007254
 20
-272.50001538336562
 30
0.0
 11
15.778318513396471
 21
-273.75000836991319
 31
0.0
  0
CIRCLE
  5
3D3
100
AcDbEntity
  8
0
  6
CONTINUOUS
 62
               7
100
AcDbCircle
 10
16.499999999999886
 20
-272.50001509878922
 30
0.0
 40
2.75
  0
LINE
  5
3D4
100
AcDbEntity
  8
0
  6
CONTINUOUS
 62
               7
100
AcDbLine
 10
-15.778312325477714
 20
-273.75001509878922
 30
0.0
 11
-17.22168588638317
 21
-273.75001509878922
 31
0.0
  0
LINE
  5
3D5
100
AcDbEntity
  8
0
  6
CONTINUOUS
 62
               7
100
AcDbLine
 10
-15.778315862125282
 20
-273.75000843813717
 30
0.0
 11
-15.056633851976017
 21
-272.50001422994427
 31
0.0
  0
LINE
  5
3D6
100
AcDbEntity
  8
0
  6
CONTINUOUS
 62
               7
100
AcDbLine
 10
-15.056634340793266
 20
-272.50001493148233
 30
0.0
 11
-15.778317680765554
 21
-271.25002258157275
 31
0.0
  0
LINE
  5
3D7
100
AcDbEntity
  8
0
  6
CONTINUOUS
 62
               7
100
AcDbLine
 10
-15.778314462677713
 20
-271.25002892706715
 30
0.0
 11
-17.221686712280984
 21
-271.25002988074044
 31
0.0
  0
LINE
  5
3D8
100
AcDbEntity
  8
0
  6
CONTINUOUS
 62
               7
100
AcDbLine
 10
-17.221683148344368
 20
-271.25002281319195
 30
0.0
 11
-17.943365902974506
 21
-272.50001653960851
 31
0.0
  0
LINE
  5
3D9
100
AcDbEntity
  8
0
  6
CONTINUOUS
 62
               7
100
AcDbLine
 10
-17.943365865992632
 20
-272.50001538336562
 30
0.0
 11
-17.221681486603643
 21
-273.75000836991319
 31
0.0
  0
CIRCLE
  5
3DA
100
AcDbEntity
  8
0
  6
CONTINUOUS
 62
               7
100
AcDbCircle
 10
-16.500000000000114
 20
-272.50001509878922
 30
0.0
 40
2.75
  0
LINE
  5
3DB
100
AcDbEntity
  8
0
  6
CONTINUOUS
 62
               7
100
AcDbLine
 10
118.42436539558616
 20
-59.850015119204841
 30
0.0
 11
118.35000002964989
 21
-59.000015094559785
 31
0.0
  0
LINE
  5
3DC
100
AcDbEntity
  8
0
  6
CONTINUOUS
 62
               7
100
AcDbLine
 10
122.57563460441372
 20
-59.850015119205125
 30
0.0
 11
122.64999997034988
 21
-59.000015094560013
 31
0.0
  0
LINE
  5
3DD
100
AcDbEntity
  8
0
  6
CONTINUOUS
 62
               7
100
AcDbLine
 10
122.57563471794128
 20
-59.850015122631135
 30
0.0
 11
118.4243652820586
 21
-59.850015122630964
 31
0.0
  0
ARC
  5
3DE
100
AcDbEntity
  8
0
  6
CONTINUOUS
 62
               7
100
AcDbCircle
 10
120.50000000000023
 20
-53.870359260776468
 30
0.0
 40
6.3296561241149902
100
AcDbArc
 50
250.85729086486964
 51
289.14270731389303
  0
ARC
  5
3DF
100
AcDbEntity
  8
0
  6
CONTINUOUS
 62
               7
100
AcDbCircle
 10
-108.67529296875006
 20
-57.000015098789163
 30
0.0
 40
2.0
100
AcDbArc
 50
202.13136085930475
 51
270.00000250447806
  0
ARC
  5
3E0
100
AcDbEntity
  8
0
  6
CONTINUOUS
 62
               7
100
AcDbCircle
 10
-108.67529296875006
 20
-23.000015098789163
 30
0.0
 40
2.0
100
AcDbArc
 50
89.999991348577993
 51
157.86863048927324
  0
ARC
  5
3E1
100
AcDbEntity
  8
0
  6
CONTINUOUS
 62
               7
100
AcDbCircle
 10
-104.95202636718767
 20
-23.000015098789163
 30
0.0
 40
2.0
100
AcDbArc
 50
89.999991348577993
 51
170.84680953499787
  0
ARC
  5
3E2
100
AcDbEntity
  8
0
  6
CONTINUOUS
 62
               7
100
AcDbCircle
 10
-104.95202636718767
 20
-57.000015098789163
 30
0.0
 40
2.0
100
AcDbArc
 50
189.15318181358012
 51
270.00000250447806
  0
ARC
  5
3E3
100
AcDbEntity
  8
0
  6
CONTINUOUS
 62
               7
100
AcDbCircle
 10
-66.875000000000114
 20
-40.000015098789163
 30
0.0
 40
47.125
100
AcDbArc
 50
157.86864096192809
 51
202.13136085930475
  0
ARC
  5
3E4
100
AcDbEntity
  8
0
  6
CONTINUOUS
 62
               7
100
AcDbCircle
 10
0.5552978515625
 20
-40.000015098789163
 30
0.0
 40
108.86813354492186
100
AcDbArc
 50
170.84681317746356
 51
189.15318181358012
  0
ARC
  5
3E5
100
AcDbEntity
  8
0
  6
CONTINUOUS
 62
               7
100
AcDbCircle
 10
-16.500000000000114
 20
-282.00001509878916
 30
0.0
 40
2.9999999999999996
100
AcDbArc
 50
179.99999749552182
 51
0.0000025044781673
  0
ARC
  5
3E6
100
AcDbEntity
  8
0
  6
CONTINUOUS
 62
               7
100
AcDbCircle
 10
16.499999999999886
 20
-282.00001509878916
 30
0.0
 40
2.9999999999999996
100
AcDbArc
 50
179.99999749552182
 51
0.0000025044781673
  0
CIRCLE
  5
3E7
100
AcDbEntity
  8
0
  6
CONTINUOUS
 62
               7
100
AcDbCircle
 10
16.499999999999886
 20
-246.50001509878916
 30
0.0
 40
1.7499999999999998
  0
CIRCLE
  5
3E8
100
AcDbEntity
  8
0
  6
CONTINUOUS
 62
               7
100
AcDbCircle
 10
16.499999999999886
 20
-246.50001509878916
 30
0.0
 40
3.25
  0
CIRCLE
  5
3E9
100
AcDbEntity
  8
0
  6
CONTINUOUS
 62
               7
100
AcDbCircle
 10
16.499999999999886
 20
-272.50001509878922
 30
0.0
 40
3.25
  0
CIRCLE
  5
3EA
100
AcDbEntity
  8
0
  6
CONTINUOUS
 62
               7
100
AcDbCircle
 10
16.499999999999886
 20
-272.50001509878922
 30
0.0
 40
1.7499999999999998
  0
CIRCLE
  5
3EB
100
AcDbEntity
  8
0
  6
CONTINUOUS
 62
               7
100
AcDbCircle
 10
-16.500000000000114
 20
-272.50001509878922
 30
0.0
 40
1.7499999999999998
  0
CIRCLE
  5
3EC
100
AcDbEntity
  8
0
  6
CONTINUOUS
 62
               7
100
AcDbCircle
 10
-16.500000000000114
 20
-272.50001509878922
 30
0.0
 40
3.25
  0
CIRCLE
  5
3ED
100
AcDbEntity
  8
0
  6
CONTINUOUS
 62
               2
100
AcDbCircle
 10
22.0
 20
-277.50001509878922
 30
0.0
 40
1.4999999999999998
  0
CIRCLE
  5
3EE
100
AcDbEntity
  8
0
  6
CONTINUOUS
 62
               7
100
AcDbCircle
 10
22.0
 20
-277.50001509878922
 30
0.0
 40
1.25
  0
CIRCLE
  5
3EF
100
AcDbEntity
  8
0
  6
CONTINUOUS
 62
               7
100
AcDbCircle
 10
-22.000000000000114
 20
-277.50001509878922
 30
0.0
 40
1.25
  0
CIRCLE
  5
3F0
100
AcDbEntity
  8
0
  6
CONTINUOUS
 62
               2
100
AcDbCircle
 10
-22.000000000000114
 20
-277.50001509878922
 30
0.0
 40
1.4999999999999998
  0
CIRCLE
  5
3F1
100
AcDbEntity
  8
0
  6
CONTINUOUS
 62
               2
100
AcDbCircle
 10
-22.000000000000114
 20
-241.50001509878916
 30
0.0
 40
1.4999999999999998
  0
CIRCLE
  5
3F2
100
AcDbEntity
  8
0
  6
CONTINUOUS
 62
               7
100
AcDbCircle
 10
-22.000000000000114
 20
-241.50001509878916
 30
0.0
 40
1.25
  0
ARC
  5
3F3
100
AcDbEntity
  8
0
  6
CONTINUOUS
 62
               7
100
AcDbCircle
 10
-22.000000000000114
 20
-241.50001509878916
 30
0.0
 40
2.9999999999999996
100
AcDbArc
 50
89.999991348577993
 51
180.00000068324533
  0
ARC
  5
3F4
100
AcDbEntity
  8
0
  6
CONTINUOUS
 62
               7
100
AcDbCircle
 10
-22.000000000000114
 20
-277.50001509878922
 30
0.0
 40
2.9999999999999996
100
AcDbArc
 50
179.99999749552182
 51
270.0
  0
ARC
  5
3F5
100
AcDbEntity
  8
0
  6
CONTINUOUS
 62
               7
100
AcDbCircle
 10
22.0
 20
-277.50001509878922
 30
0.0
 40
2.9999999999999996
100
AcDbArc
 50
270.0
 51
0.0000025044781673
  0
ARC
  5
3F6
100
AcDbEntity
  8
0
  6
CONTINUOUS
 62
               7
100
AcDbCircle
 10
22.0
 20
-241.50001509878916
 30
0.0
 40
2.9999999999999996
100
AcDbArc
 50
0.0000025044781673
 51
90.000005008956336
  0
CIRCLE
  5
3F7
100
AcDbEntity
  8
0
  6
CONTINUOUS
 62
               7
100
AcDbCircle
 10
22.0
 20
-241.50001509878916
 30
0.0
 40
1.25
  0
CIRCLE
  5
3F8
100
AcDbEntity
  8
0
  6
CONTINUOUS
 62
               2
100
AcDbCircle
 10
22.0
 20
-241.50001509878916
 30
0.0
 40
1.4999999999999998
  0
CIRCLE
  5
3F9
100
AcDbEntity
  8
0
  6
CONTINUOUS
 62
               7
100
AcDbCircle
 10
-16.500000000000114
 20
-246.50001509878916
 30
0.0
 40
3.25
  0
CIRCLE
  5
3FA
100
AcDbEntity
  8
0
  6
CONTINUOUS
 62
               7
100
AcDbCircle
 10
-16.500000000000114
 20
-246.50001509878916
 30
0.0
 40
1.7499999999999998
  0
ARC
  5
3FB
100
AcDbEntity
  8
0
  6
CONTINUOUS
 62
               7
100
AcDbCircle
 10
0.0
 20
-169.06358321402354
 30
0.0
 40
135.72679138183594
100
AcDbArc
 50
255.0562291149291
 51
284.94377088507088
  0
ARC
  5
3FC
100
AcDbEntity
  8
0
  6
CONTINUOUS
 62
               7
100
AcDbCircle
 10
103.99999999999989
 20
-301.99205001089859
 30
0.0
 40
1.0
100
AcDbArc
 50
271.98128483929463
 51
0.0000025044781673
  0
ARC
  5
3FD
100
AcDbEntity
  8
0
  6
CONTINUOUS
 62
               7
100
AcDbCircle
 10
-104.00000000000006
 20
-301.99205001089859
 30
0.0
 40
1.0
100
AcDbArc
 50
179.99999749552182
 51
268.01871516070537
  0
ARC
  5
3FE
100
AcDbEntity
  8
0
  6
CONTINUOUS
 62
               7
100
AcDbCircle
 10
0.0
 20
2704.3327485730852
 30
0.0
 40
3009.123046875
100
AcDbArc
 50
268.01871516070537
 51
271.98128484826367
  0
ARC
  5
3FF
100
AcDbEntity
  8
0
  6
CONTINUOUS
 62
               7
100
AcDbCircle
 10
103.99999999999989
 20
-303.00001509878922
 30
0.0
 40
1.0
100
AcDbArc
 50
270.0
 51
0.0000025044781673
  0
ARC
  5
400
100
AcDbEntity
  8
0
  6
CONTINUOUS
 62
               7
100
AcDbCircle
 10
103.99999999999989
 20
-303.09638961050791
 30
0.0
 40
1.0
100
AcDbArc
 50
276.49788211075821
 51
0.0000025044781673
  0
ARC
  5
401
100
AcDbEntity
  8
0
  6
CONTINUOUS
 62
               7
100
AcDbCircle
 10
-104.00000000000006
 20
-303.09638961050791
 30
0.0
 40
1.0
100
AcDbArc
 50
179.99999749552182
 51
263.50211788924179
  0
ARC
  5
402
100
AcDbEntity
  8
0
  6
CONTINUOUS
 62
               7
100
AcDbCircle
 10
0.0
 20
609.99998490121095
 30
0.0
 40
920.0
100
AcDbArc
 50
263.50211788924179
 51
271.97148838100151
  0
LINE
  5
403
100
AcDbEntity
  8
0
  6
CONTINUOUS
 62
               2
100
AcDbLine
 10
37.694308743115812
 20
-59.500015098789163
 30
0.0
 11
-37.8224538573225
 21
-59.500015098789163
 31
0.0
  0
LINE
  5
404
100
AcDbEntity
  8
0
  6
CONTINUOUS
 62
               2
100
AcDbLine
 10
38.460976383729303
 20
-259.50001509878916
 30
0.0
 11
-38.972455318242908
 21
-259.50001509878916
 31
0.0
  0
LINE
  5
405
100
AcDbEntity
  8
0
  6
CONTINUOUS
 62
               7
100
AcDbLine
 10
117.0
 20
-26.600005943515725
 30
0.0
 11
96.000000020999778
 21
-26.600005943515725
 31
0.0
  0
LINE
  5
406
100
AcDbEntity
  8
0
  6
CONTINUOUS
 62
               7
100
AcDbLine
 10
117.0
 20
-28.800018150546975
 30
0.0
 11
96.000000020999778
 21
-28.800018150546975
 31
0.0
  0
LINE
  5
407
100
AcDbEntity
  8
0
  6
CONTINUOUS
 62
               7
100
AcDbLine
 10
117.0
 20
-51.200012047031407
 30
0.0
 11
96.000000020999778
 21
-51.200012047031407
 31
0.0
  0
LINE
  5
408
100
AcDbEntity
  8
0
  6
CONTINUOUS
 62
               7
100
AcDbLine
 10
117.0
 20
-53.400008995273538
 30
0.0
 11
96.000000020999778
 21
-53.400008995273538
 31
0.0
  0
LINE
  5
409
100
AcDbEntity
  8
0
  6
CONTINUOUS
 62
               7
100
AcDbLine
 10
117.0
 20
-59.000015098789163
 30
0.0
 11
96.000000020999778
 21
-59.000015098789163
 31
0.0
  0
LINE
  5
40A
100
AcDbEntity
  8
0
  6
CONTINUOUS
 62
               7
100
AcDbLine
 10
117.0
 20
-21.000015098789277
 30
0.0
 11
96.000000020999778
 21
-21.000015098789277
 31
0.0
  0
LINE
  5
40B
100
AcDbEntity
  8
0
  6
CONTINUOUS
 62
               7
100
AcDbLine
 10
-102.00000000000011
 20
-59.000015098789163
 30
0.0
 11
-102.00000000000011
 21
-21.000015098789277
 31
0.0
  0
LINE
  5
40C
100
AcDbEntity
  8
0
  6
CONTINUOUS
 62
               7
100
AcDbLine
 10
193.85473632812477
 20
-53.830016929843907
 30
0.0
 11
117.86614990234364
 21
-53.830016929843907
 31
0.0
  0
LINE
  5
40D
100
AcDbEntity
  8
0
  6
CONTINUOUS
 62
               7
100
AcDbLine
 10
194.99999999999989
 20
-59.000015098789163
 30
0.0
 11
117.0
 21
-59.000015098789163
 31
0.0
  0
LINE
  5
40E
100
AcDbEntity
  8
0
  6
CONTINUOUS
 62
               7
100
AcDbLine
 10
194.99999999999989
 20
-59.000015098789163
 30
0.0
 11
194.99999999999989
 21
-18.400015098789254
 31
0.0
  0
LINE
  5
40F
100
AcDbEntity
  8
0
  6
CONTINUOUS
 62
               7
100
AcDbLine
 10
117.0
 20
-59.000015098789163
 30
0.0
 11
117.0
 21
-18.400015098789254
 31
0.0
  0
LINE
  5
410
100
AcDbEntity
  8
0
  6
CONTINUOUS
 62
               7
100
AcDbLine
 10
193.67431640624989
 20
-26.170013267734475
 30
0.0
 11
118.04644775390625
 21
-26.170013267734475
 31
0.0
  0
LINE
  5
411
100
AcDbEntity
  8
0
  6
CONTINUOUS
 62
               2
100
AcDbLine
 10
200.16662597656239
 20
-40.000015098789163
 30
0.0
 11
-118.81774902343761
 21
-40.000015098789163
 31
0.0
  0
LINE
  5
412
100
AcDbEntity
  8
0
  6
CONTINUOUS
 62
               7
100
AcDbLine
 10
25.0
 20
0.0
 30
0.0
 11
25.0
 21
-19.9999998400001
 31
0.0
  0
LINE
  5
413
100
AcDbEntity
  8
0
  6
CONTINUOUS
 62
               7
100
AcDbLine
 10
-25.0
 20
0.0
 30
0.0
 11
-25.0
 21
-19.9999998400001
 31
0.0
  0
LINE
  5
414
100
AcDbEntity
  8
0
  6
CONTINUOUS
 62
               7
100
AcDbLine
 10
19.5
 20
-280.50001509878922
 30
0.0
 11
19.5
 21
-282.00001509878916
 31
0.0
  0
LINE
  5
415
100
AcDbEntity
  8
0
  6
CONTINUOUS
 62
               7
100
AcDbLine
 10
13.499999999999886
 20
-280.50001509878922
 30
0.0
 11
13.499999999999886
 21
-282.00001509878916
 31
0.0
  0
LINE
  5
416
100
AcDbEntity
  8
0
  6
CONTINUOUS
 62
               7
100
AcDbLine
 10
-19.500000000000114
 20
-280.50001509878922
 30
0.0
 11
-19.500000000000114
 21
-282.00001509878916
 31
0.0
  0
LINE
  5
417
100
AcDbEntity
  8
0
  6
CONTINUOUS
 62
               7
100
AcDbLine
 10
-13.500000000000114
 20
-280.50001509878922
 30
0.0
 11
-13.500000000000114
 21
-282.00001509878916
 31
0.0
  0
LINE
  5
418
100
AcDbEntity
  8
0
  6
CONTINUOUS
 62
               2
100
AcDbLine
 10
24.5
 20
-277.50001509878922
 30
0.0
 11
19.5
 21
-277.50001509878922
 31
0.0
  0
LINE
  5
419
100
AcDbEntity
  8
0
  6
CONTINUOUS
 62
               2
100
AcDbLine
 10
22.0
 20
-275.00001509878922
 30
0.0
 11
22.0
 21
-280.00001509878922
 31
0.0
  0
LINE
  5
41A
100
AcDbEntity
  8
0
  6
CONTINUOUS
 62
               2
100
AcDbLine
 10
-22.000000000000114
 20
-275.00001509878922
 30
0.0
 11
-22.000000000000114
 21
-280.00001509878922
 31
0.0
  0
LINE
  5
41B
100
AcDbEntity
  8
0
  6
CONTINUOUS
 62
               2
100
AcDbLine
 10
-19.500000000000114
 20
-277.50001509878922
 30
0.0
 11
-24.500000000000114
 21
-277.50001509878922
 31
0.0
  0
LINE
  5
41C
100
AcDbEntity
  8
0
  6
CONTINUOUS
 62
               2
100
AcDbLine
 10
-22.000000000000114
 20
-239.00001509878916
 30
0.0
 11
-22.000000000000114
 21
-244.00001509878916
 31
0.0
  0
LINE
  5
41D
100
AcDbEntity
  8
0
  6
CONTINUOUS
 62
               2
100
AcDbLine
 10
-19.500000000000114
 20
-241.50001509878916
 30
0.0
 11
-24.500000000000114
 21
-241.50001509878916
 31
0.0
  0
LINE
  5
41E
100
AcDbEntity
  8
0
  6
CONTINUOUS
 62
               2
100
AcDbLine
 10
22.0
 20
-239.00001509878916
 30
0.0
 11
22.0
 21
-244.00001509878916
 31
0.0
  0
LINE
  5
41F
100
AcDbEntity
  8
0
  6
CONTINUOUS
 62
               2
100
AcDbLine
 10
24.5
 20
-241.50001509878916
 30
0.0
 11
19.5
 21
-241.50001509878916
 31
0.0
  0
LINE
  5
420
100
AcDbEntity
  8
0
  6
CONTINUOUS
 62
               7
100
AcDbLine
 10
22.0
 20
-280.50001509878922
 30
0.0
 11
-22.000000000000114
 21
-280.50001509878922
 31
0.0
  0
LINE
  5
421
100
AcDbEntity
  8
0
  6
CONTINUOUS
 62
               7
100
AcDbLine
 10
22.0
 20
-238.50001509878922
 30
0.0
 11
-22.000000000000114
 21
-238.50001509878922
 31
0.0
  0
LINE
  5
422
100
AcDbEntity
  8
0
  6
CONTINUOUS
 62
               7
100
AcDbLine
 10
-35.0
 20
0.0
 30
0.0
 11
-35.0
 21
-19.9999998400001
 31
0.0
  0
LINE
  5
423
100
AcDbEntity
  8
0
  6
CONTINUOUS
 62
               7
100
AcDbLine
 10
35.0
 20
0.0
 30
0.0
 11
35.0
 21
-19.9999998400001
 31
0.0
  0
LINE
  5
424
100
AcDbEntity
  8
0
  6
CONTINUOUS
 62
               7
100
AcDbLine
 10
105.0
 20
-59.000015098789163
 30
0.0
 11
105.0
 21
-303.00001509878922
 31
0.0
  0
LINE
  5
425
100
AcDbEntity
  8
0
  6
CONTINUOUS
 62
               7
100
AcDbLine
 10
-105.00000000000011
 20
-60.000015098789163
 30
0.0
 11
53.999999978999767
 21
-60.000015098789163
 31
0.0
  0
LINE
  5
426
100
AcDbEntity
  8
0
  6
CONTINUOUS
 62
               7
100
AcDbLine
 10
-105.00000000000011
 20
-300.20002730582047
 30
0.0
 11
105.0
 21
-300.20002730582047
 31
0.0
  0
LINE
  5
427
100
AcDbEntity
  8
0
  6
CONTINUOUS
 62
               7
100
AcDbLine
 10
-105.00000000000011
 20
0.0000001599998996
 30
0.0
 11
-105.00000000000011
 21
-21.000015098789277
 31
0.0
  0
LINE
  5
428
100
AcDbEntity
  8
0
  6
CONTINUOUS
 62
               7
100
AcDbLine
 10
23.499999999999886
 20
51.499969642421661
 30
0.0
 11
-19.000000000000114
 21
51.499969642421661
 31
0.0
  0
SPLINE
  5
429
100
AcDbEntity
  8
0
  6
CONTINUOUS
 62
               7
100
AcDbSpline
210
0.0
220
0.0
230
1.0
 70
               0
 71
               3
 72
               0
 73
               0
 74
               3
 44
0.000001
 12
-0.9941629446599528
 22
-0.1078890145707695
 32
0.0
 13
-0.9999789424324793
 23
0.0064895833163766
 33
0.0
 11
44.349999999999824
 21
-306.43387917200982
 31
0.0
 11
39.579992163618499
 21
-306.8477019240828
 31
0.0
 11
31.64999999999991
 21
-307.07907477820004
 31
0.0
  0
LINE
  5
42A
100
AcDbEntity
  8
0
  6
CONTINUOUS
 62
               7
100
AcDbLine
 10
-41.060660171779773
 20
-7.060660171779773
 30
0.0
 11
-38.93933982822
 21
-4.9393398282201701
 31
0.0
  0
LINE
  5
42B
100
AcDbEntity
  8
0
  6
CONTINUOUS
 62
               7
100
AcDbLine
 10
-41.060660171779773
 20
-4.9393398282201701
 30
0.0
 11
-38.93933982822
 21
-7.060660171779773
 31
0.0
  0
LINE
  5
42C
100
AcDbEntity
  8
0
  6
CONTINUOUS
 62
               7
100
AcDbLine
 10
38.939339828220227
 20
-7.060660171779773
 30
0.0
 11
41.06066017178
 21
-4.9393398282201701
 31
0.0
  0
LINE
  5
42D
100
AcDbEntity
  8
0
  6
CONTINUOUS
 62
               7
100
AcDbLine
 10
38.939339828220227
 20
-4.9393398282201701
 30
0.0
 11
41.06066017178
 21
-7.060660171779773
 31
0.0
  0
LINE
  5
42E
100
AcDbEntity
  8
0
  6
CONTINUOUS
 62
               7
100
AcDbLine
 10
-41.060660171779773
 20
-292.26068747760036
 30
0.0
 11
-38.93933982822
 21
-290.13936713404075
 31
0.0
  0
LINE
  5
42F
100
AcDbEntity
  8
0
  6
CONTINUOUS
 62
               7
100
AcDbLine
 10
-41.060660171779773
 20
-290.13936713404075
 30
0.0
 11
-38.93933982822
 21
-292.26068747760036
 31
0.0
  0
LINE
  5
430
100
AcDbEntity
  8
0
  6
CONTINUOUS
 62
               7
100
AcDbLine
 10
38.939339828220227
 20
-292.26068747760036
 30
0.0
 11
41.06066017178
 21
-290.13936713404075
 31
0.0
  0
LINE
  5
431
100
AcDbEntity
  8
0
  6
CONTINUOUS
 62
               7
100
AcDbLine
 10
38.939339828220227
 20
-290.13936713404075
 30
0.0
 11
41.06066017178
 21
-292.26068747760036
 31
0.0
  0
ENDBLK
  5
432
100
AcDbEntity
  8
0
100
AcDbBlockEnd
  0
BLOCK
  5
22
100
AcDbEntity
  8
0
  6
ByBlock
 62
               0
100
AcDbBlockBegin
  2
_OPEN30
 70
               2
 10
0.0
 20
0.0
 30
0.0
  3
_OPEN30
  1

  0
LINE
  5
23
100
AcDbEntity
  8
0
  6
ByBlock
 62
               0
100
AcDbLine
 10
-1.0
 20
0.267949
 30
0.0
 11
0.0
 21
0.0
 31
0.0
  0
LINE
  5
24
100
AcDbEntity
  8
0
  6
ByBlock
 62
               0
100
AcDbLine
 10
0.0
 20
0.0
 30
0.0
 11
-1.0
 21
-0.267949
 31
0.0
  0
LINE
  5
25
100
AcDbEntity
  8
0
  6
ByBlock
 62
               0
100
AcDbLine
 10
0.0
 20
0.0
 30
0.0
 11
-1.0
 21
0.0
 31
0.0
  0
ENDBLK
  5
26
100
AcDbEntity
  8
0
  6
ByBlock
 62
               0
100
AcDbBlockEnd
  0
BLOCK
  5
434
100
AcDbEntity
  8
0
  6
ByBlock
 62
               0
100
AcDbBlockBegin
  2
*D4
 70
               1
 10
0.0
 20
0.0
 30
0.0
  3
*D4
  1

  0
LINE
  5
435
100
AcDbEntity
  8
0
  6
CONTINUOUS
 62
               2
100
AcDbLine
 10
67.999999997999907
 20
-198.99753805022593
 30
0.0
 11
67.999999997999907
 21
-148.9975380502259
 31
0.0
  0
LINE
  5
436
100
AcDbEntity
  8
0
  6
CONTINUOUS
 62
               2
100
AcDbLine
 10
67.999999997999907
 20
-148.9975380502259
 30
0.0
 11
67.999999997999907
 21
6.999959508367823
 31
0.0
  0
LINE
  5
437
100
AcDbEntity
  8
0
  6
CONTINUOUS
 62
               2
100
AcDbLine
 10
317.71736144819522
 20
-198.99753805022593
 30
0.0
 11
66.499999997999907
 21
-198.99753805022593
 31
0.0
  0
LINE
  5
438
100
AcDbEntity
  8
0
  6
CONTINUOUS
 62
               2
100
AcDbLine
 10
317.71736144819522
 20
-148.9975380502259
 30
0.0
 11
66.499999997999907
 21
-148.9975380502259
 31
0.0
  0
INSERT
  5
439
100
AcDbEntity
  8
0
  6
CONTINUOUS
 62
               2
100
AcDbBlockReference
  2
_OPEN30
 10
67.999999997999907
 20
-198.99753805022593
 30
0.0
 41
8.3100000000000005
 42
8.3100000000000005
 43
8.3100000000000005
 50
270.0
  0
INSERT
  5
43A
100
AcDbEntity
  8
0
  6
CONTINUOUS
 62
               2
100
AcDbBlockReference
  2
_OPEN30
 10
67.999999997999907
 20
-148.9975380502259
 30
0.0
 41
8.3100000000000005
 42
8.3100000000000005
 43
8.3100000000000005
 50
90.0
  0
MTEXT
  5
43C
100
AcDbEntity
  8
0
  6
CONTINUOUS
 62
               2
100
AcDbMText
 10
60.999999997999907
 20
-65.000040491632177
 30
0.0
 40
12.0
 41
0.0
 71
               5
 72
               1
  1
\A1;Z-STROKE(50)
  7
MX_DIMTXSTY_2
 11
0.0000000000000001
 21
1.0
 31
0.0
  0
POINT
  5
43D
100
AcDbEntity
  8
DEFPOINTS
  6
CONTINUOUS
 62
               0
100
AcDbPoint
 10
319.21736144819522
 20
-198.99753805022593
 30
0.0
  0
POINT
  5
43E
100
AcDbEntity
  8
DEFPOINTS
  6
CONTINUOUS
 62
               0
100
AcDbPoint
 10
319.21736144819522
 20
-148.9975380502259
 30
0.0
  0
POINT
  5
43F
100
AcDbEntity
  8
DEFPOINTS
  6
CONTINUOUS
 62
               0
100
AcDbPoint
 10
67.999999997999907
 20
-148.9975380502259
 30
0.0
  0
ENDBLK
  5
440
100
AcDbEntity
  8
0
  6
ByBlock
 62
               0
100
AcDbBlockEnd
  0
BLOCK
  5
446
100
AcDbEntity
  8
0
  6
ByBlock
 62
               0
100
AcDbBlockBegin
  2
*D5
 70
               1
 10
0.0
 20
0.0
 30
0.0
  3
*D5
  1

  0
LINE
  5
447
100
AcDbEntity
  8
0
  6
CONTINUOUS
 62
               2
100
AcDbLine
 10
68.906158320458246
 20
130.49998490121084
 30
0.0
 11
68.906158320458246
 21
330.49998490121084
 31
0.0
  0
LINE
  5
448
100
AcDbEntity
  8
0
  6
CONTINUOUS
 62
               2
100
AcDbLine
 10
230.02354418471606
 20
130.49998490121084
 30
0.0
 11
67.406158320458246
 21
130.49998490121084
 31
0.0
  0
LINE
  5
449
100
AcDbEntity
  8
0
  6
CONTINUOUS
 62
               2
100
AcDbLine
 10
267.71784960463793
 20
330.49998490121084
 30
0.0
 11
67.406158320458246
 21
330.49998490121084
 31
0.0
  0
INSERT
  5
44A
100
AcDbEntity
  8
0
  6
CONTINUOUS
 62
               2
100
AcDbBlockReference
  2
_OPEN30
 10
68.906158320458246
 20
130.49998490121084
 30
0.0
 41
8.3100000000000005
 42
8.3100000000000005
 43
8.3100000000000005
 50
270.0
  0
INSERT
  5
44B
100
AcDbEntity
  8
0
  6
CONTINUOUS
 62
               2
100
AcDbBlockReference
  2
_OPEN30
 10
68.906158320458246
 20
330.49998490121084
 30
0.0
 41
8.3100000000000005
 42
8.3100000000000005
 43
8.3100000000000005
 50
90.0
  0
MTEXT
  5
44D
100
AcDbEntity
  8
0
  6
CONTINUOUS
 62
               2
100
AcDbMText
 10
61.906158320458246
 20
233.34318558480459
 30
0.0
 40
12.0
 41
0.0
 71
               5
 72
               1
  1
\A1;Y-STROKE(200)
  7
MX_DIMTXSTY_3
 11
0.0000000000000001
 21
1.0
 31
0.0
  0
POINT
  5
44E
100
AcDbEntity
  8
DEFPOINTS
  6
CONTINUOUS
 62
               0
100
AcDbPoint
 10
231.52354418471606
 20
130.49998490121084
 30
0.0
  0
POINT
  5
44F
100
AcDbEntity
  8
DEFPOINTS
  6
CONTINUOUS
 62
               0
100
AcDbPoint
 10
269.21784960463793
 20
330.49998490121084
 30
0.0
  0
POINT
  5
450
100
AcDbEntity
  8
DEFPOINTS
  6
CONTINUOUS
 62
               0
100
AcDbPoint
 10
68.906158320458246
 20
330.49998490121084
 30
0.0
  0
ENDBLK
  5
451
100
AcDbEntity
  8
0
  6
ByBlock
 62
               0
100
AcDbBlockEnd
  0
BLOCK
  5
454
100
AcDbEntity
  8
0
  6
ByBlock
 62
               0
100
AcDbBlockBegin
  2
*D6
 70
               1
 10
0.0
 20
0.0
 30
0.0
  3
*D6
  1

  0
LINE
  5
455
100
AcDbEntity
  8
0
  6
CONTINUOUS
 62
               2
100
AcDbLine
 10
184.99999999999983
 20
498.92285889300285
 30
0.0
 11
334.99999999999983
 21
498.92285889300285
 31
0.0
  0
LINE
  5
456
100
AcDbEntity
  8
0
  6
CONTINUOUS
 62
               2
100
AcDbLine
 10
184.99999999999983
 20
358.43349426897942
 30
0.0
 11
184.99999999999983
 21
500.42285889300285
 31
0.0
  0
LINE
  5
457
100
AcDbEntity
  8
0
  6
CONTINUOUS
 62
               2
100
AcDbLine
 10
334.99999999999983
 20
358.43349426897942
 30
0.0
 11
334.99999999999983
 21
500.42285889300285
 31
0.0
  0
INSERT
  5
458
100
AcDbEntity
  8
0
  6
CONTINUOUS
 62
               2
100
AcDbBlockReference
  2
_OPEN30
 10
184.99999999999983
 20
498.92285889300285
 30
0.0
 41
8.3100000000000005
 42
8.3100000000000005
 43
8.3100000000000005
 50
180.0
  0
INSERT
  5
459
100
AcDbEntity
  8
0
  6
CONTINUOUS
 62
               2
100
AcDbBlockReference
  2
_OPEN30
 10
334.99999999999983
 20
498.92285889300285
 30
0.0
 41
8.3100000000000005
 42
8.3100000000000005
 43
8.3100000000000005
  0
MTEXT
  5
45A
100
AcDbEntity
  8
0
  6
CONTINUOUS
 62
               2
100
AcDbMText
 10
257.38261413574202
 20
505.92285889300285
 30
0.0
 40
12.0
 41
0.0
 71
               5
 72
               1
  1
\A1;X-STROKE(150)
  7
MX_DIMTXSTY_3
  0
POINT
  5
45B
100
AcDbEntity
  8
DEFPOINTS
  6
CONTINUOUS
 62
               0
100
AcDbPoint
 10
184.99999999999983
 20
356.93349426897942
 30
0.0
  0
POINT
  5
45C
100
AcDbEntity
  8
DEFPOINTS
  6
CONTINUOUS
 62
               0
100
AcDbPoint
 10
334.99999999999983
 20
356.93349426897942
 30
0.0
  0
POINT
  5
45D
100
AcDbEntity
  8
DEFPOINTS
  6
CONTINUOUS
 62
               0
100
AcDbPoint
 10
334.99999999999983
 20
498.92285889300285
 30
0.0
  0
ENDBLK
  5
45E
100
AcDbEntity
  8
0
  6
ByBlock
 62
               0
100
AcDbBlockEnd
  0
ENDSEC
  0
SECTION
  2
ENTITIES
  0
DIMENSION
  5
441
100
AcDbEntity
  8
0
  6
CONTINUOUS
 62
               2
100
AcDbDimension
  2
*D4
 10
67.999999997999907
 20
-148.9975380502259
 30
0.0
 11
67.999999997999907
 21
-65.000040491632177
 31
0.0
 70
             128
  1
Z-STROKE(50)
  3
MXDIMSTYLE
100
AcDbAlignedDimension
 13
319.21736144819522
 23
-198.99753805022593
 33
0.0
 14
319.21736144819522
 24
-148.9975380502259
 34
0.0
 50
90.0
100
AcDbRotatedDimension
1001
ACAD
1000
DSTYLE
1002
{
1070
              41
1040
8.3100000000000005
1070
             140
1040
12.0
1070
             340
1005
43B
1002
}
  0
INSERT
  5
442
100
AcDbEntity
  8
0
  6
ByBlock
100
AcDbBlockReference
  2
DTRB-AS3-3
 10
260.0
 20
390.0
 30
0.0
  0
INSERT
  5
443
100
AcDbEntity
  8
0
  6
ByBlock
100
AcDbBlockReference
  2
DTRB-AS3-2
 10
-440.0
 20
-400.0
 30
0.0
  0
INSERT
  5
444
100
AcDbEntity
  8
0
  6
ByBlock
100
AcDbBlockReference
  2
DTRB-AS3-1
 10
260.0
 20
-400.00000000000006
 30
0.0
  0
DIMENSION
  5
452
100
AcDbEntity
  8
0
  6
CONTINUOUS
 62
               2
100
AcDbDimension
  2
*D5
 10
68.906158320458246
 20
330.49998490121084
 30
0.0
 11
68.906158320458246
 21
233.34318558480459
 31
0.0
 70
             128
  1
Y-STROKE(200)
  3
MXDIMSTYLE
100
AcDbAlignedDimension
 13
231.52354418471606
 23
130.49998490121084
 33
0.0
 14
269.21784960463793
 24
330.49998490121084
 34
0.0
 50
90.0
100
AcDbRotatedDimension
1001
ACAD
1000
DSTYLE
1002
{
1070
              41
1040
8.3100000000000005
1070
             140
1040
12.0
1070
             340
1005
44C
1002
}
  0
DIMENSION
  5
45F
100
AcDbEntity
  8
0
  6
CONTINUOUS
 62
               2
100
AcDbDimension
  2
*D6
 10
334.99999999999983
 20
498.92285889300285
 30
0.0
 11
257.38261413574202
 21
498.92285889300285
 31
0.0
 70
             128
  1
X-STROKE(150)
  3
MXDIMSTYLE
100
AcDbAlignedDimension
 13
184.99999999999983
 23
356.93349426897942
 33
0.0
 14
334.99999999999983
 24
356.93349426897942
 34
0.0
100
AcDbRotatedDimension
1001
ACAD
1000
DSTYLE
1002
{
1070
              41
1040
8.3100000000000005
1070
             140
1040
12.0
1070
             340
1005
44C
1002
}
  0
MTEXT
  5
460
100
AcDbEntity
  8
0
  6
CONTINUOUS
 62
               7
100
AcDbMText
 10
-678.5
 20
459.5
 30
0.0
 40
18.0
 41
0.0
 71
               4
 72
               1
  1
\A1;DTRB-ASL3
  0
MTEXT
  5
461
100
AcDbEntity
  8
0
  6
CONTINUOUS
 62
               7
100
AcDbMText
 10
-741.38679245283015
 20
562.0
 30
0.0
 40
18.0
 41
0.0
 71
               4
 72
               1
  1
\W1.038;\A1;CELL MASTER
  0
LINE
  5
462
100
AcDbEntity
  8
0
  6
CONTINUOUS
 62
               7
100
AcDbLine
 10
-820.5
 20
-574.5
 30
0.0
 11
820.5
 21
-574.5
 31
0.0
  0
LINE
  5
463
100
AcDbEntity
  8
0
  6
CONTINUOUS
 62
               7
100
AcDbLine
 10
-820.5
 20
574.5
 30
0.0
 11
-820.5
 21
-574.5
 31
0.0
  0
LINE
  5
464
100
AcDbEntity
  8
0
  6
CONTINUOUS
 62
               7
100
AcDbLine
 10
820.5
 20
574.5
 30
0.0
 11
820.5
 21
-574.5
 31
0.0
  0
LINE
  5
465
100
AcDbEntity
  8
0
  6
CONTINUOUS
 62
               7
100
AcDbLine
 10
-820.5
 20
574.5
 30
0.0
 11
820.5
 21
574.5
 31
0.0
  0
LINE
  5
466
100
AcDbEntity
  8
0
  6
CONTINUOUS
 62
               7
100
AcDbLine
 10
-820.5
 20
524.5
 30
0.0
 11
-470.5
 21
524.5
 31
0.0
  0
LINE
  5
467
100
AcDbEntity
  8
0
  6
CONTINUOUS
 62
               7
100
AcDbLine
 10
470.5
 20
-524.5
 30
0.0
 11
820.5
 21
-524.5
 31
0.0
  0
LINE
  5
468
100
AcDbEntity
  8
0
  6
CONTINUOUS
 62
               7
100
AcDbLine
 10
470.5
 20
574.5
 30
0.0
 11
470.5
 21
524.5
 31
0.0
  0
LINE
  5
469
100
AcDbEntity
  8
0
  6
CONTINUOUS
 62
               7
100
AcDbLine
 10
-470.5
 20
574.5
 30
0.0
 11
-470.5
 21
524.5
 31
0.0
  0
LINE
  5
46A
100
AcDbEntity
  8
0
  6
CONTINUOUS
 62
               7
100
AcDbLine
 10
470.5
 20
-524.5
 30
0.0
 11
470.5
 21
-574.5
 31
0.0
  0
LINE
  5
46B
100
AcDbEntity
  8
0
  6
CONTINUOUS
 62
               7
100
AcDbLine
 10
470.5
 20
524.5
 30
0.0
 11
820.5
 21
524.5
 31
0.0
  0
MTEXT
  5
46C
100
AcDbEntity
  8
0
  6
CONTINUOUS
 62
               7
100
AcDbMText
 10
-786.35000000234697
 20
484.5
 30
0.0
 40
18.0
 41
0.0
 71
               4
 72
               1
  1
\W1.050;\A1;MODEL:DTRB-AS3
  0
MTEXT
  5
46D
100
AcDbEntity
  8
0
  6
CONTINUOUS
 62
               7
100
AcDbMText
 10
487.66954021788825
 20
-549.5
 30
0.0
 40
25.0
 41
0.0
 71
               4
 72
               1
  1
\W1.121;\A1;KOGANEI CORP.
  0
MTEXT
  5
46E
100
AcDbEntity
  8
0
  6
CONTINUOUS
 62
               7
100
AcDbMText
 10
577.43442619106395
 20
549.5
 30
0.0
 40
18.0
 41
0.0
 71
               4
 72
               1
  1
\W1.311;\A1;Ver. 1.0
  0
MTEXT
  5
46F
100
AcDbEntity
  8
0
  6
CONTINUOUS
 62
               7
100
AcDbMText
 10
-714.5
 20
537.0
 30
0.0
 40
18.0
 41
0.0
 71
               4
 72
               1
  1
\A1;DTRB-AS3
  0
ENDSEC
  0
SECTION
  2
OBJECTS
  0
DICTIONARY
  5
19
100
AcDbDictionary
  3
ACAD_GROUP
350
1A
  3
ACAD_MLINESTYLE
350
1B
  0
DICTIONARY
  5
1A
102
{ACAD_REACTORS
330
19
102
}
100
AcDbDictionary
  0
DICTIONARY
  5
1B
102
{ACAD_REACTORS
330
19
102
}
100
AcDbDictionary
  3
STANDARD
350
1C
  0
MLINESTYLE
  5
1C
102
{ACAD_REACTORS
330
1B
102
}
100
AcDbMlineStyle
  2
Standard
 70
               0
  3

 62
               0
 51
90.0
 52
90.0
 71
               2
 49
0.5
 62
             256
  6
ByLayer
 49
-0.5
 62
             256
  6
ByLayer
  0
ENDSEC
  0
EOF
