  0
SECTION
  2
HEADER
  9
$ACADVER
  1
AC1012
  9
$DWGCODEPAGE
  3
dos932
  9
$INSBASE
 10
0.0
 20
0.0
 30
0.0
  9
$EXTMIN
 10
-564.5
 20
-400.5
 30
0.0
  9
$EXTMAX
 10
581.5
 20
402.375
 30
0.0
  9
$LIMMIN
 10
-599.50000000000011
 20
-415.50000000000006
  9
$LIMMAX
 10
589.50000000000011
 20
425.50000000000006
  9
$ORTHOMODE
 70
               0
  9
$REGENMODE
 70
               1
  9
$FILLMODE
 70
               1
  9
$QTEXTMODE
 70
               0
  9
$MIRRTEXT
 70
               1
  9
$DRAGMODE
 70
               2
  9
$LTSCALE
 40
1.0
  9
$OSMODE
 70
               0
  9
$ATTMODE
 70
               1
  9
$TEXTSIZE
 40
3.2000000476837158
  9
$TRACEWID
 40
0.05
  9
$TEXTSTYLE
  7
MX_NOTE_STANDARD
  9
$CLAYER
  8
0
  9
$CELTYPE
  6
CONTINUOUS
  9
$CECOLOR
 62
             256
  9
$CELTSCALE
 40
1.0
  9
$DELOBJ
 70
               1
  9
$DISPSILH
 70
               0
  9
$DIMSCALE
 40
1.0
  9
$DIMASZ
 40
2.5
  9
$DIMEXO
 40
1.5
  9
$DIMDLI
 40
3.75
  9
$DIMRND
 40
0.0
  9
$DIMDLE
 40
0.0
  9
$DIMEXE
 40
1.5
  9
$DIMTP
 40
0.0
  9
$DIMTM
 40
0.0
  9
$DIMTXT
 40
3.2000000476837158
  9
$DIMCEN
 40
2.5
  9
$DIMTSZ
 40
0.0
  9
$DIMTOL
 70
               0
  9
$DIMLIM
 70
               0
  9
$DIMTIH
 70
               0
  9
$DIMTOH
 70
               0
  9
$DIMSE1
 70
               0
  9
$DIMSE2
 70
               0
  9
$DIMTAD
 70
               1
  9
$DIMZIN
 70
               8
  9
$DIMBLK
  1

  9
$DIMASO
 70
               1
  9
$DIMSHO
 70
               1
  9
$DIMPOST
  1

  9
$DIMAPOST
  1

  9
$DIMALT
 70
               0
  9
$DIMALTD
 70
               4
  9
$DIMALTF
 40
0.03937007874016
  9
$DIMLFAC
 40
1.0
  9
$DIMTOFL
 70
               1
  9
$DIMTVP
 40
0.0
  9
$DIMTIX
 70
               0
  9
$DIMSOXD
 70
               0
  9
$DIMSAH
 70
               1
  9
$DIMBLK1
  1
_OPEN30
  9
$DIMBLK2
  1
_OPEN30
  9
$DIMSTYLE
  2
MXDIMSTYLE
  9
$DIMCLRD
 70
               0
  9
$DIMCLRE
 70
               0
  9
$DIMCLRT
 70
               0
  9
$DIMTFAC
 40
1.0
  9
$DIMGAP
 40
1.0
  9
$DIMJUST
 70
               0
  9
$DIMSD1
 70
               0
  9
$DIMSD2
 70
               0
  9
$DIMTOLJ
 70
               0
  9
$DIMTZIN
 70
               0
  9
$DIMALTZ
 70
               0
  9
$DIMALTTZ
 70
               0
  9
$DIMFIT
 70
               3
  9
$DIMUPT
 70
               1
  9
$DIMUNIT
 70
               2
  9
$DIMDEC
 70
               2
  9
$DIMTDEC
 70
               2
  9
$DIMALTU
 70
               2
  9
$DIMALTTD
 70
               4
  9
$DIMTXSTY
  7
MX_NOTE_STANDARD
  9
$DIMAUNIT
 70
               0
  9
$LUNITS
 70
               2
  9
$LUPREC
 70
               4
  9
$SKETCHINC
 40
0.1
  9
$FILLETRAD
 40
0.0
  9
$AUNITS
 70
               0
  9
$AUPREC
 70
               0
  9
$MENU
  1
acad
  9
$ELEVATION
 40
0.0
  9
$PELEVATION
 40
0.0
  9
$THICKNESS
 40
0.0
  9
$LIMCHECK
 70
               0
  9
$BLIPMODE
 70
               1
  9
$CHAMFERA
 40
0.0
  9
$CHAMFERB
 40
0.0
  9
$CHAMFERC
 40
0.0
  9
$CHAMFERD
 40
0.0
  9
$SKPOLY
 70
               0
  9
$TDCREATE
 40
2453916.737175926
  9
$TDUPDATE
 40
2453916.737175926
  9
$TDINDWG
 40
0.0000000000
  9
$TDUSRTIMER
 40
0.0000000000
  9
$USRTIMER
 70
               1
  9
$ANGBASE
 50
0.0
  9
$ANGDIR
 70
               0
  9
$PDMODE
 70
               0
  9
$PDSIZE
 40
0.0
  9
$PLINEWID
 40
0.0
  9
$COORDS
 70
               1
  9
$SPLFRAME
 70
               0
  9
$SPLINETYPE
 70
               6
  9
$SPLINESEGS
 70
               8
  9
$ATTDIA
 70
               0
  9
$ATTREQ
 70
               1
  9
$HANDLING
 70
               1
  9
$HANDSEED
  5
3C6
  9
$SURFTAB1
 70
               6
  9
$SURFTAB2
 70
               6
  9
$SURFTYPE
 70
               6
  9
$SURFU
 70
               6
  9
$SURFV
 70
               6
  9
$UCSNAME
  2

  9
$UCSORG
 10
0.0
 20
0.0
 30
0.0
  9
$UCSXDIR
 10
1.0
 20
0.0
 30
0.0
  9
$UCSYDIR
 10
0.0
 20
1.0
 30
0.0
  9
$PUCSNAME
  2

  9
$PUCSORG
 10
0.0
 20
0.0
 30
0.0
  9
$PUCSXDIR
 10
1.0
 20
0.0
 30
0.0
  9
$PUCSYDIR
 10
0.0
 20
1.0
 30
0.0
  9
$USERI1
 70
               0
  9
$USERI2
 70
               0
  9
$USERI3
 70
               0
  9
$USERI4
 70
               0
  9
$USERI5
 70
               0
  9
$USERR1
 40
0.0
  9
$USERR2
 40
0.0
  9
$USERR3
 40
0.0
  9
$USERR4
 40
0.0
  9
$USERR5
 40
0.0
  9
$WORLDVIEW
 70
               1
  9
$SHADEDGE
 70
               3
  9
$SHADEDIF
 70
              70
  9
$TILEMODE
 70
               1
  9
$MAXACTVP
 70
              16
  9
$PINSBASE
 10
0.0
 20
0.0
 30
0.0
  9
$PLIMCHECK
 70
               0
  9
$PEXTMIN
 10
1.0000000000000000E+20
 20
1.0000000000000000E+20
 30
1.0000000000000000E+20
  9
$PEXTMAX
 10
-1.0000000000000000E+20
 20
-1.0000000000000000E+20
 30
-1.0000000000000000E+20
  9
$PLIMMIN
 10
0.0
 20
0.0
  9
$PLIMMAX
 10
12.0
 20
9.0
  9
$UNITMODE
 70
               0
  9
$VISRETAIN
 70
               0
  9
$PLINEGEN
 70
               1
  9
$PSLTSCALE
 70
               0
  9
$TREEDEPTH
 70
            3020
  9
$PICKSTYLE
 70
               1
  9
$CMLSTYLE
  2
Standard
  9
$CMLJUST
 70
               0
  9
$CMLSCALE
 40
1.0
  9
$SAVEIMAGES
 70
               0
  0
ENDSEC
  0
SECTION
  2
CLASSES
  0
CLASS
  1
LWPOLYLINE
  2
AcDbPolyline
  3
"AutoCAD"
 90
    32768
280
               0
281
               1
  0
CLASS
  1
IMAGE
  2
AcDbRasterImage
  3
ISM
 90
    32895
280
               0
281
               1
  0
CLASS
  1
OLE2FRAME
  2
AcDbOle2Frame
  3
""
 90
    32768
280
               0
281
               1
  0
CLASS
  1
HATCH
  2
AcDbHatch
  3
"ACAD_SEDONA"
 90
    32768
280
               0
281
               1
  0
CLASS
  1
DICTIONARYVAR
  2
AcDbDictionaryVar
  3
"AutoCAD"
 90
    32768
280
               0
281
               0
  0
CLASS
  1
RASTERVARIABLES
  2
AcDbRasterVariables
  3
ISM
 90
    32768
280
               0
281
               0
  0
CLASS
  1
IMAGEDEF
  2
AcDbRasterImageDef
  3
ISM
 90
    32768
280
               0
281
               0
  0
CLASS
  1
IMAGEDEF_REACTOR
  2
AcDbRasterImageDefReactor
  3
ISM
 90
    32769
280
               0
281
               0
  0
CLASS
  1
IDBUFFER
  2
AcDbIdBuffer
  3
"Acad"
 90
    32768
280
               0
281
               0
  0
CLASS
  1
SPATIAL_FILTER
  2
AcDbSpatialFilter
  3
"Acad"
 90
    32768
280
               0
281
               0
  0
CLASS
  1
XRECORD
  2
AcDbXrecord
  3
"<Built In>"
 90
    32768
280
               0
281
               0
  0
CLASS
  1
SORTENTSTABLE
  2
AcDbSortentsTable
  3
"AutoCAD"
 90
    32768
280
               0
281
               0
  0
CLASS
  1
LAYER_INDEX
  2
AcDbLayerIndex
  3
"Acad"
 90
    32768
280
               0
281
               0
  0
CLASS
  1
SPATIAL_INDEX
  2
AcDbSpatialIndex
  3
"Acad"
 90
    32768
280
               0
281
               0
  0
CLASS
  1
OBJECT_PTR
  2
CAseDLPNTableRecord
  3
"ASE-LPNTableRecord"
 90
    32769
280
               0
281
               0
  0
CLASS
  1
LAYOUT
  2
AcDbLayout
  3
"AutoCAD 2000"
 90
    32768
280
               0
281
               0
  0
CLASS
  1
PLOTSETTINGS
  2
AcDbPlotSettings
  3
"AutoCAD 2000"
 90
    32768
280
               0
281
               0
  0
CLASS
  1
ACDBDICTIONARYWDFLT
  2
AcDbDictionaryWithDefault
  3
"AutoCAD 2000"
 90
    32768
280
               0
281
               0
  0
CLASS
  1
ACDBPLACEHOLDER
  2
AcDbPlaceHolder
  3
"AutoCAD 2000"
 90
    32768
280
               0
281
               0
  0
ENDSEC
  0
SECTION
  2
TABLES
  0
TABLE
  2
VPORT
  5
7
100
AcDbSymbolTable
 70
               1
  0
VPORT
  5
15
100
AcDbSymbolTableRecord
100
AcDbViewportTableRecord
  2
*ACTIVE
 70
               0
 10
0.0
 20
0.0
 11
1.0
 21
1.0
 12
-5.0
 22
5.0
 13
0.0
 23
0.0
 14
1.0
 24
1.0
 15
0.0
 25
0.0
 16
0.0
 26
0.0
 36
1.0
 17
0.0
 27
0.0
 37
0.0
 40
849.41000000000008
 41
1.7320508075688772
 42
50.0
 43
0.0
 44
0.0
 50
0.0
 51
0.0
 71
               0
 72
             100
 73
               1
 74
               1
 75
               0
 76
               0
 77
               0
 78
               0
  0
ENDTAB
  0
TABLE
  2
LTYPE
  5
4
100
AcDbSymbolTable
 70
               4
  0
LTYPE
  5
11
100
AcDbSymbolTableRecord
100
AcDbLinetypeTableRecord
  2
BYBLOCK
 70
              64
  3

 72
              65
 73
               0
 40
0.0
  0
LTYPE
  5
12
100
AcDbSymbolTableRecord
100
AcDbLinetypeTableRecord
  2
BYLAYER
 70
              64
  3

 72
              65
 73
               0
 40
0.0
  0
LTYPE
  5
13
100
AcDbSymbolTableRecord
100
AcDbLinetypeTableRecord
  2
CONTINUOUS
 70
              64
  3
Solid line
 72
              65
 73
               0
 40
0.0
  0
LTYPE
  5
2FE
100
AcDbSymbolTableRecord
100
AcDbLinetypeTableRecord
  2
PHANTOM
 70
              64
  3
Phantom ______  __  __  ______  __  __  ______
 72
              65
 73
               6
 40
63.500000000000007
 49
31.75
 74
               0
 49
-6.3499999999999996
 74
               0
 49
6.3499999999999996
 74
               0
 49
-6.3499999999999996
 74
               0
 49
6.3499999999999996
 74
               0
 49
-6.3499999999999996
 74
               0
  0
ENDTAB
  0
TABLE
  2
LAYER
  5
2
100
AcDbSymbolTable
 70
               2
  0
LAYER
  5
14
100
AcDbSymbolTableRecord
100
AcDbLayerTableRecord
  2
0
 70
               0
 62
               7
  6
CONTINUOUS
  0
LAYER
  5
1D
100
AcDbSymbolTableRecord
100
AcDbLayerTableRecord
  2
DEFPOINTS
 70
               0
 62
               7
  6
CONTINUOUS
  0
ENDTAB
  0
TABLE
  2
STYLE
  5
3
100
AcDbSymbolTable
 70
               3
  0
STYLE
  5
17
100
AcDbSymbolTableRecord
100
AcDbTextStyleTableRecord
  2
MX_NOTE_STANDARD
 70
               0
 40
0.0
 41
1.0
 50
0.0
 71
               0
 42
3.2000000476837158
  3
txt.shx
  4
extfont.shx
  0
STYLE
  5
3A2
100
AcDbSymbolTableRecord
100
AcDbTextStyleTableRecord
  2
MX_DIMTXSTY_2
 70
               0
 40
0.0
 41
1.1000000000000001
 50
0.0
 71
               0
 42
3.2000000476837158
  3
txt.shx
  4
extfont.shx
  0
STYLE
  5
3B0
100
AcDbSymbolTableRecord
100
AcDbTextStyleTableRecord
  2
MX_DIMTXSTY_3
 70
               0
 40
0.0
 41
1.05
 50
0.0
 71
               0
 42
3.2000000476837158
  3
txt.shx
  4
extfont.shx
  0
ENDTAB
  0
TABLE
  2
VIEW
  5
5
100
AcDbSymbolTable
 70
               0
  0
ENDTAB
  0
TABLE
  2
UCS
  5
6
100
AcDbSymbolTable
 70
               0
  0
ENDTAB
  0
TABLE
  2
APPID
  5
8
100
AcDbSymbolTable
 70
               1
  0
APPID
  5
16
100
AcDbSymbolTableRecord
100
AcDbRegAppTableRecord
  2
ACAD
 70
               0
  0
ENDTAB
  0
TABLE
  2
DIMSTYLE
  5
9
100
AcDbSymbolTable
 70
               1
  0
DIMSTYLE
105
18
100
AcDbSymbolTableRecord
100
AcDbDimStyleTableRecord
  2
MXDIMSTYLE
 70
               0
  3

  4

  5

  6
_OPEN30
  7
_OPEN30
 40
1.0
 41
2.5
 42
1.5
 43
3.75
 44
1.5
 45
0.0
 46
0.0
 47
0.0
 48
0.0
 71
               0
 72
               0
 73
               0
 74
               0
 75
               0
 76
               0
 77
               1
 78
               8
140
3.2000000476837158
141
2.5
142
0.0
143
0.03937007874016
144
1.0
145
0.0
146
1.0
147
1.0
170
               0
171
               4
172
               1
173
               1
174
               0
175
               0
176
               0
177
               0
178
               0
270
               2
271
               2
272
               2
273
               2
274
               4
275
               0
280
               0
281
               0
282
               0
283
               0
284
               0
285
               0
286
               0
287
               3
288
               1
340
17
  0
ENDTAB
  0
TABLE
  2
BLOCK_RECORD
  5
1
100
AcDbSymbolTable
 70
               6
  0
BLOCK_RECORD
  5
A
100
AcDbSymbolTableRecord
100
AcDbBlockTableRecord
  2
*MODEL_SPACE
  0
BLOCK_RECORD
  5
B
100
AcDbSymbolTableRecord
100
AcDbBlockTableRecord
  2
*PAPER_SPACE
  0
BLOCK_RECORD
  5
1E
100
AcDbSymbolTableRecord
100
AcDbBlockTableRecord
  2
DTRB-CS2-1
  0
BLOCK_RECORD
  5
1F
100
AcDbSymbolTableRecord
100
AcDbBlockTableRecord
  2
DTRB-CS2-2
  0
BLOCK_RECORD
  5
20
100
AcDbSymbolTableRecord
100
AcDbBlockTableRecord
  2
DTRB-CS2-3
  0
BLOCK_RECORD
  5
21
100
AcDbSymbolTableRecord
100
AcDbBlockTableRecord
  2
_OPEN30
  0
BLOCK_RECORD
  5
39B
100
AcDbSymbolTableRecord
100
AcDbBlockTableRecord
  2
*D4
  0
BLOCK_RECORD
  5
3A9
100
AcDbSymbolTableRecord
100
AcDbBlockTableRecord
  2
*D5
  0
ENDTAB
  0
ENDSEC
  0
SECTION
  2
BLOCKS
  0
BLOCK
  5
D
100
AcDbEntity
  8
0
100
AcDbBlockBegin
  2
*MODEL_SPACE
 70
               0
 10
0.0
 20
0.0
 30
0.0
  3
*MODEL_SPACE
  1

  0
ENDBLK
  5
E
100
AcDbEntity
  8
0
100
AcDbBlockEnd
  0
BLOCK
  5
F
100
AcDbEntity
 67
               1
  8
0
100
AcDbBlockBegin
  2
*PAPER_SPACE
 70
               0
 10
0.0
 20
0.0
 30
0.0
  3
*PAPER_SPACE
  1

  0
ENDBLK
  5
10
100
AcDbEntity
 67
               1
  8
0
100
AcDbBlockEnd
  0
BLOCK
  5
27
100
AcDbEntity
  8
0
100
AcDbBlockBegin
  2
DTRB-CS2-1
 70
               0
 10
0.0
 20
0.0
 30
0.0
  3
DTRB-CS2-1
  1

  0
LINE
  5
28
100
AcDbEntity
  8
0
  6
CONTINUOUS
 62
               7
100
AcDbLine
 10
36.999999999999659
 20
19.949999999999989
 30
0.0
 11
36.999999999999659
 21
19.349999999999966
 31
0.0
  0
LINE
  5
29
100
AcDbEntity
  8
0
  6
CONTINUOUS
 62
               7
100
AcDbLine
 10
32.508187912901235
 20
19.349999999999966
 30
0.0
 11
36.999999999999659
 21
19.349999999999966
 31
0.0
  0
LINE
  5
2A
100
AcDbEntity
  8
0
  6
CONTINUOUS
 62
               7
100
AcDbLine
 10
32.508187912901235
 20
19.949999999999989
 30
0.0
 11
36.999999999999659
 21
19.949999999999989
 31
0.0
  0
CIRCLE
  5
2B
100
AcDbEntity
  8
0
  6
CONTINUOUS
 62
               7
100
AcDbCircle
 10
143.0000305175771
 20
227.49996948242202
 30
0.0
 40
1.7499999999999998
  0
CIRCLE
  5
2C
100
AcDbEntity
  8
0
  6
CONTINUOUS
 62
               7
100
AcDbCircle
 10
37.999999999999545
 20
19.649999999999977
 30
0.0
 40
6.5
  0
CIRCLE
  5
2D
100
AcDbEntity
  8
0
  6
CONTINUOUS
 62
               7
100
AcDbCircle
 10
37.999999999999545
 20
19.649999999999977
 30
0.0
 40
5.5
  0
CIRCLE
  5
2E
100
AcDbEntity
  8
0
  6
CONTINUOUS
 62
               7
100
AcDbCircle
 10
37.999999999999545
 20
19.649999999999977
 30
0.0
 40
6.3499999999999996
  0
CIRCLE
  5
2F
100
AcDbEntity
  8
0
  6
CONTINUOUS
 62
               7
100
AcDbCircle
 10
37.999999999999659
 20
19.649999999999864
 30
0.0
 40
10.0
  0
LINE
  5
30
100
AcDbEntity
  8
0
  6
CONTINUOUS
 62
               7
100
AcDbLine
 10
63.400000000000091
 20
173.49997168945328
 30
0.0
 11
65.000000119999982
 21
173.49997168945328
 31
0.0
  0
ARC
  5
31
100
AcDbEntity
  8
0
  6
CONTINUOUS
 62
               7
100
AcDbCircle
 10
59.89999999999975
 20
178.99997168945325
 30
0.0
 40
1.0000000000000002
100
AcDbArc
 50
180.0
 51
270.0
  0
LINE
  5
32
100
AcDbEntity
  8
0
  6
CONTINUOUS
 62
               7
100
AcDbLine
 10
104.99999999999989
 20
173.00000000000009
 30
0.0
 11
65.000000119999982
 21
173.00000000000009
 31
0.0
  0
LINE
  5
33
100
AcDbEntity
  8
0
  6
CONTINUOUS
 62
               7
100
AcDbLine
 10
104.9999998799999
 20
170.00000000000009
 30
0.0
 11
65.0
 21
170.00000000000009
 31
0.0
  0
LINE
  5
34
100
AcDbEntity
  8
0
  6
CONTINUOUS
 62
               7
100
AcDbLine
 10
62.549999979584186
 20
193.42434098152319
 30
0.0
 11
63.400000004229241
 21
193.34997561558703
 31
0.0
  0
LINE
  5
35
100
AcDbEntity
  8
0
  6
CONTINUOUS
 62
               7
100
AcDbLine
 10
58.899999999999977
 20
191.99997168945328
 30
0.0
 11
58.899999999999977
 21
178.99997168945328
 31
0.0
  0
ARC
  5
36
100
AcDbEntity
  8
0
  6
CONTINUOUS
 62
               7
100
AcDbCircle
 10
63.400000000000091
 20
177.49997168945328
 30
0.0
 40
3.5000000000000004
100
AcDbArc
 50
180.0
 51
270.0
  0
LINE
  5
37
100
AcDbEntity
  8
0
  6
CONTINUOUS
 62
               7
100
AcDbLine
 10
63.899999999999977
 20
173.49997168945328
 30
0.0
 11
63.899999999999977
 21
177.29998779296889
 31
0.0
  0
LINE
  5
38
100
AcDbEntity
  8
0
  6
CONTINUOUS
 62
               7
100
AcDbLine
 10
63.400000000000091
 20
177.29998779296889
 30
0.0
 11
63.400000000000091
 21
173.49997168945328
 31
0.0
  0
LINE
  5
39
100
AcDbEntity
  8
0
  6
CONTINUOUS
 62
               7
100
AcDbLine
 10
59.900000000000091
 20
177.49997168945328
 30
0.0
 11
59.900000000000091
 21
193.49997168945328
 31
0.0
  0
ARC
  5
3A
100
AcDbEntity
  8
0
  6
CONTINUOUS
 62
               7
100
AcDbCircle
 10
59.900000000000091
 20
191.99997168945328
 30
0.0
 40
1.0000000000000002
100
AcDbArc
 50
90.0
 51
180.0
  0
ARC
  5
3B
100
AcDbEntity
  8
0
  6
CONTINUOUS
 62
               7
100
AcDbCircle
 10
66.900000000000091
 20
196.76940552203118
 30
0.0
 40
3.5000000000000004
100
AcDbArc
 50
134.9685572354158
 51
179.99999999999997
  0
ARC
  5
3C
100
AcDbEntity
  8
0
  6
CONTINUOUS
 62
               7
100
AcDbCircle
 10
66.900000000000091
 20
196.26940552203115
 30
0.0
 40
3.0
100
AcDbArc
 50
134.96855723541546
 51
180.0
  0
LINE
  5
3D
100
AcDbEntity
  8
0
  6
CONTINUOUS
 62
               7
100
AcDbLine
 10
62.549999998487465
 20
197.57561014419144
 30
0.0
 11
63.400000004229469
 21
197.64997550847372
 31
0.0
  0
LINE
  5
3E
100
AcDbEntity
  8
0
  6
CONTINUOUS
 62
               7
100
AcDbLine
 10
63.400000000000091
 20
197.64997550847372
 30
0.0
 11
63.400000000000091
 21
190.70001220703136
 31
0.0
  0
LINE
  5
3F
100
AcDbEntity
  8
0
  6
CONTINUOUS
 62
               7
100
AcDbLine
 10
62.549999976158233
 20
193.42434086799636
 30
0.0
 11
62.549999976158233
 21
197.57561030387893
 31
0.0
  0
ARC
  5
40
100
AcDbEntity
  8
0
  6
CONTINUOUS
 62
               7
100
AcDbCircle
 10
68.529655838012786
 20
195.49997558593742
 30
0.0
 40
6.3296561241149902
100
AcDbArc
 50
160.85729086486964
 51
199.14270731389303
  0
ARC
  5
41
100
AcDbEntity
  8
0
  6
CONTINUOUS
 62
               7
100
AcDbCircle
 10
63.400000000000091
 20
193.49997168945328
 30
0.0
 40
3.5000000000000004
100
AcDbArc
 50
107.58284247057495
 51
180.0
  0
LINE
  5
42
100
AcDbEntity
  8
0
  6
CONTINUOUS
 62
               7
100
AcDbLine
 10
66.004187880728637
 20
199.61489039775267
 30
0.0
 11
64.779844113495415
 21
198.39188968379057
 31
0.0
  0
LINE
  5
43
100
AcDbEntity
  8
0
  6
CONTINUOUS
 62
               7
100
AcDbLine
 10
66.004187880728637
 20
200.82160945225746
 30
0.0
 11
64.426484799078025
 21
199.24563704408388
 31
0.0
  0
LINE
  5
44
100
AcDbEntity
  8
0
  6
CONTINUOUS
 62
               7
100
AcDbLine
 10
63.899999999999977
 20
190.6999877929689
 30
0.0
 11
63.899999999999977
 21
196.26940552203115
 31
0.0
  0
LINE
  5
45
100
AcDbEntity
  8
0
  6
CONTINUOUS
 62
               7
100
AcDbLine
 10
25.000038479957766
 20
55.999987725133906
 30
0.0
 11
36.196146832146951
 21
52.999999508649125
 31
0.0
  0
LINE
  5
46
100
AcDbEntity
  8
0
  6
CONTINUOUS
 62
               7
100
AcDbLine
 10
148.0000305175771
 20
243.99996948242199
 30
0.0
 11
148.0000305175771
 21
211.49996948242199
 31
0.0
  0
LINE
  5
47
100
AcDbEntity
  8
0
  6
CONTINUOUS
 62
               7
100
AcDbLine
 10
104.9999998799999
 20
176.00000000000011
 30
0.0
 11
65.000000119999982
 21
176.00000000000011
 31
0.0
  0
LINE
  5
48
100
AcDbEntity
  8
0
  6
CONTINUOUS
 62
               7
100
AcDbLine
 10
103.40002434412349
 20
5.1999877691268921
 30
0.0
 11
-103.40002448400088
 21
5.1999877691268921
 31
0.0
  0
LINE
  5
49
100
AcDbEntity
  8
0
  6
CONTINUOUS
 62
               7
100
AcDbLine
 10
103.40002441406216
 20
3.1999816894530682
 30
0.0
 11
80.000024437904358
 21
3.1999816894530682
 31
0.0
  0
LINE
  5
4A
100
AcDbEntity
  8
0
  6
CONTINUOUS
 62
               7
100
AcDbLine
 10
-47.999999999999488
 20
34.199981689453125
 30
0.0
 11
-47.999999999999488
 21
46.199981689453011
 31
0.0
  0
LINE
  5
4B
100
AcDbEntity
  8
0
  6
CONTINUOUS
 62
               7
100
AcDbLine
 10
-97.999999999999716
 20
34.199981689453125
 30
0.0
 11
-97.999999999999716
 21
46.199981689453011
 31
0.0
  0
LINE
  5
4C
100
AcDbEntity
  8
0
  6
CONTINUOUS
 62
               7
100
AcDbLine
 10
-48.999999999999659
 20
33.199981689453068
 30
0.0
 11
-96.999999999999773
 21
33.199981689453068
 31
0.0
  0
LINE
  5
4D
100
AcDbEntity
  8
0
  6
CONTINUOUS
 62
               7
100
AcDbLine
 10
-48.999999999999659
 20
47.199981689453011
 30
0.0
 11
-96.999999999999773
 21
47.199981689453011
 31
0.0
  0
LINE
  5
4E
100
AcDbEntity
  8
0
  6
CONTINUOUS
 62
               7
100
AcDbLine
 10
48.999999999999886
 20
35.699981689453068
 30
0.0
 11
48.999999999999886
 21
44.699981689453011
 31
0.0
  0
LINE
  5
4F
100
AcDbEntity
  8
0
  6
CONTINUOUS
 62
               7
100
AcDbLine
 10
80.999999999999432
 20
35.699981689453068
 30
0.0
 11
80.999999999999432
 21
44.699981689453011
 31
0.0
  0
LINE
  5
50
100
AcDbEntity
  8
0
  6
CONTINUOUS
 62
               7
100
AcDbLine
 10
79.999999999999545
 20
45.699981689453068
 30
0.0
 11
49.999999999999773
 21
45.699981689453068
 31
0.0
  0
LINE
  5
51
100
AcDbEntity
  8
0
  6
CONTINUOUS
 62
               7
100
AcDbLine
 10
79.999999999999545
 20
34.699981689453125
 30
0.0
 11
49.999999999999773
 21
34.699981689453125
 31
0.0
  0
LINE
  5
52
100
AcDbEntity
  8
0
  6
CONTINUOUS
 62
               7
100
AcDbLine
 10
-98.299987792968466
 20
34.199981689453125
 30
0.0
 11
-98.299987792968466
 21
46.199981689453011
 31
0.0
  0
LINE
  5
53
100
AcDbEntity
  8
0
  6
CONTINUOUS
 62
               7
100
AcDbLine
 10
-48.999999999999659
 20
47.499969482421761
 30
0.0
 11
-96.999999999999773
 21
47.499969482421761
 31
0.0
  0
LINE
  5
54
100
AcDbEntity
  8
0
  6
CONTINUOUS
 62
               7
100
AcDbLine
 10
-47.700012207030738
 20
34.199981689453125
 30
0.0
 11
-47.700012207030738
 21
46.199981689453011
 31
0.0
  0
LINE
  5
55
100
AcDbEntity
  8
0
  6
CONTINUOUS
 62
               7
100
AcDbLine
 10
-48.999999999999659
 20
32.899993896484318
 30
0.0
 11
-96.999999999999773
 21
32.899993896484318
 31
0.0
  0
LINE
  5
56
100
AcDbEntity
  8
0
  6
CONTINUOUS
 62
               7
100
AcDbLine
 10
79.999999999999545
 20
45.999969482421818
 30
0.0
 11
49.999999999999773
 21
45.999969482421818
 31
0.0
  0
LINE
  5
57
100
AcDbEntity
  8
0
  6
CONTINUOUS
 62
               7
100
AcDbLine
 10
81.299987792968182
 20
35.699981689453068
 30
0.0
 11
81.299987792968182
 21
44.699981689453011
 31
0.0
  0
LINE
  5
58
100
AcDbEntity
  8
0
  6
CONTINUOUS
 62
               7
100
AcDbLine
 10
79.999999999999545
 20
34.399993896484375
 30
0.0
 11
49.999999999999773
 21
34.399993896484375
 31
0.0
  0
LINE
  5
59
100
AcDbEntity
  8
0
  6
CONTINUOUS
 62
               7
100
AcDbLine
 10
48.700012207031136
 20
35.699981689453068
 30
0.0
 11
48.700012207031136
 21
44.699981689453011
 31
0.0
  0
ARC
  5
5A
100
AcDbEntity
  8
0
  6
CONTINUOUS
 62
               7
100
AcDbCircle
 10
-103.40002441406273
 20
4.7999877929686363
 30
0.0
 40
1.6000000238418579
100
AcDbArc
 50
179.68332763273006
 51
270.0
  0
ARC
  5
5B
100
AcDbEntity
  8
0
  6
CONTINUOUS
 62
               7
100
AcDbCircle
 10
103.40002441406216
 20
4.7999877929686363
 30
0.0
 40
1.6000000238418579
100
AcDbArc
 50
270.0
 51
0.3166723656923418
  0
CIRCLE
  5
5C
100
AcDbEntity
  8
0
  6
CONTINUOUS
 62
               7
100
AcDbCircle
 10
-45.999999999999602
 20
19.299987792968693
 30
0.0
 40
2.7000000476837158
  0
CIRCLE
  5
5D
100
AcDbEntity
  8
0
  6
CONTINUOUS
 62
               7
100
AcDbCircle
 10
-45.999999999999602
 20
19.299987792968693
 30
0.0
 40
3.2000000476837158
  0
CIRCLE
  5
5E
100
AcDbEntity
  8
0
  6
CONTINUOUS
 62
               7
100
AcDbCircle
 10
-35.999999999999602
 20
19.331939697265625
 30
0.0
 40
3.2000000476837158
  0
CIRCLE
  5
5F
100
AcDbEntity
  8
0
  6
CONTINUOUS
 62
               7
100
AcDbCircle
 10
-35.999999999999602
 20
19.331939697265625
 30
0.0
 40
2.7000000476837158
  0
ARC
  5
60
100
AcDbEntity
  8
0
  6
CONTINUOUS
 62
               7
100
AcDbCircle
 10
49.999999999999773
 20
44.699981689453011
 30
0.0
 40
1.0
100
AcDbArc
 50
90.000002504478161
 51
180.00000500895632
  0
ARC
  5
61
100
AcDbEntity
  8
0
  6
CONTINUOUS
 62
               7
100
AcDbCircle
 10
79.999999999999545
 20
44.699981689453011
 30
0.0
 40
1.0
100
AcDbArc
 50
0.0
 51
90.000002504478161
  0
ARC
  5
62
100
AcDbEntity
  8
0
  6
CONTINUOUS
 62
               7
100
AcDbCircle
 10
-48.999999999999659
 20
34.199981689453125
 30
0.0
 40
1.0
100
AcDbArc
 50
269.99999749552182
 51
0.0
  0
ARC
  5
63
100
AcDbEntity
  8
0
  6
CONTINUOUS
 62
               7
100
AcDbCircle
 10
-96.999999999999773
 20
46.199981689453011
 30
0.0
 40
1.0
100
AcDbArc
 50
90.000002504478161
 51
180.00000500895632
  0
ARC
  5
64
100
AcDbEntity
  8
0
  6
CONTINUOUS
 62
               7
100
AcDbCircle
 10
-96.999999999999773
 20
34.199981689453125
 30
0.0
 40
1.0
100
AcDbArc
 50
179.99999499104368
 51
269.99999749552182
  0
ARC
  5
65
100
AcDbEntity
  8
0
  6
CONTINUOUS
 62
               7
100
AcDbCircle
 10
-48.999999999999659
 20
46.199981689453011
 30
0.0
 40
1.0
100
AcDbArc
 50
0.0
 51
90.000002504478161
  0
ARC
  5
66
100
AcDbEntity
  8
0
  6
CONTINUOUS
 62
               7
100
AcDbCircle
 10
79.999999999999545
 20
35.699981689453068
 30
0.0
 40
1.0
100
AcDbArc
 50
269.99999749552182
 51
0.0
  0
ARC
  5
67
100
AcDbEntity
  8
0
  6
CONTINUOUS
 62
               7
100
AcDbCircle
 10
49.999999999999773
 20
35.699981689453068
 30
0.0
 40
1.0
100
AcDbArc
 50
179.99999499104368
 51
269.99999749552182
  0
ARC
  5
68
100
AcDbEntity
  8
0
  6
CONTINUOUS
 62
               7
100
AcDbCircle
 10
-96.999999999999773
 20
46.199981689453011
 30
0.0
 40
1.299999952316284
100
AcDbArc
 50
90.000002504478161
 51
180.00000500895632
  0
ARC
  5
69
100
AcDbEntity
  8
0
  6
CONTINUOUS
 62
               7
100
AcDbCircle
 10
-48.999999999999659
 20
46.199981689453011
 30
0.0
 40
1.299999952316284
100
AcDbArc
 50
0.0
 51
90.000002504478161
  0
ARC
  5
6A
100
AcDbEntity
  8
0
  6
CONTINUOUS
 62
               7
100
AcDbCircle
 10
-48.999999999999659
 20
34.199981689453125
 30
0.0
 40
1.299999952316284
100
AcDbArc
 50
269.99999749552182
 51
0.0
  0
ARC
  5
6B
100
AcDbEntity
  8
0
  6
CONTINUOUS
 62
               7
100
AcDbCircle
 10
-96.999999999999773
 20
34.199981689453125
 30
0.0
 40
1.299999952316284
100
AcDbArc
 50
179.99999499104368
 51
269.99999749552182
  0
ARC
  5
6C
100
AcDbEntity
  8
0
  6
CONTINUOUS
 62
               7
100
AcDbCircle
 10
79.999999999999545
 20
44.699981689453011
 30
0.0
 40
1.299999952316284
100
AcDbArc
 50
0.0
 51
90.000002504478161
  0
ARC
  5
6D
100
AcDbEntity
  8
0
  6
CONTINUOUS
 62
               7
100
AcDbCircle
 10
79.999999999999545
 20
35.699981689453068
 30
0.0
 40
1.299999952316284
100
AcDbArc
 50
269.99999749552182
 51
0.0
  0
ARC
  5
6E
100
AcDbEntity
  8
0
  6
CONTINUOUS
 62
               7
100
AcDbCircle
 10
49.999999999999773
 20
35.699981689453068
 30
0.0
 40
1.299999952316284
100
AcDbArc
 50
179.99999499104368
 51
269.99999749552182
  0
ARC
  5
6F
100
AcDbEntity
  8
0
  6
CONTINUOUS
 62
               7
100
AcDbCircle
 10
49.999999999999773
 20
44.699981689453011
 30
0.0
 40
1.299999952316284
100
AcDbArc
 50
90.000002504478161
 51
180.00000500895632
  0
ARC
  5
70
100
AcDbEntity
  8
0
  6
CONTINUOUS
 62
               7
100
AcDbCircle
 10
103.4000244140617
 20
6.7999877929686932
 30
0.0
 40
1.6000000238418579
100
AcDbArc
 50
269.99999749552182
 51
0.0000000000001018
  0
ARC
  5
71
100
AcDbEntity
  8
0
  6
CONTINUOUS
 62
               7
100
AcDbCircle
 10
-103.40002441406273
 20
6.7999877929686932
 30
0.0
 40
1.6000000238418579
100
AcDbArc
 50
179.99999499104368
 51
269.99999749552182
  0
LINE
  5
72
100
AcDbEntity
  8
0
  6
CONTINUOUS
 62
               7
100
AcDbLine
 10
103.40000305175681
 20
4.7999816894530341
 30
0.0
 11
-103.39999685287512
 21
4.7999816894530341
 31
0.0
  0
LINE
  5
73
100
AcDbEntity
  8
0
  6
CONTINUOUS
 62
               7
100
AcDbLine
 10
89.5
 20
5.1999816894529545
 30
0.0
 11
89.5
 21
4.7999816894530341
 31
0.0
  0
LINE
  5
74
100
AcDbEntity
  8
0
  6
CONTINUOUS
 62
               7
100
AcDbLine
 10
100.49999999999989
 20
5.1999816894529545
 30
0.0
 11
100.49999999999989
 21
4.7999816894530341
 31
0.0
  0
LINE
  5
75
100
AcDbEntity
  8
0
  6
CONTINUOUS
 62
               7
100
AcDbLine
 10
103.30000305175781
 20
5.1999816894529545
 30
0.0
 11
103.30000305175781
 21
4.7999816894530341
 31
0.0
  0
LINE
  5
76
100
AcDbEntity
  8
0
  6
CONTINUOUS
 62
               7
100
AcDbLine
 10
103.40000305175772
 20
5.1999816894529545
 30
0.0
 11
103.40000305175772
 21
4.7999816894530341
 31
0.0
  0
LINE
  5
77
100
AcDbEntity
  8
0
  6
CONTINUOUS
 62
               7
100
AcDbLine
 10
-89.499997138977164
 20
5.1999816894529545
 30
0.0
 11
-89.499997138977164
 21
4.7999816894530341
 31
0.0
  0
LINE
  5
78
100
AcDbEntity
  8
0
  6
CONTINUOUS
 62
               7
100
AcDbLine
 10
-100.49999690055864
 20
5.1999816894529545
 30
0.0
 11
-100.49999690055864
 21
4.7999816894530341
 31
0.0
  0
LINE
  5
79
100
AcDbEntity
  8
0
  6
CONTINUOUS
 62
               7
100
AcDbLine
 10
-103.29999685287493
 20
5.1999816894529545
 30
0.0
 11
-103.29999685287493
 21
4.7999816894530341
 31
0.0
  0
LINE
  5
7A
100
AcDbEntity
  8
0
  6
CONTINUOUS
 62
               7
100
AcDbLine
 10
-103.39999685287512
 20
5.1999816894529545
 30
0.0
 11
-103.39999685287512
 21
4.7999816894530341
 31
0.0
  0
LINE
  5
7B
100
AcDbEntity
  8
0
  6
CONTINUOUS
 62
               7
100
AcDbLine
 10
-80.000024437904301
 20
4.7999816894530341
 30
0.0
 11
-80.000024437904301
 21
3.1999816894530682
 31
0.0
  0
LINE
  5
7C
100
AcDbEntity
  8
0
  6
CONTINUOUS
 62
               7
100
AcDbLine
 10
80.000024437904358
 20
4.7999816894530341
 30
0.0
 11
80.000024437904358
 21
3.1999816894530682
 31
0.0
  0
LINE
  5
7D
100
AcDbEntity
  8
0
  6
CONTINUOUS
 62
               7
100
AcDbLine
 10
-80.000024437904301
 20
3.1999816894530682
 30
0.0
 11
-103.40002441406273
 21
3.1999816894530682
 31
0.0
  0
LINE
  5
7E
100
AcDbEntity
  8
0
  6
CONTINUOUS
 62
               7
100
AcDbLine
 10
81.999999999999432
 20
24.149999999999977
 30
0.0
 11
47.999999999999659
 21
24.149999999999977
 31
0.0
  0
LINE
  5
7F
100
AcDbEntity
  8
0
  6
CONTINUOUS
 62
               7
100
AcDbLine
 10
81.999999999999432
 20
24.149999999999977
 30
0.0
 11
81.999999999999432
 21
11.649999999999977
 31
0.0
  0
LINE
  5
80
100
AcDbEntity
  8
0
  6
CONTINUOUS
 62
               7
100
AcDbLine
 10
81.999999999999432
 20
11.649999999999977
 30
0.0
 11
47.999999999999659
 21
11.649999999999977
 31
0.0
  0
LINE
  5
81
100
AcDbEntity
  8
0
  6
CONTINUOUS
 62
               7
100
AcDbLine
 10
47.999999999999659
 20
24.149999999999977
 30
0.0
 11
47.999999999999659
 21
11.649999999999977
 31
0.0
  0
LINE
  5
82
100
AcDbEntity
  8
0
  6
CONTINUOUS
 62
               7
100
AcDbLine
 10
-56.499999999999659
 20
27.299999999999955
 30
0.0
 11
-56.499999999999659
 21
11.299999999999955
 31
0.0
  0
LINE
  5
83
100
AcDbEntity
  8
0
  6
CONTINUOUS
 62
               7
100
AcDbLine
 10
-56.499999999999659
 20
27.299999999999955
 30
0.0
 11
-89.499999999999659
 21
27.299999999999955
 31
0.0
  0
LINE
  5
84
100
AcDbEntity
  8
0
  6
CONTINUOUS
 62
               7
100
AcDbLine
 10
-89.499999999999659
 20
27.299999999999955
 30
0.0
 11
-89.499999999999659
 21
11.299999999999955
 31
0.0
  0
LINE
  5
85
100
AcDbEntity
  8
0
  6
CONTINUOUS
 62
               7
100
AcDbLine
 10
-56.499999999999659
 20
11.299999999999955
 30
0.0
 11
-89.499999999999659
 21
11.299999999999955
 31
0.0
  0
CIRCLE
  5
86
100
AcDbEntity
  8
0
  6
CONTINUOUS
 62
               7
100
AcDbCircle
 10
-45.999999999999432
 20
19.299999999999955
 30
0.0
 40
2.1000000000000001
  0
CIRCLE
  5
87
100
AcDbEntity
  8
0
  6
CONTINUOUS
 62
               7
100
AcDbCircle
 10
-35.999999999999602
 20
19.299999999999955
 30
0.0
 40
2.1000000000000001
  0
LINE
  5
88
100
AcDbEntity
  8
0
  6
CONTINUOUS
 62
               7
100
AcDbLine
 10
106.30000683699598
 20
8.7637257394476364
 30
0.0
 11
105.00004082629437
 21
8.6499934508742626
 31
0.0
  0
LINE
  5
89
100
AcDbEntity
  8
0
  6
CONTINUOUS
 62
               7
100
AcDbLine
 10
106.29997228135414
 20
14.836267295419589
 30
0.0
 11
105.00000627065253
 21
14.949999583992962
 31
0.0
  0
LINE
  5
8A
100
AcDbEntity
  8
0
  6
CONTINUOUS
 62
               7
100
AcDbLine
 10
106.29998779296818
 20
8.763732886314358
 30
0.0
 11
106.29998779296818
 21
14.836273169517483
 31
0.0
  0
ARC
  5
8B
100
AcDbEntity
  8
0
  6
CONTINUOUS
 62
               7
100
AcDbCircle
 10
98.917541503905795
 20
11.799987769126801
 30
0.0
 40
7.9824194908142081
100
AcDbArc
 50
337.64346066720742
 51
22.356539332792593
  0
LINE
  5
8C
100
AcDbEntity
  8
0
  6
CONTINUOUS
 62
               7
100
AcDbLine
 10
-106.29997995334611
 20
14.836253679934543
 30
0.0
 11
-105.0000139426445
 21
14.949985968507917
 31
0.0
  0
LINE
  5
8D
100
AcDbEntity
  8
0
  6
CONTINUOUS
 62
               7
100
AcDbLine
 10
-106.30001450898794
 20
8.7637271955850338
 30
0.0
 11
-104.99998769538593
 21
8.6499895874471804
 31
0.0
  0
LINE
  5
8E
100
AcDbEntity
  8
0
  6
CONTINUOUS
 62
               7
100
AcDbLine
 10
-106.29998779296858
 20
8.7637268066406477
 30
0.0
 11
-106.29998779296858
 21
14.836267089843773
 31
0.0
  0
ARC
  5
8F
100
AcDbEntity
  8
0
  6
CONTINUOUS
 62
               7
100
AcDbCircle
 10
-98.917602539062216
 20
11.799981689453034
 30
0.0
 40
7.9824194908142081
100
AcDbArc
 50
157.64345713842727
 51
202.35653921910705
  0
LINE
  5
90
100
AcDbEntity
  8
0
  6
CONTINUOUS
 62
               2
100
AcDbLine
 10
-88.000000000000114
 20
-4.4787256858550677
 30
0.0
 11
-88.000000000000114
 21
7.4405856350905424
 31
0.0
  0
LINE
  5
91
100
AcDbEntity
  8
0
  6
CONTINUOUS
 62
               2
100
AcDbLine
 10
87.999999999999886
 20
-4.4787256858550677
 30
0.0
 11
87.999999999999886
 21
8.0345641942368502
 31
0.0
  0
LINE
  5
92
100
AcDbEntity
  8
0
  6
CONTINUOUS
 62
               2
100
AcDbLine
 10
-72.0
 20
247.97998262115107
 30
0.0
 11
-72.0
 21
199.24506528658466
 31
0.0
  0
LINE
  5
93
100
AcDbEntity
  8
0
  6
CONTINUOUS
 62
               7
100
AcDbLine
 10
72.849975585937386
 20
61.0
 30
0.0
 11
77.150024414062386
 21
61.0
 31
0.0
  0
CIRCLE
  5
94
100
AcDbEntity
  8
0
  6
CONTINUOUS
 62
               7
100
AcDbCircle
 10
74.999999999999886
 20
57.0
 30
0.0
 40
1.4999999999999998
  0
CIRCLE
  5
95
100
AcDbEntity
  8
0
  6
CONTINUOUS
 62
               2
100
AcDbCircle
 10
74.999999999999886
 20
57.0
 30
0.0
 40
2.0
  0
LINE
  5
96
100
AcDbEntity
  8
0
  6
CONTINUOUS
 62
               2
100
AcDbLine
 10
80.018999267385425
 20
57.0
 30
0.0
 11
69.760472059766244
 21
57.0
 31
0.0
  0
LINE
  5
97
100
AcDbEntity
  8
0
  6
CONTINUOUS
 62
               2
100
AcDbLine
 10
75.0
 20
50.769572942307775
 30
0.0
 11
75.0
 21
63.379799487197374
 31
0.0
  0
CIRCLE
  5
98
100
AcDbEntity
  8
0
  6
CONTINUOUS
 62
               2
100
AcDbCircle
 10
94.999999999999886
 20
57.0
 30
0.0
 40
2.0
  0
CIRCLE
  5
99
100
AcDbEntity
  8
0
  6
CONTINUOUS
 62
               7
100
AcDbCircle
 10
94.999999999999886
 20
57.0
 30
0.0
 40
1.4999999999999998
  0
LINE
  5
9A
100
AcDbEntity
  8
0
  6
CONTINUOUS
 62
               7
100
AcDbLine
 10
92.849975585937386
 20
61.0
 30
0.0
 11
97.150024414062386
 21
61.0
 31
0.0
  0
LINE
  5
9B
100
AcDbEntity
  8
0
  6
CONTINUOUS
 62
               2
100
AcDbLine
 10
100.01899926738542
 20
57.0
 30
0.0
 11
89.760472059766244
 21
57.0
 31
0.0
  0
LINE
  5
9C
100
AcDbEntity
  8
0
  6
CONTINUOUS
 62
               2
100
AcDbLine
 10
15.5
 20
202.48048663403841
 30
0.0
 11
15.5
 21
212.70186245705935
 31
0.0
  0
LINE
  5
9D
100
AcDbEntity
  8
0
  6
CONTINUOUS
 62
               2
100
AcDbLine
 10
45.5
 20
202.48048663403841
 30
0.0
 11
45.5
 21
212.70186245705935
 31
0.0
  0
LINE
  5
9E
100
AcDbEntity
  8
0
  6
CONTINUOUS
 62
               7
100
AcDbLine
 10
18.25
 20
203.69996929168718
 30
0.0
 11
18.25
 21
206.49996948242199
 31
0.0
  0
LINE
  5
9F
100
AcDbEntity
  8
0
  6
CONTINUOUS
 62
               7
100
AcDbLine
 10
18.249999661049628
 20
203.6999697170904
 30
0.0
 11
17.903589375478873
 21
203.49996971709044
 31
0.0
  0
LINE
  5
A0
100
AcDbEntity
  8
0
  6
CONTINUOUS
 62
               7
100
AcDbLine
 10
12.75
 20
203.69996929168718
 30
0.0
 11
18.25
 21
203.69996929168718
 31
0.0
  0
LINE
  5
A1
100
AcDbEntity
  8
0
  6
CONTINUOUS
 62
               7
100
AcDbLine
 10
13.096410751342773
 20
203.49996948242205
 30
0.0
 11
17.903589248657227
 21
203.49996948242205
 31
0.0
  0
LINE
  5
A2
100
AcDbEntity
  8
0
  6
CONTINUOUS
 62
               7
100
AcDbLine
 10
12.749999794972268
 20
203.69997045067225
 30
0.0
 11
13.096410421970404
 21
203.49997009304428
 31
0.0
  0
LINE
  5
A3
100
AcDbEntity
  8
0
  6
CONTINUOUS
 62
               7
100
AcDbLine
 10
12.75
 20
203.69996929168718
 30
0.0
 11
12.75
 21
206.49996948242199
 31
0.0
  0
LINE
  5
A4
100
AcDbEntity
  8
0
  6
CONTINUOUS
 62
               7
100
AcDbLine
 10
48.25
 20
203.69996929168718
 30
0.0
 11
48.25
 21
206.49996948242199
 31
0.0
  0
LINE
  5
A5
100
AcDbEntity
  8
0
  6
CONTINUOUS
 62
               7
100
AcDbLine
 10
48.249999661049628
 20
203.6999697170904
 30
0.0
 11
47.903589375478873
 21
203.49996971709044
 31
0.0
  0
LINE
  5
A6
100
AcDbEntity
  8
0
  6
CONTINUOUS
 62
               7
100
AcDbLine
 10
42.75
 20
203.69996929168718
 30
0.0
 11
48.25
 21
203.69996929168718
 31
0.0
  0
LINE
  5
A7
100
AcDbEntity
  8
0
  6
CONTINUOUS
 62
               7
100
AcDbLine
 10
43.096410751342773
 20
203.49996948242205
 30
0.0
 11
47.903589248657227
 21
203.49996948242205
 31
0.0
  0
LINE
  5
A8
100
AcDbEntity
  8
0
  6
CONTINUOUS
 62
               7
100
AcDbLine
 10
42.749999794972268
 20
203.69997045067225
 30
0.0
 11
43.096410421970404
 21
203.49997009304428
 31
0.0
  0
LINE
  5
A9
100
AcDbEntity
  8
0
  6
CONTINUOUS
 62
               7
100
AcDbLine
 10
42.75
 20
203.69996929168718
 30
0.0
 11
42.75
 21
206.49996948242199
 31
0.0
  0
LINE
  5
AA
100
AcDbEntity
  8
0
  6
CONTINUOUS
 62
               7
100
AcDbLine
 10
49.000007629394531
 20
244.99996948242196
 30
0.0
 11
49.000007629394531
 21
233.39996337890639
 31
0.0
  0
LINE
  5
AB
100
AcDbEntity
  8
0
  6
CONTINUOUS
 62
               7
100
AcDbLine
 10
6.9999923706055824
 20
244.99996948242196
 30
0.0
 11
49.000007629394531
 21
244.99996948242196
 31
0.0
  0
LINE
  5
AC
100
AcDbEntity
  8
0
  6
CONTINUOUS
 62
               7
100
AcDbLine
 10
6.9999923706055824
 20
244.99996948242196
 30
0.0
 11
6.9999923706055824
 21
233.39996337890639
 31
0.0
  0
LINE
  5
AD
100
AcDbEntity
  8
0
  6
CONTINUOUS
 62
               7
100
AcDbLine
 10
6.9999923706055824
 20
233.39996337890639
 30
0.0
 11
49.000007629394531
 21
233.39996337890639
 31
0.0
  0
LINE
  5
AE
100
AcDbEntity
  8
0
  6
CONTINUOUS
 62
               7
100
AcDbLine
 10
36.196144998400655
 20
53.0
 30
0.0
 11
104.99999999999989
 21
53.0
 31
0.0
  0
LINE
  5
AF
100
AcDbEntity
  8
0
  6
CONTINUOUS
 62
               7
100
AcDbLine
 10
65.999999999999886
 20
205.99996948242196
 30
0.0
 11
65.999999999999886
 21
176.00000000000011
 31
0.0
  0
LINE
  5
B0
100
AcDbEntity
  8
0
  6
CONTINUOUS
 62
               7
100
AcDbLine
 10
103.99999999999989
 20
205.99996948242196
 30
0.0
 11
103.99999999999989
 21
176.00000000000011
 31
0.0
  0
CIRCLE
  5
B1
100
AcDbEntity
  8
0
  6
CONTINUOUS
 62
               7
100
AcDbCircle
 10
73.499999999999886
 20
219.49996948242202
 30
0.0
 40
2.1500000953674316
  0
CIRCLE
  5
B2
100
AcDbEntity
  8
0
  6
CONTINUOUS
 62
               7
100
AcDbCircle
 10
73.499999999999886
 20
219.49996948242202
 30
0.0
 40
2.0750000476837158
  0
CIRCLE
  5
B3
100
AcDbEntity
  8
0
  6
CONTINUOUS
 62
               7
100
AcDbCircle
 10
73.499999999999886
 20
233.49996948242196
 30
0.0
 40
2.1500000953674316
  0
CIRCLE
  5
B4
100
AcDbEntity
  8
0
  6
CONTINUOUS
 62
               7
100
AcDbCircle
 10
73.499999999999886
 20
233.49996948242196
 30
0.0
 40
2.0750000476837158
  0
LINE
  5
B5
100
AcDbEntity
  8
0
  6
CONTINUOUS
 62
               7
100
AcDbLine
 10
104.85000002041556
 20
192.92436539558616
 30
0.0
 11
103.99999999577051
 21
192.85000002965009
 31
0.0
  0
LINE
  5
B6
100
AcDbEntity
  8
0
  6
CONTINUOUS
 62
               7
100
AcDbLine
 10
104.85000002041579
 20
197.07563460441403
 30
0.0
 11
103.99999999577074
 21
197.14999997035011
 31
0.0
  0
LINE
  5
B7
100
AcDbEntity
  8
0
  6
CONTINUOUS
 62
               7
100
AcDbLine
 10
104.85000002384174
 20
197.07563471794131
 30
0.0
 11
104.85000002384163
 21
192.92436528205872
 31
0.0
  0
ARC
  5
B8
100
AcDbEntity
  8
0
  6
CONTINUOUS
 62
               7
100
AcDbCircle
 10
98.870344161987305
 20
195.00000000000031
 30
0.0
 40
6.3296561241149902
100
AcDbArc
 50
340.85729086486964
 51
19.142707313893034
  0
LINE
  5
B9
100
AcDbEntity
  8
0
  6
CONTINUOUS
 62
               7
100
AcDbLine
 10
104.85000002041556
 20
178.92436539558614
 30
0.0
 11
103.99999999577051
 21
178.85000002965006
 31
0.0
  0
LINE
  5
BA
100
AcDbEntity
  8
0
  6
CONTINUOUS
 62
               7
100
AcDbLine
 10
104.85000002041579
 20
183.07563460441403
 30
0.0
 11
103.99999999577074
 21
183.14999997035011
 31
0.0
  0
LINE
  5
BB
100
AcDbEntity
  8
0
  6
CONTINUOUS
 62
               7
100
AcDbLine
 10
104.85000002384174
 20
183.07563471794128
 30
0.0
 11
104.85000002384163
 21
178.9243652820588
 31
0.0
  0
ARC
  5
BC
100
AcDbEntity
  8
0
  6
CONTINUOUS
 62
               7
100
AcDbCircle
 10
98.870344161987305
 20
181.0000000000004
 30
0.0
 40
6.3296561241149902
100
AcDbArc
 50
340.85729086486964
 51
19.142707313893034
  0
LINE
  5
BD
100
AcDbEntity
  8
0
  6
CONTINUOUS
 62
               7
100
AcDbLine
 10
61.149999979584322
 20
190.07563460441406
 30
0.0
 11
62.000000004229378
 21
190.14999997035008
 31
0.0
  0
LINE
  5
BE
100
AcDbEntity
  8
0
  6
CONTINUOUS
 62
               7
100
AcDbLine
 10
61.149999979583981
 20
185.92436539558619
 30
0.0
 11
62.00000000422915
 21
185.85000002965012
 31
0.0
  0
LINE
  5
BF
100
AcDbEntity
  8
0
  6
CONTINUOUS
 62
               7
100
AcDbLine
 10
61.149999976158028
 20
185.92436528205891
 30
0.0
 11
61.149999976158142
 21
190.07563471794143
 31
0.0
  0
ARC
  5
C0
100
AcDbEntity
  8
0
  6
CONTINUOUS
 62
               7
100
AcDbCircle
 10
67.129655838012582
 20
187.99999999999986
 30
0.0
 40
6.3296561241149902
100
AcDbArc
 50
160.85729086486964
 51
199.14270731389303
  0
LINE
  5
C1
100
AcDbEntity
  8
0
  6
CONTINUOUS
 62
               7
100
AcDbLine
 10
61.149999979584322
 20
182.07563460441406
 30
0.0
 11
62.000000004229378
 21
182.14999997035014
 31
0.0
  0
LINE
  5
C2
100
AcDbEntity
  8
0
  6
CONTINUOUS
 62
               7
100
AcDbLine
 10
61.149999979583981
 20
177.92436539558625
 30
0.0
 11
62.00000000422915
 21
177.85000002965009
 31
0.0
  0
LINE
  5
C3
100
AcDbEntity
  8
0
  6
CONTINUOUS
 62
               7
100
AcDbLine
 10
61.149999976158028
 20
177.92436528205889
 30
0.0
 11
61.149999976158142
 21
182.07563471794148
 31
0.0
  0
ARC
  5
C4
100
AcDbEntity
  8
0
  6
CONTINUOUS
 62
               7
100
AcDbCircle
 10
67.129655838012582
 20
179.99999999999989
 30
0.0
 40
6.3296561241149902
100
AcDbArc
 50
160.85729086486964
 51
199.14270731389303
  0
ARC
  5
C5
100
AcDbEntity
  8
0
  6
CONTINUOUS
 62
               7
100
AcDbCircle
 10
96.499999999999886
 20
202.00000000000011
 30
0.0
 40
2.4000000953674316
100
AcDbArc
 50
331.17621921195268
 51
163.04248945089057
  0
ARC
  5
C6
100
AcDbEntity
  8
0
  6
CONTINUOUS
 62
               7
100
AcDbCircle
 10
73.499999999999886
 20
202.00000000000011
 30
0.0
 40
2.4000000953674316
100
AcDbArc
 50
16.957513850518463
 51
208.82378579700367
  0
ARC
  5
C7
100
AcDbEntity
  8
0
  6
CONTINUOUS
 62
               7
100
AcDbCircle
 10
98.0
 20
203.50000000000011
 30
0.0
 40
2.0
100
AcDbArc
 50
60.000001669652114
 51
90.000002504478161
  0
ARC
  5
C8
100
AcDbEntity
  8
0
  6
CONTINUOUS
 62
               7
100
AcDbCircle
 10
72.0
 20
203.50000000000011
 30
0.0
 40
2.0
100
AcDbArc
 50
90.000002504478161
 51
120.00000000000217
  0
ARC
  5
C9
100
AcDbEntity
  8
0
  6
CONTINUOUS
 62
               7
100
AcDbCircle
 10
95.792907714843636
 20
200.39999389648446
 30
0.0
 40
2.2999999523162842
100
AcDbArc
 50
45.00000125223908
 51
90.000002504478161
  0
ARC
  5
CA
100
AcDbEntity
  8
0
  6
CONTINUOUS
 62
               7
100
AcDbCircle
 10
69.5
 20
193.99581909179702
 30
0.0
 40
3.4999999999999996
100
AcDbArc
 50
135.00000034162267
 51
180.00000500895632
  0
ARC
  5
CB
100
AcDbEntity
  8
0
  6
CONTINUOUS
 62
               7
100
AcDbCircle
 10
100.5
 20
193.99581909179702
 30
0.0
 40
3.4999999999999996
100
AcDbArc
 50
0.0000000000000509
 51
45.00000125223908
  0
ARC
  5
CC
100
AcDbEntity
  8
0
  6
CONTINUOUS
 62
               7
100
AcDbCircle
 10
74.207092285156136
 20
200.39999389648446
 30
0.0
 40
2.2999999523162842
100
AcDbArc
 50
90.000002504478161
 51
135.00000034162267
  0
ARC
  5
CD
100
AcDbEntity
  8
0
  6
CONTINUOUS
 62
               7
100
AcDbCircle
 10
98.0
 20
203.50000000000011
 30
0.0
 40
1.4999999999999998
100
AcDbArc
 50
48.189685934256701
 51
90.000002504478161
  0
ARC
  5
CE
100
AcDbEntity
  8
0
  6
CONTINUOUS
 62
               7
100
AcDbCircle
 10
103.49999999999977
 20
205.99996948242196
 30
0.0
 40
0.5
100
AcDbArc
 50
7.4208451464152363
 51
90.000002504478161
  0
ARC
  5
CF
100
AcDbEntity
  8
0
  6
CONTINUOUS
 62
               7
100
AcDbCircle
 10
72.0
 20
203.50000000000011
 30
0.0
 40
1.4999999999999998
100
AcDbArc
 50
90.000002504478161
 51
131.81031565960504
  0
ARC
  5
D0
100
AcDbEntity
  8
0
  6
CONTINUOUS
 62
               7
100
AcDbCircle
 10
99.5
 20
205.99996948242196
 30
0.0
 40
0.5
100
AcDbArc
 50
90.000002504478161
 51
180.00000500895632
  0
ARC
  5
D1
100
AcDbEntity
  8
0
  6
CONTINUOUS
 62
               7
100
AcDbCircle
 10
70.5
 20
205.99996948242196
 30
0.0
 40
0.5
100
AcDbArc
 50
0.0
 51
90.000002504478161
  0
ARC
  5
D2
100
AcDbEntity
  8
0
  6
CONTINUOUS
 62
               7
100
AcDbCircle
 10
66.499999999999886
 20
205.99996948242196
 30
0.0
 40
0.5
100
AcDbArc
 50
89.999995674288996
 51
172.57915473989922
  0
ARC
  5
D3
100
AcDbEntity
  8
0
  6
CONTINUOUS
 62
               7
100
AcDbCircle
 10
-101.45025634765653
 20
236.19998168945324
 30
0.0
 40
5.0
100
AcDbArc
 50
90.000002504478161
 51
140.58004632746963
  0
ARC
  5
D4
100
AcDbEntity
  8
0
  6
CONTINUOUS
 62
               7
100
AcDbCircle
 10
-57.0
 20
223.49996948242196
 30
0.0
 40
50.0
100
AcDbArc
 50
161.77401403899248
 51
191.03970806633964
  0
ARC
  5
D5
100
AcDbEntity
  8
0
  6
CONTINUOUS
 62
               7
100
AcDbCircle
 10
-104.02777099609403
 20
217.49996948242196
 30
0.0
 40
5.9999999999999991
100
AcDbArc
 50
198.4084749552519
 51
269.99999749552182
  0
ARC
  5
D6
100
AcDbEntity
  8
0
  6
CONTINUOUS
 62
               7
100
AcDbCircle
 10
-103.13024902343778
 20
214.49996948242202
 30
0.0
 40
2.9999999999999996
100
AcDbArc
 50
191.03971170880533
 51
269.99999749552182
  0
ARC
  5
D7
100
AcDbEntity
  8
0
  6
CONTINUOUS
 62
               7
100
AcDbCircle
 10
-86.000000000000171
 20
223.49996948242196
 30
0.0
 40
25.0
100
AcDbArc
 50
140.58004632746963
 51
198.40848497316458
  0
ARC
  5
D8
100
AcDbEntity
  8
0
  6
CONTINUOUS
 62
               7
100
AcDbCircle
 10
-101.64202880859392
 20
238.19998168945321
 30
0.0
 40
2.9999999999999996
100
AcDbArc
 50
90.000002504478161
 51
161.77401403899248
  0
ARC
  5
D9
100
AcDbEntity
  8
0
  6
CONTINUOUS
 62
               7
100
AcDbCircle
 10
0.0
 20
372.41571044921869
 30
0.0
 40
321.4600830078125
100
AcDbArc
 50
263.53482729513291
 51
276.46523860507472
  0
ARC
  5
DA
100
AcDbEntity
  8
0
  6
CONTINUOUS
 62
               7
100
AcDbCircle
 10
-103.00000000000023
 20
51.000000000000057
 30
0.0
 40
2.0
100
AcDbArc
 50
90.000002504478161
 51
180.00000500895632
  0
ARC
  5
DB
100
AcDbEntity
  8
0
  6
CONTINUOUS
 62
               7
100
AcDbCircle
 10
103.0
 20
51.000000000000057
 30
0.0
 40
2.0
100
AcDbArc
 50
0.0
 51
90.000002504478161
  0
LINE
  5
DC
100
AcDbEntity
  8
0
  6
CONTINUOUS
 62
               7
100
AcDbLine
 10
62.0
 20
190.70001220703136
 30
0.0
 11
62.0
 21
177.29998779296886
 31
0.0
  0
LINE
  5
DD
100
AcDbEntity
  8
0
  6
CONTINUOUS
 62
               7
100
AcDbLine
 10
65.999999999999886
 20
177.29998779296886
 30
0.0
 11
62.0
 21
177.29998779296886
 31
0.0
  0
LINE
  5
DE
100
AcDbEntity
  8
0
  6
CONTINUOUS
 62
               7
100
AcDbLine
 10
65.999999999999886
 20
190.70001220703136
 30
0.0
 11
62.0
 21
190.70001220703136
 31
0.0
  0
LINE
  5
DF
100
AcDbEntity
  8
0
  6
CONTINUOUS
 62
               7
100
AcDbLine
 10
98.0
 20
205.50000000000009
 30
0.0
 11
72.0
 21
205.50000000000009
 31
0.0
  0
LINE
  5
E0
100
AcDbEntity
  8
0
  6
CONTINUOUS
 62
               7
100
AcDbLine
 10
67.025126335542041
 20
196.47070565215486
 30
0.0
 11
72.580730947189181
 21
202.02631026380197
 31
0.0
  0
LINE
  5
E1
100
AcDbEntity
  8
0
  6
CONTINUOUS
 62
               7
100
AcDbLine
 10
102.97486347003894
 20
196.47068407296874
 30
0.0
 11
97.419226489612811
 21
202.02632105339504
 31
0.0
  0
LINE
  5
E2
100
AcDbEntity
  8
0
  6
CONTINUOUS
 62
               7
100
AcDbLine
 10
70.999999999999886
 20
205.99996948242196
 30
0.0
 11
70.999999999999886
 21
200.44555664062514
 31
0.0
  0
LINE
  5
E3
100
AcDbEntity
  8
0
  6
CONTINUOUS
 62
               7
100
AcDbLine
 10
95.792907714843636
 20
202.69998168945324
 30
0.0
 11
74.207092285156136
 21
202.69998168945324
 31
0.0
  0
LINE
  5
E4
100
AcDbEntity
  8
0
  6
CONTINUOUS
 62
               7
100
AcDbLine
 10
98.0
 20
205.00000000000014
 30
0.0
 11
72.0
 21
205.00000000000014
 31
0.0
  0
LINE
  5
E5
100
AcDbEntity
  8
0
  6
CONTINUOUS
 62
               7
100
AcDbLine
 10
98.999999999999886
 20
205.99996948242196
 30
0.0
 11
98.999999999999886
 21
200.44555664062514
 31
0.0
  0
LINE
  5
E6
100
AcDbEntity
  8
0
  6
CONTINUOUS
 62
               7
100
AcDbLine
 10
70.0
 20
224.6999816894533
 30
0.0
 11
-99.000000000000284
 21
224.6999816894533
 31
0.0
  0
LINE
  5
E7
100
AcDbEntity
  8
0
  6
CONTINUOUS
 62
               7
100
AcDbLine
 10
70.0
 20
221.29998779296886
 30
0.0
 11
-99.000000000000284
 21
221.29998779296886
 31
0.0
  0
LINE
  5
E8
100
AcDbEntity
  8
0
  6
CONTINUOUS
 62
               7
100
AcDbLine
 10
70.0
 20
232.49996948242205
 30
0.0
 11
-99.000000000000284
 21
232.49996948242205
 31
0.0
  0
LINE
  5
E9
100
AcDbEntity
  8
0
  6
CONTINUOUS
 62
               7
100
AcDbLine
 10
70.0
 20
211.49996948242199
 30
0.0
 11
-104.02777099609403
 21
211.49996948242199
 31
0.0
  0
LINE
  5
EA
100
AcDbEntity
  8
0
  6
CONTINUOUS
 62
               7
100
AcDbLine
 10
5.5
 20
206.49996948242199
 30
0.0
 11
105.49999999999989
 21
206.49996948242199
 31
0.0
  0
LINE
  5
EB
100
AcDbEntity
  8
0
  6
CONTINUOUS
 62
               2
100
AcDbLine
 10
28.0
 20
247.97998262115107
 30
0.0
 11
28.0
 21
199.24506528658466
 31
0.0
  0
LINE
  5
EC
100
AcDbEntity
  8
0
  6
CONTINUOUS
 62
               7
100
AcDbLine
 10
-103.00000000000023
 20
225.49996948242193
 30
0.0
 11
-103.00000000000023
 21
224.99996948242205
 31
0.0
  0
LINE
  5
ED
100
AcDbEntity
  8
0
  6
CONTINUOUS
 62
               7
100
AcDbLine
 10
-99.000000000000284
 20
224.99996948242205
 30
0.0
 11
-103.00000000000023
 21
224.99996948242205
 31
0.0
  0
LINE
  5
EE
100
AcDbEntity
  8
0
  6
CONTINUOUS
 62
               7
100
AcDbLine
 10
-99.000000000000284
 20
230.99996948242196
 30
0.0
 11
-103.00000000000023
 21
230.99996948242196
 31
0.0
  0
LINE
  5
EF
100
AcDbEntity
  8
0
  6
CONTINUOUS
 62
               7
100
AcDbLine
 10
-103.00000000000023
 20
230.99996948242196
 30
0.0
 11
-103.00000000000023
 21
230.49996948242193
 31
0.0
  0
LINE
  5
F0
100
AcDbEntity
  8
0
  6
CONTINUOUS
 62
               7
100
AcDbLine
 10
-99.000000000000284
 20
230.49996948242193
 30
0.0
 11
-103.00000000000023
 21
230.49996948242193
 31
0.0
  0
LINE
  5
F1
100
AcDbEntity
  8
0
  6
CONTINUOUS
 62
               7
100
AcDbLine
 10
-99.000000000000284
 20
225.49996948242193
 30
0.0
 11
-103.00000000000023
 21
225.49996948242193
 31
0.0
  0
LINE
  5
F2
100
AcDbEntity
  8
0
  6
CONTINUOUS
 62
               7
100
AcDbLine
 10
-99.000000000000284
 20
241.19998168945324
 30
0.0
 11
-101.45025634765653
 21
241.19998168945324
 31
0.0
  0
LINE
  5
F3
100
AcDbEntity
  8
0
  6
CONTINUOUS
 62
               7
100
AcDbLine
 10
7.0
 20
237.36447143554705
 30
0.0
 11
-99.000000000000284
 21
237.36447143554705
 31
0.0
  0
LINE
  5
F4
100
AcDbEntity
  8
0
  6
CONTINUOUS
 62
               7
100
AcDbLine
 10
148.0000305175771
 20
211.49996948242199
 30
0.0
 11
70.0
 21
211.49996948242199
 31
0.0
  0
LINE
  5
F5
100
AcDbEntity
  8
0
  6
CONTINUOUS
 62
               7
100
AcDbLine
 10
70.0
 20
243.99996948242199
 30
0.0
 11
70.0
 21
211.49996948242199
 31
0.0
  0
LINE
  5
F6
100
AcDbEntity
  8
0
  6
CONTINUOUS
 62
               7
100
AcDbLine
 10
70.0
 20
234.44638061523455
 30
0.0
 11
48.999999999999886
 21
234.44638061523455
 31
0.0
  0
LINE
  5
F7
100
AcDbEntity
  8
0
  6
CONTINUOUS
 62
               7
100
AcDbLine
 10
70.0
 20
237.36447143554705
 30
0.0
 11
48.999999999999886
 21
237.36447143554705
 31
0.0
  0
LINE
  5
F8
100
AcDbEntity
  8
0
  6
CONTINUOUS
 62
               7
100
AcDbLine
 10
7.0
 20
239.89999389648443
 30
0.0
 11
-99.000000000000284
 21
239.89999389648443
 31
0.0
  0
LINE
  5
F9
100
AcDbEntity
  8
0
  6
CONTINUOUS
 62
               7
100
AcDbLine
 10
70.0
 20
239.89999389648443
 30
0.0
 11
48.999999999999886
 21
239.89999389648443
 31
0.0
  0
LINE
  5
FA
100
AcDbEntity
  8
0
  6
CONTINUOUS
 62
               7
100
AcDbLine
 10
-99.000000000000284
 20
241.19998168945324
 30
0.0
 11
-99.000000000000284
 21
211.49996948242199
 31
0.0
  0
LINE
  5
FB
100
AcDbEntity
  8
0
  6
CONTINUOUS
 62
               7
100
AcDbLine
 10
148.0000305175771
 20
243.99996948242199
 30
0.0
 11
70.0
 21
243.99996948242199
 31
0.0
  0
LINE
  5
FC
100
AcDbEntity
  8
0
  6
CONTINUOUS
 62
               7
100
AcDbLine
 10
147.0000305175771
 20
238.8283996582033
 30
0.0
 11
70.742919921875
 21
238.8283996582033
 31
0.0
  0
LINE
  5
FD
100
AcDbEntity
  8
0
  6
CONTINUOUS
 62
               7
100
AcDbLine
 10
7.0
 20
234.44638061523455
 30
0.0
 11
-99.000000000000284
 21
234.44638061523455
 31
0.0
  0
LINE
  5
FE
100
AcDbEntity
  8
0
  6
CONTINUOUS
 62
               7
100
AcDbLine
 10
25.000038479957766
 20
56.000000000000057
 30
0.0
 11
-25.0
 21
56.000000000000057
 31
0.0
  0
LINE
  5
FF
100
AcDbEntity
  8
0
  6
CONTINUOUS
 62
               7
100
AcDbLine
 10
-103.00000000000023
 20
53.0
 30
0.0
 11
-36.1961669921875
 21
53.0
 31
0.0
  0
LINE
  5
100
100
AcDbEntity
  8
0
  6
CONTINUOUS
 62
               7
100
AcDbLine
 10
-25.00003847995788
 20
55.999987725133906
 30
0.0
 11
-36.196146832147008
 21
52.999999508649125
 31
0.0
  0
LINE
  5
101
100
AcDbEntity
  8
0
  6
CONTINUOUS
 62
               7
100
AcDbLine
 10
-105.00000000000017
 20
4.7911446771252031
 30
0.0
 11
-105.00000000000017
 21
51.000000000000057
 31
0.0
  0
LINE
  5
102
100
AcDbEntity
  8
0
  6
CONTINUOUS
 62
               7
100
AcDbLine
 10
104.99999999999989
 20
4.7911446771691999
 30
0.0
 11
104.99999999999989
 21
51.000000000000057
 31
0.0
  0
LINE
  5
103
100
AcDbEntity
  8
0
  6
CONTINUOUS
 62
               7
100
AcDbLine
 10
93.999999999999886
 20
0.0
 30
0.0
 11
93.999999999999886
 21
3.199981689453125
 31
0.0
  0
LINE
  5
104
100
AcDbEntity
  8
0
  6
CONTINUOUS
 62
               7
100
AcDbLine
 10
82.0
 20
0.0
 30
0.0
 11
82.0
 21
3.199981689453125
 31
0.0
  0
LINE
  5
105
100
AcDbEntity
  8
0
  6
CONTINUOUS
 62
               2
100
AcDbLine
 10
0.0
 20
65.136110493954106
 30
0.0
 11
0.0
 21
-1.6541443229681363
 31
0.0
  0
LINE
  5
106
100
AcDbEntity
  8
0
  6
CONTINUOUS
 62
               7
100
AcDbLine
 10
-82.000000000000057
 20
0.0
 30
0.0
 11
-94.000000000000284
 21
0.0
 31
0.0
  0
LINE
  5
107
100
AcDbEntity
  8
0
  6
CONTINUOUS
 62
               7
100
AcDbLine
 10
-82.000000000000057
 20
0.0
 30
0.0
 11
-82.000000000000057
 21
3.199981689453125
 31
0.0
  0
LINE
  5
108
100
AcDbEntity
  8
0
  6
CONTINUOUS
 62
               7
100
AcDbLine
 10
-94.000000000000284
 20
0.0
 30
0.0
 11
-94.000000000000284
 21
3.199981689453125
 31
0.0
  0
LINE
  5
109
100
AcDbEntity
  8
0
  6
CONTINUOUS
 62
               7
100
AcDbLine
 10
82.0
 20
0.0
 30
0.0
 11
93.999999999999886
 21
0.0
 31
0.0
  0
LINE
  5
10A
100
AcDbEntity
  8
0
  6
CONTINUOUS
 62
               7
100
AcDbLine
 10
5.5
 20
211.49996948242199
 30
0.0
 11
5.5
 21
206.49996948242199
 31
0.0
  0
LINE
  5
10B
100
AcDbEntity
  8
0
  6
CONTINUOUS
 62
               7
100
AcDbLine
 10
105.49999999999989
 20
211.49996948242199
 30
0.0
 11
105.49999999999989
 21
206.49996948242199
 31
0.0
  0
LINE
  5
10C
100
AcDbEntity
  8
0
  6
CONTINUOUS
 62
               7
100
AcDbLine
 10
97.150024414062386
 20
163.0
 30
0.0
 11
97.150024414062386
 21
53.0
 31
0.0
  0
LINE
  5
10D
100
AcDbEntity
  8
0
  6
CONTINUOUS
 62
               7
100
AcDbLine
 10
92.849975585937386
 20
163.0
 30
0.0
 11
92.849975585937386
 21
53.0
 31
0.0
  0
LINE
  5
10E
100
AcDbEntity
  8
0
  6
CONTINUOUS
 62
               7
100
AcDbLine
 10
77.150024414062386
 20
163.0
 30
0.0
 11
77.150024414062386
 21
53.0
 31
0.0
  0
LINE
  5
10F
100
AcDbEntity
  8
0
  6
CONTINUOUS
 62
               7
100
AcDbLine
 10
72.849975585937386
 20
163.0
 30
0.0
 11
72.849975585937386
 21
53.0
 31
0.0
  0
LINE
  5
110
100
AcDbEntity
  8
0
  6
CONTINUOUS
 62
               7
100
AcDbLine
 10
65.0
 20
163.0
 30
0.0
 11
104.99999999999989
 21
163.0
 31
0.0
  0
LINE
  5
111
100
AcDbEntity
  8
0
  6
CONTINUOUS
 62
               7
100
AcDbLine
 10
104.99999999999989
 20
53.0
 30
0.0
 11
104.99999999999989
 21
176.00000000000011
 31
0.0
  0
LINE
  5
112
100
AcDbEntity
  8
0
  6
CONTINUOUS
 62
               7
100
AcDbLine
 10
65.0
 20
53.0
 30
0.0
 11
65.0
 21
176.00000000000011
 31
0.0
  0
LINE
  5
113
100
AcDbEntity
  8
0
  6
CONTINUOUS
 62
               2
100
AcDbLine
 10
95.0
 20
50.769572942307775
 30
0.0
 11
95.0
 21
63.379799487197374
 31
0.0
  0
LINE
  5
114
100
AcDbEntity
  8
0
  6
CONTINUOUS
 62
               7
100
AcDbLine
 10
72.262563132923447
 20
232.26253261534549
 30
0.0
 11
74.737436867076326
 21
234.73740634949843
 31
0.0
  0
LINE
  5
115
100
AcDbEntity
  8
0
  6
CONTINUOUS
 62
               7
100
AcDbLine
 10
74.737436867076326
 20
232.26253261534549
 30
0.0
 11
72.262563132923447
 21
234.73740634949843
 31
0.0
  0
LINE
  5
116
100
AcDbEntity
  8
0
  6
CONTINUOUS
 62
               7
100
AcDbLine
 10
72.262563132923447
 20
218.26253261534555
 30
0.0
 11
74.737436867076326
 21
220.73740634949849
 31
0.0
  0
LINE
  5
117
100
AcDbEntity
  8
0
  6
CONTINUOUS
 62
               7
100
AcDbLine
 10
74.737436867076326
 20
218.26253261534555
 30
0.0
 11
72.262563132923447
 21
220.73740634949849
 31
0.0
  0
ENDBLK
  5
118
100
AcDbEntity
  8
0
100
AcDbBlockEnd
  0
BLOCK
  5
119
100
AcDbEntity
  8
0
100
AcDbBlockBegin
  2
DTRB-CS2-2
 70
               0
 10
0.0
 20
0.0
 30
0.0
  3
DTRB-CS2-2
  1

  0
LINE
  5
11A
100
AcDbEntity
  8
0
  6
CONTINUOUS
 62
               7
100
AcDbLine
 10
40.0
 20
162.99998124945301
 30
0.0
 11
40.0
 21
52.999981689452909
 31
0.0
  0
LINE
  5
11B
100
AcDbEntity
  8
0
  6
CONTINUOUS
 62
               7
100
AcDbLine
 10
0.0
 20
162.99998124945301
 30
0.0
 11
0.0
 21
52.999981689452909
 31
0.0
  0
LINE
  5
11C
100
AcDbEntity
  8
0
  6
CONTINUOUS
 62
               7
100
AcDbLine
 10
12.150009058073294
 20
52.999981689452909
 30
0.0
 11
12.150009058073294
 21
162.99998124945301
 31
0.0
  0
LINE
  5
11D
100
AcDbEntity
  8
0
  6
CONTINUOUS
 62
               7
100
AcDbLine
 10
7.8499907819266923
 20
52.999981689452909
 30
0.0
 11
7.8499907819266923
 21
162.99998124945301
 31
0.0
  0
LINE
  5
11E
100
AcDbEntity
  8
0
  6
CONTINUOUS
 62
               7
100
AcDbLine
 10
27.849990941926706
 20
52.999981689452909
 30
0.0
 11
27.849990941926706
 21
162.99998124945301
 31
0.0
  0
LINE
  5
11F
100
AcDbEntity
  8
0
  6
CONTINUOUS
 62
               7
100
AcDbLine
 10
32.150009218073251
 20
52.999981689452909
 30
0.0
 11
32.150009218073251
 21
162.99998124945301
 31
0.0
  0
LINE
  5
120
100
AcDbEntity
  8
0
  6
CONTINUOUS
 62
               7
100
AcDbLine
 10
249.99999999999963
 20
162.99998124945301
 30
0.0
 11
249.99999999999963
 21
52.999981689452909
 31
0.0
  0
LINE
  5
121
100
AcDbEntity
  8
0
  6
CONTINUOUS
 62
               7
100
AcDbLine
 10
209.99999999999983
 20
162.99998124945301
 30
0.0
 11
209.99999999999983
 21
52.999981689452909
 31
0.0
  0
LINE
  5
122
100
AcDbEntity
  8
0
  6
CONTINUOUS
 62
               7
100
AcDbLine
 10
222.1500090580731
 20
52.999981689452909
 30
0.0
 11
222.1500090580731
 21
162.99998124945301
 31
0.0
  0
LINE
  5
123
100
AcDbEntity
  8
0
  6
CONTINUOUS
 62
               7
100
AcDbLine
 10
217.84999078192652
 20
52.999981689452909
 30
0.0
 11
217.84999078192652
 21
162.99998124945301
 31
0.0
  0
LINE
  5
124
100
AcDbEntity
  8
0
  6
CONTINUOUS
 62
               7
100
AcDbLine
 10
237.84999094192634
 20
52.999981689452909
 30
0.0
 11
237.84999094192634
 21
162.99998124945301
 31
0.0
  0
LINE
  5
125
100
AcDbEntity
  8
0
  6
CONTINUOUS
 62
               7
100
AcDbLine
 10
242.15000921807294
 20
52.999981689452909
 30
0.0
 11
242.15000921807294
 21
162.99998124945301
 31
0.0
  0
ARC
  5
126
100
AcDbEntity
  8
0
  6
CONTINUOUS
 62
               7
100
AcDbCircle
 10
-0.1000000000000796
 20
216.99998779296868
 30
0.0
 40
1.0
100
AcDbArc
 50
180.0
 51
270.0
  0
LINE
  5
127
100
AcDbEntity
  8
0
  6
CONTINUOUS
 62
               7
100
AcDbLine
 10
3.3999999999999204
 20
215.79997948242178
 30
0.0
 11
3.3999999999999204
 21
211.49998779296862
 31
0.0
  0
LINE
  5
128
100
AcDbEntity
  8
0
  6
CONTINUOUS
 62
               7
100
AcDbLine
 10
3.8999999999999204
 20
211.49998779296862
 30
0.0
 11
3.8999999999999204
 21
215.79997948242178
 31
0.0
  0
ARC
  5
129
100
AcDbEntity
  8
0
  6
CONTINUOUS
 62
               7
100
AcDbCircle
 10
3.3999999999999204
 20
215.49998779296865
 30
0.0
 40
3.4999999999999996
100
AcDbArc
 50
180.0
 51
270.0
  0
LINE
  5
12A
100
AcDbEntity
  8
0
  6
CONTINUOUS
 62
               7
100
AcDbLine
 10
-1.1000000000000796
 20
229.99998779296865
 30
0.0
 11
-1.1000000000000796
 21
216.99998779296868
 31
0.0
  0
ARC
  5
12B
100
AcDbEntity
  8
0
  6
CONTINUOUS
 62
               7
100
AcDbCircle
 10
6.8999999999999204
 20
234.7694216255465
 30
0.0
 40
2.9999999999999996
100
AcDbArc
 50
134.96855723541546
 51
180.0
  0
ARC
  5
12C
100
AcDbEntity
  8
0
  6
CONTINUOUS
 62
               7
100
AcDbCircle
 10
6.8999999999999204
 20
234.76942162554658
 30
0.0
 40
3.4999999999999996
100
AcDbArc
 50
134.9685572354158
 51
179.99999999999997
  0
ARC
  5
12D
100
AcDbEntity
  8
0
  6
CONTINUOUS
 62
               7
100
AcDbCircle
 10
3.3999999999999204
 20
231.49998779296862
 30
0.0
 40
3.4999999999999996
100
AcDbArc
 50
107.58284247057495
 51
180.0
  0
ARC
  5
12E
100
AcDbEntity
  8
0
  6
CONTINUOUS
 62
               7
100
AcDbCircle
 10
8.5296558380126157
 20
233.4999916894528
 30
0.0
 40
6.3296561241149902
100
AcDbArc
 50
160.85729086486964
 51
199.14270731389303
  0
LINE
  5
12F
100
AcDbEntity
  8
0
  6
CONTINUOUS
 62
               7
100
AcDbLine
 10
2.5499999761580625
 20
231.42435697151177
 30
0.0
 11
2.5499999761580625
 21
235.57562640739431
 31
0.0
  0
LINE
  5
130
100
AcDbEntity
  8
0
  6
CONTINUOUS
 62
               7
100
AcDbLine
 10
2.5499999984872375
 20
231.4243571311992
 30
0.0
 11
3.4000000042290708
 21
231.34999176691696
 31
0.0
  0
LINE
  5
131
100
AcDbEntity
  8
0
  6
CONTINUOUS
 62
               7
100
AcDbLine
 10
2.549999998487408
 20
235.57562624770679
 30
0.0
 11
3.4000000042292982
 21
235.64999161198907
 31
0.0
  0
LINE
  5
132
100
AcDbEntity
  8
0
  6
CONTINUOUS
 62
               7
100
AcDbLine
 10
6.0041878807285798
 20
238.11490650126802
 30
0.0
 11
4.7798441134952441
 21
236.89190578730594
 31
0.0
  0
LINE
  5
133
100
AcDbEntity
  8
0
  6
CONTINUOUS
 62
               7
100
AcDbLine
 10
3.8999999999999204
 20
229.20000389648428
 30
0.0
 11
3.8999999999999204
 21
234.7694216255465
 31
0.0
  0
LINE
  5
134
100
AcDbEntity
  8
0
  6
CONTINUOUS
 62
               7
100
AcDbLine
 10
6.0041878807285798
 20
238.82162555577287
 30
0.0
 11
4.4264847990778549
 21
237.24565314759926
 31
0.0
  0
ARC
  5
135
100
AcDbEntity
  8
0
  6
CONTINUOUS
 62
               7
100
AcDbCircle
 10
-0.1000000000000796
 20
229.99998779296865
 30
0.0
 40
1.0
100
AcDbArc
 50
90.0
 51
180.0
  0
LINE
  5
136
100
AcDbEntity
  8
0
  6
CONTINUOUS
 62
               7
100
AcDbLine
 10
-0.1000000000000796
 20
215.49998779296865
 30
0.0
 11
-0.1000000000000796
 21
231.49998779296862
 31
0.0
  0
LINE
  5
137
100
AcDbEntity
  8
0
  6
CONTINUOUS
 62
               7
100
AcDbLine
 10
3.3999999999999204
 20
235.64999161198907
 30
0.0
 11
3.3999999999999204
 21
229.20000389648428
 31
0.0
  0
CIRCLE
  5
138
100
AcDbEntity
  8
0
  6
CONTINUOUS
 62
               7
100
AcDbCircle
 10
-82.00003051757983
 20
184.99998168945305
 30
0.0
 40
11.499999999999998
  0
CIRCLE
  5
139
100
AcDbEntity
  8
0
  6
CONTINUOUS
 62
               7
100
AcDbCircle
 10
-82.00003051757983
 20
184.99998168945305
 30
0.0
 40
5.5
  0
CIRCLE
  5
13A
100
AcDbEntity
  8
0
  6
CONTINUOUS
 62
               7
100
AcDbCircle
 10
-82.00003051757983
 20
184.99998168945305
 30
0.0
 40
7.5
  0
LINE
  5
13B
100
AcDbEntity
  8
0
  6
CONTINUOUS
 62
               7
100
AcDbLine
 10
-17.500000000000057
 20
191.19999389648416
 30
0.0
 11
-17.500000000000057
 21
176.79996948242169
 31
0.0
  0
LINE
  5
13C
100
AcDbEntity
  8
0
  6
CONTINUOUS
 62
               7
100
AcDbLine
 10
-19.121618187524575
 20
182.64997558593745
 30
0.0
 11
-17.5
 21
182.64997558593745
 31
0.0
  0
LINE
  5
13D
100
AcDbEntity
  8
0
  6
CONTINUOUS
 62
               7
100
AcDbLine
 10
-25.000030517578409
 20
185.34998779296862
 30
0.0
 11
-25.000030517578409
 21
185.99998168945297
 31
0.0
  0
LINE
  5
13E
100
AcDbEntity
  8
0
  6
CONTINUOUS
 62
               7
100
AcDbLine
 10
-17.000000000000171
 20
177.29996948242177
 30
0.0
 11
-17.000000000000171
 21
172.99998168945299
 31
0.0
  0
LINE
  5
13F
100
AcDbEntity
  8
0
  6
CONTINUOUS
 62
               7
100
AcDbLine
 10
250.00001501878862
 20
165.99998168945297
 30
0.0
 11
250.00001501878862
 21
162.99998168945291
 31
0.0
  0
LINE
  5
140
100
AcDbEntity
  8
0
  6
CONTINUOUS
 62
               7
100
AcDbLine
 10
250.00001501878862
 20
165.99998168945297
 30
0.0
 11
230.00001525878881
 21
165.99998168945297
 31
0.0
  0
LINE
  5
141
100
AcDbEntity
  8
0
  6
CONTINUOUS
 62
               7
100
AcDbLine
 10
0.0000002400000199
 20
162.99998128465302
 30
0.0
 11
0.0000002400000199
 21
165.99998128465305
 31
0.0
  0
LINE
  5
142
100
AcDbEntity
  8
0
  6
CONTINUOUS
 62
               7
100
AcDbLine
 10
20.0
 20
165.99998128465305
 30
0.0
 11
0.0000002400000199
 21
165.99998128465305
 31
0.0
  0
LINE
  5
143
100
AcDbEntity
  8
0
  6
CONTINUOUS
 62
               7
100
AcDbLine
 10
249.99999999999963
 20
162.99998168945291
 30
0.0
 11
0.0
 21
162.99998124945301
 31
0.0
  0
LINE
  5
144
100
AcDbEntity
  8
0
  6
CONTINUOUS
 62
               7
100
AcDbLine
 10
22.0
 20
172.99998168945299
 30
0.0
 11
20.0
 21
170.99998168945285
 31
0.0
  0
LINE
  5
145
100
AcDbEntity
  8
0
  6
CONTINUOUS
 62
               7
100
AcDbLine
 10
230.00001525878881
 20
170.99998168945297
 30
0.0
 11
228.00001525878875
 21
172.99998168945299
 31
0.0
  0
LINE
  5
146
100
AcDbEntity
  8
0
  6
CONTINUOUS
 62
               7
100
AcDbLine
 10
20.0
 20
162.99998124945301
 30
0.0
 11
20.0
 21
170.99998168945285
 31
0.0
  0
LINE
  5
147
100
AcDbEntity
  8
0
  6
CONTINUOUS
 62
               7
100
AcDbLine
 10
230.00001525878881
 20
162.99998168945291
 30
0.0
 11
230.00001525878881
 21
170.99998168945297
 31
0.0
  0
CIRCLE
  5
148
100
AcDbEntity
  8
0
  6
CONTINUOUS
 62
               7
100
AcDbCircle
 10
-20.500030517578182
 20
194.99998168945288
 30
0.0
 40
2.0750000476837158
  0
CIRCLE
  5
149
100
AcDbEntity
  8
0
  6
CONTINUOUS
 62
               7
100
AcDbCircle
 10
-20.500030517578182
 20
194.99998168945288
 30
0.0
 40
2.1500000953674316
  0
CIRCLE
  5
14A
100
AcDbEntity
  8
0
  6
CONTINUOUS
 62
               7
100
AcDbCircle
 10
-20.500030517578182
 20
180.99998168945297
 30
0.0
 40
2.0750000476837158
  0
CIRCLE
  5
14B
100
AcDbEntity
  8
0
  6
CONTINUOUS
 62
               7
100
AcDbCircle
 10
-20.500030517578182
 20
180.99998168945297
 30
0.0
 40
2.1500000953674316
  0
LINE
  5
14C
100
AcDbEntity
  8
0
  6
CONTINUOUS
 62
               7
100
AcDbLine
 10
-95.00003051757983
 20
205.49998168945299
 30
0.0
 11
-95.00003051757983
 21
172.99998168945299
 31
0.0
  0
LINE
  5
14D
100
AcDbEntity
  8
0
  6
CONTINUOUS
 62
               7
100
AcDbLine
 10
-95.00003051757983
 20
205.49998168945299
 30
0.0
 11
-17.000000000000171
 21
205.49998168945299
 31
0.0
  0
LINE
  5
14E
100
AcDbEntity
  8
0
  6
CONTINUOUS
 62
               7
100
AcDbLine
 10
-94.067718505861023
 20
200.32841186523433
 30
0.0
 11
-17.742980957031421
 21
200.32841186523433
 31
0.0
  0
LINE
  5
14F
100
AcDbEntity
  8
0
  6
CONTINUOUS
 62
               7
100
AcDbLine
 10
-17.000000000000171
 20
191.19999389648416
 30
0.0
 11
-17.500000000000057
 21
191.19999389648416
 31
0.0
  0
LINE
  5
150
100
AcDbEntity
  8
0
  6
CONTINUOUS
 62
               7
100
AcDbLine
 10
-17.000000000000171
 20
176.79996948242169
 30
0.0
 11
-17.500000000000057
 21
176.79996948242169
 31
0.0
  0
ARC
  5
151
100
AcDbEntity
  8
0
  6
CONTINUOUS
 62
               7
100
AcDbCircle
 10
-26.250000000000284
 20
184.24998168945299
 30
0.0
 40
1.7499999999999998
100
AcDbArc
 50
90.0
 51
270.0
  0
LINE
  5
152
100
AcDbEntity
  8
0
  6
CONTINUOUS
 62
               7
100
AcDbLine
 10
-26.250000000000284
 20
182.49998168945291
 30
0.0
 11
-22.040288385508575
 21
182.49998168945291
 31
0.0
  0
LINE
  5
153
100
AcDbEntity
  8
0
  6
CONTINUOUS
 62
               7
100
AcDbLine
 10
-26.250000000000284
 20
185.99998168945297
 30
0.0
 11
-17.500000000000057
 21
185.99998168945297
 31
0.0
  0
ARC
  5
154
100
AcDbEntity
  8
0
  6
CONTINUOUS
 62
               7
100
AcDbCircle
 10
-19.000000000000171
 20
174.99998168945291
 30
0.0
 40
2.0
100
AcDbArc
 50
270.0
 51
0.0
  0
LINE
  5
155
100
AcDbEntity
  8
0
  6
CONTINUOUS
 62
               7
100
AcDbLine
 10
-18.959738204385758
 20
182.49998168945291
 30
0.0
 11
-17.500000000000057
 21
182.49998168945291
 31
0.0
  0
LINE
  5
156
100
AcDbEntity
  8
0
  6
CONTINUOUS
 62
               7
100
AcDbLine
 10
-25.000030517578409
 20
182.49998168945291
 30
0.0
 11
-25.000030517578409
 21
182.64997558593745
 31
0.0
  0
LINE
  5
157
100
AcDbEntity
  8
0
  6
CONTINUOUS
 62
               7
100
AcDbLine
 10
179.74999904632566
 20
160.00001220703106
 30
0.0
 11
175.25001239776606
 21
160.00001220703106
 31
0.0
  0
LINE
  5
158
100
AcDbEntity
  8
0
  6
CONTINUOUS
 62
               7
100
AcDbLine
 10
180.24999454270346
 20
160.5000166653397
 30
0.0
 11
179.74999557134592
 21
160.00001959058272
 31
0.0
  0
LINE
  5
159
100
AcDbEntity
  8
0
  6
CONTINUOUS
 62
               7
100
AcDbLine
 10
180.24999904632568
 20
160.50001316070532
 30
0.0
 11
174.74999999999994
 21
160.50001316070532
 31
0.0
  0
LINE
  5
15A
100
AcDbEntity
  8
0
  6
CONTINUOUS
 62
               7
100
AcDbLine
 10
175.25000560876555
 20
160.0000197591724
 30
0.0
 11
174.75000659526103
 21
160.5000168760761
 31
0.0
  0
LINE
  5
15B
100
AcDbEntity
  8
0
  6
CONTINUOUS
 62
               2
100
AcDbLine
 10
177.49999999999997
 20
176.56478530896507
 30
0.0
 11
177.49999999999997
 21
157.17967046439068
 31
0.0
  0
LINE
  5
15C
100
AcDbEntity
  8
0
  6
CONTINUOUS
 62
               7
100
AcDbLine
 10
180.24999999999997
 20
160.50001220703109
 30
0.0
 11
180.24999999999997
 21
163.00001220703109
 31
0.0
  0
LINE
  5
15D
100
AcDbEntity
  8
0
  6
CONTINUOUS
 62
               7
100
AcDbLine
 10
174.74999999999994
 20
163.00001220703109
 30
0.0
 11
174.74999999999994
 21
160.50001220703109
 31
0.0
  0
LINE
  5
15E
100
AcDbEntity
  8
0
  6
CONTINUOUS
 62
               7
100
AcDbLine
 10
55.250005608765548
 20
160.0000197591724
 30
0.0
 11
54.750006595261027
 21
160.5000168760761
 31
0.0
  0
LINE
  5
15F
100
AcDbEntity
  8
0
  6
CONTINUOUS
 62
               7
100
AcDbLine
 10
60.249999046325684
 20
160.50001316070532
 30
0.0
 11
54.749999999999943
 21
160.50001316070532
 31
0.0
  0
LINE
  5
160
100
AcDbEntity
  8
0
  6
CONTINUOUS
 62
               7
100
AcDbLine
 10
60.249994542703462
 20
160.5000166653397
 30
0.0
 11
59.749995571345892
 21
160.00001959058272
 31
0.0
  0
LINE
  5
161
100
AcDbEntity
  8
0
  6
CONTINUOUS
 62
               7
100
AcDbLine
 10
59.749999046325627
 20
160.00001220703106
 30
0.0
 11
55.250012397766056
 21
160.00001220703106
 31
0.0
  0
LINE
  5
162
100
AcDbEntity
  8
0
  6
CONTINUOUS
 62
               2
100
AcDbLine
 10
57.499999999999943
 20
176.56478530896507
 30
0.0
 11
57.499999999999943
 21
157.17967046439068
 31
0.0
  0
LINE
  5
163
100
AcDbEntity
  8
0
  6
CONTINUOUS
 62
               7
100
AcDbLine
 10
60.249999999999943
 20
160.50001220703109
 30
0.0
 11
60.249999999999943
 21
163.00001220703109
 31
0.0
  0
LINE
  5
164
100
AcDbEntity
  8
0
  6
CONTINUOUS
 62
               7
100
AcDbLine
 10
54.749999999999943
 20
163.00001220703109
 30
0.0
 11
54.749999999999943
 21
160.50001220703109
 31
0.0
  0
LINE
  5
165
100
AcDbEntity
  8
0
  6
CONTINUOUS
 62
               7
100
AcDbLine
 10
39.500015258789006
 20
244.99998168945305
 30
0.0
 11
43.500015258789006
 21
244.99998168945305
 31
0.0
  0
LINE
  5
166
100
AcDbEntity
  8
0
  6
CONTINUOUS
 62
               2
100
AcDbLine
 10
41.500015258789063
 20
246.61942899597031
 30
0.0
 11
41.500015258789063
 21
241.94163341981408
 31
0.0
  0
LINE
  5
167
100
AcDbEntity
  8
0
  6
CONTINUOUS
 62
               7
100
AcDbLine
 10
5.9999999999999432
 20
244.49998168945302
 30
0.0
 11
5.9999999999999432
 21
211.49998168945299
 31
0.0
  0
LINE
  5
168
100
AcDbEntity
  8
0
  6
CONTINUOUS
 62
               7
100
AcDbLine
 10
44.000015258789063
 20
244.49998168945302
 30
0.0
 11
44.000015258789063
 21
211.49998168945299
 31
0.0
  0
LINE
  5
169
100
AcDbEntity
  8
0
  6
CONTINUOUS
 62
               2
100
AcDbLine
 10
8.4999999999999432
 20
246.61942899597031
 30
0.0
 11
8.4999999999999432
 21
241.94163341981408
 31
0.0
  0
LINE
  5
16A
100
AcDbEntity
  8
0
  6
CONTINUOUS
 62
               7
100
AcDbLine
 10
14.249999046325627
 20
203.49998168945302
 30
0.0
 11
9.7500123977661701
 21
203.49998168945302
 31
0.0
  0
LINE
  5
16B
100
AcDbEntity
  8
0
  6
CONTINUOUS
 62
               7
100
AcDbLine
 10
14.749999999999943
 20
203.99998168945299
 30
0.0
 11
14.749999999999943
 21
206.49998168945299
 31
0.0
  0
LINE
  5
16C
100
AcDbEntity
  8
0
  6
CONTINUOUS
 62
               7
100
AcDbLine
 10
14.749994542703462
 20
203.99998614776166
 30
0.0
 11
14.249995571345892
 21
203.49998907300468
 31
0.0
  0
LINE
  5
16D
100
AcDbEntity
  8
0
  6
CONTINUOUS
 62
               7
100
AcDbLine
 10
14.749999046325684
 20
203.99998264312737
 30
0.0
 11
9.2499999999999432
 21
203.99998264312737
 31
0.0
  0
LINE
  5
16E
100
AcDbEntity
  8
0
  6
CONTINUOUS
 62
               7
100
AcDbLine
 10
9.2499999999999432
 20
206.49998168945299
 30
0.0
 11
9.2499999999999432
 21
203.99998168945299
 31
0.0
  0
LINE
  5
16F
100
AcDbEntity
  8
0
  6
CONTINUOUS
 62
               7
100
AcDbLine
 10
9.7500056087654343
 20
203.49998924159439
 30
0.0
 11
9.2500065952610271
 21
203.99998635849801
 31
0.0
  0
LINE
  5
170
100
AcDbEntity
  8
0
  6
CONTINUOUS
 62
               7
100
AcDbLine
 10
40.250014305114746
 20
203.49998168945302
 30
0.0
 11
35.750027656555176
 21
203.49998168945302
 31
0.0
  0
LINE
  5
171
100
AcDbEntity
  8
0
  6
CONTINUOUS
 62
               7
100
AcDbLine
 10
40.750015258789006
 20
203.99998168945299
 30
0.0
 11
40.750015258789006
 21
206.49998168945299
 31
0.0
  0
LINE
  5
172
100
AcDbEntity
  8
0
  6
CONTINUOUS
 62
               7
100
AcDbLine
 10
40.750009801492467
 20
203.99998614776166
 30
0.0
 11
40.250010830134954
 21
203.49998907300468
 31
0.0
  0
LINE
  5
173
100
AcDbEntity
  8
0
  6
CONTINUOUS
 62
               7
100
AcDbLine
 10
40.750014305114689
 20
203.99998264312737
 30
0.0
 11
35.250015258789063
 21
203.99998264312737
 31
0.0
  0
LINE
  5
174
100
AcDbEntity
  8
0
  6
CONTINUOUS
 62
               7
100
AcDbLine
 10
35.250015258789063
 20
206.49998168945299
 30
0.0
 11
35.250015258789063
 21
203.99998168945299
 31
0.0
  0
LINE
  5
175
100
AcDbEntity
  8
0
  6
CONTINUOUS
 62
               7
100
AcDbLine
 10
35.750020867554667
 20
203.49998924159439
 30
0.0
 11
35.250021854050146
 21
203.99998635849801
 31
0.0
  0
CIRCLE
  5
176
100
AcDbEntity
  8
0
  6
CONTINUOUS
 62
               7
100
AcDbCircle
 10
-15.499999999999943
 20
179.99998168945305
 30
0.0
 40
2.1500000953674316
  0
CIRCLE
  5
177
100
AcDbEntity
  8
0
  6
CONTINUOUS
 62
               7
100
AcDbCircle
 10
-15.499999999999943
 20
179.99998168945305
 30
0.0
 40
2.0750000476837158
  0
CIRCLE
  5
178
100
AcDbEntity
  8
0
  6
CONTINUOUS
 62
               7
100
AcDbCircle
 10
-15.499999999999943
 20
187.99998168945299
 30
0.0
 40
2.1500000953674316
  0
CIRCLE
  5
179
100
AcDbEntity
  8
0
  6
CONTINUOUS
 62
               7
100
AcDbCircle
 10
-15.499999999999943
 20
187.99998168945299
 30
0.0
 40
2.0750000476837158
  0
LINE
  5
17A
100
AcDbEntity
  8
0
  6
CONTINUOUS
 62
               7
100
AcDbLine
 10
44.85001527920474
 20
231.42434708503905
 30
0.0
 11
44.000015254559685
 21
231.34998171910297
 31
0.0
  0
LINE
  5
17B
100
AcDbEntity
  8
0
  6
CONTINUOUS
 62
               7
100
AcDbLine
 10
44.850015279204911
 20
235.57561629386686
 30
0.0
 11
44.000015254559912
 21
235.64998165980293
 31
0.0
  0
LINE
  5
17C
100
AcDbEntity
  8
0
  6
CONTINUOUS
 62
               7
100
AcDbLine
 10
44.85001528263092
 20
235.57561640739419
 30
0.0
 11
44.850015282630864
 21
231.42434697151171
 31
0.0
  0
ARC
  5
17D
100
AcDbEntity
  8
0
  6
CONTINUOUS
 62
               7
100
AcDbCircle
 10
38.870359420776367
 20
233.49998168945328
 30
0.0
 40
6.3296561241149902
100
AcDbArc
 50
340.85729086486964
 51
19.142707313893034
  0
LINE
  5
17E
100
AcDbEntity
  8
0
  6
CONTINUOUS
 62
               7
100
AcDbLine
 10
44.85001527920474
 20
217.42434708503905
 30
0.0
 11
44.000015254559685
 21
217.34998171910303
 31
0.0
  0
LINE
  5
17F
100
AcDbEntity
  8
0
  6
CONTINUOUS
 62
               7
100
AcDbLine
 10
44.850015279204911
 20
221.57561629386691
 30
0.0
 11
44.000015254559912
 21
221.64998165980299
 31
0.0
  0
LINE
  5
180
100
AcDbEntity
  8
0
  6
CONTINUOUS
 62
               7
100
AcDbLine
 10
44.85001528263092
 20
221.57561640739428
 30
0.0
 11
44.850015282630864
 21
217.42434697151168
 31
0.0
  0
ARC
  5
181
100
AcDbEntity
  8
0
  6
CONTINUOUS
 62
               7
100
AcDbCircle
 10
38.870359420776367
 20
219.49998168945325
 30
0.0
 40
6.3296561241149902
100
AcDbArc
 50
340.85729086486964
 51
19.142707313893034
  0
LINE
  5
182
100
AcDbEntity
  8
0
  6
CONTINUOUS
 62
               7
100
AcDbLine
 10
1.1499999795842655
 20
228.57561629386689
 30
0.0
 11
2.0000000042293209
 21
228.64998165980296
 31
0.0
  0
LINE
  5
183
100
AcDbEntity
  8
0
  6
CONTINUOUS
 62
               7
100
AcDbLine
 10
1.1499999795841518
 20
224.42434708503907
 30
0.0
 11
2.0000000042290935
 21
224.349981719103
 31
0.0
  0
LINE
  5
184
100
AcDbEntity
  8
0
  6
CONTINUOUS
 62
               7
100
AcDbLine
 10
1.1499999761579716
 20
224.42434697151174
 30
0.0
 11
1.1499999761582558
 21
228.57561640739439
 31
0.0
  0
ARC
  5
185
100
AcDbEntity
  8
0
  6
CONTINUOUS
 62
               7
100
AcDbCircle
 10
7.1296558380126385
 20
226.49998168945282
 30
0.0
 40
6.3296561241149902
100
AcDbArc
 50
160.85729086486964
 51
199.14270731389303
  0
LINE
  5
186
100
AcDbEntity
  8
0
  6
CONTINUOUS
 62
               7
100
AcDbLine
 10
1.1499999795842655
 20
220.57561629386694
 30
0.0
 11
2.0000000042293209
 21
220.64998165980302
 31
0.0
  0
LINE
  5
187
100
AcDbEntity
  8
0
  6
CONTINUOUS
 62
               7
100
AcDbLine
 10
1.1499999795841518
 20
216.42434708503913
 30
0.0
 11
2.0000000042290935
 21
216.34998171910297
 31
0.0
  0
LINE
  5
188
100
AcDbEntity
  8
0
  6
CONTINUOUS
 62
               7
100
AcDbLine
 10
1.1499999761579716
 20
216.4243469715118
 30
0.0
 11
1.1499999761582558
 21
220.57561640739436
 31
0.0
  0
ARC
  5
189
100
AcDbEntity
  8
0
  6
CONTINUOUS
 62
               7
100
AcDbCircle
 10
7.1296558380126385
 20
218.4999816894528
 30
0.0
 40
6.3296561241149902
100
AcDbArc
 50
160.85729086486964
 51
199.14270731389303
  0
ARC
  5
18A
100
AcDbEntity
  8
0
  6
CONTINUOUS
 62
               7
100
AcDbCircle
 10
36.500015258789063
 20
240.49998168945308
 30
0.0
 40
2.4000000953674316
100
AcDbArc
 50
331.17621921195268
 51
163.04248945089057
  0
ARC
  5
18B
100
AcDbEntity
  8
0
  6
CONTINUOUS
 62
               7
100
AcDbCircle
 10
13.499999999999943
 20
240.49998168945308
 30
0.0
 40
2.4000000953674316
100
AcDbArc
 50
16.957513850518463
 51
208.82378579700367
  0
ARC
  5
18C
100
AcDbEntity
  8
0
  6
CONTINUOUS
 62
               7
100
AcDbCircle
 10
41.000015258789006
 20
214.49998168945302
 30
0.0
 40
2.9999999999999996
100
AcDbArc
 50
269.99999749552182
 51
0.0
  0
ARC
  5
18D
100
AcDbEntity
  8
0
  6
CONTINUOUS
 62
               7
100
AcDbCircle
 10
38.000015258789062
 20
241.99998168945302
 30
0.0
 40
2.0
100
AcDbArc
 50
60.000001669652114
 51
90.000002504478161
  0
ARC
  5
18E
100
AcDbEntity
  8
0
  6
CONTINUOUS
 62
               7
100
AcDbCircle
 10
11.999999999999943
 20
241.99998168945302
 30
0.0
 40
2.0
100
AcDbArc
 50
90.000002504478161
 51
119.99999999999946
  0
ARC
  5
18F
100
AcDbEntity
  8
0
  6
CONTINUOUS
 62
               7
100
AcDbCircle
 10
35.792892456054631
 20
238.89997558593743
 30
0.0
 40
2.2999999523162842
100
AcDbArc
 50
45.00000125223908
 51
90.000002504478161
  0
ARC
  5
190
100
AcDbEntity
  8
0
  6
CONTINUOUS
 62
               7
100
AcDbCircle
 10
9.4999999999999432
 20
232.49580078124984
 30
0.0
 40
3.4999999999999996
100
AcDbArc
 50
135.00000034162267
 51
180.00000500895632
  0
ARC
  5
191
100
AcDbEntity
  8
0
  6
CONTINUOUS
 62
               7
100
AcDbCircle
 10
40.500015258789063
 20
232.49580078124984
 30
0.0
 40
3.4999999999999996
100
AcDbArc
 50
0.0000000000000509
 51
45.00000125223908
  0
ARC
  5
192
100
AcDbEntity
  8
0
  6
CONTINUOUS
 62
               7
100
AcDbCircle
 10
14.207107543945256
 20
238.89997558593743
 30
0.0
 40
2.2999999523162842
100
AcDbArc
 50
90.000002504478161
 51
135.00000034162267
  0
ARC
  5
193
100
AcDbEntity
  8
0
  6
CONTINUOUS
 62
               7
100
AcDbCircle
 10
9.0000000000000568
 20
214.49998168945302
 30
0.0
 40
2.9999999999999996
100
AcDbArc
 50
179.99999499104368
 51
269.99999749552182
  0
ARC
  5
194
100
AcDbEntity
  8
0
  6
CONTINUOUS
 62
               7
100
AcDbCircle
 10
38.000015258789062
 20
241.99998168945302
 30
0.0
 40
1.4999999999999998
100
AcDbArc
 50
48.189685934256701
 51
90.000002504478161
  0
ARC
  5
195
100
AcDbEntity
  8
0
  6
CONTINUOUS
 62
               7
100
AcDbCircle
 10
43.500015258789006
 20
244.49998168945302
 30
0.0
 40
0.5
100
AcDbArc
 50
7.4208451464152363
 51
90.000002504478161
  0
ARC
  5
196
100
AcDbEntity
  8
0
  6
CONTINUOUS
 62
               7
100
AcDbCircle
 10
11.999999999999943
 20
241.99998168945302
 30
0.0
 40
1.4999999999999998
100
AcDbArc
 50
90.000002504478161
 51
131.81031565960504
  0
ARC
  5
197
100
AcDbEntity
  8
0
  6
CONTINUOUS
 62
               7
100
AcDbCircle
 10
39.500015258789006
 20
244.49998168945302
 30
0.0
 40
0.5
100
AcDbArc
 50
90.000002504478161
 51
180.00000500895632
  0
ARC
  5
198
100
AcDbEntity
  8
0
  6
CONTINUOUS
 62
               7
100
AcDbCircle
 10
10.499999999999943
 20
244.49998168945302
 30
0.0
 40
0.5
100
AcDbArc
 50
0.0
 51
90.000002504478161
  0
ARC
  5
199
100
AcDbEntity
  8
0
  6
CONTINUOUS
 62
               7
100
AcDbCircle
 10
6.5000000000000568
 20
244.49998168945302
 30
0.0
 40
0.5
100
AcDbArc
 50
89.999995674288996
 51
172.57915473989922
  0
ARC
  5
19A
100
AcDbEntity
  8
0
  6
CONTINUOUS
 62
               7
100
AcDbCircle
 10
254.45024108886682
 20
197.69996337890615
 30
0.0
 40
5.0
100
AcDbArc
 50
39.419948436202937
 51
90.000002504478161
  0
ARC
  5
19B
100
AcDbEntity
  8
0
  6
CONTINUOUS
 62
               7
100
AcDbCircle
 10
210.00001525878889
 20
184.99998168945305
 30
0.0
 40
50.0
100
AcDbArc
 50
348.96028584355929
 51
18.225985847321969
  0
ARC
  5
19C
100
AcDbEntity
  8
0
  6
CONTINUOUS
 62
               7
100
AcDbCircle
 10
257.02775573730429
 20
178.99998168945299
 30
0.0
 40
5.9999999999999991
100
AcDbArc
 50
269.99999749552182
 51
341.59152003579175
  0
ARC
  5
19D
100
AcDbEntity
  8
0
  6
CONTINUOUS
 62
               7
100
AcDbCircle
 10
256.13026428222616
 20
175.99998168945302
 30
0.0
 40
2.9999999999999996
100
AcDbArc
 50
269.99999749552182
 51
348.96028584355929
  0
ARC
  5
19E
100
AcDbEntity
  8
0
  6
CONTINUOUS
 62
               7
100
AcDbCircle
 10
239.00001525878875
 20
184.99998168945305
 30
0.0
 40
25.0
100
AcDbArc
 50
341.59152003579175
 51
39.419948436202937
  0
ARC
  5
19F
100
AcDbEntity
  8
0
  6
CONTINUOUS
 62
               7
100
AcDbCircle
 10
254.64201354980435
 20
199.69996337890612
 30
0.0
 40
2.9999999999999996
100
AcDbArc
 50
18.225985847321969
 51
90.000002504478161
  0
ARC
  5
1A0
100
AcDbEntity
  8
0
  6
CONTINUOUS
 62
               7
100
AcDbCircle
 10
-12.000000000000057
 20
189.99998168945305
 30
0.0
 40
1.4999999999999998
100
AcDbArc
 50
89.999995674288996
 51
152.18133351290956
  0
ARC
  5
1A1
100
AcDbEntity
  8
0
  6
CONTINUOUS
 62
               7
100
AcDbCircle
 10
-7.9999999999999432
 20
177.99998168945299
 30
0.0
 40
1.4999999999999998
100
AcDbArc
 50
270.00000432571102
 51
0.0
  0
ARC
  5
1A2
100
AcDbEntity
  8
0
  6
CONTINUOUS
 62
               7
100
AcDbCircle
 10
-12.000000000000057
 20
177.99998168945299
 30
0.0
 40
1.4999999999999998
100
AcDbArc
 50
207.81866648709044
 51
270.00000432571102
  0
ARC
  5
1A3
100
AcDbEntity
  8
0
  6
CONTINUOUS
 62
               7
100
AcDbCircle
 10
-7.9999999999999432
 20
189.99998168945305
 30
0.0
 40
1.4999999999999998
100
AcDbArc
 50
0.0
 51
89.999995674288996
  0
LINE
  5
1A4
100
AcDbEntity
  8
0
  6
CONTINUOUS
 62
               7
100
AcDbLine
 10
-6.4999999999999432
 20
186.19999389648424
 30
0.0
 11
252.00001525878866
 21
186.19999389648424
 31
0.0
  0
LINE
  5
1A5
100
AcDbEntity
  8
0
  6
CONTINUOUS
 62
               7
100
AcDbLine
 10
-6.4999999999999432
 20
182.79996948242183
 30
0.0
 11
252.00001525878866
 21
182.79996948242183
 31
0.0
  0
LINE
  5
1A6
100
AcDbEntity
  8
0
  6
CONTINUOUS
 62
               7
100
AcDbLine
 10
1.9999999999999432
 20
229.19999389648427
 30
0.0
 11
1.9999999999999432
 21
215.79996948242174
 31
0.0
  0
LINE
  5
1A7
100
AcDbEntity
  8
0
  6
CONTINUOUS
 62
               7
100
AcDbLine
 10
5.9999999999999432
 20
215.79996948242174
 30
0.0
 11
1.9999999999999432
 21
215.79996948242174
 31
0.0
  0
LINE
  5
1A8
100
AcDbEntity
  8
0
  6
CONTINUOUS
 62
               7
100
AcDbLine
 10
5.9999999999999432
 20
229.19999389648427
 30
0.0
 11
1.9999999999999432
 21
229.19999389648427
 31
0.0
  0
LINE
  5
1A9
100
AcDbEntity
  8
0
  6
CONTINUOUS
 62
               7
100
AcDbLine
 10
38.000015258789062
 20
243.99998168945299
 30
0.0
 11
11.999999999999943
 21
243.99998168945299
 31
0.0
  0
LINE
  5
1AA
100
AcDbEntity
  8
0
  6
CONTINUOUS
 62
               7
100
AcDbLine
 10
7.0251317014162851
 20
234.97068505443136
 30
0.0
 11
12.580736313063369
 21
240.52628966607847
 31
0.0
  0
LINE
  5
1AB
100
AcDbEntity
  8
0
  6
CONTINUOUS
 62
               7
100
AcDbLine
 10
42.974868835913185
 20
234.97066347524537
 30
0.0
 11
37.419231855486942
 21
240.52630045567153
 31
0.0
  0
LINE
  5
1AC
100
AcDbEntity
  8
0
  6
CONTINUOUS
 62
               7
100
AcDbLine
 10
10.999999999999943
 20
244.49998168945302
 30
0.0
 11
10.999999999999943
 21
238.94553833007797
 31
0.0
  0
LINE
  5
1AD
100
AcDbEntity
  8
0
  6
CONTINUOUS
 62
               7
100
AcDbLine
 10
35.792892456054631
 20
241.19996337890615
 30
0.0
 11
14.207107543945256
 21
241.19996337890615
 31
0.0
  0
LINE
  5
1AE
100
AcDbEntity
  8
0
  6
CONTINUOUS
 62
               7
100
AcDbLine
 10
38.000015258789062
 20
243.49998168945297
 30
0.0
 11
11.999999999999943
 21
243.49998168945297
 31
0.0
  0
LINE
  5
1AF
100
AcDbEntity
  8
0
  6
CONTINUOUS
 62
               7
100
AcDbLine
 10
39.000015258789063
 20
244.49998168945302
 30
0.0
 11
39.000015258789063
 21
238.94553833007797
 31
0.0
  0
LINE
  5
1B0
100
AcDbEntity
  8
0
  6
CONTINUOUS
 62
               7
100
AcDbLine
 10
46.000015258789006
 20
201.39997558593743
 30
0.0
 11
252.00001525878866
 21
201.39997558593743
 31
0.0
  0
LINE
  5
1B1
100
AcDbEntity
  8
0
  6
CONTINUOUS
 62
               7
100
AcDbLine
 10
256.00001525878861
 20
186.99998168945302
 30
0.0
 11
256.00001525878861
 21
186.49998168945299
 31
0.0
  0
LINE
  5
1B2
100
AcDbEntity
  8
0
  6
CONTINUOUS
 62
               7
100
AcDbLine
 10
252.00001525878866
 20
192.49998168945305
 30
0.0
 11
256.00001525878861
 21
192.49998168945305
 31
0.0
  0
LINE
  5
1B3
100
AcDbEntity
  8
0
  6
CONTINUOUS
 62
               7
100
AcDbLine
 10
252.00001525878866
 20
186.49998168945299
 30
0.0
 11
256.00001525878861
 21
186.49998168945299
 31
0.0
  0
LINE
  5
1B4
100
AcDbEntity
  8
0
  6
CONTINUOUS
 62
               7
100
AcDbLine
 10
256.00001525878861
 20
192.49998168945305
 30
0.0
 11
256.00001525878861
 21
191.99998168945302
 31
0.0
  0
LINE
  5
1B5
100
AcDbEntity
  8
0
  6
CONTINUOUS
 62
               7
100
AcDbLine
 10
252.00001525878866
 20
191.99998168945302
 30
0.0
 11
256.00001525878861
 21
191.99998168945302
 31
0.0
  0
LINE
  5
1B6
100
AcDbEntity
  8
0
  6
CONTINUOUS
 62
               7
100
AcDbLine
 10
252.00001525878866
 20
186.99998168945302
 30
0.0
 11
256.00001525878861
 21
186.99998168945302
 31
0.0
  0
LINE
  5
1B7
100
AcDbEntity
  8
0
  6
CONTINUOUS
 62
               7
100
AcDbLine
 10
252.00001525878866
 20
202.69999389648424
 30
0.0
 11
254.45024108886682
 21
202.69999389648424
 31
0.0
  0
LINE
  5
1B8
100
AcDbEntity
  8
0
  6
CONTINUOUS
 62
               7
100
AcDbLine
 10
46.000015258789006
 20
198.86448364257799
 30
0.0
 11
252.00001525878866
 21
198.86448364257799
 31
0.0
  0
LINE
  5
1B9
100
AcDbEntity
  8
0
  6
CONTINUOUS
 62
               7
100
AcDbLine
 10
-95.00003051757983
 20
172.99998168945299
 30
0.0
 11
256.13026415109198
 21
172.99998168945299
 31
0.0
  0
LINE
  5
1BA
100
AcDbEntity
  8
0
  6
CONTINUOUS
 62
               7
100
AcDbLine
 10
4.0000000000000568
 20
206.49998168945299
 30
0.0
 11
46.000015258789006
 21
206.49998168945299
 31
0.0
  0
LINE
  5
1BB
100
AcDbEntity
  8
0
  6
CONTINUOUS
 62
               7
100
AcDbLine
 10
-17.000000000000171
 20
193.99998168945299
 30
0.0
 11
252.00001525878866
 21
193.99998168945299
 31
0.0
  0
LINE
  5
1BC
100
AcDbEntity
  8
0
  6
CONTINUOUS
 62
               7
100
AcDbLine
 10
-17.000000000000171
 20
205.49998168945299
 30
0.0
 11
-17.000000000000171
 21
190.69999389648427
 31
0.0
  0
LINE
  5
1BD
100
AcDbEntity
  8
0
  6
CONTINUOUS
 62
               7
100
AcDbLine
 10
-27.611060826057837
 20
185.34998779296862
 30
0.0
 11
-17.5
 21
185.34998779296862
 31
0.0
  0
LINE
  5
1BE
100
AcDbEntity
  8
0
  6
CONTINUOUS
 62
               7
100
AcDbLine
 10
-12.000000000000057
 20
176.49998168945299
 30
0.0
 11
-7.9999999999999432
 21
176.49998168945299
 31
0.0
  0
LINE
  5
1BF
100
AcDbEntity
  8
0
  6
CONTINUOUS
 62
               7
100
AcDbLine
 10
-6.4999999999999432
 20
189.99998168945305
 30
0.0
 11
-6.4999999999999432
 21
177.99998168945299
 31
0.0
  0
LINE
  5
1C0
100
AcDbEntity
  8
0
  6
CONTINUOUS
 62
               7
100
AcDbLine
 10
-17.000000000000171
 20
195.94639282226549
 30
0.0
 11
4.0000000000000568
 21
195.94639282226549
 31
0.0
  0
LINE
  5
1C1
100
AcDbEntity
  8
0
  6
CONTINUOUS
 62
               7
100
AcDbLine
 10
-17.000000000000171
 20
198.86448364257799
 30
0.0
 11
4.0000000000000568
 21
198.86448364257799
 31
0.0
  0
LINE
  5
1C2
100
AcDbEntity
  8
0
  6
CONTINUOUS
 62
               7
100
AcDbLine
 10
46.000015258789006
 20
206.49998168945299
 30
0.0
 11
46.000015258789006
 21
194.8999755859374
 31
0.0
  0
LINE
  5
1C3
100
AcDbEntity
  8
0
  6
CONTINUOUS
 62
               7
100
AcDbLine
 10
-26.958858567496577
 20
182.64997558593745
 30
0.0
 11
-21.878442847631845
 21
182.64997558593745
 31
0.0
  0
LINE
  5
1C4
100
AcDbEntity
  8
0
  6
CONTINUOUS
 62
               7
100
AcDbLine
 10
-12.000000000000057
 20
191.49998168945299
 30
0.0
 11
-7.9999999999999432
 21
191.49998168945299
 31
0.0
  0
LINE
  5
1C5
100
AcDbEntity
  8
0
  6
CONTINUOUS
 62
               7
100
AcDbLine
 10
-17.000000000000171
 20
201.39997558593743
 30
0.0
 11
4.0000000000000568
 21
201.39997558593743
 31
0.0
  0
LINE
  5
1C6
100
AcDbEntity
  8
0
  6
CONTINUOUS
 62
               7
100
AcDbLine
 10
252.00001525878866
 20
202.69999389648424
 30
0.0
 11
252.00001525878866
 21
172.99998168945299
 31
0.0
  0
LINE
  5
1C7
100
AcDbEntity
  8
0
  6
CONTINUOUS
 62
               7
100
AcDbLine
 10
-7.0
 20
190.69999389648427
 30
0.0
 11
-7.0
 21
177.29996948242177
 31
0.0
  0
LINE
  5
1C8
100
AcDbEntity
  8
0
  6
CONTINUOUS
 62
               2
100
AcDbLine
 10
11.999999999999943
 20
208.05357055664055
 30
0.0
 11
11.999999999999943
 21
202.32560289953548
 31
0.0
  0
LINE
  5
1C9
100
AcDbEntity
  8
0
  6
CONTINUOUS
 62
               7
100
AcDbLine
 10
4.0000000000000568
 20
194.8999755859374
 30
0.0
 11
46.000015258789006
 21
194.8999755859374
 31
0.0
  0
LINE
  5
1CA
100
AcDbEntity
  8
0
  6
CONTINUOUS
 62
               2
100
AcDbLine
 10
-29.556999921427973
 20
183.99998168945299
 30
0.0
 11
-16.465212704880457
 21
183.99998168945299
 31
0.0
  0
LINE
  5
1CB
100
AcDbEntity
  8
0
  6
CONTINUOUS
 62
               7
100
AcDbLine
 10
4.0000000000000568
 20
206.49998168945299
 30
0.0
 11
4.0000000000000568
 21
194.8999755859374
 31
0.0
  0
LINE
  5
1CC
100
AcDbEntity
  8
0
  6
CONTINUOUS
 62
               7
100
AcDbLine
 10
-17.5
 20
177.29996948242177
 30
0.0
 11
-7.0
 21
177.29996948242177
 31
0.0
  0
LINE
  5
1CD
100
AcDbEntity
  8
0
  6
CONTINUOUS
 62
               7
100
AcDbLine
 10
46.000015258789006
 20
195.94639282226549
 30
0.0
 11
252.00001525878866
 21
195.94639282226549
 31
0.0
  0
LINE
  5
1CE
100
AcDbEntity
  8
0
  6
CONTINUOUS
 62
               7
100
AcDbLine
 10
-17.5
 20
190.69999389648427
 30
0.0
 11
-7.0
 21
190.69999389648427
 31
0.0
  0
LINE
  5
1CF
100
AcDbEntity
  8
0
  6
CONTINUOUS
 62
               2
100
AcDbLine
 10
38.000015258789062
 20
208.05357055664055
 30
0.0
 11
38.000015258789062
 21
202.32560289953548
 31
0.0
  0
LINE
  5
1D0
100
AcDbEntity
  8
0
  6
CONTINUOUS
 62
               7
100
AcDbLine
 10
45.000015258789063
 20
211.49998168945299
 30
0.0
 11
45.000015258789063
 21
206.49998168945299
 31
0.0
  0
LINE
  5
1D1
100
AcDbEntity
  8
0
  6
CONTINUOUS
 62
               7
100
AcDbLine
 10
5.0
 20
211.49998168945299
 30
0.0
 11
5.0
 21
206.49998168945299
 31
0.0
  0
LINE
  5
1D2
100
AcDbEntity
  8
0
  6
CONTINUOUS
 62
               7
100
AcDbLine
 10
3.3999999999999204
 20
211.49998168945299
 30
0.0
 11
45.000015258789063
 21
211.49998168945299
 31
0.0
  0
LINE
  5
1D3
100
AcDbEntity
  8
0
  6
CONTINUOUS
 62
               7
100
AcDbLine
 10
6.5000000000000568
 20
244.99998168945305
 30
0.0
 11
10.499999999999943
 21
244.99998168945305
 31
0.0
  0
CIRCLE
  5
1D4
100
AcDbEntity
  8
0
  6
CONTINUOUS
 62
               7
100
AcDbCircle
 10
6.0000000000000568
 20
11.799987792968579
 30
0.0
 40
3.1500000953674316
  0
CIRCLE
  5
1D5
100
AcDbEntity
  8
0
  6
CONTINUOUS
 62
               7
100
AcDbCircle
 10
6.0000000000000568
 20
11.799987792968579
 30
0.0
 40
3.0350000858306885
  0
CIRCLE
  5
1D6
100
AcDbEntity
  8
0
  6
CONTINUOUS
 62
               7
100
AcDbCircle
 10
148.50000000000043
 20
11.799987792968579
 30
0.0
 40
3.1500000953674316
  0
CIRCLE
  5
1D7
100
AcDbEntity
  8
0
  6
CONTINUOUS
 62
               7
100
AcDbCircle
 10
148.50000000000043
 20
11.799987792968579
 30
0.0
 40
3.0350000858306885
  0
CIRCLE
  5
1D8
100
AcDbEntity
  8
0
  6
CONTINUOUS
 62
               7
100
AcDbCircle
 10
291.00000000000034
 20
11.799987792968579
 30
0.0
 40
3.0350000858306885
  0
CIRCLE
  5
1D9
100
AcDbEntity
  8
0
  6
CONTINUOUS
 62
               7
100
AcDbCircle
 10
291.00000000000034
 20
11.799987792968579
 30
0.0
 40
3.1500000953674316
  0
CIRCLE
  5
1DA
100
AcDbEntity
  8
0
  6
CONTINUOUS
 62
               7
100
AcDbCircle
 10
20.0
 20
19.799987792968579
 30
0.0
 40
1.1499999999999999
  0
CIRCLE
  5
1DB
100
AcDbEntity
  8
0
  6
CONTINUOUS
 62
               7
100
AcDbCircle
 10
20.0
 20
19.799987792968579
 30
0.0
 40
1.4999999999999998
  0
CIRCLE
  5
1DC
100
AcDbEntity
  8
0
  6
CONTINUOUS
 62
               7
100
AcDbCircle
 10
20.0
 20
19.799987792968579
 30
0.0
 40
2.9999999999999996
  0
LINE
  5
1DD
100
AcDbEntity
  8
0
  6
CONTINUOUS
 62
               7
100
AcDbLine
 10
301.94667040109215
 20
52.999981689453023
 30
0.0
 11
300.1141813874201
 21
52.999981689453023
 31
0.0
  0
LINE
  5
1DE
100
AcDbEntity
  8
0
  6
CONTINUOUS
 62
               7
100
AcDbLine
 10
300.88340746163891
 20
55.999981689452909
 30
0.0
 11
299.9999999999996
 21
55.999981689452909
 31
0.0
  0
ARC
  5
1DF
100
AcDbEntity
  8
0
  6
CONTINUOUS
 62
               7
100
AcDbCircle
 10
148.94999694824216
 20
44.799987792968579
 30
0.0
 40
1.0499999523162842
100
AcDbArc
 50
269.99999749552182
 51
90.000002504478161
  0
ARC
  5
1E0
100
AcDbEntity
  8
0
  6
CONTINUOUS
 62
               7
100
AcDbCircle
 10
141.04998779296872
 20
44.799987792968579
 30
0.0
 40
1.0499999523162842
100
AcDbArc
 50
90.000002504478161
 51
270.00000068324533
  0
ARC
  5
1E1
100
AcDbEntity
  8
0
  6
CONTINUOUS
 62
               7
100
AcDbCircle
 10
133.95001220703128
 20
44.799987792968579
 30
0.0
 40
1.0499999523162842
100
AcDbArc
 50
269.99999749552182
 51
90.000002504478161
  0
ARC
  5
1E2
100
AcDbEntity
  8
0
  6
CONTINUOUS
 62
               7
100
AcDbCircle
 10
126.04998779296872
 20
44.799987792968579
 30
0.0
 40
1.0499999523162842
100
AcDbArc
 50
90.000002504478161
 51
270.00000068324533
  0
ARC
  5
1E3
100
AcDbEntity
  8
0
  6
CONTINUOUS
 62
               7
100
AcDbCircle
 10
118.95001220703131
 20
44.799987792968579
 30
0.0
 40
1.0499999523162842
100
AcDbArc
 50
269.99999749552182
 51
90.000002504478161
  0
ARC
  5
1E4
100
AcDbEntity
  8
0
  6
CONTINUOUS
 62
               7
100
AcDbCircle
 10
111.04998779296869
 20
44.799987792968579
 30
0.0
 40
1.0499999523162842
100
AcDbArc
 50
90.000002504478161
 51
270.00000068324533
  0
ARC
  5
1E5
100
AcDbEntity
  8
0
  6
CONTINUOUS
 62
               7
100
AcDbCircle
 10
96.049987792968693
 20
44.799987792968579
 30
0.0
 40
1.0499999523162842
100
AcDbArc
 50
90.000002504478161
 51
270.00000068324533
  0
ARC
  5
1E6
100
AcDbEntity
  8
0
  6
CONTINUOUS
 62
               7
100
AcDbCircle
 10
103.95001220703131
 20
44.799987792968579
 30
0.0
 40
1.0499999523162842
100
AcDbArc
 50
269.99999749552182
 51
90.000002504478161
  0
ARC
  5
1E7
100
AcDbEntity
  8
0
  6
CONTINUOUS
 62
               7
100
AcDbCircle
 10
111.45001220703131
 20
39.799987792968579
 30
0.0
 40
1.0499999523162842
100
AcDbArc
 50
269.99999749552182
 51
90.000002504478161
  0
ARC
  5
1E8
100
AcDbEntity
  8
0
  6
CONTINUOUS
 62
               7
100
AcDbCircle
 10
103.54998779296869
 20
39.799987792968579
 30
0.0
 40
1.0499999523162842
100
AcDbArc
 50
90.000002504478161
 51
270.00000068324533
  0
ARC
  5
1E9
100
AcDbEntity
  8
0
  6
CONTINUOUS
 62
               7
100
AcDbCircle
 10
126.45001220703128
 20
39.799987792968579
 30
0.0
 40
1.0499999523162842
100
AcDbArc
 50
269.99999749552182
 51
90.000002504478161
  0
ARC
  5
1EA
100
AcDbEntity
  8
0
  6
CONTINUOUS
 62
               7
100
AcDbCircle
 10
118.54998779296869
 20
39.799987792968579
 30
0.0
 40
1.0499999523162842
100
AcDbArc
 50
90.000002504478161
 51
270.00000068324533
  0
ARC
  5
1EB
100
AcDbEntity
  8
0
  6
CONTINUOUS
 62
               7
100
AcDbCircle
 10
141.45001220703128
 20
39.799987792968579
 30
0.0
 40
1.0499999523162842
100
AcDbArc
 50
269.99999749552182
 51
90.000002504478161
  0
ARC
  5
1EC
100
AcDbEntity
  8
0
  6
CONTINUOUS
 62
               7
100
AcDbCircle
 10
133.54998779296872
 20
39.799987792968579
 30
0.0
 40
1.0499999523162842
100
AcDbArc
 50
90.000002504478161
 51
270.00000068324533
  0
ARC
  5
1ED
100
AcDbEntity
  8
0
  6
CONTINUOUS
 62
               7
100
AcDbCircle
 10
148.85079956054693
 20
34.799987792968579
 30
0.0
 40
1.0499999523162842
100
AcDbArc
 50
269.99999749552182
 51
90.000002504478161
  0
ARC
  5
1EE
100
AcDbEntity
  8
0
  6
CONTINUOUS
 62
               7
100
AcDbCircle
 10
140.95080566406247
 20
34.799987792968579
 30
0.0
 40
1.0499999523162842
100
AcDbArc
 50
90.000002504478161
 51
270.00000068324533
  0
ARC
  5
1EF
100
AcDbEntity
  8
0
  6
CONTINUOUS
 62
               7
100
AcDbCircle
 10
133.95001220703128
 20
34.799987792968579
 30
0.0
 40
1.0499999523162842
100
AcDbArc
 50
269.99999749552182
 51
90.000002504478161
  0
ARC
  5
1F0
100
AcDbEntity
  8
0
  6
CONTINUOUS
 62
               7
100
AcDbCircle
 10
126.04998779296872
 20
34.799987792968579
 30
0.0
 40
1.0499999523162842
100
AcDbArc
 50
90.000002504478161
 51
270.00000068324533
  0
ARC
  5
1F1
100
AcDbEntity
  8
0
  6
CONTINUOUS
 62
               7
100
AcDbCircle
 10
118.95001220703131
 20
34.799987792968579
 30
0.0
 40
1.0499999523162842
100
AcDbArc
 50
269.99999749552182
 51
90.000002504478161
  0
ARC
  5
1F2
100
AcDbEntity
  8
0
  6
CONTINUOUS
 62
               7
100
AcDbCircle
 10
111.04998779296869
 20
34.799987792968579
 30
0.0
 40
1.0499999523162842
100
AcDbArc
 50
90.000002504478161
 51
270.00000068324533
  0
ARC
  5
1F3
100
AcDbEntity
  8
0
  6
CONTINUOUS
 62
               7
100
AcDbCircle
 10
96.049987792968693
 20
34.799987792968579
 30
0.0
 40
1.0499999523162842
100
AcDbArc
 50
90.000002504478161
 51
270.00000068324533
  0
ARC
  5
1F4
100
AcDbEntity
  8
0
  6
CONTINUOUS
 62
               7
100
AcDbCircle
 10
103.95001220703131
 20
34.799987792968579
 30
0.0
 40
1.0499999523162842
100
AcDbArc
 50
269.99999749552182
 51
90.000002504478161
  0
ARC
  5
1F5
100
AcDbEntity
  8
0
  6
CONTINUOUS
 62
               7
100
AcDbCircle
 10
111.45001220703131
 20
29.799987792968579
 30
0.0
 40
1.0499999523162842
100
AcDbArc
 50
269.99999749552182
 51
90.000002504478161
  0
ARC
  5
1F6
100
AcDbEntity
  8
0
  6
CONTINUOUS
 62
               7
100
AcDbCircle
 10
103.54998779296869
 20
29.799987792968579
 30
0.0
 40
1.0499999523162842
100
AcDbArc
 50
90.000002504478161
 51
270.00000068324533
  0
ARC
  5
1F7
100
AcDbEntity
  8
0
  6
CONTINUOUS
 62
               7
100
AcDbCircle
 10
118.54998779296869
 20
29.799987792968579
 30
0.0
 40
1.0499999523162842
100
AcDbArc
 50
90.000002504478161
 51
270.00000068324533
  0
ARC
  5
1F8
100
AcDbEntity
  8
0
  6
CONTINUOUS
 62
               7
100
AcDbCircle
 10
126.45001220703128
 20
29.799987792968579
 30
0.0
 40
1.0499999523162842
100
AcDbArc
 50
269.99999749552182
 51
90.000002504478161
  0
ARC
  5
1F9
100
AcDbEntity
  8
0
  6
CONTINUOUS
 62
               7
100
AcDbCircle
 10
133.54998779296872
 20
29.567840576171761
 30
0.0
 40
1.0499999523162842
100
AcDbArc
 50
90.000002504478161
 51
270.00000068324533
  0
ARC
  5
1FA
100
AcDbEntity
  8
0
  6
CONTINUOUS
 62
               7
100
AcDbCircle
 10
141.45001220703128
 20
29.567840576171761
 30
0.0
 40
1.0499999523162842
100
AcDbArc
 50
269.99999749552182
 51
90.000002504478161
  0
ARC
  5
1FB
100
AcDbEntity
  8
0
  6
CONTINUOUS
 62
               7
100
AcDbCircle
 10
148.94999694824216
 20
24.799987792968579
 30
0.0
 40
1.0499999523162842
100
AcDbArc
 50
269.99999749552182
 51
90.000002504478161
  0
ARC
  5
1FC
100
AcDbEntity
  8
0
  6
CONTINUOUS
 62
               7
100
AcDbCircle
 10
141.04998779296872
 20
24.799987792968579
 30
0.0
 40
1.0499999523162842
100
AcDbArc
 50
90.000002504478161
 51
270.00000068324533
  0
ARC
  5
1FD
100
AcDbEntity
  8
0
  6
CONTINUOUS
 62
               7
100
AcDbCircle
 10
133.95001220703128
 20
24.799987792968579
 30
0.0
 40
1.0499999523162842
100
AcDbArc
 50
269.99999749552182
 51
90.000002504478161
  0
ARC
  5
1FE
100
AcDbEntity
  8
0
  6
CONTINUOUS
 62
               7
100
AcDbCircle
 10
126.04998779296872
 20
24.799987792968579
 30
0.0
 40
1.0499999523162842
100
AcDbArc
 50
90.000002504478161
 51
270.00000068324533
  0
ARC
  5
1FF
100
AcDbEntity
  8
0
  6
CONTINUOUS
 62
               7
100
AcDbCircle
 10
118.95001220703131
 20
24.799987792968579
 30
0.0
 40
1.0499999523162842
100
AcDbArc
 50
269.99999749552182
 51
90.000002504478161
  0
ARC
  5
200
100
AcDbEntity
  8
0
  6
CONTINUOUS
 62
               7
100
AcDbCircle
 10
111.04998779296869
 20
24.799987792968579
 30
0.0
 40
1.0499999523162842
100
AcDbArc
 50
90.000002504478161
 51
270.00000068324533
  0
ARC
  5
201
100
AcDbEntity
  8
0
  6
CONTINUOUS
 62
               7
100
AcDbCircle
 10
103.95001220703131
 20
24.799987792968579
 30
0.0
 40
1.0499999523162842
100
AcDbArc
 50
269.99999749552182
 51
90.000002504478161
  0
ARC
  5
202
100
AcDbEntity
  8
0
  6
CONTINUOUS
 62
               7
100
AcDbCircle
 10
96.049987792968693
 20
24.799987792968579
 30
0.0
 40
1.0499999523162842
100
AcDbArc
 50
90.000002504478161
 51
270.00000068324533
  0
LINE
  5
203
100
AcDbEntity
  8
0
  6
CONTINUOUS
 62
               7
100
AcDbLine
 10
141.04998779296872
 20
43.749984741210767
 30
0.0
 11
148.94999694824216
 21
43.749984741210767
 31
0.0
  0
LINE
  5
204
100
AcDbEntity
  8
0
  6
CONTINUOUS
 62
               7
100
AcDbLine
 10
141.04998779296872
 20
45.849990844726392
 30
0.0
 11
148.94999694824216
 21
45.849990844726392
 31
0.0
  0
LINE
  5
205
100
AcDbEntity
  8
0
  6
CONTINUOUS
 62
               7
100
AcDbLine
 10
126.04998779296872
 20
45.849990844726392
 30
0.0
 11
133.95001220703128
 21
45.849990844726392
 31
0.0
  0
LINE
  5
206
100
AcDbEntity
  8
0
  6
CONTINUOUS
 62
               7
100
AcDbLine
 10
126.04998779296872
 20
43.749984741210767
 30
0.0
 11
133.95001220703128
 21
43.749984741210767
 31
0.0
  0
LINE
  5
207
100
AcDbEntity
  8
0
  6
CONTINUOUS
 62
               7
100
AcDbLine
 10
111.04998779296869
 20
43.749984741210767
 30
0.0
 11
118.95001220703131
 21
43.749984741210767
 31
0.0
  0
LINE
  5
208
100
AcDbEntity
  8
0
  6
CONTINUOUS
 62
               7
100
AcDbLine
 10
111.04998779296869
 20
45.849990844726392
 30
0.0
 11
118.95001220703131
 21
45.849990844726392
 31
0.0
  0
LINE
  5
209
100
AcDbEntity
  8
0
  6
CONTINUOUS
 62
               7
100
AcDbLine
 10
96.049987792968693
 20
45.849990844726392
 30
0.0
 11
103.95001220703131
 21
45.849990844726392
 31
0.0
  0
LINE
  5
20A
100
AcDbEntity
  8
0
  6
CONTINUOUS
 62
               7
100
AcDbLine
 10
96.049987792968693
 20
43.749984741210767
 30
0.0
 11
103.95001220703131
 21
43.749984741210767
 31
0.0
  0
LINE
  5
20B
100
AcDbEntity
  8
0
  6
CONTINUOUS
 62
               7
100
AcDbLine
 10
103.54998779296869
 20
38.749984741210767
 30
0.0
 11
111.45001220703131
 21
38.749984741210767
 31
0.0
  0
LINE
  5
20C
100
AcDbEntity
  8
0
  6
CONTINUOUS
 62
               7
100
AcDbLine
 10
103.54998779296869
 20
40.849990844726392
 30
0.0
 11
111.45001220703131
 21
40.849990844726392
 31
0.0
  0
LINE
  5
20D
100
AcDbEntity
  8
0
  6
CONTINUOUS
 62
               7
100
AcDbLine
 10
118.54998779296869
 20
38.749984741210767
 30
0.0
 11
126.45001220703128
 21
38.749984741210767
 31
0.0
  0
LINE
  5
20E
100
AcDbEntity
  8
0
  6
CONTINUOUS
 62
               7
100
AcDbLine
 10
118.54998779296869
 20
40.849990844726392
 30
0.0
 11
126.45001220703128
 21
40.849990844726392
 31
0.0
  0
LINE
  5
20F
100
AcDbEntity
  8
0
  6
CONTINUOUS
 62
               7
100
AcDbLine
 10
133.54998779296872
 20
40.849990844726392
 30
0.0
 11
141.45001220703128
 21
40.849990844726392
 31
0.0
  0
LINE
  5
210
100
AcDbEntity
  8
0
  6
CONTINUOUS
 62
               7
100
AcDbLine
 10
133.54998779296872
 20
38.749984741210767
 30
0.0
 11
141.45001220703128
 21
38.749984741210767
 31
0.0
  0
LINE
  5
211
100
AcDbEntity
  8
0
  6
CONTINUOUS
 62
               7
100
AcDbLine
 10
140.95080566406247
 20
33.749984741210767
 30
0.0
 11
148.85079956054693
 21
33.749984741210767
 31
0.0
  0
LINE
  5
212
100
AcDbEntity
  8
0
  6
CONTINUOUS
 62
               7
100
AcDbLine
 10
140.95080566406247
 20
35.849990844726392
 30
0.0
 11
148.85079956054693
 21
35.849990844726392
 31
0.0
  0
LINE
  5
213
100
AcDbEntity
  8
0
  6
CONTINUOUS
 62
               7
100
AcDbLine
 10
126.04998779296872
 20
35.849990844726392
 30
0.0
 11
133.95001220703128
 21
35.849990844726392
 31
0.0
  0
LINE
  5
214
100
AcDbEntity
  8
0
  6
CONTINUOUS
 62
               7
100
AcDbLine
 10
126.04998779296872
 20
33.749984741210767
 30
0.0
 11
133.95001220703128
 21
33.749984741210767
 31
0.0
  0
LINE
  5
215
100
AcDbEntity
  8
0
  6
CONTINUOUS
 62
               7
100
AcDbLine
 10
111.04998779296869
 20
33.749984741210767
 30
0.0
 11
118.95001220703131
 21
33.749984741210767
 31
0.0
  0
LINE
  5
216
100
AcDbEntity
  8
0
  6
CONTINUOUS
 62
               7
100
AcDbLine
 10
111.04998779296869
 20
35.849990844726392
 30
0.0
 11
118.95001220703131
 21
35.849990844726392
 31
0.0
  0
LINE
  5
217
100
AcDbEntity
  8
0
  6
CONTINUOUS
 62
               7
100
AcDbLine
 10
96.049987792968693
 20
33.749984741210767
 30
0.0
 11
103.95001220703131
 21
33.749984741210767
 31
0.0
  0
LINE
  5
218
100
AcDbEntity
  8
0
  6
CONTINUOUS
 62
               7
100
AcDbLine
 10
96.049987792968693
 20
35.849990844726392
 30
0.0
 11
103.95001220703131
 21
35.849990844726392
 31
0.0
  0
LINE
  5
219
100
AcDbEntity
  8
0
  6
CONTINUOUS
 62
               7
100
AcDbLine
 10
103.54998779296869
 20
30.849990844726392
 30
0.0
 11
111.45001220703131
 21
30.849990844726392
 31
0.0
  0
LINE
  5
21A
100
AcDbEntity
  8
0
  6
CONTINUOUS
 62
               7
100
AcDbLine
 10
103.54998779296869
 20
28.749984741210767
 30
0.0
 11
111.45001220703131
 21
28.749984741210767
 31
0.0
  0
LINE
  5
21B
100
AcDbEntity
  8
0
  6
CONTINUOUS
 62
               7
100
AcDbLine
 10
118.54998779296869
 20
30.849990844726392
 30
0.0
 11
126.45001220703128
 21
30.849990844726392
 31
0.0
  0
LINE
  5
21C
100
AcDbEntity
  8
0
  6
CONTINUOUS
 62
               7
100
AcDbLine
 10
118.54998779296869
 20
28.749984741210767
 30
0.0
 11
126.45001220703128
 21
28.749984741210767
 31
0.0
  0
LINE
  5
21D
100
AcDbEntity
  8
0
  6
CONTINUOUS
 62
               7
100
AcDbLine
 10
133.54998779296872
 20
28.517837524413892
 30
0.0
 11
141.45001220703128
 21
28.517837524413892
 31
0.0
  0
LINE
  5
21E
100
AcDbEntity
  8
0
  6
CONTINUOUS
 62
               7
100
AcDbLine
 10
133.54998779296872
 20
30.617828369140454
 30
0.0
 11
141.45001220703128
 21
30.617828369140454
 31
0.0
  0
LINE
  5
21F
100
AcDbEntity
  8
0
  6
CONTINUOUS
 62
               7
100
AcDbLine
 10
141.04998779296872
 20
25.849990844726392
 30
0.0
 11
148.94999694824216
 21
25.849990844726392
 31
0.0
  0
LINE
  5
220
100
AcDbEntity
  8
0
  6
CONTINUOUS
 62
               7
100
AcDbLine
 10
141.04998779296872
 20
23.749984741210767
 30
0.0
 11
148.94999694824216
 21
23.749984741210767
 31
0.0
  0
LINE
  5
221
100
AcDbEntity
  8
0
  6
CONTINUOUS
 62
               7
100
AcDbLine
 10
126.04998779296872
 20
25.849990844726392
 30
0.0
 11
133.95001220703128
 21
25.849990844726392
 31
0.0
  0
LINE
  5
222
100
AcDbEntity
  8
0
  6
CONTINUOUS
 62
               7
100
AcDbLine
 10
126.04998779296872
 20
23.749984741210767
 30
0.0
 11
133.95001220703128
 21
23.749984741210767
 31
0.0
  0
LINE
  5
223
100
AcDbEntity
  8
0
  6
CONTINUOUS
 62
               7
100
AcDbLine
 10
111.04998779296869
 20
23.749984741210767
 30
0.0
 11
118.95001220703131
 21
23.749984741210767
 31
0.0
  0
LINE
  5
224
100
AcDbEntity
  8
0
  6
CONTINUOUS
 62
               7
100
AcDbLine
 10
111.04998779296869
 20
25.849990844726392
 30
0.0
 11
118.95001220703131
 21
25.849990844726392
 31
0.0
  0
LINE
  5
225
100
AcDbEntity
  8
0
  6
CONTINUOUS
 62
               7
100
AcDbLine
 10
96.049987792968693
 20
23.749984741210767
 30
0.0
 11
103.95001220703131
 21
23.749984741210767
 31
0.0
  0
LINE
  5
226
100
AcDbEntity
  8
0
  6
CONTINUOUS
 62
               7
100
AcDbLine
 10
96.049987792968693
 20
25.849990844726392
 30
0.0
 11
103.95001220703131
 21
25.849990844726392
 31
0.0
  0
LINE
  5
227
100
AcDbEntity
  8
0
  6
CONTINUOUS
 62
               7
100
AcDbLine
 10
289.79999542236288
 20
41.59998474121079
 30
0.0
 11
289.79999542236288
 21
31.199983215331883
 31
0.0
  0
LINE
  5
228
100
AcDbEntity
  8
0
  6
CONTINUOUS
 62
               7
100
AcDbLine
 10
292.19999694824185
 20
41.59998474121079
 30
0.0
 11
292.19999694824185
 21
31.199983215331883
 31
0.0
  0
LINE
  5
229
100
AcDbEntity
  8
0
  6
CONTINUOUS
 62
               7
100
AcDbLine
 10
289.79999542236288
 20
41.59998474121079
 30
0.0
 11
292.19999694824185
 21
41.59998474121079
 31
0.0
  0
LINE
  5
22A
100
AcDbEntity
  8
0
  6
CONTINUOUS
 62
               7
100
AcDbLine
 10
289.79999542236288
 20
31.199983215331883
 30
0.0
 11
292.19999694824185
 21
31.199983215331883
 31
0.0
  0
LINE
  5
22B
100
AcDbEntity
  8
0
  6
CONTINUOUS
 62
               7
100
AcDbLine
 10
299.9999999999996
 20
55.999981689452909
 30
0.0
 11
299.9999999999996
 21
5.1999816894529545
 31
0.0
  0
LINE
  5
22C
100
AcDbEntity
  8
0
  6
CONTINUOUS
 62
               7
100
AcDbLine
 10
0.0
 20
52.999981689452909
 30
0.0
 11
0.0
 21
3.1999816894529545
 31
0.0
  0
LINE
  5
22D
100
AcDbEntity
  8
0
  6
CONTINUOUS
 62
               7
100
AcDbLine
 10
0.0
 20
3.1999816894529545
 30
0.0
 11
297.99999999999966
 21
3.1999816894529545
 31
0.0
  0
LINE
  5
22E
100
AcDbEntity
  8
0
  6
CONTINUOUS
 62
               7
100
AcDbLine
 10
0.0
 20
52.999981689452909
 30
0.0
 11
299.9999999999996
 21
52.999981689452909
 31
0.0
  0
LINE
  5
22F
100
AcDbEntity
  8
0
  6
CONTINUOUS
 62
               7
100
AcDbLine
 10
297.99999999999966
 20
5.1999816894529545
 30
0.0
 11
297.99999999999966
 21
3.1999816894529545
 31
0.0
  0
CIRCLE
  5
230
100
AcDbEntity
  8
0
  6
CONTINUOUS
 62
               7
100
AcDbCircle
 10
60.0
 20
19.799987792968579
 30
0.0
 40
2.9999999999999996
  0
CIRCLE
  5
231
100
AcDbEntity
  8
0
  6
CONTINUOUS
 62
               7
100
AcDbCircle
 10
60.0
 20
19.799987792968579
 30
0.0
 40
1.4999999999999998
  0
CIRCLE
  5
232
100
AcDbEntity
  8
0
  6
CONTINUOUS
 62
               7
100
AcDbCircle
 10
60.0
 20
19.799987792968579
 30
0.0
 40
1.1499999999999999
  0
LINE
  5
233
100
AcDbEntity
  8
0
  6
CONTINUOUS
 62
               7
100
AcDbLine
 10
148.54998779296872
 20
38.749984741210767
 30
0.0
 11
156.45001220703128
 21
38.749984741210767
 31
0.0
  0
LINE
  5
234
100
AcDbEntity
  8
0
  6
CONTINUOUS
 62
               7
100
AcDbLine
 10
148.54998779296872
 20
40.849990844726392
 30
0.0
 11
156.45001220703128
 21
40.849990844726392
 31
0.0
  0
LINE
  5
235
100
AcDbEntity
  8
0
  6
CONTINUOUS
 62
               7
100
AcDbLine
 10
148.54998779296872
 20
30.849990844726392
 30
0.0
 11
156.45001220703128
 21
30.849990844726392
 31
0.0
  0
LINE
  5
236
100
AcDbEntity
  8
0
  6
CONTINUOUS
 62
               7
100
AcDbLine
 10
148.54998779296872
 20
28.749984741210767
 30
0.0
 11
156.45001220703128
 21
28.749984741210767
 31
0.0
  0
ARC
  5
237
100
AcDbEntity
  8
0
  6
CONTINUOUS
 62
               7
100
AcDbCircle
 10
193.95001220703119
 20
24.799987792968579
 30
0.0
 40
1.0499999523162842
100
AcDbArc
 50
269.99999749552182
 51
90.000002504478161
  0
ARC
  5
238
100
AcDbEntity
  8
0
  6
CONTINUOUS
 62
               7
100
AcDbCircle
 10
193.95001220703119
 20
34.799987792968579
 30
0.0
 40
1.0499999523162842
100
AcDbArc
 50
269.99999749552182
 51
90.000002504478161
  0
ARC
  5
239
100
AcDbEntity
  8
0
  6
CONTINUOUS
 62
               7
100
AcDbCircle
 10
178.54998779296872
 20
29.799987792968579
 30
0.0
 40
1.0499999523162842
100
AcDbArc
 50
90.000002504478161
 51
270.00000068324533
  0
ARC
  5
23A
100
AcDbEntity
  8
0
  6
CONTINUOUS
 62
               7
100
AcDbCircle
 10
178.54998779296872
 20
39.799987792968579
 30
0.0
 40
1.0499999523162842
100
AcDbArc
 50
90.000002504478161
 51
270.00000068324533
  0
ARC
  5
23B
100
AcDbEntity
  8
0
  6
CONTINUOUS
 62
               7
100
AcDbCircle
 10
193.95001220703119
 20
44.799987792968579
 30
0.0
 40
1.0499999523162842
100
AcDbArc
 50
269.99999749552182
 51
90.000002504478161
  0
ARC
  5
23C
100
AcDbEntity
  8
0
  6
CONTINUOUS
 62
               7
100
AcDbCircle
 10
186.04998779296875
 20
44.799987792968579
 30
0.0
 40
1.0499999523162842
100
AcDbArc
 50
90.000002504478161
 51
270.00000068324533
  0
ARC
  5
23D
100
AcDbEntity
  8
0
  6
CONTINUOUS
 62
               7
100
AcDbCircle
 10
186.45001220703125
 20
39.799987792968579
 30
0.0
 40
1.0499999523162842
100
AcDbArc
 50
269.99999749552182
 51
90.000002504478161
  0
ARC
  5
23E
100
AcDbEntity
  8
0
  6
CONTINUOUS
 62
               7
100
AcDbCircle
 10
186.04998779296875
 20
34.799987792968579
 30
0.0
 40
1.0499999523162842
100
AcDbArc
 50
90.000002504478161
 51
270.00000068324533
  0
ARC
  5
23F
100
AcDbEntity
  8
0
  6
CONTINUOUS
 62
               7
100
AcDbCircle
 10
186.45001220703125
 20
29.799987792968579
 30
0.0
 40
1.0499999523162842
100
AcDbArc
 50
269.99999749552182
 51
90.000002504478161
  0
ARC
  5
240
100
AcDbEntity
  8
0
  6
CONTINUOUS
 62
               7
100
AcDbCircle
 10
186.04998779296875
 20
24.799987792968579
 30
0.0
 40
1.0499999523162842
100
AcDbArc
 50
90.000002504478161
 51
270.00000068324533
  0
LINE
  5
241
100
AcDbEntity
  8
0
  6
CONTINUOUS
 62
               7
100
AcDbLine
 10
186.04998779296875
 20
25.849990844726392
 30
0.0
 11
193.95001220703119
 21
25.849990844726392
 31
0.0
  0
LINE
  5
242
100
AcDbEntity
  8
0
  6
CONTINUOUS
 62
               7
100
AcDbLine
 10
186.04998779296875
 20
23.749984741210767
 30
0.0
 11
193.95001220703119
 21
23.749984741210767
 31
0.0
  0
LINE
  5
243
100
AcDbEntity
  8
0
  6
CONTINUOUS
 62
               7
100
AcDbLine
 10
178.54998779296872
 20
28.749984741210767
 30
0.0
 11
186.45001220703125
 21
28.749984741210767
 31
0.0
  0
LINE
  5
244
100
AcDbEntity
  8
0
  6
CONTINUOUS
 62
               7
100
AcDbLine
 10
178.54998779296872
 20
30.849990844726392
 30
0.0
 11
186.45001220703125
 21
30.849990844726392
 31
0.0
  0
LINE
  5
245
100
AcDbEntity
  8
0
  6
CONTINUOUS
 62
               7
100
AcDbLine
 10
186.04998779296875
 20
35.849990844726392
 30
0.0
 11
193.95001220703119
 21
35.849990844726392
 31
0.0
  0
LINE
  5
246
100
AcDbEntity
  8
0
  6
CONTINUOUS
 62
               7
100
AcDbLine
 10
186.04998779296875
 20
33.749984741210767
 30
0.0
 11
193.95001220703119
 21
33.749984741210767
 31
0.0
  0
LINE
  5
247
100
AcDbEntity
  8
0
  6
CONTINUOUS
 62
               7
100
AcDbLine
 10
178.54998779296872
 20
40.849990844726392
 30
0.0
 11
186.45001220703125
 21
40.849990844726392
 31
0.0
  0
LINE
  5
248
100
AcDbEntity
  8
0
  6
CONTINUOUS
 62
               7
100
AcDbLine
 10
178.54998779296872
 20
38.749984741210767
 30
0.0
 11
186.45001220703125
 21
38.749984741210767
 31
0.0
  0
LINE
  5
249
100
AcDbEntity
  8
0
  6
CONTINUOUS
 62
               7
100
AcDbLine
 10
186.04998779296875
 20
45.849990844726392
 30
0.0
 11
193.95001220703119
 21
45.849990844726392
 31
0.0
  0
LINE
  5
24A
100
AcDbEntity
  8
0
  6
CONTINUOUS
 62
               7
100
AcDbLine
 10
186.04998779296875
 20
43.749984741210767
 30
0.0
 11
193.95001220703119
 21
43.749984741210767
 31
0.0
  0
ARC
  5
24B
100
AcDbEntity
  8
0
  6
CONTINUOUS
 62
               7
100
AcDbCircle
 10
178.95001220703128
 20
24.799987792968579
 30
0.0
 40
1.0499999523162842
100
AcDbArc
 50
269.99999749552182
 51
90.000002504478161
  0
ARC
  5
24C
100
AcDbEntity
  8
0
  6
CONTINUOUS
 62
               7
100
AcDbCircle
 10
178.95001220703128
 20
34.799987792968579
 30
0.0
 40
1.0499999523162842
100
AcDbArc
 50
269.99999749552182
 51
90.000002504478161
  0
ARC
  5
24D
100
AcDbEntity
  8
0
  6
CONTINUOUS
 62
               7
100
AcDbCircle
 10
163.54998779296872
 20
29.799987792968579
 30
0.0
 40
1.0499999523162842
100
AcDbArc
 50
90.000002504478161
 51
270.00000068324533
  0
ARC
  5
24E
100
AcDbEntity
  8
0
  6
CONTINUOUS
 62
               7
100
AcDbCircle
 10
163.54998779296872
 20
39.799987792968579
 30
0.0
 40
1.0499999523162842
100
AcDbArc
 50
90.000002504478161
 51
270.00000068324533
  0
ARC
  5
24F
100
AcDbEntity
  8
0
  6
CONTINUOUS
 62
               7
100
AcDbCircle
 10
178.95001220703128
 20
44.799987792968579
 30
0.0
 40
1.0499999523162842
100
AcDbArc
 50
269.99999749552182
 51
90.000002504478161
  0
ARC
  5
250
100
AcDbEntity
  8
0
  6
CONTINUOUS
 62
               7
100
AcDbCircle
 10
171.04998779296872
 20
44.799987792968579
 30
0.0
 40
1.0499999523162842
100
AcDbArc
 50
90.000002504478161
 51
270.00000068324533
  0
ARC
  5
251
100
AcDbEntity
  8
0
  6
CONTINUOUS
 62
               7
100
AcDbCircle
 10
171.45001220703128
 20
39.799987792968579
 30
0.0
 40
1.0499999523162842
100
AcDbArc
 50
269.99999749552182
 51
90.000002504478161
  0
ARC
  5
252
100
AcDbEntity
  8
0
  6
CONTINUOUS
 62
               7
100
AcDbCircle
 10
171.04998779296872
 20
34.799987792968579
 30
0.0
 40
1.0499999523162842
100
AcDbArc
 50
90.000002504478161
 51
270.00000068324533
  0
ARC
  5
253
100
AcDbEntity
  8
0
  6
CONTINUOUS
 62
               7
100
AcDbCircle
 10
171.45001220703128
 20
29.799987792968579
 30
0.0
 40
1.0499999523162842
100
AcDbArc
 50
269.99999749552182
 51
90.000002504478161
  0
ARC
  5
254
100
AcDbEntity
  8
0
  6
CONTINUOUS
 62
               7
100
AcDbCircle
 10
171.04998779296872
 20
24.799987792968579
 30
0.0
 40
1.0499999523162842
100
AcDbArc
 50
90.000002504478161
 51
270.00000068324533
  0
LINE
  5
255
100
AcDbEntity
  8
0
  6
CONTINUOUS
 62
               7
100
AcDbLine
 10
171.04998779296872
 20
25.849990844726392
 30
0.0
 11
178.95001220703128
 21
25.849990844726392
 31
0.0
  0
LINE
  5
256
100
AcDbEntity
  8
0
  6
CONTINUOUS
 62
               7
100
AcDbLine
 10
171.04998779296872
 20
23.749984741210767
 30
0.0
 11
178.95001220703128
 21
23.749984741210767
 31
0.0
  0
LINE
  5
257
100
AcDbEntity
  8
0
  6
CONTINUOUS
 62
               7
100
AcDbLine
 10
163.54998779296872
 20
28.749984741210767
 30
0.0
 11
171.45001220703128
 21
28.749984741210767
 31
0.0
  0
LINE
  5
258
100
AcDbEntity
  8
0
  6
CONTINUOUS
 62
               7
100
AcDbLine
 10
163.54998779296872
 20
30.849990844726392
 30
0.0
 11
171.45001220703128
 21
30.849990844726392
 31
0.0
  0
LINE
  5
259
100
AcDbEntity
  8
0
  6
CONTINUOUS
 62
               7
100
AcDbLine
 10
171.04998779296872
 20
35.849990844726392
 30
0.0
 11
178.95001220703128
 21
35.849990844726392
 31
0.0
  0
LINE
  5
25A
100
AcDbEntity
  8
0
  6
CONTINUOUS
 62
               7
100
AcDbLine
 10
171.04998779296872
 20
33.749984741210767
 30
0.0
 11
178.95001220703128
 21
33.749984741210767
 31
0.0
  0
LINE
  5
25B
100
AcDbEntity
  8
0
  6
CONTINUOUS
 62
               7
100
AcDbLine
 10
163.54998779296872
 20
40.849990844726392
 30
0.0
 11
171.45001220703128
 21
40.849990844726392
 31
0.0
  0
LINE
  5
25C
100
AcDbEntity
  8
0
  6
CONTINUOUS
 62
               7
100
AcDbLine
 10
163.54998779296872
 20
38.749984741210767
 30
0.0
 11
171.45001220703128
 21
38.749984741210767
 31
0.0
  0
LINE
  5
25D
100
AcDbEntity
  8
0
  6
CONTINUOUS
 62
               7
100
AcDbLine
 10
171.04998779296872
 20
45.849990844726392
 30
0.0
 11
178.95001220703128
 21
45.849990844726392
 31
0.0
  0
LINE
  5
25E
100
AcDbEntity
  8
0
  6
CONTINUOUS
 62
               7
100
AcDbLine
 10
171.04998779296872
 20
43.749984741210767
 30
0.0
 11
178.95001220703128
 21
43.749984741210767
 31
0.0
  0
ARC
  5
25F
100
AcDbEntity
  8
0
  6
CONTINUOUS
 62
               7
100
AcDbCircle
 10
163.95001220703128
 20
24.799987792968579
 30
0.0
 40
1.0499999523162842
100
AcDbArc
 50
269.99999749552182
 51
90.000002504478161
  0
ARC
  5
260
100
AcDbEntity
  8
0
  6
CONTINUOUS
 62
               7
100
AcDbCircle
 10
163.95001220703128
 20
34.799987792968579
 30
0.0
 40
1.0499999523162842
100
AcDbArc
 50
269.99999749552182
 51
90.000002504478161
  0
ARC
  5
261
100
AcDbEntity
  8
0
  6
CONTINUOUS
 62
               7
100
AcDbCircle
 10
163.95001220703128
 20
44.799987792968579
 30
0.0
 40
1.0499999523162842
100
AcDbArc
 50
269.99999749552182
 51
90.000002504478161
  0
ARC
  5
262
100
AcDbEntity
  8
0
  6
CONTINUOUS
 62
               7
100
AcDbCircle
 10
156.04998779296872
 20
44.799987792968579
 30
0.0
 40
1.0499999523162842
100
AcDbArc
 50
90.000002504478161
 51
270.00000068324533
  0
ARC
  5
263
100
AcDbEntity
  8
0
  6
CONTINUOUS
 62
               7
100
AcDbCircle
 10
156.45001220703128
 20
39.799987792968579
 30
0.0
 40
1.0499999523162842
100
AcDbArc
 50
269.99999749552182
 51
90.000002504478161
  0
ARC
  5
264
100
AcDbEntity
  8
0
  6
CONTINUOUS
 62
               7
100
AcDbCircle
 10
156.04998779296872
 20
34.799987792968579
 30
0.0
 40
1.0499999523162842
100
AcDbArc
 50
90.000002504478161
 51
270.00000068324533
  0
ARC
  5
265
100
AcDbEntity
  8
0
  6
CONTINUOUS
 62
               7
100
AcDbCircle
 10
156.45001220703128
 20
29.799987792968579
 30
0.0
 40
1.0499999523162842
100
AcDbArc
 50
269.99999749552182
 51
90.000002504478161
  0
ARC
  5
266
100
AcDbEntity
  8
0
  6
CONTINUOUS
 62
               7
100
AcDbCircle
 10
156.04998779296872
 20
24.799987792968579
 30
0.0
 40
1.0499999523162842
100
AcDbArc
 50
90.000002504478161
 51
270.00000068324533
  0
LINE
  5
267
100
AcDbEntity
  8
0
  6
CONTINUOUS
 62
               7
100
AcDbLine
 10
156.04998779296872
 20
25.849990844726392
 30
0.0
 11
163.95001220703128
 21
25.849990844726392
 31
0.0
  0
LINE
  5
268
100
AcDbEntity
  8
0
  6
CONTINUOUS
 62
               7
100
AcDbLine
 10
156.04998779296872
 20
23.749984741210767
 30
0.0
 11
163.95001220703128
 21
23.749984741210767
 31
0.0
  0
LINE
  5
269
100
AcDbEntity
  8
0
  6
CONTINUOUS
 62
               7
100
AcDbLine
 10
156.04998779296872
 20
35.849990844726392
 30
0.0
 11
163.95001220703128
 21
35.849990844726392
 31
0.0
  0
LINE
  5
26A
100
AcDbEntity
  8
0
  6
CONTINUOUS
 62
               7
100
AcDbLine
 10
156.04998779296872
 20
33.749984741210767
 30
0.0
 11
163.95001220703128
 21
33.749984741210767
 31
0.0
  0
LINE
  5
26B
100
AcDbEntity
  8
0
  6
CONTINUOUS
 62
               7
100
AcDbLine
 10
156.04998779296872
 20
45.849990844726392
 30
0.0
 11
163.95001220703128
 21
45.849990844726392
 31
0.0
  0
LINE
  5
26C
100
AcDbEntity
  8
0
  6
CONTINUOUS
 62
               7
100
AcDbLine
 10
156.04998779296872
 20
43.749984741210767
 30
0.0
 11
163.95001220703128
 21
43.749984741210767
 31
0.0
  0
ARC
  5
26D
100
AcDbEntity
  8
0
  6
CONTINUOUS
 62
               7
100
AcDbCircle
 10
148.54998779296872
 20
39.799987792968579
 30
0.0
 40
1.0499999523162842
100
AcDbArc
 50
90.000002504478161
 51
270.00000068324533
  0
ARC
  5
26E
100
AcDbEntity
  8
0
  6
CONTINUOUS
 62
               7
100
AcDbCircle
 10
148.54998779296872
 20
29.799987792968579
 30
0.0
 40
1.0499999523162842
100
AcDbArc
 50
90.000002504478161
 51
270.00000068324533
  0
LINE
  5
26F
100
AcDbEntity
  8
0
  6
CONTINUOUS
 62
               7
100
AcDbLine
 10
11.000000000000057
 20
0.0
 30
0.0
 11
23.000000000000057
 21
0.0
 31
0.0
  0
LINE
  5
270
100
AcDbEntity
  8
0
  6
CONTINUOUS
 62
               7
100
AcDbLine
 10
23.000000000000057
 20
0.0
 30
0.0
 11
23.000000000000057
 21
3.1999816894529545
 31
0.0
  0
LINE
  5
271
100
AcDbEntity
  8
0
  6
CONTINUOUS
 62
               7
100
AcDbLine
 10
11.000000000000057
 20
0.0
 30
0.0
 11
11.000000000000057
 21
3.1999816894529545
 31
0.0
  0
LINE
  5
272
100
AcDbEntity
  8
0
  6
CONTINUOUS
 62
               7
100
AcDbLine
 10
277.00001525878872
 20
0.0
 30
0.0
 11
277.00001525878872
 21
3.1999816894529545
 31
0.0
  0
LINE
  5
273
100
AcDbEntity
  8
0
  6
CONTINUOUS
 62
               7
100
AcDbLine
 10
289.00001525878866
 20
0.0
 30
0.0
 11
289.00001525878866
 21
3.1999816894529545
 31
0.0
  0
LINE
  5
274
100
AcDbEntity
  8
0
  6
CONTINUOUS
 62
               7
100
AcDbLine
 10
277.00001525878872
 20
0.0
 30
0.0
 11
289.00001525878866
 21
0.0
 31
0.0
  0
ARC
  5
275
100
AcDbEntity
  8
0
  6
CONTINUOUS
 62
               7
100
AcDbCircle
 10
54.000015258789119
 20
29.099987792968648
 30
0.0
 40
250.0
100
AcDbArc
 50
355.14609020783729
 51
4.8539097921627041
  0
ARC
  5
276
100
AcDbEntity
  8
0
  6
CONTINUOUS
 62
               7
100
AcDbCircle
 10
300.11418151855435
 20
8.1999633789061477
 30
0.0
 40
2.9999999999999996
100
AcDbArc
 50
269.99999749552182
 51
355.14609020783729
  0
ARC
  5
277
100
AcDbEntity
  8
0
  6
CONTINUOUS
 62
               7
100
AcDbCircle
 10
300.11418151855435
 20
49.999981689453023
 30
0.0
 40
2.9999999999999996
100
AcDbArc
 50
4.8539097921627041
 51
90.000002504478161
  0
ARC
  5
278
100
AcDbEntity
  8
0
  6
CONTINUOUS
 62
               7
100
AcDbCircle
 10
210.00001525878898
 20
19.099987792968648
 30
0.0
 40
100.0
100
AcDbArc
 50
354.62440334723948
 51
20.455793309426426
  0
ARC
  5
279
100
AcDbEntity
  8
0
  6
CONTINUOUS
 62
               7
100
AcDbCircle
 10
300.8834075927731
 20
52.999981689452909
 30
0.0
 40
2.9999999999999996
100
AcDbArc
 50
20.455793309426426
 51
90.000002504478161
  0
ARC
  5
27A
100
AcDbEntity
  8
0
  6
CONTINUOUS
 62
               7
100
AcDbCircle
 10
304.5821990966794
 20
10.199963378906034
 30
0.0
 40
5.0
100
AcDbArc
 50
269.99999749552182
 51
354.62440334723948
  0
ARC
  5
27B
100
AcDbEntity
  8
0
  6
CONTINUOUS
 62
               7
100
AcDbCircle
 10
301.94667053222628
 20
49.999981689453023
 30
0.0
 40
2.9999999999999996
100
AcDbArc
 50
18.575665919617233
 51
90.000002504478161
  0
LINE
  5
27C
100
AcDbEntity
  8
0
  6
CONTINUOUS
 62
               2
100
AcDbLine
 10
283.00001525878878
 20
-4.7200511326361152
 30
0.0
 11
283.00001525878878
 21
7.954018285203972
 31
0.0
  0
LINE
  5
27D
100
AcDbEntity
  8
0
  6
CONTINUOUS
 62
               7
100
AcDbLine
 10
304.58219887812243
 20
5.1999816894530682
 30
0.0
 11
298.00001525878878
 21
5.1999816894530682
 31
0.0
  0
LINE
  5
27E
100
AcDbEntity
  8
0
  6
CONTINUOUS
 62
               2
100
AcDbLine
 10
17.000000000000227
 20
-4.7200511326361152
 30
0.0
 11
17.000000000000227
 21
7.954018285203972
 31
0.0
  0
LINE
  5
27F
100
AcDbEntity
  8
0
  6
CONTINUOUS
 62
               2
100
AcDbLine
 10
333.00000015999842
 20
19.649981689452886
 30
0.0
 11
306.4431994153224
 21
19.649981689452886
 31
0.0
  0
LINE
  5
280
100
AcDbEntity
  8
0
  6
CONTINUOUS
 62
               7
100
AcDbLine
 10
325.50000015999842
 20
25.999981689452795
 30
0.0
 11
325.50000015999842
 21
13.299981689452864
 31
0.0
  0
LINE
  5
281
100
AcDbEntity
  8
0
  6
CONTINUOUS
 62
               7
100
AcDbLine
 10
326.50000015999831
 20
14.149981689452886
 30
0.0
 11
326.50000015999831
 21
25.149981689452886
 31
0.0
  0
LINE
  5
282
100
AcDbEntity
  8
0
  6
CONTINUOUS
 62
               7
100
AcDbLine
 10
325.50000015999842
 20
25.999981689452795
 30
0.0
 11
326.50000015999831
 21
25.149981689452886
 31
0.0
  0
LINE
  5
283
100
AcDbEntity
  8
0
  6
CONTINUOUS
 62
               7
100
AcDbLine
 10
326.50000015999831
 20
14.149981689452886
 30
0.0
 11
325.50000015999842
 21
13.299981689452864
 31
0.0
  0
LINE
  5
284
100
AcDbEntity
  8
0
  6
CONTINUOUS
 62
               7
100
AcDbLine
 10
328.00000015999842
 20
14.149981689452886
 30
0.0
 11
328.00000015999842
 21
25.149981689452886
 31
0.0
  0
LINE
  5
285
100
AcDbEntity
  8
0
  6
CONTINUOUS
 62
               7
100
AcDbLine
 10
328.00000015999842
 20
25.149981689452886
 30
0.0
 11
326.50000015999831
 21
25.149981689452886
 31
0.0
  0
LINE
  5
286
100
AcDbEntity
  8
0
  6
CONTINUOUS
 62
               7
100
AcDbLine
 10
328.00000015999842
 20
14.149981689452886
 30
0.0
 11
326.50000015999831
 21
14.149981689452886
 31
0.0
  0
LINE
  5
287
100
AcDbEntity
  8
0
  6
CONTINUOUS
 62
               7
100
AcDbLine
 10
325.50000015999842
 20
25.999981689452795
 30
0.0
 11
309.76168166542254
 21
25.999981689452795
 31
0.0
  0
LINE
  5
288
100
AcDbEntity
  8
0
  6
CONTINUOUS
 62
               7
100
AcDbLine
 10
325.50000015999842
 20
13.299981689452864
 30
0.0
 11
309.83167320955698
 21
13.299981689452864
 31
0.0
  0
LINE
  5
289
100
AcDbEntity
  8
0
  6
CONTINUOUS
 62
               7
100
AcDbLine
 10
4.7625631329236171
 20
10.56255092589214
 30
0.0
 11
7.2374368670766103
 21
13.037424660045019
 31
0.0
  0
LINE
  5
28A
100
AcDbEntity
  8
0
  6
CONTINUOUS
 62
               7
100
AcDbLine
 10
7.2374368670766103
 20
10.56255092589214
 30
0.0
 11
4.7625631329236171
 21
13.037424660045019
 31
0.0
  0
LINE
  5
28B
100
AcDbEntity
  8
0
  6
CONTINUOUS
 62
               7
100
AcDbLine
 10
147.26256313292393
 20
10.56255092589214
 30
0.0
 11
149.73743686707692
 21
13.037424660045019
 31
0.0
  0
LINE
  5
28C
100
AcDbEntity
  8
0
  6
CONTINUOUS
 62
               7
100
AcDbLine
 10
149.73743686707692
 20
10.56255092589214
 30
0.0
 11
147.26256313292393
 21
13.037424660045019
 31
0.0
  0
LINE
  5
28D
100
AcDbEntity
  8
0
  6
CONTINUOUS
 62
               7
100
AcDbLine
 10
289.76256313292384
 20
10.56255092589214
 30
0.0
 11
292.23743686707684
 21
13.037424660045019
 31
0.0
  0
LINE
  5
28E
100
AcDbEntity
  8
0
  6
CONTINUOUS
 62
               7
100
AcDbLine
 10
292.23743686707684
 20
10.56255092589214
 30
0.0
 11
289.76256313292384
 21
13.037424660045019
 31
0.0
  0
LINE
  5
28F
100
AcDbEntity
  8
0
  6
CONTINUOUS
 62
               7
100
AcDbLine
 10
-21.737467384654678
 20
193.76254482237644
 30
0.0
 11
-19.262593650501685
 21
196.23741855652932
 31
0.0
  0
LINE
  5
290
100
AcDbEntity
  8
0
  6
CONTINUOUS
 62
               7
100
AcDbLine
 10
-19.262593650501685
 20
193.76254482237644
 30
0.0
 11
-21.737467384654678
 21
196.23741855652932
 31
0.0
  0
LINE
  5
291
100
AcDbEntity
  8
0
  6
CONTINUOUS
 62
               7
100
AcDbLine
 10
-21.737467384654678
 20
179.76254482237653
 30
0.0
 11
-19.262593650501685
 21
182.23741855652941
 31
0.0
  0
LINE
  5
292
100
AcDbEntity
  8
0
  6
CONTINUOUS
 62
               7
100
AcDbLine
 10
-19.262593650501685
 20
179.76254482237653
 30
0.0
 11
-21.737467384654678
 21
182.23741855652941
 31
0.0
  0
LINE
  5
293
100
AcDbEntity
  8
0
  6
CONTINUOUS
 62
               7
100
AcDbLine
 10
-16.73743686707644
 20
186.76254482237655
 30
0.0
 11
-14.262563132923447
 21
189.23741855652943
 31
0.0
  0
LINE
  5
294
100
AcDbEntity
  8
0
  6
CONTINUOUS
 62
               7
100
AcDbLine
 10
-14.262563132923447
 20
186.76254482237655
 30
0.0
 11
-16.73743686707644
 21
189.23741855652943
 31
0.0
  0
LINE
  5
295
100
AcDbEntity
  8
0
  6
CONTINUOUS
 62
               7
100
AcDbLine
 10
-16.73743686707644
 20
178.76254482237661
 30
0.0
 11
-14.262563132923447
 21
181.23741855652949
 31
0.0
  0
LINE
  5
296
100
AcDbEntity
  8
0
  6
CONTINUOUS
 62
               7
100
AcDbLine
 10
-14.262563132923447
 20
178.76254482237661
 30
0.0
 11
-16.73743686707644
 21
181.23741855652949
 31
0.0
  0
ENDBLK
  5
297
100
AcDbEntity
  8
0
100
AcDbBlockEnd
  0
BLOCK
  5
298
100
AcDbEntity
  8
0
100
AcDbBlockBegin
  2
DTRB-CS2-3
 70
               0
 10
0.0
 20
0.0
 30
0.0
  3
DTRB-CS2-3
  1

  0
LINE
  5
299
100
AcDbEntity
  8
0
  6
CONTINUOUS
 62
               2
100
AcDbLine
 10
65.14978854245669
 20
82.000012207032626
 30
0.0
 11
56.26307075899058
 21
82.000012207032626
 31
0.0
  0
ARC
  5
29A
100
AcDbEntity
  8
0
  6
CONTINUOUS
 62
               7
100
AcDbCircle
 10
59.899980926513649
 20
75.500012207032626
 30
0.0
 40
1.0
100
AcDbArc
 50
180.0
 51
270.0
  0
ARC
  5
29B
100
AcDbEntity
  8
0
  6
CONTINUOUS
 62
               7
100
AcDbCircle
 10
63.399980926513649
 20
74.000012207032626
 30
0.0
 40
3.4999999999999996
100
AcDbArc
 50
180.0
 51
270.0
  0
ARC
  5
29C
100
AcDbEntity
  8
0
  6
CONTINUOUS
 62
               7
100
AcDbCircle
 10
59.899980926513649
 20
88.500012207032626
 30
0.0
 40
1.0
100
AcDbArc
 50
90.0
 51
180.0
  0
LINE
  5
29D
100
AcDbEntity
  8
0
  6
CONTINUOUS
 62
               7
100
AcDbLine
 10
59.899980926513649
 20
74.000012207032626
 30
0.0
 11
59.899980926513649
 21
90.000012207032626
 31
0.0
  0
LINE
  5
29E
100
AcDbEntity
  8
0
  6
CONTINUOUS
 62
               7
100
AcDbLine
 10
58.899980926513649
 20
88.500012207032626
 30
0.0
 11
58.899980926513649
 21
75.500012207032626
 31
0.0
  0
ARC
  5
29F
100
AcDbEntity
  8
0
  6
CONTINUOUS
 62
               7
100
AcDbCircle
 10
63.399980926513649
 20
90.000012207032626
 30
0.0
 40
3.4999999999999996
100
AcDbArc
 50
90.0
 51
180.0
  0
LINE
  5
2A0
100
AcDbEntity
  8
0
  6
CONTINUOUS
 62
               7
100
AcDbLine
 10
104.0
 20
95.000012207032626
 30
0.0
 11
63.399999999999977
 21
95.000012207032626
 31
0.0
  0
LINE
  5
2A1
100
AcDbEntity
  8
0
  6
CONTINUOUS
 62
               2
100
AcDbLine
 10
157.61474933684951
 20
-25.000003051757915
 30
0.0
 11
28.0
 21
-25.000003051757915
 31
0.0
  0
ARC
  5
2A2
100
AcDbEntity
  8
0
  6
CONTINUOUS
 62
               7
100
AcDbCircle
 10
40.0
 20
-6.0000007323955629
 30
0.0
 40
3.1500000953674316
100
AcDbArc
 50
18.509652596762809
 51
161.49034740323728
  0
ARC
  5
2A3
100
AcDbEntity
  8
0
  6
CONTINUOUS
 62
               7
100
AcDbCircle
 10
40.0
 20
-6.0000007323955629
 30
0.0
 40
3.0350000858306885
100
AcDbArc
 50
19.238038667643568
 51
160.76196133235632
  0
ARC
  5
2A4
100
AcDbEntity
  8
0
  6
CONTINUOUS
 62
               7
100
AcDbCircle
 10
-98.917608281861476
 20
-6.0000064226088625
 30
0.0
 40
7.982419490814209
100
AcDbArc
 50
157.64345713842727
 51
182.94921477780858
  0
LINE
  5
2A5
100
AcDbEntity
  8
0
  6
CONTINUOUS
 62
               7
100
AcDbLine
 10
-106.29999353576778
 20
-6.1000537937026706
 30
0.0
 11
-106.29999353576778
 21
-2.9637210222182375
 31
0.0
  0
LINE
  5
2A6
100
AcDbEntity
  8
0
  6
CONTINUOUS
 62
               7
100
AcDbLine
 10
-106.29998569614543
 20
-2.9637344321273531
 30
0.0
 11
-105.00001968544382
 21
-2.8500021435539793
 31
0.0
  0
CIRCLE
  5
2A7
100
AcDbEntity
  8
0
  6
CONTINUOUS
 62
               7
100
AcDbCircle
 10
-40.0
 20
-291.00001525878889
 30
0.0
 40
3.1500000953674316
  0
CIRCLE
  5
2A8
100
AcDbEntity
  8
0
  6
CONTINUOUS
 62
               7
100
AcDbCircle
 10
-40.0
 20
-291.00001525878889
 30
0.0
 40
3.0350000858306885
  0
CIRCLE
  5
2A9
100
AcDbEntity
  8
0
  6
CONTINUOUS
 62
               7
100
AcDbCircle
 10
40.0
 20
-291.00001525878889
 30
0.0
 40
3.1500000953674316
  0
CIRCLE
  5
2AA
100
AcDbEntity
  8
0
  6
CONTINUOUS
 62
               7
100
AcDbCircle
 10
40.0
 20
-291.00001525878889
 30
0.0
 40
3.0350000858306885
  0
ARC
  5
2AB
100
AcDbEntity
  8
0
  6
CONTINUOUS
 62
               7
100
AcDbCircle
 10
-40.0
 20
-6.0000007323955629
 30
0.0
 40
3.1500000953674316
100
AcDbArc
 50
0.0
 51
180.0
  0
ARC
  5
2AC
100
AcDbEntity
  8
0
  6
CONTINUOUS
 62
               7
100
AcDbCircle
 10
-40.0
 20
-6.0000007323955629
 30
0.0
 40
3.0350000858306885
100
AcDbArc
 50
0.0
 51
180.0
  0
ARC
  5
2AD
100
AcDbEntity
  8
0
  6
CONTINUOUS
 62
               7
100
AcDbCircle
 10
-30.000000000001535
 20
-5.9999984740898071
 30
0.0
 40
0.7
100
AcDbArc
 50
359.99999191303857
 51
179.99999191303863
  0
ARC
  5
2AE
100
AcDbEntity
  8
0
  6
CONTINUOUS
 62
               7
100
AcDbCircle
 10
-30.000000000001535
 20
-5.9999984740898071
 30
0.0
 40
1.0000000000000002
100
AcDbArc
 50
359.99999191303857
 51
179.99999191303863
  0
CIRCLE
  5
2AF
100
AcDbEntity
  8
0
  6
CONTINUOUS
 62
               7
100
AcDbCircle
 10
10.000000010000008
 20
-101.00000010099973
 30
0.0
 40
1.5000000014999999
  0
LINE
  5
2B0
100
AcDbEntity
  8
0
  6
CONTINUOUS
 62
               2
100
AcDbLine
 10
12.822649046312677
 20
-101.00000010099973
 30
0.0
 11
6.9695161794584237
 21
-101.00000010099973
 31
0.0
  0
LINE
  5
2B1
100
AcDbEntity
  8
0
  6
CONTINUOUS
 62
               2
100
AcDbLine
 10
10.000000010000008
 20
-98.154766631652592
 30
0.0
 11
10.000000010000008
 21
-103.80372043772024
 31
0.0
  0
CIRCLE
  5
2B2
100
AcDbEntity
  8
0
  6
CONTINUOUS
 62
               7
100
AcDbCircle
 10
-10.000000009999951
 20
-101.00000010099973
 30
0.0
 40
1.5000000014999999
  0
LINE
  5
2B3
100
AcDbEntity
  8
0
  6
CONTINUOUS
 62
               2
100
AcDbLine
 10
-12.82264904631262
 20
-101.00000010099973
 30
0.0
 11
-6.9695161794584237
 21
-101.00000010099973
 31
0.0
  0
LINE
  5
2B4
100
AcDbEntity
  8
0
  6
CONTINUOUS
 62
               2
100
AcDbLine
 10
-10.000000009999951
 20
-98.154766631652592
 30
0.0
 11
-10.000000009999951
 21
-103.80372043772024
 31
0.0
  0
LINE
  5
2B5
100
AcDbEntity
  8
0
  6
CONTINUOUS
 62
               2
100
AcDbLine
 10
-10.000000010000008
 20
-218.15476675165255
 30
0.0
 11
-10.000000010000008
 21
-223.80372055772011
 31
0.0
  0
LINE
  5
2B6
100
AcDbEntity
  8
0
  6
CONTINUOUS
 62
               2
100
AcDbLine
 10
-12.82264904631262
 20
-221.0000002209996
 30
0.0
 11
-6.9695161794584237
 21
-221.0000002209996
 31
0.0
  0
CIRCLE
  5
2B7
100
AcDbEntity
  8
0
  6
CONTINUOUS
 62
               7
100
AcDbCircle
 10
-10.000000009999951
 20
-221.0000002209996
 30
0.0
 40
1.5000000014999999
  0
LINE
  5
2B8
100
AcDbEntity
  8
0
  6
CONTINUOUS
 62
               2
100
AcDbLine
 10
10.000000010000065
 20
-218.15476675165255
 30
0.0
 11
10.000000010000065
 21
-223.80372055772011
 31
0.0
  0
LINE
  5
2B9
100
AcDbEntity
  8
0
  6
CONTINUOUS
 62
               2
100
AcDbLine
 10
7.1773509736873962
 20
-221.0000002209996
 30
0.0
 11
13.030483840541535
 21
-221.0000002209996
 31
0.0
  0
CIRCLE
  5
2BA
100
AcDbEntity
  8
0
  6
CONTINUOUS
 62
               7
100
AcDbCircle
 10
10.000000010000008
 20
-221.0000002209996
 30
0.0
 40
1.5000000014999999
  0
LINE
  5
2BB
100
AcDbEntity
  8
0
  6
CONTINUOUS
 62
               7
100
AcDbLine
 10
-106.30001368997239
 20
-151.53626058239229
 30
0.0
 11
-104.99998687637043
 21
-151.6499981905302
 31
0.0
  0
LINE
  5
2BC
100
AcDbEntity
  8
0
  6
CONTINUOUS
 62
               7
100
AcDbLine
 10
-106.29997913433056
 20
-145.46373409804278
 30
0.0
 11
-105.00001312362895
 21
-145.3500018094694
 31
0.0
  0
LINE
  5
2BD
100
AcDbEntity
  8
0
  6
CONTINUOUS
 62
               7
100
AcDbLine
 10
-106.29998697395308
 20
-151.53626097133667
 30
0.0
 11
-106.29998697395308
 21
-145.46372068813355
 31
0.0
  0
ARC
  5
2BE
100
AcDbEntity
  8
0
  6
CONTINUOUS
 62
               7
100
AcDbCircle
 10
-98.917601720046775
 20
-148.50000608852429
 30
0.0
 40
7.982419490814209
100
AcDbArc
 50
157.64345713842727
 51
202.35653921910705
  0
LINE
  5
2BF
100
AcDbEntity
  8
0
  6
CONTINUOUS
 62
               7
100
AcDbLine
 10
-106.30001368997239
 20
-294.03626058239223
 30
0.0
 11
-104.99998687637043
 21
-294.14999819053014
 31
0.0
  0
LINE
  5
2C0
100
AcDbEntity
  8
0
  6
CONTINUOUS
 62
               7
100
AcDbLine
 10
-106.29997913433056
 20
-287.96373409804272
 30
0.0
 11
-105.00001312362895
 21
-287.85000180946935
 31
0.0
  0
LINE
  5
2C1
100
AcDbEntity
  8
0
  6
CONTINUOUS
 62
               7
100
AcDbLine
 10
-106.29998697395308
 20
-294.03626097133662
 30
0.0
 11
-106.29998697395308
 21
-287.96372068813349
 31
0.0
  0
ARC
  5
2C2
100
AcDbEntity
  8
0
  6
CONTINUOUS
 62
               7
100
AcDbCircle
 10
-98.917601720046775
 20
-291.00000608852423
 30
0.0
 40
7.982419490814209
100
AcDbArc
 50
157.64345713842727
 51
202.35653921910705
  0
LINE
  5
2C3
100
AcDbEntity
  8
0
  6
CONTINUOUS
 62
               7
100
AcDbLine
 10
105.0
 20
0.0000000000005684
 30
0.0
 11
105.0
 21
-3.3999877929680906
 31
0.0
  0
LINE
  5
2C4
100
AcDbEntity
  8
0
  6
CONTINUOUS
 62
               7
100
AcDbLine
 10
104.00000000000011
 20
0.0000000000005684
 30
0.0
 11
105.0
 21
0.0000000000005684
 31
0.0
  0
ARC
  5
2C5
100
AcDbEntity
  8
0
  6
CONTINUOUS
 62
               7
100
AcDbCircle
 10
104.49999992399989
 20
-0.4999999959994739
 30
0.0
 40
0.4999999959999999
100
AcDbArc
 50
359.99999749552182
 51
90.0
  0
LINE
  5
2C6
100
AcDbEntity
  8
0
  6
CONTINUOUS
 62
               7
100
AcDbLine
 10
106.29997913433237
 20
-2.9637341933560606
 30
0.0
 11
105.00001312363077
 21
-2.8500019047826868
 31
0.0
  0
ARC
  5
2C7
100
AcDbEntity
  8
0
  6
CONTINUOUS
 62
               7
100
AcDbCircle
 10
98.917601720048538
 20
-6.00000618383757
 30
0.0
 40
7.982419490814209
100
AcDbArc
 50
19.009085624347371
 51
22.356542861572724
  0
LINE
  5
2C8
100
AcDbEntity
  8
0
  6
CONTINUOUS
 62
               7
100
AcDbLine
 10
106.29998697395479
 20
-3.3999877929680906
 30
0.0
 11
106.29998697395479
 21
-2.9637207834468882
 31
0.0
  0
LINE
  5
2C9
100
AcDbEntity
  8
0
  6
CONTINUOUS
 62
               7
100
AcDbLine
 10
106.3000136899725
 20
-151.53626058239229
 30
0.0
 11
104.99998687637049
 21
-151.6499981905302
 31
0.0
  0
LINE
  5
2CA
100
AcDbEntity
  8
0
  6
CONTINUOUS
 62
               7
100
AcDbLine
 10
106.29997913433067
 20
-145.46373409804278
 30
0.0
 11
105.00001312362906
 21
-145.3500018094694
 31
0.0
  0
ARC
  5
2CB
100
AcDbEntity
  8
0
  6
CONTINUOUS
 62
               7
100
AcDbCircle
 10
98.917601720046832
 20
-148.50000608852429
 30
0.0
 40
7.982419490814209
100
AcDbArc
 50
337.64346078089295
 51
22.356542861572724
  0
LINE
  5
2CC
100
AcDbEntity
  8
0
  6
CONTINUOUS
 62
               7
100
AcDbLine
 10
106.29998697395308
 20
-151.53626097133667
 30
0.0
 11
106.29998697395308
 21
-145.46372068813355
 31
0.0
  0
ARC
  5
2CD
100
AcDbEntity
  8
0
  6
CONTINUOUS
 62
               7
100
AcDbCircle
 10
98.917601720046832
 20
-291.00000608852423
 30
0.0
 40
7.982419490814209
100
AcDbArc
 50
337.64346078089295
 51
22.356542861572724
  0
LINE
  5
2CE
100
AcDbEntity
  8
0
  6
CONTINUOUS
 62
               7
100
AcDbLine
 10
106.29998697395308
 20
-294.03626097133662
 30
0.0
 11
106.29998697395308
 21
-287.96372068813349
 31
0.0
  0
LINE
  5
2CF
100
AcDbEntity
  8
0
  6
CONTINUOUS
 62
               7
100
AcDbLine
 10
106.29997913433067
 20
-287.96373409804272
 30
0.0
 11
105.00001312362906
 21
-287.85000180946935
 31
0.0
  0
LINE
  5
2D0
100
AcDbEntity
  8
0
  6
CONTINUOUS
 62
               7
100
AcDbLine
 10
106.3000136899725
 20
-294.03626058239223
 30
0.0
 11
104.99998687637049
 21
-294.14999819053014
 31
0.0
  0
LINE
  5
2D1
100
AcDbEntity
  8
0
  6
CONTINUOUS
 62
               2
100
AcDbLine
 10
135.0
 20
-5.1497915942146051
 30
0.0
 11
135.0
 21
3.7369261892515055
 31
0.0
  0
ARC
  5
2D2
100
AcDbEntity
  8
0
  6
CONTINUOUS
 62
               7
100
AcDbCircle
 10
128.49999999999989
 20
0.1000160217284929
 30
0.0
 40
1.0
100
AcDbArc
 50
90.0
 51
180.0
  0
ARC
  5
2D3
100
AcDbEntity
  8
0
  6
CONTINUOUS
 62
               7
100
AcDbCircle
 10
127.0
 20
-3.399983978271564
 30
0.0
 40
3.4999999999999996
100
AcDbArc
 50
90.0
 51
180.0
  0
ARC
  5
2D4
100
AcDbEntity
  8
0
  6
CONTINUOUS
 62
               7
100
AcDbCircle
 10
141.5
 20
0.1000160217284929
 30
0.0
 40
1.0
100
AcDbArc
 50
0.0
 51
90.0
  0
LINE
  5
2D5
100
AcDbEntity
  8
0
  6
CONTINUOUS
 62
               7
100
AcDbLine
 10
127.0
 20
0.1000160217284929
 30
0.0
 11
143.0
 21
0.1000160217284929
 31
0.0
  0
LINE
  5
2D6
100
AcDbEntity
  8
0
  6
CONTINUOUS
 62
               7
100
AcDbLine
 10
141.5
 20
1.1000160217284929
 30
0.0
 11
128.49999999999989
 21
1.1000160217284929
 31
0.0
  0
ARC
  5
2D7
100
AcDbEntity
  8
0
  6
CONTINUOUS
 62
               7
100
AcDbCircle
 10
143.0
 20
-3.399983978271564
 30
0.0
 40
3.4999999999999996
100
AcDbArc
 50
0.0
 51
90.0
  0
LINE
  5
2D8
100
AcDbEntity
  8
0
  6
CONTINUOUS
 62
               7
100
AcDbLine
 10
148.0
 20
-3.4000030517578921
 30
0.0
 11
70.0
 21
-3.4000030517578921
 31
0.0
  0
LINE
  5
2D9
100
AcDbEntity
  8
0
  6
CONTINUOUS
 62
               7
100
AcDbLine
 10
65.500000075999992
 20
-250.00000305175763
 30
0.0
 11
65.999999999999886
 21
-250.00000305175763
 31
0.0
  0
LINE
  5
2DA
100
AcDbEntity
  8
0
  6
CONTINUOUS
 62
               7
100
AcDbLine
 10
105.0
 20
-230.00000337175774
 30
0.0
 11
104.00000000000011
 21
-230.00000337175774
 31
0.0
  0
ARC
  5
2DB
100
AcDbEntity
  8
0
  6
CONTINUOUS
 62
               7
100
AcDbCircle
 10
65.500000075999992
 20
-249.50000305575759
 30
0.0
 40
0.4999999959999999
100
AcDbArc
 50
179.99999749552182
 51
270.0
  0
LINE
  5
2DC
100
AcDbEntity
  8
0
  6
CONTINUOUS
 62
               7
100
AcDbLine
 10
65.0
 20
-230.00000337175774
 30
0.0
 11
65.999999999999886
 21
-230.00000337175774
 31
0.0
  0
ARC
  5
2DD
100
AcDbEntity
  8
0
  6
CONTINUOUS
 62
               7
100
AcDbCircle
 10
65.500000075999992
 20
-230.50000336775778
 30
0.0
 40
0.4999999959999999
100
AcDbArc
 50
90.0
 51
180.00000250447818
  0
ARC
  5
2DE
100
AcDbEntity
  8
0
  6
CONTINUOUS
 62
               7
100
AcDbCircle
 10
104.49999992400001
 20
-249.50000305575767
 30
0.0
 40
0.4999999959999999
100
AcDbArc
 50
270.0
 51
0.0000025044781673
  0
ARC
  5
2DF
100
AcDbEntity
  8
0
  6
CONTINUOUS
 62
               7
100
AcDbCircle
 10
104.49999992400001
 20
-230.50000336775778
 30
0.0
 40
0.4999999959999999
100
AcDbArc
 50
359.99999749552182
 51
90.0
  0
LINE
  5
2E0
100
AcDbEntity
  8
0
  6
CONTINUOUS
 62
               7
100
AcDbLine
 10
104.49999992400001
 20
-250.00000305175763
 30
0.0
 11
104.00000000000011
 21
-250.00000305175763
 31
0.0
  0
LINE
  5
2E1
100
AcDbEntity
  8
0
  6
CONTINUOUS
 62
               7
100
AcDbLine
 10
148.0
 20
-44.000003051757972
 30
0.0
 11
-105.67529296874989
 21
-44.000003051757915
 31
0.0
  0
LINE
  5
2E2
100
AcDbEntity
  8
0
  6
CONTINUOUS
 62
               7
100
AcDbLine
 10
-105.67529296874989
 20
-5.9999877929688523
 30
0.0
 11
70.0
 21
-6.0000125885011357
 31
0.0
  0
LINE
  5
2E3
100
AcDbEntity
  8
0
  6
CONTINUOUS
 62
               7
100
AcDbLine
 10
71.921435475800081
 20
-45.000003051757915
 30
0.0
 11
5.5000000000000568
 21
-45.000003051757915
 31
0.0
  0
LINE
  5
2E4
100
AcDbEntity
  8
0
  6
CONTINUOUS
 62
               7
100
AcDbLine
 10
71.424365395586051
 20
-44.850003072173592
 30
0.0
 11
71.350000029650005
 21
-44.000003047528537
 31
0.0
  0
LINE
  5
2E5
100
AcDbEntity
  8
0
  6
CONTINUOUS
 62
               7
100
AcDbLine
 10
75.575634604413835
 20
-44.850003072173763
 30
0.0
 11
75.649999970349882
 21
-44.000003047528821
 31
0.0
  0
LINE
  5
2E6
100
AcDbEntity
  8
0
  6
CONTINUOUS
 62
               7
100
AcDbLine
 10
75.575634717941284
 20
-44.85000307559983
 30
0.0
 11
71.424365282058716
 21
-44.850003075599602
 31
0.0
  0
ARC
  5
2E7
100
AcDbEntity
  8
0
  6
CONTINUOUS
 62
               7
100
AcDbCircle
 10
73.500000000000227
 20
-38.87034721374522
 30
0.0
 40
6.3296561241149902
100
AcDbArc
 50
250.85729086486964
 51
289.14270731389303
  0
LINE
  5
2E8
100
AcDbEntity
  8
0
  6
CONTINUOUS
 62
               7
100
AcDbLine
 10
71.415614939947545
 20
-2.6500122070315228
 30
0.0
 11
70.500000000000227
 21
-2.6500122070315228
 31
0.0
  0
LINE
  5
2E9
100
AcDbEntity
  8
0
  6
CONTINUOUS
 62
               7
100
AcDbLine
 10
60.0
 20
-6.0000125885012494
 30
0.0
 11
60.0
 21
-2.000012588501022
 31
0.0
  0
LINE
  5
2EA
100
AcDbEntity
  8
0
  6
CONTINUOUS
 62
               7
100
AcDbLine
 10
71.424365441746431
 20
-2.5499935135022156
 30
0.0
 11
71.350000077464074
 21
-3.3999935192440489
 31
0.0
  0
LINE
  5
2EB
100
AcDbEntity
  8
0
  6
CONTINUOUS
 62
               7
100
AcDbLine
 10
75.575634558254023
 20
-2.5499935135021587
 30
0.0
 11
75.649999922536153
 21
-3.3999935192440489
 31
0.0
  0
LINE
  5
2EC
100
AcDbEntity
  8
0
  6
CONTINUOUS
 62
               7
100
AcDbLine
 10
75.575634717941512
 20
-2.5499934911728133
 30
0.0
 11
71.424365282058716
 21
-2.5499934911729838
 31
0.0
  0
LINE
  5
2ED
100
AcDbEntity
  8
0
  6
CONTINUOUS
 62
               7
100
AcDbLine
 10
66.424365441745977
 20
-1.1500125869885096
 30
0.0
 11
66.350000077463847
 21
-2.0000125927302861
 31
0.0
  0
LINE
  5
2EE
100
AcDbEntity
  8
0
  6
CONTINUOUS
 62
               7
100
AcDbLine
 10
70.575634558254023
 20
-1.1500125869885096
 30
0.0
 11
70.649999922536153
 21
-2.0000125927302861
 31
0.0
  0
LINE
  5
2EF
100
AcDbEntity
  8
0
  6
CONTINUOUS
 62
               7
100
AcDbLine
 10
70.575634717941512
 20
-1.1500125646591641
 30
0.0
 11
66.424365282058716
 21
-1.1500125646593347
 31
0.0
  0
ARC
  5
2F0
100
AcDbEntity
  8
0
  6
CONTINUOUS
 62
               7
100
AcDbCircle
 10
73.500000000000455
 20
-8.5296493530274802
 30
0.0
 40
6.3296561241149902
100
AcDbArc
 50
70.857292686107982
 51
109.14270913513137
  0
ARC
  5
2F1
100
AcDbEntity
  8
0
  6
CONTINUOUS
 62
               7
100
AcDbCircle
 10
68.500000000000455
 20
-7.1296684265139447
 30
0.0
 40
6.3296561241149902
100
AcDbArc
 50
70.857292686105737
 51
109.14270913512912
  0
ARC
  5
2F2
100
AcDbEntity
  8
0
  6
CONTINUOUS
 62
               7
100
AcDbCircle
 10
75.0
 20
-9.0000125885010789
 30
0.0
 40
6.3499999999999996
100
AcDbArc
 50
61.87135403137335
 51
84.698108691995131
  0
LINE
  5
2F3
100
AcDbEntity
  8
0
  6
CONTINUOUS
 62
               7
100
AcDbLine
 10
70.500000000000227
 20
-2.000012588501022
 30
0.0
 11
70.500000000000227
 21
-3.4000030517578921
 31
0.0
  0
LINE
  5
2F4
100
AcDbEntity
  8
0
  6
CONTINUOUS
 62
               7
100
AcDbLine
 10
60.0
 20
-2.000012588501022
 30
0.0
 11
70.649999922536153
 21
-2.000012588501022
 31
0.0
  0
LINE
  5
2F5
100
AcDbEntity
  8
0
  6
CONTINUOUS
 62
               7
100
AcDbLine
 10
148.0
 20
-44.000003051757858
 30
0.0
 11
148.0
 21
-3.4000030517578921
 31
0.0
  0
LINE
  5
2F6
100
AcDbEntity
  8
0
  6
CONTINUOUS
 62
               7
100
AcDbLine
 10
146.67431640625
 20
-11.17000122070317
 30
0.0
 11
71.04644775390625
 21
-11.17000122070317
 31
0.0
  0
LINE
  5
2F7
100
AcDbEntity
  8
0
  6
CONTINUOUS
 62
               7
100
AcDbLine
 10
146.85473632812489
 20
-38.830004882812659
 30
0.0
 11
70.86614990234375
 21
-38.830004882812659
 31
0.0
  0
LINE
  5
2F8
100
AcDbEntity
  8
0
  6
CONTINUOUS
 62
               7
100
AcDbLine
 10
66.000009536743391
 20
-2.000012588501022
 30
0.0
 11
66.000009536743391
 21
17.000012207031091
 31
0.0
  0
ARC
  5
2F9
100
AcDbEntity
  8
0
  6
CONTINUOUS
 62
               7
100
AcDbCircle
 10
0.0
 20
610.1999969482431
 30
0.0
 40
920.0
100
AcDbArc
 50
272.76310112686076
 51
276.49788211075821
  0
LINE
  5
2FA
100
AcDbEntity
  8
0
  6
CONTINUOUS
 62
               2
100
AcDbLine
 10
40.0
 20
1.1513786785028515
 30
0.0
 11
40.0
 21
-12.852428285217854
 31
0.0
  0
LINE
  5
2FB
100
AcDbEntity
  8
0
  6
CONTINUOUS
 62
               2
100
AcDbLine
 10
30.0
 20
1.1513786785028515
 30
0.0
 11
30.0
 21
-12.852428285217854
 31
0.0
  0
LINE
  5
2FC
100
AcDbEntity
  8
0
  6
CONTINUOUS
 62
               7
100
AcDbLine
 10
-25.0
 20
-5.9999877929688523
 30
0.0
 11
-25.0
 21
0.0
 31
0.0
  0
LINE
  5
2FD
100
AcDbEntity
  8
0
  6
CONTINUOUS
 62
               7
100
AcDbLine
 10
25.0
 20
-4.9999877929688523
 30
0.0
 11
25.0
 21
0.0
 31
0.0
  0
LINE
  5
2FF
100
AcDbEntity
  8
0
  6
PHANTOM
 62
               2
100
AcDbLine
 10
-72.0
 20
-225.00000305630869
 30
0.0
 11
-72.0
 21
-25.000003051757915
 31
0.0
  0
LINE
  5
300
100
AcDbEntity
  8
0
  6
PHANTOM
 62
               2
100
AcDbLine
 10
28.0
 20
-225.00000305630869
 30
0.0
 11
-72.0
 21
-225.00000305630869
 31
0.0
  0
LINE
  5
301
100
AcDbEntity
  8
0
  6
CONTINUOUS
 62
               7
100
AcDbLine
 10
-105.0
 20
-5.999987888282476
 30
0.0
 11
-105.0
 21
0.0
 31
0.0
  0
LINE
  5
302
100
AcDbEntity
  8
0
  6
CONTINUOUS
 62
               7
100
AcDbLine
 10
65.999999999999886
 20
0.0
 30
0.0
 11
-105.0
 21
0.0
 31
0.0
  0
CIRCLE
  5
303
100
AcDbEntity
  8
0
  6
CONTINUOUS
 62
               7
100
AcDbCircle
 10
-97.242857524326894
 20
-50.000000000000057
 30
0.0
 40
5.0
  0
LINE
  5
304
100
AcDbEntity
  8
0
  6
CONTINUOUS
 62
               7
100
AcDbLine
 10
49.800003051757926
 20
-289.80001068115223
 30
0.0
 11
60.199996948242188
 21
-289.80001068115223
 31
0.0
  0
LINE
  5
305
100
AcDbEntity
  8
0
  6
CONTINUOUS
 62
               7
100
AcDbLine
 10
49.800003051757926
 20
-292.20001220703108
 30
0.0
 11
60.199996948242188
 21
-292.20001220703108
 31
0.0
  0
LINE
  5
306
100
AcDbEntity
  8
0
  6
CONTINUOUS
 62
               7
100
AcDbLine
 10
-60.199999332427922
 20
-292.20001220703108
 30
0.0
 11
-60.199999332427922
 21
-289.80001068115223
 31
0.0
  0
LINE
  5
307
100
AcDbEntity
  8
0
  6
CONTINUOUS
 62
               7
100
AcDbLine
 10
60.199996948242188
 20
-292.20001220703108
 30
0.0
 11
60.199996948242188
 21
-289.80001068115223
 31
0.0
  0
LINE
  5
308
100
AcDbEntity
  8
0
  6
CONTINUOUS
 62
               7
100
AcDbLine
 10
-49.799999237060547
 20
-292.20001220703108
 30
0.0
 11
-49.799999237060547
 21
-289.80001068115223
 31
0.0
  0
LINE
  5
309
100
AcDbEntity
  8
0
  6
CONTINUOUS
 62
               7
100
AcDbLine
 10
49.800003051757926
 20
-292.20001220703108
 30
0.0
 11
49.800003051757926
 21
-289.80001068115223
 31
0.0
  0
LINE
  5
30A
100
AcDbEntity
  8
0
  6
CONTINUOUS
 62
               7
100
AcDbLine
 10
-60.199999332427922
 20
-289.80001068115223
 30
0.0
 11
-49.799999237060547
 21
-289.80001068115223
 31
0.0
  0
LINE
  5
30B
100
AcDbEntity
  8
0
  6
CONTINUOUS
 62
               7
100
AcDbLine
 10
-60.199999332427922
 20
-292.20001220703108
 30
0.0
 11
-49.799999237060547
 21
-292.20001220703108
 31
0.0
  0
LINE
  5
30C
100
AcDbEntity
  8
0
  6
CONTINUOUS
 62
               7
100
AcDbLine
 10
62.650009155273665
 20
18.415627146978579
 30
0.0
 11
62.650009155273665
 21
17.500012207031318
 31
0.0
  0
LINE
  5
30D
100
AcDbEntity
  8
0
  6
CONTINUOUS
 62
               7
100
AcDbLine
 10
66.000009536743391
 20
7.0000122070309772
 30
0.0
 11
62.000009536743164
 21
7.0000122070309772
 31
0.0
  0
LINE
  5
30E
100
AcDbEntity
  8
0
  6
CONTINUOUS
 62
               7
100
AcDbLine
 10
62.549990461744301
 20
18.424377648777522
 30
0.0
 11
63.399990467486191
 21
18.350012284495108
 31
0.0
  0
LINE
  5
30F
100
AcDbEntity
  8
0
  6
CONTINUOUS
 62
               7
100
AcDbLine
 10
62.549990461744301
 20
22.575646765285228
 30
0.0
 11
63.399990467486191
 21
22.650012129567301
 31
0.0
  0
LINE
  5
310
100
AcDbEntity
  8
0
  6
CONTINUOUS
 62
               7
100
AcDbLine
 10
62.549990439414955
 20
22.575646924972659
 30
0.0
 11
62.549990439415069
 21
18.42437748908975
 31
0.0
  0
LINE
  5
311
100
AcDbEntity
  8
0
  6
CONTINUOUS
 62
               7
100
AcDbLine
 10
61.150009535230652
 20
13.424377648776954
 30
0.0
 11
62.000009540972428
 21
13.350012284494881
 31
0.0
  0
LINE
  5
312
100
AcDbEntity
  8
0
  6
CONTINUOUS
 62
               7
100
AcDbLine
 10
61.150009535230652
 20
17.575646765285114
 30
0.0
 11
62.000009540972428
 21
17.650012129567244
 31
0.0
  0
LINE
  5
313
100
AcDbEntity
  8
0
  6
CONTINUOUS
 62
               7
100
AcDbLine
 10
61.150009512901306
 20
17.575646924972602
 30
0.0
 11
61.15000951290142
 21
13.424377489089693
 31
0.0
  0
ARC
  5
314
100
AcDbEntity
  8
0
  6
CONTINUOUS
 62
               7
100
AcDbCircle
 10
68.529646301269622
 20
20.500012207031546
 30
0.0
 40
6.3296561241149902
100
AcDbArc
 50
160.857292686108
 51
199.14270913513135
  0
ARC
  5
315
100
AcDbEntity
  8
0
  6
CONTINUOUS
 62
               7
100
AcDbCircle
 10
67.129665374756087
 20
15.500012207031432
 30
0.0
 40
6.3296561241149902
100
AcDbArc
 50
160.85729268610575
 51
199.14270913512914
  0
ARC
  5
316
100
AcDbEntity
  8
0
  6
CONTINUOUS
 62
               7
100
AcDbCircle
 10
69.000009536743164
 20
22.000012207031205
 30
0.0
 40
6.3499999999999996
100
AcDbArc
 50
151.87135403137302
 51
174.69810869199515
  0
LINE
  5
317
100
AcDbEntity
  8
0
  6
CONTINUOUS
 62
               7
100
AcDbLine
 10
62.000009536743164
 20
17.500012207031318
 30
0.0
 11
63.399999999999977
 21
17.500012207031318
 31
0.0
  0
LINE
  5
318
100
AcDbEntity
  8
0
  6
CONTINUOUS
 62
               7
100
AcDbLine
 10
62.000009536743164
 20
7.0000122070309772
 30
0.0
 11
62.000009536743164
 21
17.650012129567244
 31
0.0
  0
LINE
  5
319
100
AcDbEntity
  8
0
  6
CONTINUOUS
 62
               2
100
AcDbLine
 10
37.999999999999773
 20
-331.1123477622458
 30
0.0
 11
37.999999999999773
 21
-302.10386151460085
 31
0.0
  0
LINE
  5
31A
100
AcDbEntity
  8
0
  6
CONTINUOUS
 62
               7
100
AcDbLine
 10
44.349999999999682
 20
-325.29998795296797
 30
0.0
 11
31.649999999999864
 21
-325.29998795296797
 31
0.0
  0
LINE
  5
31B
100
AcDbEntity
  8
0
  6
CONTINUOUS
 62
               7
100
AcDbLine
 10
32.5
 20
-326.2999879529678
 30
0.0
 11
43.499999999999773
 21
-326.2999879529678
 31
0.0
  0
LINE
  5
31C
100
AcDbEntity
  8
0
  6
CONTINUOUS
 62
               7
100
AcDbLine
 10
44.349999999999682
 20
-325.29998795296797
 30
0.0
 11
43.499999999999773
 21
-326.2999879529678
 31
0.0
  0
LINE
  5
31D
100
AcDbEntity
  8
0
  6
CONTINUOUS
 62
               7
100
AcDbLine
 10
32.5
 20
-326.2999879529678
 30
0.0
 11
31.649999999999864
 21
-325.29998795296797
 31
0.0
  0
LINE
  5
31E
100
AcDbEntity
  8
0
  6
CONTINUOUS
 62
               7
100
AcDbLine
 10
32.5
 20
-327.79998795296797
 30
0.0
 11
43.499999999999773
 21
-327.79998795296797
 31
0.0
  0
LINE
  5
31F
100
AcDbEntity
  8
0
  6
CONTINUOUS
 62
               7
100
AcDbLine
 10
43.499999999999773
 20
-327.79998795296797
 30
0.0
 11
43.499999999999773
 21
-326.2999879529678
 31
0.0
  0
LINE
  5
320
100
AcDbEntity
  8
0
  6
CONTINUOUS
 62
               7
100
AcDbLine
 10
32.5
 20
-327.79998795296797
 30
0.0
 11
32.5
 21
-326.2999879529678
 31
0.0
  0
LINE
  5
321
100
AcDbEntity
  8
0
  6
CONTINUOUS
 62
               7
100
AcDbLine
 10
44.349999999999682
 20
-325.29998795296797
 30
0.0
 11
44.349999999999682
 21
-306.23386712497887
 31
0.0
  0
LINE
  5
322
100
AcDbEntity
  8
0
  6
CONTINUOUS
 62
               7
100
AcDbLine
 10
31.649999999999864
 20
-325.29998795296797
 30
0.0
 11
31.649999999999864
 21
-306.87906273116909
 31
0.0
  0
LINE
  5
323
100
AcDbEntity
  8
0
  6
CONTINUOUS
 62
               7
100
AcDbLine
 10
64.999984741210937
 20
-1.9999877929687955
 30
0.0
 11
64.999984741210937
 21
7.0000122070309772
 31
0.0
  0
SPLINE
  5
324
100
AcDbEntity
  8
0
  6
CONTINUOUS
 62
               7
100
AcDbSpline
210
0.0
220
0.0
230
1.0
 70
               0
 71
               3
 72
               0
 73
               0
 74
               3
 44
0.000001
 12
-0.994162944659953
 22
-0.1078890145707673
 32
0.0
 13
-0.9999789424324793
 23
0.006489583316377
 33
0.0
 11
44.349999999999682
 21
-306.23386712497887
 31
0.0
 11
39.579992163618272
 21
-306.64768987705185
 31
0.0
 11
31.649999999999736
 21
-306.87906273116909
 31
0.0
  0
LINE
  5
325
100
AcDbEntity
  8
0
  6
PHANTOM
 62
               2
100
AcDbLine
 10
28.0
 20
-24.99999542236344
 30
0.0
 11
-72.0
 21
-25.000003056308913
 31
0.0
  0
LINE
  5
326
100
AcDbEntity
  8
0
  6
CONTINUOUS
 62
               2
100
AcDbLine
 10
-72.0
 20
-25.000003051757915
 30
0.0
 11
-115.81774902343744
 21
-25.000003051757915
 31
0.0
  0
LINE
  5
327
100
AcDbEntity
  8
0
  6
PHANTOM
 62
               2
100
AcDbLine
 10
28.0
 20
-25.000003056308913
 30
0.0
 11
28.0
 21
-225.00000305630869
 31
0.0
  0
LINE
  5
328
100
AcDbEntity
  8
0
  6
CONTINUOUS
 62
               2
100
AcDbLine
 10
10.000000010000065
 20
-114.15476664765276
 30
0.0
 11
10.000000010000065
 21
-119.80372045372053
 31
0.0
  0
LINE
  5
329
100
AcDbEntity
  8
0
  6
CONTINUOUS
 62
               2
100
AcDbLine
 10
12.82264904631279
 20
-117.00000011700001
 30
0.0
 11
6.9695161794584237
 21
-117.00000011700001
 31
0.0
  0
CIRCLE
  5
32A
100
AcDbEntity
  8
0
  6
CONTINUOUS
 62
               7
100
AcDbCircle
 10
10.000000010000065
 20
-117.00000011700001
 30
0.0
 40
1.0000000010000001
  0
CIRCLE
  5
32B
100
AcDbEntity
  8
0
  6
CONTINUOUS
 62
               2
100
AcDbCircle
 10
10.000000010000065
 20
-117.00000011700001
 30
0.0
 40
1.5000000014999999
  0
LINE
  5
32C
100
AcDbEntity
  8
0
  6
CONTINUOUS
 62
               2
100
AcDbLine
 10
10.000000010000065
 20
-174.15476670765287
 30
0.0
 11
10.000000010000065
 21
-179.80372051372052
 31
0.0
  0
CIRCLE
  5
32D
100
AcDbEntity
  8
0
  6
CONTINUOUS
 62
               7
100
AcDbCircle
 10
10.000000010000065
 20
-177.000000177
 30
0.0
 40
1.0000000010000001
  0
CIRCLE
  5
32E
100
AcDbEntity
  8
0
  6
CONTINUOUS
 62
               2
100
AcDbCircle
 10
10.000000010000065
 20
-177.000000177
 30
0.0
 40
1.5000000014999999
  0
LINE
  5
32F
100
AcDbEntity
  8
0
  6
CONTINUOUS
 62
               2
100
AcDbLine
 10
7.1773509736873393
 20
-177.000000177
 30
0.0
 11
13.030483840541649
 21
-177.000000177
 31
0.0
  0
CIRCLE
  5
330
100
AcDbEntity
  8
0
  6
CONTINUOUS
 62
               2
100
AcDbCircle
 10
-10.000000010000008
 20
-117.00000011700001
 30
0.0
 40
1.5000000014999999
  0
CIRCLE
  5
331
100
AcDbEntity
  8
0
  6
CONTINUOUS
 62
               7
100
AcDbCircle
 10
-10.000000010000008
 20
-117.00000011700001
 30
0.0
 40
1.0000000010000001
  0
LINE
  5
332
100
AcDbEntity
  8
0
  6
CONTINUOUS
 62
               2
100
AcDbLine
 10
-12.822649046312733
 20
-117.00000011700001
 30
0.0
 11
-6.9695161794584237
 21
-117.00000011700001
 31
0.0
  0
LINE
  5
333
100
AcDbEntity
  8
0
  6
CONTINUOUS
 62
               2
100
AcDbLine
 10
-10.000000010000008
 20
-114.15476664765276
 30
0.0
 11
-10.000000010000008
 21
-119.80372045372053
 31
0.0
  0
CIRCLE
  5
334
100
AcDbEntity
  8
0
  6
CONTINUOUS
 62
               2
100
AcDbCircle
 10
-10.000000010000008
 20
-177.000000177
 30
0.0
 40
1.5000000014999999
  0
CIRCLE
  5
335
100
AcDbEntity
  8
0
  6
CONTINUOUS
 62
               7
100
AcDbCircle
 10
-10.000000010000008
 20
-177.000000177
 30
0.0
 40
1.0000000010000001
  0
LINE
  5
336
100
AcDbEntity
  8
0
  6
CONTINUOUS
 62
               2
100
AcDbLine
 10
-12.822649046312733
 20
-177.000000177
 30
0.0
 11
-6.9695161794584237
 21
-177.000000177
 31
0.0
  0
LINE
  5
337
100
AcDbEntity
  8
0
  6
CONTINUOUS
 62
               2
100
AcDbLine
 10
-10.000000010000008
 20
-174.15476670765287
 30
0.0
 11
-10.000000010000008
 21
-179.80372051372052
 31
0.0
  0
LINE
  5
338
100
AcDbEntity
  8
0
  6
CONTINUOUS
 62
               7
100
AcDbLine
 10
49.0
 20
-38.99999542236344
 30
0.0
 11
6.9999999999998863
 21
-38.99999542236344
 31
0.0
  0
LINE
  5
339
100
AcDbEntity
  8
0
  6
CONTINUOUS
 62
               7
100
AcDbLine
 10
49.0
 20
-43.99999542236344
 30
0.0
 11
49.0
 21
-38.40001983642594
 31
0.0
  0
LINE
  5
33A
100
AcDbEntity
  8
0
  6
CONTINUOUS
 62
               7
100
AcDbLine
 10
6.9999999999998863
 20
-43.99999542236344
 30
0.0
 11
6.9999999999998863
 21
-38.40001983642594
 31
0.0
  0
LINE
  5
33B
100
AcDbEntity
  8
0
  6
CONTINUOUS
 62
               2
100
AcDbLine
 10
12.499999999999943
 20
-41.49999542236344
 30
0.0
 11
17.499999999999943
 21
-41.49999542236344
 31
0.0
  0
LINE
  5
33C
100
AcDbEntity
  8
0
  6
CONTINUOUS
 62
               2
100
AcDbLine
 10
14.999999999999943
 20
-43.99999542236344
 30
0.0
 11
14.999999999999943
 21
-38.99999542236344
 31
0.0
  0
LINE
  5
33D
100
AcDbEntity
  8
0
  6
CONTINUOUS
 62
               2
100
AcDbLine
 10
38.5
 20
-41.49999542236344
 30
0.0
 11
43.5
 21
-41.49999542236344
 31
0.0
  0
LINE
  5
33E
100
AcDbEntity
  8
0
  6
CONTINUOUS
 62
               2
100
AcDbLine
 10
41.0
 20
-43.99999542236344
 30
0.0
 11
41.0
 21
-38.99999542236344
 31
0.0
  0
LINE
  5
33F
100
AcDbEntity
  8
0
  6
CONTINUOUS
 62
               2
100
AcDbLine
 10
38.5
 20
-8.4999954223634404
 30
0.0
 11
43.5
 21
-8.4999954223634404
 31
0.0
  0
LINE
  5
340
100
AcDbEntity
  8
0
  6
CONTINUOUS
 62
               2
100
AcDbLine
 10
41.0
 20
-10.99999542236344
 30
0.0
 11
41.0
 21
-5.9999954223634404
 31
0.0
  0
LINE
  5
341
100
AcDbEntity
  8
0
  6
CONTINUOUS
 62
               2
100
AcDbLine
 10
12.499999999999943
 20
-8.4999954223634404
 30
0.0
 11
17.499999999999943
 21
-8.4999954223634404
 31
0.0
  0
LINE
  5
342
100
AcDbEntity
  8
0
  6
CONTINUOUS
 62
               2
100
AcDbLine
 10
14.999999999999943
 20
-10.99999542236344
 30
0.0
 11
14.999999999999943
 21
-5.9999954223634404
 31
0.0
  0
LINE
  5
343
100
AcDbEntity
  8
0
  6
CONTINUOUS
 62
               7
100
AcDbLine
 10
6.9999999999998863
 20
-11.59997100830094
 30
0.0
 11
6.9999999999998863
 21
-5.9999954223634404
 31
0.0
  0
LINE
  5
344
100
AcDbEntity
  8
0
  6
CONTINUOUS
 62
               7
100
AcDbLine
 10
49.0
 20
-10.99999542236344
 30
0.0
 11
6.9999999999998863
 21
-10.99999542236344
 31
0.0
  0
LINE
  5
345
100
AcDbEntity
  8
0
  6
CONTINUOUS
 62
               7
100
AcDbLine
 10
49.0
 20
-11.59997100830094
 30
0.0
 11
49.0
 21
-5.9999954223634404
 31
0.0
  0
ARC
  5
346
100
AcDbEntity
  8
0
  6
CONTINUOUS
 62
               7
100
AcDbCircle
 10
37.5
 20
-35.499995422363384
 30
0.0
 40
3.25
100
AcDbArc
 50
243.16467852464015
 51
296.83532147535988
  0
ARC
  5
347
100
AcDbEntity
  8
0
  6
CONTINUOUS
 62
               7
100
AcDbCircle
 10
18.5
 20
-35.499995422363384
 30
0.0
 40
3.25
100
AcDbArc
 50
243.16467852464015
 51
296.83532147535988
  0
ARC
  5
348
100
AcDbEntity
  8
0
  6
CONTINUOUS
 62
               7
100
AcDbCircle
 10
37.5
 20
-14.49999542236344
 30
0.0
 40
3.25
100
AcDbArc
 50
63.164683533596474
 51
116.8353264843162
  0
ARC
  5
349
100
AcDbEntity
  8
0
  6
CONTINUOUS
 62
               7
100
AcDbCircle
 10
18.5
 20
-14.49999542236344
 30
0.0
 40
3.25
100
AcDbArc
 50
63.164683533596474
 51
116.8353264843162
  0
CIRCLE
  5
34A
100
AcDbEntity
  8
0
  6
CONTINUOUS
 62
               2
100
AcDbCircle
 10
14.999999999999943
 20
-41.49999542236344
 30
0.0
 40
1.4999999999999998
  0
CIRCLE
  5
34B
100
AcDbEntity
  8
0
  6
CONTINUOUS
 62
               7
100
AcDbCircle
 10
14.999999999999943
 20
-41.49999542236344
 30
0.0
 40
1.25
  0
CIRCLE
  5
34C
100
AcDbEntity
  8
0
  6
CONTINUOUS
 62
               2
100
AcDbCircle
 10
41.0
 20
-41.49999542236344
 30
0.0
 40
1.4999999999999998
  0
CIRCLE
  5
34D
100
AcDbEntity
  8
0
  6
CONTINUOUS
 62
               7
100
AcDbCircle
 10
41.0
 20
-41.49999542236344
 30
0.0
 40
1.25
  0
CIRCLE
  5
34E
100
AcDbEntity
  8
0
  6
CONTINUOUS
 62
               2
100
AcDbCircle
 10
41.0
 20
-8.4999954223634404
 30
0.0
 40
1.4999999999999998
  0
CIRCLE
  5
34F
100
AcDbEntity
  8
0
  6
CONTINUOUS
 62
               7
100
AcDbCircle
 10
41.0
 20
-8.4999954223634404
 30
0.0
 40
1.25
  0
CIRCLE
  5
350
100
AcDbEntity
  8
0
  6
CONTINUOUS
 62
               2
100
AcDbCircle
 10
14.999999999999943
 20
-8.4999954223634404
 30
0.0
 40
1.4999999999999998
  0
CIRCLE
  5
351
100
AcDbEntity
  8
0
  6
CONTINUOUS
 62
               7
100
AcDbCircle
 10
14.999999999999943
 20
-8.4999954223634404
 30
0.0
 40
1.25
  0
LINE
  5
352
100
AcDbEntity
  8
0
  6
CONTINUOUS
 62
               7
100
AcDbLine
 10
104.85000002041568
 20
18.424377602617142
 30
0.0
 11
103.99999999577062
 21
18.350012236681039
 31
0.0
  0
LINE
  5
353
100
AcDbEntity
  8
0
  6
CONTINUOUS
 62
               7
100
AcDbLine
 10
104.85000002041591
 20
22.575646811444983
 30
0.0
 11
103.99999999577096
 21
22.650012177381086
 31
0.0
  0
LINE
  5
354
100
AcDbEntity
  8
0
  6
CONTINUOUS
 62
               7
100
AcDbLine
 10
104.85000002384197
 20
22.575646924972432
 30
0.0
 11
104.85000002384174
 21
18.42437748908975
 31
0.0
  0
ARC
  5
355
100
AcDbEntity
  8
0
  6
CONTINUOUS
 62
               7
100
AcDbCircle
 10
98.870344161987305
 20
20.500012207031375
 30
0.0
 40
6.3296561241149902
100
AcDbArc
 50
340.85729086486964
 51
19.142707313893034
  0
ARC
  5
356
100
AcDbEntity
  8
0
  6
CONTINUOUS
 62
               7
100
AcDbCircle
 10
102.0
 20
-258.67529602050763
 30
0.0
 40
2.0
100
AcDbArc
 50
292.13135824114102
 51
0.0000025044781673
  0
ARC
  5
357
100
AcDbEntity
  8
0
  6
CONTINUOUS
 62
               7
100
AcDbCircle
 10
68.000000000000114
 20
-258.67529602050763
 30
0.0
 40
2.0
100
AcDbArc
 50
179.99999749552182
 51
247.86864175885896
  0
ARC
  5
358
100
AcDbEntity
  8
0
  6
CONTINUOUS
 62
               7
100
AcDbCircle
 10
68.000000000000114
 20
-254.95199890136701
 30
0.0
 40
2.0
100
AcDbArc
 50
179.99999749552182
 51
260.84681653571539
  0
ARC
  5
359
100
AcDbEntity
  8
0
  6
CONTINUOUS
 62
               7
100
AcDbCircle
 10
102.0
 20
-254.95199890136701
 30
0.0
 40
2.0
100
AcDbArc
 50
279.15318346428461
 51
0.0000025044781673
  0
ARC
  5
35A
100
AcDbEntity
  8
0
  6
CONTINUOUS
 62
               7
100
AcDbCircle
 10
85.0
 20
-216.87500305175772
 30
0.0
 40
47.125
100
AcDbArc
 50
247.86864175885896
 51
292.13135824114102
  0
ARC
  5
35B
100
AcDbEntity
  8
0
  6
CONTINUOUS
 62
               7
100
AcDbCircle
 10
85.0
 20
-149.44467468261729
 30
0.0
 40
108.86813354492186
100
AcDbArc
 50
260.84681653571539
 51
279.15318346428461
  0
ARC
  5
35C
100
AcDbEntity
  8
0
  6
CONTINUOUS
 62
               7
100
AcDbCircle
 10
-105.67529296874989
 20
-42.000003051757858
 30
0.0
 40
2.0
100
AcDbArc
 50
202.13136085930475
 51
270.0
  0
ARC
  5
35D
100
AcDbEntity
  8
0
  6
CONTINUOUS
 62
               7
100
AcDbCircle
 10
-105.67529296874989
 20
-7.9999877929687955
 30
0.0
 40
2.0
100
AcDbArc
 50
90.000005008956336
 51
157.86863048927324
  0
ARC
  5
35E
100
AcDbEntity
  8
0
  6
CONTINUOUS
 62
               7
100
AcDbCircle
 10
-101.9520263671875
 20
-7.9999877929687955
 30
0.0
 40
2.0
100
AcDbArc
 50
90.000005008956336
 51
170.84680953499787
  0
ARC
  5
35F
100
AcDbEntity
  8
0
  6
CONTINUOUS
 62
               7
100
AcDbCircle
 10
-101.9520263671875
 20
-42.000003051757858
 30
0.0
 40
2.0
100
AcDbArc
 50
189.15318181358012
 51
270.0
  0
ARC
  5
360
100
AcDbEntity
  8
0
  6
CONTINUOUS
 62
               7
100
AcDbCircle
 10
-63.874999999999943
 20
-25.000003051757915
 30
0.0
 40
47.125
100
AcDbArc
 50
157.86864096192809
 51
202.13136085930475
  0
ARC
  5
361
100
AcDbEntity
  8
0
  6
CONTINUOUS
 62
               7
100
AcDbCircle
 10
3.5552978515625
 20
-25.000003051757915
 30
0.0
 40
108.86813354492186
100
AcDbArc
 50
170.84681317746356
 51
189.15318181358012
  0
ARC
  5
362
100
AcDbEntity
  8
0
  6
CONTINUOUS
 62
               7
100
AcDbCircle
 10
0.0
 20
-168.86357116699224
 30
0.0
 40
135.72679138183594
100
AcDbArc
 50
255.0562291149291
 51
284.94377088507088
  0
ARC
  5
363
100
AcDbEntity
  8
0
  6
CONTINUOUS
 62
               7
100
AcDbCircle
 10
104.00000000000011
 20
-301.79203796386707
 30
0.0
 40
1.0
100
AcDbArc
 50
271.98128483929463
 51
0.0000025044781673
  0
ARC
  5
364
100
AcDbEntity
  8
0
  6
CONTINUOUS
 62
               7
100
AcDbCircle
 10
-104.00000000000006
 20
-301.79203796386707
 30
0.0
 40
1.0
100
AcDbArc
 50
179.99999749552182
 51
268.01871516070537
  0
ARC
  5
365
100
AcDbEntity
  8
0
  6
CONTINUOUS
 62
               7
100
AcDbCircle
 10
0.0
 20
2704.5327606201135
 30
0.0
 40
3009.123046875
100
AcDbArc
 50
268.01871516070537
 51
271.98128483929463
  0
ARC
  5
366
100
AcDbEntity
  8
0
  6
CONTINUOUS
 62
               7
100
AcDbCircle
 10
104.00000000000011
 20
-302.8000030517577
 30
0.0
 40
1.0
100
AcDbArc
 50
270.0
 51
0.0000025044781673
  0
ARC
  5
367
100
AcDbEntity
  8
0
  6
CONTINUOUS
 62
               7
100
AcDbCircle
 10
104.00000000000011
 20
-302.89637756347639
 30
0.0
 40
1.0
100
AcDbArc
 50
276.49788211075821
 51
0.0000025044781673
  0
ARC
  5
368
100
AcDbEntity
  8
0
  6
CONTINUOUS
 62
               7
100
AcDbCircle
 10
-104.00000000000006
 20
-302.89637756347639
 30
0.0
 40
1.0
100
AcDbArc
 50
179.99999749552182
 51
263.50211788924179
  0
ARC
  5
369
100
AcDbEntity
  8
0
  6
CONTINUOUS
 62
               7
100
AcDbCircle
 10
0.0
 20
610.1999969482431
 30
0.0
 40
920.0
100
AcDbArc
 50
263.50211788924179
 51
271.97148838100145
  0
LINE
  5
36A
100
AcDbEntity
  8
0
  6
CONTINUOUS
 62
               7
100
AcDbLine
 10
70.0
 20
-38.399996948242233
 30
0.0
 11
-99.000000000000057
 21
-38.399996948242233
 31
0.0
  0
LINE
  5
36B
100
AcDbEntity
  8
0
  6
CONTINUOUS
 62
               7
100
AcDbLine
 10
70.0
 20
-36.199984741210983
 30
0.0
 11
-99.000000000000057
 21
-36.199984741210983
 31
0.0
  0
LINE
  5
36C
100
AcDbEntity
  8
0
  6
CONTINUOUS
 62
               7
100
AcDbLine
 10
70.0
 20
-13.799990844726608
 30
0.0
 11
-99.000000000000057
 21
-13.799990844726608
 31
0.0
  0
LINE
  5
36D
100
AcDbEntity
  8
0
  6
CONTINUOUS
 62
               7
100
AcDbLine
 10
70.0
 20
-11.59999389648442
 30
0.0
 11
-99.000000000000057
 21
-11.59999389648442
 31
0.0
  0
LINE
  5
36E
100
AcDbEntity
  8
0
  6
CONTINUOUS
 62
               7
100
AcDbLine
 10
65.999999999999886
 20
-45.000003051757915
 30
0.0
 11
65.999999999999886
 21
-258.67529593308484
 31
0.0
  0
LINE
  5
36F
100
AcDbEntity
  8
0
  6
CONTINUOUS
 62
               7
100
AcDbLine
 10
65.0
 20
-45.000003051757915
 30
0.0
 11
65.0
 21
-249.50000303390189
 31
0.0
  0
LINE
  5
370
100
AcDbEntity
  8
0
  6
CONTINUOUS
 62
               7
100
AcDbLine
 10
105.0
 20
-45.000003051757915
 30
0.0
 11
105.0
 21
-302.8000030517577
 31
0.0
  0
LINE
  5
371
100
AcDbEntity
  8
0
  6
CONTINUOUS
 62
               7
100
AcDbLine
 10
105.50000000000011
 20
-44.000003051757915
 30
0.0
 11
105.50000000000011
 21
-45.000003051757915
 31
0.0
  0
LINE
  5
372
100
AcDbEntity
  8
0
  6
CONTINUOUS
 62
               7
100
AcDbLine
 10
70.999999999999886
 20
-45.000003051757915
 30
0.0
 11
70.999999999999886
 21
-46.000003051757858
 31
0.0
  0
LINE
  5
373
100
AcDbEntity
  8
0
  6
CONTINUOUS
 62
               7
100
AcDbLine
 10
71.599975585937386
 20
-45.000003051757915
 30
0.0
 11
71.599975585937386
 21
-252.0000030517576
 31
0.0
  0
LINE
  5
374
100
AcDbEntity
  8
0
  6
CONTINUOUS
 62
               7
100
AcDbLine
 10
73.799987792968636
 20
-45.192890529027181
 30
0.0
 11
73.799987792968636
 21
-252.0000030517576
 31
0.0
  0
LINE
  5
375
100
AcDbEntity
  8
0
  6
CONTINUOUS
 62
               7
100
AcDbLine
 10
96.200012207031364
 20
-45.000003051757915
 30
0.0
 11
96.200012207031364
 21
-252.0000030517576
 31
0.0
  0
LINE
  5
376
100
AcDbEntity
  8
0
  6
CONTINUOUS
 62
               7
100
AcDbLine
 10
98.400024414062614
 20
-45.000003051757915
 30
0.0
 11
98.400024414062614
 21
-252.0000030517576
 31
0.0
  0
LINE
  5
377
100
AcDbEntity
  8
0
  6
CONTINUOUS
 62
               7
100
AcDbLine
 10
99.000000000000114
 20
-45.000003051757915
 30
0.0
 11
99.000000000000114
 21
-46.000003051757858
 31
0.0
  0
LINE
  5
378
100
AcDbEntity
  8
0
  6
CONTINUOUS
 62
               7
100
AcDbLine
 10
104.00000000000011
 20
-45.000003051757915
 30
0.0
 11
104.00000000000011
 21
-258.67529593308484
 31
0.0
  0
LINE
  5
379
100
AcDbEntity
  8
0
  6
CONTINUOUS
 62
               7
100
AcDbLine
 10
60.0
 20
-4.9999877929688523
 30
0.0
 11
5.5000000000000568
 21
-4.9999877929688523
 31
0.0
  0
LINE
  5
37A
100
AcDbEntity
  8
0
  6
CONTINUOUS
 62
               7
100
AcDbLine
 10
5.5000000000000568
 20
-44.000003051757915
 30
0.0
 11
5.5000000000000568
 21
-45.000003051757915
 31
0.0
  0
LINE
  5
37B
100
AcDbEntity
  8
0
  6
CONTINUOUS
 62
               7
100
AcDbLine
 10
25.0
 20
-45.000003051757915
 30
0.0
 11
25.0
 21
-300.00001525878895
 31
0.0
  0
LINE
  5
37C
100
AcDbEntity
  8
0
  6
CONTINUOUS
 62
               7
100
AcDbLine
 10
-25.0
 20
-44.000003051757915
 30
0.0
 11
-25.0
 21
-300.00001525878895
 31
0.0
  0
LINE
  5
37D
100
AcDbEntity
  8
0
  6
CONTINUOUS
 62
               7
100
AcDbLine
 10
-105.0
 20
-44.000003051757915
 30
0.0
 11
-105.0
 21
-302.89637756347639
 31
0.0
  0
LINE
  5
37E
100
AcDbEntity
  8
0
  6
CONTINUOUS
 62
               7
100
AcDbLine
 10
104.00000000000011
 20
-252.0000030517576
 30
0.0
 11
65.999999999999886
 21
-252.0000030517576
 31
0.0
  0
LINE
  5
37F
100
AcDbEntity
  8
0
  6
CONTINUOUS
 62
               7
100
AcDbLine
 10
96.200012207031364
 20
17.000012207031091
 30
0.0
 11
96.200012207031364
 21
-3.4000030517578921
 31
0.0
  0
LINE
  5
380
100
AcDbEntity
  8
0
  6
CONTINUOUS
 62
               7
100
AcDbLine
 10
71.599975585937386
 20
-46.000003051757858
 30
0.0
 11
65.999999999999886
 21
-46.000003051757858
 31
0.0
  0
LINE
  5
381
100
AcDbEntity
  8
0
  6
CONTINUOUS
 62
               7
100
AcDbLine
 10
73.799987792968636
 20
17.000012207031091
 30
0.0
 11
73.799987792968636
 21
-2.2071060377455751
 31
0.0
  0
LINE
  5
382
100
AcDbEntity
  8
0
  6
CONTINUOUS
 62
               7
100
AcDbLine
 10
71.599975585937386
 20
17.000012207031091
 30
0.0
 11
71.599975585937386
 21
-2.4918969669560624
 31
0.0
  0
LINE
  5
383
100
AcDbEntity
  8
0
  6
CONTINUOUS
 62
               7
100
AcDbLine
 10
98.400024414062614
 20
17.000012207031091
 30
0.0
 11
98.400024414062614
 21
-3.4000030517578921
 31
0.0
  0
LINE
  5
384
100
AcDbEntity
  8
0
  6
CONTINUOUS
 62
               7
100
AcDbLine
 10
104.00000000000011
 20
-46.000003051757858
 30
0.0
 11
98.400024414062614
 21
-46.000003051757858
 31
0.0
  0
LINE
  5
385
100
AcDbEntity
  8
0
  6
CONTINUOUS
 62
               7
100
AcDbLine
 10
104.00000000000011
 20
17.000012207031091
 30
0.0
 11
63.399999999999977
 21
17.000012207031091
 31
0.0
  0
LINE
  5
386
100
AcDbEntity
  8
0
  6
CONTINUOUS
 62
               7
100
AcDbLine
 10
-99.000000000000057
 20
-44.000003051757915
 30
0.0
 11
-99.000000000000057
 21
-5.9999877929688523
 31
0.0
  0
LINE
  5
387
100
AcDbEntity
  8
0
  6
CONTINUOUS
 62
               7
100
AcDbLine
 10
70.0
 20
-44.000003051757915
 30
0.0
 11
70.0
 21
-3.4000030517578921
 31
0.0
  0
LINE
  5
388
100
AcDbEntity
  8
0
  6
CONTINUOUS
 62
               7
100
AcDbLine
 10
105.50000000000011
 20
-45.000003051757915
 30
0.0
 11
75.078564524200374
 21
-45.000003051757915
 31
0.0
  0
LINE
  5
389
100
AcDbEntity
  8
0
  6
CONTINUOUS
 62
               7
100
AcDbLine
 10
5.5000000000000568
 20
-4.9999877929688523
 30
0.0
 11
5.5000000000000568
 21
-5.9999877929688523
 31
0.0
  0
LINE
  5
38A
100
AcDbEntity
  8
0
  6
CONTINUOUS
 62
               2
100
AcDbLine
 10
0.0
 20
6.0358122930917943
 30
0.0
 11
0.0
 21
-314.21873443990773
 31
0.0
  0
LINE
  5
38B
100
AcDbEntity
  8
0
  6
CONTINUOUS
 62
               7
100
AcDbLine
 10
-105.0
 20
-300.00001525878895
 30
0.0
 11
105.0
 21
-300.00001525878895
 31
0.0
  0
LINE
  5
38C
100
AcDbEntity
  8
0
  6
CONTINUOUS
 62
               7
100
AcDbLine
 10
38.585786437626894
 20
-292.414228821162
 30
0.0
 11
41.414213562373106
 21
-289.58580169641579
 31
0.0
  0
LINE
  5
38D
100
AcDbEntity
  8
0
  6
CONTINUOUS
 62
               7
100
AcDbLine
 10
41.414213562373106
 20
-292.414228821162
 30
0.0
 11
38.585786437626894
 21
-289.58580169641579
 31
0.0
  0
LINE
  5
38E
100
AcDbEntity
  8
0
  6
CONTINUOUS
 62
               7
100
AcDbLine
 10
-41.414213562373106
 20
-292.414228821162
 30
0.0
 11
-38.585786437626894
 21
-289.58580169641579
 31
0.0
  0
LINE
  5
38F
100
AcDbEntity
  8
0
  6
CONTINUOUS
 62
               7
100
AcDbLine
 10
-38.585786437626894
 20
-292.414228821162
 30
0.0
 11
-41.414213562373106
 21
-289.58580169641579
 31
0.0
  0
LINE
  5
390
100
AcDbEntity
  8
0
  6
CONTINUOUS
 62
               2
100
AcDbLine
 10
85.0
 20
99.949644574588717
 30
0.0
 11
85.0
 21
-267.00069566542049
 31
0.0
  0
LINE
  5
391
100
AcDbEntity
  8
0
  6
CONTINUOUS
 62
               7
100
AcDbLine
 10
104.00000000000011
 20
95.000012207032626
 30
0.0
 11
104.00000000000011
 21
-3.4000030517578921
 31
0.0
  0
LINE
  5
392
100
AcDbEntity
  8
0
  6
CONTINUOUS
 62
               7
100
AcDbLine
 10
98.830001831054801
 20
93.854748535157512
 30
0.0
 11
98.830001831054801
 21
17.866162109374784
 31
0.0
  0
LINE
  5
393
100
AcDbEntity
  8
0
  6
CONTINUOUS
 62
               7
100
AcDbLine
 10
71.169998168945313
 20
93.674328613282626
 30
0.0
 11
71.169998168945313
 21
18.046459960937341
 31
0.0
  0
LINE
  5
394
100
AcDbEntity
  8
0
  6
CONTINUOUS
 62
               7
100
AcDbLine
 10
63.399999999999977
 20
95.000012207032626
 30
0.0
 11
63.399999999999977
 21
17.000012207032682
 31
0.0
  0
ENDBLK
  5
395
100
AcDbEntity
  8
0
100
AcDbBlockEnd
  0
BLOCK
  5
22
100
AcDbEntity
  8
0
  6
ByBlock
 62
               0
100
AcDbBlockBegin
  2
_OPEN30
 70
               2
 10
0.0
 20
0.0
 30
0.0
  3
_OPEN30
  1

  0
LINE
  5
23
100
AcDbEntity
  8
0
  6
ByBlock
 62
               0
100
AcDbLine
 10
-1.0
 20
0.267949
 30
0.0
 11
0.0
 21
0.0
 31
0.0
  0
LINE
  5
24
100
AcDbEntity
  8
0
  6
ByBlock
 62
               0
100
AcDbLine
 10
0.0
 20
0.0
 30
0.0
 11
-1.0
 21
-0.267949
 31
0.0
  0
LINE
  5
25
100
AcDbEntity
  8
0
  6
ByBlock
 62
               0
100
AcDbLine
 10
0.0
 20
0.0
 30
0.0
 11
-1.0
 21
0.0
 31
0.0
  0
ENDBLK
  5
26
100
AcDbEntity
  8
0
  6
ByBlock
 62
               0
100
AcDbBlockEnd
  0
BLOCK
  5
39C
100
AcDbEntity
  8
0
  6
ByBlock
 62
               0
100
AcDbBlockBegin
  2
*D4
 70
               1
 10
0.0
 20
0.0
 30
0.0
  3
*D4
  1

  0
LINE
  5
39D
100
AcDbEntity
  8
0
  6
CONTINUOUS
 62
               2
100
AcDbLine
 10
127.99999999999994
 20
340.99738957713475
 30
0.0
 11
227.99999999999994
 21
340.99738957713475
 31
0.0
  0
LINE
  5
39E
100
AcDbEntity
  8
0
  6
CONTINUOUS
 62
               2
100
AcDbLine
 10
127.99999999999994
 20
251.47377660106054
 30
0.0
 11
127.99999999999994
 21
342.49738957713475
 31
0.0
  0
LINE
  5
39F
100
AcDbEntity
  8
0
  6
CONTINUOUS
 62
               2
100
AcDbLine
 10
227.99999999999994
 20
251.47377660106054
 30
0.0
 11
227.99999999999994
 21
342.49738957713475
 31
0.0
  0
INSERT
  5
3A0
100
AcDbEntity
  8
0
  6
CONTINUOUS
 62
               2
100
AcDbBlockReference
  2
_OPEN30
 10
127.99999999999994
 20
340.99738957713475
 30
0.0
 41
8.3100000000000005
 42
8.3100000000000005
 43
8.3100000000000005
 50
180.0
  0
INSERT
  5
3A1
100
AcDbEntity
  8
0
  6
CONTINUOUS
 62
               2
100
AcDbBlockReference
  2
_OPEN30
 10
227.99999999999994
 20
340.99738957713475
 30
0.0
 41
8.3100000000000005
 42
8.3100000000000005
 43
8.3100000000000005
  0
MTEXT
  5
3A3
100
AcDbEntity
  8
0
  6
CONTINUOUS
 62
               2
100
AcDbMText
 10
185.43629455566401
 20
346.49738957713475
 30
0.0
 40
9.0
 41
0.0
 71
               5
 72
               1
  1
\A1;X-STROKE(100)
  7
MX_DIMTXSTY_2
  0
POINT
  5
3A4
100
AcDbEntity
  8
DEFPOINTS
  6
CONTINUOUS
 62
               0
100
AcDbPoint
 10
127.99999999999994
 20
249.97377660106054
 30
0.0
  0
POINT
  5
3A5
100
AcDbEntity
  8
DEFPOINTS
  6
CONTINUOUS
 62
               0
100
AcDbPoint
 10
227.99999999999994
 20
249.97377660106054
 30
0.0
  0
POINT
  5
3A6
100
AcDbEntity
  8
DEFPOINTS
  6
CONTINUOUS
 62
               0
100
AcDbPoint
 10
227.99999999999994
 20
340.99738957713475
 30
0.0
  0
ENDBLK
  5
3A7
100
AcDbEntity
  8
0
  6
ByBlock
 62
               0
100
AcDbBlockEnd
  0
BLOCK
  5
3AA
100
AcDbEntity
  8
0
  6
ByBlock
 62
               0
100
AcDbBlockBegin
  2
*D5
 70
               1
 10
0.0
 20
0.0
 30
0.0
  3
*D5
  1

  0
LINE
  5
3AB
100
AcDbEntity
  8
0
  6
CONTINUOUS
 62
               2
100
AcDbLine
 10
19.99999992299686
 20
54.999996943691315
 30
0.0
 11
19.99999992299686
 21
254.99999694824197
 31
0.0
  0
LINE
  5
3AC
100
AcDbEntity
  8
0
  6
CONTINUOUS
 62
               2
100
AcDbLine
 10
195.18951408315311
 20
54.999996943691315
 30
0.0
 11
18.49999992299686
 21
54.999996943691315
 31
0.0
  0
LINE
  5
3AD
100
AcDbEntity
  8
0
  6
CONTINUOUS
 62
               2
100
AcDbLine
 10
82.022838515526161
 20
254.99999694824197
 30
0.0
 11
18.49999992299686
 21
254.99999694824197
 31
0.0
  0
INSERT
  5
3AE
100
AcDbEntity
  8
0
  6
CONTINUOUS
 62
               2
100
AcDbBlockReference
  2
_OPEN30
 10
19.99999992299686
 20
54.999996943691315
 30
0.0
 41
8.3100000000000005
 42
8.3100000000000005
 43
8.3100000000000005
 50
270.0
  0
INSERT
  5
3AF
100
AcDbEntity
  8
0
  6
CONTINUOUS
 62
               2
100
AcDbBlockReference
  2
_OPEN30
 10
19.99999992299686
 20
254.99999694824197
 30
0.0
 41
8.3100000000000005
 42
8.3100000000000005
 43
8.3100000000000005
 50
90.0
  0
MTEXT
  5
3B1
100
AcDbEntity
  8
0
  6
CONTINUOUS
 62
               2
100
AcDbMText
 10
14.49999992299686
 20
152.23749999544913
 30
0.0
 40
9.0
 41
0.0
 71
               5
 72
               1
  1
\A1;Y-STROKE(200）
  7
MX_DIMTXSTY_3
 11
0.0000000000000001
 21
1.0
 31
0.0
  0
POINT
  5
3B2
100
AcDbEntity
  8
DEFPOINTS
  6
CONTINUOUS
 62
               0
100
AcDbPoint
 10
196.68951408315311
 20
54.999996943691315
 30
0.0
  0
POINT
  5
3B3
100
AcDbEntity
  8
DEFPOINTS
  6
CONTINUOUS
 62
               0
100
AcDbPoint
 10
83.522838515526161
 20
254.99999694824197
 30
0.0
  0
POINT
  5
3B4
100
AcDbEntity
  8
DEFPOINTS
  6
CONTINUOUS
 62
               0
100
AcDbPoint
 10
19.99999992299686
 20
254.99999694824197
 30
0.0
  0
ENDBLK
  5
3B5
100
AcDbEntity
  8
0
  6
ByBlock
 62
               0
100
AcDbBlockEnd
  0
ENDSEC
  0
SECTION
  2
ENTITIES
  0
INSERT
  5
396
100
AcDbEntity
  8
0
  6
ByBlock
100
AcDbBlockReference
  2
DTRB-CS2-3
 10
200.0
 20
280.0
 30
0.0
  0
INSERT
  5
397
100
AcDbEntity
  8
0
  6
ByBlock
100
AcDbBlockReference
  2
DTRB-CS2-2
 10
-375.37143024023129
 20
-329.99998168945291
 30
0.0
  0
INSERT
  5
398
100
AcDbEntity
  8
0
  6
ByBlock
100
AcDbBlockReference
  2
DTRB-CS2-1
 10
200.0
 20
-330.0
 30
0.0
  0
MTEXT
  5
399
100
AcDbEntity
  8
0
  6
CONTINUOUS
 62
             255
100
AcDbMText
 10
-516.08806047499559
 20
393.0
 30
0.0
 40
12.5
 41
0.0
 71
               4
 72
               1
  1
\W1.038;\A1;CELL MASTER
  0
MTEXT
  5
39A
100
AcDbEntity
  8
0
  6
CONTINUOUS
 62
             255
100
AcDbMText
 10
-497.41667429606122
 20
378.0
 30
0.0
 40
12.5
 41
0.0
 71
               4
 72
               1
  1
\A1;DTRB-CS2
  0
DIMENSION
  5
3A8
100
AcDbEntity
  8
0
  6
CONTINUOUS
 62
               2
100
AcDbDimension
  2
*D4
 10
227.99999999999994
 20
340.99738957713475
 30
0.0
 11
185.43629455566401
 21
340.99738957713475
 31
0.0
 70
             128
  1
X-STROKE(100)
  3
MXDIMSTYLE
100
AcDbAlignedDimension
 13
127.99999999999994
 23
249.97377660106054
 33
0.0
 14
227.99999999999994
 24
249.97377660106054
 34
0.0
100
AcDbRotatedDimension
1001
ACAD
1000
DSTYLE
1002
{
1070
              41
1040
8.3100000000000005
1070
             140
1040
9.0
1070
             340
1005
3A2
1002
}
  0
DIMENSION
  5
3B6
100
AcDbEntity
  8
0
  6
CONTINUOUS
 62
               2
100
AcDbDimension
  2
*D5
 10
19.99999992299686
 20
254.99999694824197
 30
0.0
 11
19.99999992299686
 21
152.23749999544913
 31
0.0
 70
             128
  1
Y-STROKE(200）
  3
MXDIMSTYLE
100
AcDbAlignedDimension
 13
196.68951408315311
 23
54.999996943691315
 33
0.0
 14
83.522838515526161
 24
254.99999694824197
 34
0.0
 50
90.0
100
AcDbRotatedDimension
1001
ACAD
1000
DSTYLE
1002
{
1070
              41
1040
8.3100000000000005
1070
             140
1040
9.0
1070
             340
1005
3B0
1002
}
  0
LINE
  5
3B7
100
AcDbEntity
  8
0
  6
CONTINUOUS
 62
               7
100
AcDbLine
 10
-564.5
 20
370.5
 30
0.0
 11
-334.5
 21
370.5
 31
0.0
  0
LINE
  5
3B8
100
AcDbEntity
  8
0
  6
CONTINUOUS
 62
               7
100
AcDbLine
 10
-334.5
 20
400.5
 30
0.0
 11
-334.5
 21
370.5
 31
0.0
  0
LINE
  5
3B9
100
AcDbEntity
  8
0
  6
CONTINUOUS
 62
               7
100
AcDbLine
 10
344.5
 20
-370.5
 30
0.0
 11
574.5
 21
-370.5
 31
0.0
  0
LINE
  5
3BA
100
AcDbEntity
  8
0
  6
CONTINUOUS
 62
               7
100
AcDbLine
 10
344.5
 20
-370.5
 30
0.0
 11
344.5
 21
-400.5
 31
0.0
  0
MTEXT
  5
3BB
100
AcDbEntity
  8
0
  6
CONTINUOUS
 62
               7
100
AcDbMText
 10
350.86206895687951
 20
-385.5
 30
0.0
 40
18.0
 41
0.0
 71
               4
 72
               1
  1
\W1.121;\A1;KOGANEI CORP.
  0
LINE
  5
3BC
100
AcDbEntity
  8
0
  6
CONTINUOUS
 62
               7
100
AcDbLine
 10
344.5
 20
370.5
 30
0.0
 11
574.5
 21
370.5
 31
0.0
  0
LINE
  5
3BD
100
AcDbEntity
  8
0
  6
CONTINUOUS
 62
               7
100
AcDbLine
 10
344.5
 20
400.5
 30
0.0
 11
344.5
 21
370.5
 31
0.0
  0
MTEXT
  5
3BE
100
AcDbEntity
  8
0
  6
CONTINUOUS
 62
               7
100
AcDbMText
 10
412.2322331979733
 20
385.5
 30
0.0
 40
12.5
 41
0.0
 71
               4
 72
               1
  1
\W1.311;\A1;Ver. 1.0
  0
LINE
  5
3BF
100
AcDbEntity
  8
0
  6
CONTINUOUS
 62
               7
100
AcDbLine
 10
574.5
 20
400.5
 30
0.0
 11
574.5
 21
-400.5
 31
0.0
  0
LINE
  5
3C0
100
AcDbEntity
  8
0
  6
CONTINUOUS
 62
               7
100
AcDbLine
 10
-564.5
 20
400.5
 30
0.0
 11
574.5
 21
400.5
 31
0.0
  0
LINE
  5
3C1
100
AcDbEntity
  8
0
  6
CONTINUOUS
 62
               7
100
AcDbLine
 10
-564.5
 20
-400.5
 30
0.0
 11
574.5
 21
-400.5
 31
0.0
  0
LINE
  5
3C2
100
AcDbEntity
  8
0
  6
CONTINUOUS
 62
               7
100
AcDbLine
 10
-564.5
 20
400.5
 30
0.0
 11
-564.5
 21
-400.5
 31
0.0
  0
MTEXT
  5
3C3
100
AcDbEntity
  8
0
  6
CONTINUOUS
 62
               7
100
AcDbMText
 10
-538.5625006215181
 20
340.5
 30
0.0
 40
12.5
 41
0.0
 71
               4
 72
               1
  1
\W1.050;\A1;MODEL:DTRB-CS2
  0
ENDSEC
  0
SECTION
  2
OBJECTS
  0
DICTIONARY
  5
19
100
AcDbDictionary
  3
ACAD_GROUP
350
1A
  3
ACAD_MLINESTYLE
350
1B
  0
DICTIONARY
  5
1A
102
{ACAD_REACTORS
330
19
102
}
100
AcDbDictionary
  0
DICTIONARY
  5
1B
102
{ACAD_REACTORS
330
19
102
}
100
AcDbDictionary
  3
STANDARD
350
1C
  0
MLINESTYLE
  5
1C
102
{ACAD_REACTORS
330
1B
102
}
100
AcDbMlineStyle
  2
Standard
 70
               0
  3

 62
               0
 51
90.0
 52
90.0
 71
               2
 49
0.5
 62
             256
  6
ByLayer
 49
-0.5
 62
             256
  6
ByLayer
  0
ENDSEC
  0
EOF
