  0
SECTION
  2
HEADER
  9
$ACADVER
  1
AC1012
  9
$DWGCODEPAGE
  3
dos932
  9
$INSBASE
 10
0.0
 20
0.0
 30
0.0
  9
$EXTMIN
 10
-281.25
 20
-195.0
 30
0.0
  9
$EXTMAX
 10
285.6319057062413
 20
195.5
 30
0.0
  9
$LIMMIN
 10
-281.25
 20
-195.0
  9
$LIMMAX
 10
285.6319057062413
 20
195.5
  9
$ORTHOMODE
 70
               0
  9
$REGENMODE
 70
               1
  9
$FILLMODE
 70
               1
  9
$QTEXTMODE
 70
               0
  9
$MIRRTEXT
 70
               1
  9
$DRAGMODE
 70
               2
  9
$LTSCALE
 40
1.0
  9
$OSMODE
 70
               0
  9
$ATTMODE
 70
               1
  9
$TEXTSIZE
 40
3.2000000476837158
  9
$TRACEWID
 40
0.05
  9
$TEXTSTYLE
  7
MX_NOTE_STANDARD
  9
$CLAYER
  8
0
  9
$CELTYPE
  6
CONTINUOUS
  9
$CECOLOR
 62
             256
  9
$CELTSCALE
 40
1.0
  9
$DELOBJ
 70
               1
  9
$DISPSILH
 70
               0
  9
$DIMSCALE
 40
1.0
  9
$DIMASZ
 40
2.5
  9
$DIMEXO
 40
1.5
  9
$DIMDLI
 40
3.75
  9
$DIMRND
 40
0.0
  9
$DIMDLE
 40
0.0
  9
$DIMEXE
 40
1.5
  9
$DIMTP
 40
0.0
  9
$DIMTM
 40
0.0
  9
$DIMTXT
 40
3.2000000476837158
  9
$DIMCEN
 40
2.5
  9
$DIMTSZ
 40
0.0
  9
$DIMTOL
 70
               0
  9
$DIMLIM
 70
               0
  9
$DIMTIH
 70
               0
  9
$DIMTOH
 70
               0
  9
$DIMSE1
 70
               0
  9
$DIMSE2
 70
               0
  9
$DIMTAD
 70
               1
  9
$DIMZIN
 70
               8
  9
$DIMBLK
  1

  9
$DIMASO
 70
               1
  9
$DIMSHO
 70
               1
  9
$DIMPOST
  1

  9
$DIMAPOST
  1

  9
$DIMALT
 70
               0
  9
$DIMALTD
 70
               4
  9
$DIMALTF
 40
0.03937007874016
  9
$DIMLFAC
 40
1.0
  9
$DIMTOFL
 70
               1
  9
$DIMTVP
 40
0.0
  9
$DIMTIX
 70
               0
  9
$DIMSOXD
 70
               0
  9
$DIMSAH
 70
               0
  9
$DIMBLK1
  1

  9
$DIMBLK2
  1

  9
$DIMSTYLE
  2
MXDIMSTYLE
  9
$DIMCLRD
 70
               0
  9
$DIMCLRE
 70
               0
  9
$DIMCLRT
 70
               0
  9
$DIMTFAC
 40
1.0
  9
$DIMGAP
 40
1.0
  9
$DIMJUST
 70
               0
  9
$DIMSD1
 70
               0
  9
$DIMSD2
 70
               0
  9
$DIMTOLJ
 70
               1
  9
$DIMTZIN
 70
               0
  9
$DIMALTZ
 70
               0
  9
$DIMALTTZ
 70
               0
  9
$DIMFIT
 70
               3
  9
$DIMUPT
 70
               1
  9
$DIMUNIT
 70
               2
  9
$DIMDEC
 70
               4
  9
$DIMTDEC
 70
               4
  9
$DIMALTU
 70
               2
  9
$DIMALTTD
 70
               4
  9
$DIMTXSTY
  7
MX_NOTE_STANDARD
  9
$DIMAUNIT
 70
               0
  9
$LUNITS
 70
               2
  9
$LUPREC
 70
               4
  9
$SKETCHINC
 40
0.1
  9
$FILLETRAD
 40
0.0
  9
$AUNITS
 70
               0
  9
$AUPREC
 70
               0
  9
$MENU
  1
acad
  9
$ELEVATION
 40
0.0
  9
$PELEVATION
 40
0.0
  9
$THICKNESS
 40
0.0
  9
$LIMCHECK
 70
               0
  9
$BLIPMODE
 70
               1
  9
$CHAMFERA
 40
0.0
  9
$CHAMFERB
 40
0.0
  9
$CHAMFERC
 40
0.0
  9
$CHAMFERD
 40
0.0
  9
$SKPOLY
 70
               0
  9
$TDCREATE
 40
2453378.356365741
  9
$TDUPDATE
 40
2453378.356365741
  9
$TDINDWG
 40
0.0000000000
  9
$TDUSRTIMER
 40
0.0000000000
  9
$USRTIMER
 70
               1
  9
$ANGBASE
 50
0.0
  9
$ANGDIR
 70
               0
  9
$PDMODE
 70
               0
  9
$PDSIZE
 40
0.0
  9
$PLINEWID
 40
0.0
  9
$COORDS
 70
               1
  9
$SPLFRAME
 70
               0
  9
$SPLINETYPE
 70
               6
  9
$SPLINESEGS
 70
               8
  9
$ATTDIA
 70
               0
  9
$ATTREQ
 70
               1
  9
$HANDLING
 70
               1
  9
$HANDSEED
  5
5CE
  9
$SURFTAB1
 70
               6
  9
$SURFTAB2
 70
               6
  9
$SURFTYPE
 70
               6
  9
$SURFU
 70
               6
  9
$SURFV
 70
               6
  9
$UCSNAME
  2

  9
$UCSORG
 10
0.0
 20
0.0
 30
0.0
  9
$UCSXDIR
 10
1.0
 20
0.0
 30
0.0
  9
$UCSYDIR
 10
0.0
 20
1.0
 30
0.0
  9
$PUCSNAME
  2

  9
$PUCSORG
 10
0.0
 20
0.0
 30
0.0
  9
$PUCSXDIR
 10
1.0
 20
0.0
 30
0.0
  9
$PUCSYDIR
 10
0.0
 20
1.0
 30
0.0
  9
$USERI1
 70
               0
  9
$USERI2
 70
               0
  9
$USERI3
 70
               0
  9
$USERI4
 70
               0
  9
$USERI5
 70
               0
  9
$USERR1
 40
0.0
  9
$USERR2
 40
0.0
  9
$USERR3
 40
0.0
  9
$USERR4
 40
0.0
  9
$USERR5
 40
0.0
  9
$WORLDVIEW
 70
               1
  9
$SHADEDGE
 70
               3
  9
$SHADEDIF
 70
              70
  9
$TILEMODE
 70
               1
  9
$MAXACTVP
 70
              16
  9
$PINSBASE
 10
0.0
 20
0.0
 30
0.0
  9
$PLIMCHECK
 70
               0
  9
$PEXTMIN
 10
1.0000000000000000E+20
 20
1.0000000000000000E+20
 30
1.0000000000000000E+20
  9
$PEXTMAX
 10
-1.0000000000000000E+20
 20
-1.0000000000000000E+20
 30
-1.0000000000000000E+20
  9
$PLIMMIN
 10
0.0
 20
0.0
  9
$PLIMMAX
 10
12.0
 20
9.0
  9
$UNITMODE
 70
               0
  9
$VISRETAIN
 70
               0
  9
$PLINEGEN
 70
               1
  9
$PSLTSCALE
 70
               0
  9
$TREEDEPTH
 70
            3020
  9
$PICKSTYLE
 70
               1
  9
$CMLSTYLE
  2
Standard
  9
$CMLJUST
 70
               0
  9
$CMLSCALE
 40
1.0
  9
$SAVEIMAGES
 70
               0
  0
ENDSEC
  0
SECTION
  2
CLASSES
  0
CLASS
  1
LWPOLYLINE
  2
AcDbPolyline
  3
"AutoCAD"
 90
        0
280
               0
281
               1
  0
CLASS
  1
IMAGE
  2
AcDbRasterImage
  3
ISM
 90
      127
280
               0
281
               1
  0
CLASS
  1
OLE2FRAME
  2
AcDbOle2Frame
  3
""
 90
        0
280
               0
281
               1
  0
CLASS
  1
HATCH
  2
AcDbHatch
  3
"ACAD_SEDONA"
 90
        0
280
               0
281
               1
  0
CLASS
  1
DICTIONARYVAR
  2
AcDbDictionaryVar
  3
"AutoCAD"
 90
        0
280
               0
281
               0
  0
CLASS
  1
RASTERVARIABLES
  2
AcDbRasterVariables
  3
ISM
 90
        0
280
               0
281
               0
  0
CLASS
  1
IMAGEDEF
  2
AcDbRasterImageDef
  3
ISM
 90
        0
280
               0
281
               0
  0
CLASS
  1
IMAGEDEF_REACTOR
  2
AcDbRasterImageDefReactor
  3
ISM
 90
        1
280
               0
281
               0
  0
CLASS
  1
IDBUFFER
  2
AcDbIdBuffer
  3
"Acad"
 90
        0
280
               0
281
               0
  0
CLASS
  1
SPATIAL_FILTER
  2
AcDbSpatialFilter
  3
"Acad"
 90
        0
280
               0
281
               0
  0
CLASS
  1
XRECORD
  2
AcDbXrecord
  3
"<Built In>"
 90
        0
280
               0
281
               0
  0
CLASS
  1
SORTENTSTABLE
  2
AcDbSortentsTable
  3
"AutoCAD"
 90
        0
280
               0
281
               0
  0
CLASS
  1
LAYER_INDEX
  2
AcDbLayerIndex
  3
"Acad"
 90
        0
280
               0
281
               0
  0
CLASS
  1
SPATIAL_INDEX
  2
AcDbSpatialIndex
  3
"Acad"
 90
        0
280
               0
281
               0
  0
CLASS
  1
OBJECT_PTR
  2
CAseDLPNTableRecord
  3
"ASE-LPNTableRecord"
 90
        1
280
               0
281
               0
  0
CLASS
  1
LAYOUT
  2
AcDbLayout
  3
"AutoCAD 2000"
 90
        1
280
               0
281
               0
  0
CLASS
  1
PLOTSETTINGS
  2
AcDbPlotSettings
  3
"AutoCAD 2000"
 90
        1
280
               0
281
               0
  0
CLASS
  1
ACDBDICTIONARYWDFLT
  2
AcDbDictionaryWithDefault
  3
"AutoCAD 2000"
 90
        1
280
               0
281
               0
  0
CLASS
  1
ACDBPLACEHOLDER
  2
AcDbPlaceHolder
  3
"AutoCAD 2000"
 90
        1
280
               0
281
               0
  0
ENDSEC
  0
SECTION
  2
TABLES
  0
TABLE
  2
VPORT
  5
7
100
AcDbSymbolTable
 70
               1
  0
VPORT
  5
15
100
AcDbSymbolTableRecord
100
AcDbViewportTableRecord
  2
*ACTIVE
 70
               0
 10
0.0
 20
0.0
 11
1.0
 21
1.0
 12
2.1909528531206206
 22
0.25
 13
0.0
 23
0.0
 14
1.0
 24
1.0
 15
0.0
 25
0.0
 16
0.0
 26
0.0
 36
1.0
 17
0.0
 27
0.0
 37
0.0
 40
394.40500000000003
 41
1.7320508075688772
 42
50.0
 43
0.0
 44
0.0
 50
0.0
 51
0.0
 71
               0
 72
             100
 73
               1
 74
               1
 75
               0
 76
               0
 77
               0
 78
               0
  0
ENDTAB
  0
TABLE
  2
LTYPE
  5
4
100
AcDbSymbolTable
 70
               3
  0
LTYPE
  5
11
100
AcDbSymbolTableRecord
100
AcDbLinetypeTableRecord
  2
BYBLOCK
 70
              64
  3

 72
              65
 73
               0
 40
0.0
  0
LTYPE
  5
12
100
AcDbSymbolTableRecord
100
AcDbLinetypeTableRecord
  2
BYLAYER
 70
              64
  3

 72
              65
 73
               0
 40
0.0
  0
LTYPE
  5
13
100
AcDbSymbolTableRecord
100
AcDbLinetypeTableRecord
  2
CONTINUOUS
 70
              64
  3
Solid line
 72
              65
 73
               0
 40
0.0
  0
ENDTAB
  0
TABLE
  2
LAYER
  5
2
100
AcDbSymbolTable
 70
               2
  0
LAYER
  5
14
100
AcDbSymbolTableRecord
100
AcDbLayerTableRecord
  2
0
 70
               0
 62
               7
  6
CONTINUOUS
  0
LAYER
  5
1D
100
AcDbSymbolTableRecord
100
AcDbLayerTableRecord
  2
DEFPOINTS
 70
               0
 62
               7
  6
CONTINUOUS
  0
ENDTAB
  0
TABLE
  2
STYLE
  5
3
100
AcDbSymbolTable
 70
               1
  0
STYLE
  5
17
100
AcDbSymbolTableRecord
100
AcDbTextStyleTableRecord
  2
MX_NOTE_STANDARD
 70
               0
 40
0.0
 41
1.0
 50
0.0
 71
               0
 42
3.2000000476837158
  3
txt.shx
  4
extfont.shx
  0
ENDTAB
  0
TABLE
  2
VIEW
  5
5
100
AcDbSymbolTable
 70
               0
  0
ENDTAB
  0
TABLE
  2
UCS
  5
6
100
AcDbSymbolTable
 70
               0
  0
ENDTAB
  0
TABLE
  2
APPID
  5
8
100
AcDbSymbolTable
 70
               1
  0
APPID
  5
16
100
AcDbSymbolTableRecord
100
AcDbRegAppTableRecord
  2
ACAD
 70
               0
  0
ENDTAB
  0
TABLE
  2
DIMSTYLE
  5
9
100
AcDbSymbolTable
 70
               1
  0
DIMSTYLE
105
18
100
AcDbSymbolTableRecord
100
AcDbDimStyleTableRecord
  2
MXDIMSTYLE
 70
               0
  3

  4

  5

  6

  7

 40
1.0
 41
2.5
 42
1.5
 43
3.75
 44
1.5
 45
0.0
 46
0.0
 47
0.0
 48
0.0
 71
               0
 72
               0
 73
               0
 74
               0
 75
               0
 76
               0
 77
               1
 78
               8
140
3.2000000476837158
141
2.5
142
0.0
143
0.03937007874016
144
1.0
145
0.0
146
1.0
147
1.0
170
               0
171
               4
172
               1
173
               0
174
               0
175
               0
176
               0
177
               0
178
               0
270
               2
271
               4
272
               4
273
               2
274
               4
275
               0
280
               0
281
               0
282
               0
283
               1
284
               0
285
               0
286
               0
287
               3
288
               1
340
17
  0
ENDTAB
  0
TABLE
  2
BLOCK_RECORD
  5
1
100
AcDbSymbolTable
 70
              13
  0
BLOCK_RECORD
  5
A
100
AcDbSymbolTableRecord
100
AcDbBlockTableRecord
  2
*MODEL_SPACE
  0
BLOCK_RECORD
  5
B
100
AcDbSymbolTableRecord
100
AcDbBlockTableRecord
  2
*PAPER_SPACE
  0
BLOCK_RECORD
  5
1E
100
AcDbSymbolTableRecord
100
AcDbBlockTableRecord
  2
F10MA-1
  0
BLOCK_RECORD
  5
1F
100
AcDbSymbolTableRecord
100
AcDbBlockTableRecord
  2
F10MA-2
  0
BLOCK_RECORD
  5
20
100
AcDbSymbolTableRecord
100
AcDbBlockTableRecord
  2
F10MA-3
  0
BLOCK_RECORD
  5
21
100
AcDbSymbolTableRecord
100
AcDbBlockTableRecord
  2
F10MA-4
  0
BLOCK_RECORD
  5
22
100
AcDbSymbolTableRecord
100
AcDbBlockTableRecord
  2
F10MA-5
  0
BLOCK_RECORD
  5
23
100
AcDbSymbolTableRecord
100
AcDbBlockTableRecord
  2
F10MA-6
  0
BLOCK_RECORD
  5
24
100
AcDbSymbolTableRecord
100
AcDbBlockTableRecord
  2
F10MA-7
  0
BLOCK_RECORD
  5
25
100
AcDbSymbolTableRecord
100
AcDbBlockTableRecord
  2
F10MA-8
  0
BLOCK_RECORD
  5
58C
100
AcDbSymbolTableRecord
100
AcDbBlockTableRecord
  2
*D8
  0
BLOCK_RECORD
  5
593
100
AcDbSymbolTableRecord
100
AcDbBlockTableRecord
  2
_OPEN30
  0
BLOCK_RECORD
  5
5A1
100
AcDbSymbolTableRecord
100
AcDbBlockTableRecord
  2
*D10
  0
BLOCK_RECORD
  5
5AD
100
AcDbSymbolTableRecord
100
AcDbBlockTableRecord
  2
*D11
  0
BLOCK_RECORD
  5
5BB
100
AcDbSymbolTableRecord
100
AcDbBlockTableRecord
  2
*D12
  0
ENDTAB
  0
ENDSEC
  0
SECTION
  2
BLOCKS
  0
BLOCK
  5
D
100
AcDbEntity
  8
0
100
AcDbBlockBegin
  2
*MODEL_SPACE
 70
               0
 10
0.0
 20
0.0
 30
0.0
  3
*MODEL_SPACE
  1

  0
ENDBLK
  5
E
100
AcDbEntity
  8
0
100
AcDbBlockEnd
  0
BLOCK
  5
F
100
AcDbEntity
 67
               1
  8
0
100
AcDbBlockBegin
  2
*PAPER_SPACE
 70
               0
 10
0.0
 20
0.0
 30
0.0
  3
*PAPER_SPACE
  1

  0
ENDBLK
  5
10
100
AcDbEntity
 67
               1
  8
0
100
AcDbBlockEnd
  0
BLOCK
  5
26
100
AcDbEntity
  8
0
100
AcDbBlockBegin
  2
F10MA-1
 70
               0
 10
0.0
 20
0.0
 30
0.0
  3
F10MA-1
  1

  0
LINE
  5
27
100
AcDbEntity
  8
0
  6
CONTINUOUS
 62
             200
100
AcDbLine
 10
10.0
 20
-35.000015258789063
 30
0.0
 11
10.0
 21
-54.601139068603516
 31
0.0
  0
LINE
  5
28
100
AcDbEntity
  8
0
  6
CONTINUOUS
 62
             200
100
AcDbLine
 10
41.5
 20
-37.5
 30
0.0
 11
41.5
 21
-54.601139068603516
 31
0.0
  0
LINE
  5
29
100
AcDbEntity
  8
0
  6
CONTINUOUS
 62
               7
100
AcDbLine
 10
15.0
 20
31.0
 30
0.0
 11
15.0
 21
9.149998255968697
 31
0.0
  0
LINE
  5
2A
100
AcDbEntity
  8
0
  6
CONTINUOUS
 62
               7
100
AcDbLine
 10
25.5
 20
31.0
 30
0.0
 11
25.5
 21
9.1499966212575288
 31
0.0
  0
LINE
  5
2B
100
AcDbEntity
  8
0
  6
CONTINUOUS
 62
               7
100
AcDbLine
 10
36.0
 20
31.0
 30
0.0
 11
36.0
 21
9.1499966212575288
 31
0.0
  0
LINE
  5
2C
100
AcDbEntity
  8
0
  6
CONTINUOUS
 62
               7
100
AcDbLine
 10
16.500008583068848
 20
-28.0
 30
0.0
 11
16.500008583068848
 21
-26.0
 31
0.0
  0
LINE
  5
2D
100
AcDbEntity
  8
0
  6
CONTINUOUS
 62
               7
100
AcDbLine
 10
15.499995231628418
 20
-26.0
 30
0.0
 11
16.899996757507324
 21
-26.0
 31
0.0
  0
LINE
  5
2E
100
AcDbEntity
  8
0
  6
CONTINUOUS
 62
               2
100
AcDbLine
 10
17.999995231628418
 20
-24.0
 30
0.0
 11
22.999995231628418
 21
-24.0
 31
0.0
  0
LINE
  5
2F
100
AcDbEntity
  8
0
  6
CONTINUOUS
 62
               7
100
AcDbLine
 10
16.899996757507324
 20
-22.0
 30
0.0
 11
15.499995231628418
 21
-22.0
 31
0.0
  0
LINE
  5
30
100
AcDbEntity
  8
0
  6
CONTINUOUS
 62
               7
100
AcDbLine
 10
16.500008583068848
 20
-22.0
 30
0.0
 11
16.500008583068848
 21
-20.0
 31
0.0
  0
LINE
  5
31
100
AcDbEntity
  8
0
  6
CONTINUOUS
 62
               7
100
AcDbLine
 10
24.500004768371582
 20
-28.0
 30
0.0
 11
24.500004768371582
 21
-26.0
 31
0.0
  0
LINE
  5
32
100
AcDbEntity
  8
0
  6
CONTINUOUS
 62
               7
100
AcDbLine
 10
24.099997520446777
 20
-26.0
 30
0.0
 11
25.499995231628418
 21
-26.0
 31
0.0
  0
LINE
  5
33
100
AcDbEntity
  8
0
  6
CONTINUOUS
 62
               7
100
AcDbLine
 10
25.499995231628418
 20
-22.0
 30
0.0
 11
24.099997520446777
 21
-22.0
 31
0.0
  0
LINE
  5
34
100
AcDbEntity
  8
0
  6
CONTINUOUS
 62
               7
100
AcDbLine
 10
24.500004768371582
 20
-22.0
 30
0.0
 11
24.500004768371582
 21
-20.0
 31
0.0
  0
LINE
  5
35
100
AcDbEntity
  8
0
  6
CONTINUOUS
 62
               7
100
AcDbLine
 10
18.573214530944824
 20
-24.29998779296875
 30
0.0
 11
22.426783561706543
 21
-24.29998779296875
 31
0.0
  0
LINE
  5
36
100
AcDbEntity
  8
0
  6
CONTINUOUS
 62
               7
100
AcDbLine
 10
18.573214530944824
 20
-23.699996948242188
 30
0.0
 11
22.426783561706543
 21
-23.699996948242188
 31
0.0
  0
LINE
  5
37
100
AcDbEntity
  8
0
  6
CONTINUOUS
 62
               7
100
AcDbLine
 10
15.500003814697266
 20
19.5
 30
0.0
 11
25.500003814697266
 21
19.5
 31
0.0
  0
LINE
  5
38
100
AcDbEntity
  8
0
  6
CONTINUOUS
 62
               7
100
AcDbLine
 10
15.5
 20
21.499984741210938
 30
0.0
 11
25.5
 21
21.499984741210938
 31
0.0
  0
LINE
  5
39
100
AcDbEntity
  8
0
  6
CONTINUOUS
 62
               2
100
AcDbLine
 10
18.0
 20
27.699996948242187
 30
0.0
 11
23.0
 21
27.699996948242187
 31
0.0
  0
LINE
  5
3A
100
AcDbEntity
  8
0
  6
CONTINUOUS
 62
               4
100
AcDbLine
 10
15.5
 20
55.0
 30
0.0
 11
25.5
 21
55.0
 31
0.0
  0
LINE
  5
3B
100
AcDbEntity
  8
0
  6
CONTINUOUS
 62
               7
100
AcDbLine
 10
15.5
 20
31.0
 30
0.0
 11
25.5
 21
31.0
 31
0.0
  0
LINE
  5
3C
100
AcDbEntity
  8
0
  6
CONTINUOUS
 62
               7
100
AcDbLine
 10
18.573211669921875
 20
27.399993896484375
 30
0.0
 11
22.426788330078125
 21
27.399993896484375
 31
0.0
  0
LINE
  5
3D
100
AcDbEntity
  8
0
  6
CONTINUOUS
 62
               7
100
AcDbLine
 10
18.573211669921875
 20
27.999984741210937
 30
0.0
 11
22.426788330078125
 21
27.999984741210937
 31
0.0
  0
LINE
  5
3E
100
AcDbEntity
  8
0
  6
CONTINUOUS
 62
               4
100
AcDbLine
 10
15.549999237060547
 20
55.000015258789063
 30
0.0
 11
15.549999237060547
 21
68.500015258789063
 31
0.0
  0
LINE
  5
3F
100
AcDbEntity
  8
0
  6
CONTINUOUS
 62
               4
100
AcDbLine
 10
25.000003814697266
 20
64.0
 30
0.0
 11
16.000003814697266
 21
64.0
 31
0.0
  0
LINE
  5
40
100
AcDbEntity
  8
0
  6
CONTINUOUS
 62
               2
100
AcDbLine
 10
25.449996948242187
 20
59.5
 30
0.0
 11
15.549999237060547
 21
59.5
 31
0.0
  0
LINE
  5
41
100
AcDbEntity
  8
0
  6
CONTINUOUS
 62
               4
100
AcDbLine
 10
25.449996948242187
 20
55.0
 30
0.0
 11
25.449996948242187
 21
68.500015258789063
 31
0.0
  0
LINE
  5
42
100
AcDbEntity
  8
0
  6
CONTINUOUS
 62
               4
100
AcDbLine
 10
21.784999847412109
 20
75.0
 30
0.0
 11
21.784999847412109
 21
78.484130859375
 31
0.0
  0
LINE
  5
43
100
AcDbEntity
  8
0
  6
CONTINUOUS
 62
               4
100
AcDbLine
 10
23.215011596679688
 20
75.0
 30
0.0
 11
23.215011596679688
 21
79.30975341796875
 31
0.0
  0
LINE
  5
44
100
AcDbEntity
  8
0
  6
CONTINUOUS
 62
               4
100
AcDbLine
 10
22.100002288818359
 20
83.0
 30
0.0
 11
22.100002288818359
 21
88.0
 31
0.0
  0
LINE
  5
45
100
AcDbEntity
  8
0
  6
CONTINUOUS
 62
               4
100
AcDbLine
 10
22.900009155273438
 20
83.0
 30
0.0
 11
22.900009155273438
 21
88.0
 31
0.0
  0
LINE
  5
46
100
AcDbEntity
  8
0
  6
CONTINUOUS
 62
               4
100
AcDbLine
 10
22.099998474121094
 20
88.0
 30
0.0
 11
22.900001525878906
 21
88.0
 31
0.0
  0
LINE
  5
47
100
AcDbEntity
  8
0
  6
CONTINUOUS
 62
               4
100
AcDbLine
 10
21.784996032714844
 20
83.0
 30
0.0
 11
23.215003967285156
 21
83.0
 31
0.0
  0
LINE
  5
48
100
AcDbEntity
  8
0
  6
CONTINUOUS
 62
             200
100
AcDbLine
 10
24.550041845914166
 20
80.080417549070262
 30
0.0
 11
16.450043623306556
 21
75.403880989011668
 31
0.0
  0
LINE
  5
49
100
AcDbEntity
  8
0
  6
CONTINUOUS
 62
               4
100
AcDbLine
 10
21.784999847412109
 20
79.638824462890625
 30
0.0
 11
21.784999847412109
 21
83.0
 31
0.0
  0
LINE
  5
4A
100
AcDbEntity
  8
0
  6
CONTINUOUS
 62
               4
100
AcDbLine
 10
23.215011596679688
 20
80.464447021484375
 30
0.0
 11
23.215011596679688
 21
83.0
 31
0.0
  0
LINE
  5
4B
100
AcDbEntity
  8
0
  6
CONTINUOUS
 62
               4
100
AcDbLine
 10
15.550003051757813
 20
68.5
 30
0.0
 11
17.000003814697266
 21
68.5
 31
0.0
  0
LINE
  5
4C
100
AcDbEntity
  8
0
  6
CONTINUOUS
 62
               4
100
AcDbLine
 10
16.450000762939453
 20
64.000015258789063
 30
0.0
 11
16.450000762939453
 21
66.500015258789063
 31
0.0
  0
LINE
  5
4D
100
AcDbEntity
  8
0
  6
CONTINUOUS
 62
               4
100
AcDbLine
 10
24.550003051757813
 20
64.0
 30
0.0
 11
24.550003051757813
 21
66.500015258789063
 31
0.0
  0
LINE
  5
4E
100
AcDbEntity
  8
0
  6
CONTINUOUS
 62
               4
100
AcDbLine
 10
24.000003814697266
 20
64.498458862304688
 30
0.0
 11
24.000003814697266
 21
75.0
 31
0.0
  0
LINE
  5
4F
100
AcDbEntity
  8
0
  6
CONTINUOUS
 62
               4
100
AcDbLine
 10
17.000003814697266
 20
64.498458862304688
 30
0.0
 11
17.000003814697266
 21
75.0
 31
0.0
  0
LINE
  5
50
100
AcDbEntity
  8
0
  6
CONTINUOUS
 62
               4
100
AcDbLine
 10
17.000003814697266
 20
64.498458862304688
 30
0.0
 11
24.000003814697266
 21
64.498458862304688
 31
0.0
  0
LINE
  5
51
100
AcDbEntity
  8
0
  6
CONTINUOUS
 62
               4
100
AcDbLine
 10
17.000003814697266
 20
68.05615234375
 30
0.0
 11
24.000003814697266
 21
68.05615234375
 31
0.0
  0
LINE
  5
52
100
AcDbEntity
  8
0
  6
CONTINUOUS
 62
               4
100
AcDbLine
 10
17.000003814697266
 20
73.5
 30
0.0
 11
24.000003814697266
 21
73.5
 31
0.0
  0
LINE
  5
53
100
AcDbEntity
  8
0
  6
CONTINUOUS
 62
               4
100
AcDbLine
 10
15.600006103515625
 20
75.0
 30
0.0
 11
25.400005340576172
 21
75.0
 31
0.0
  0
LINE
  5
54
100
AcDbEntity
  8
0
  6
CONTINUOUS
 62
               4
100
AcDbLine
 10
24.000003814697266
 20
68.5
 30
0.0
 11
25.450000762939453
 21
68.5
 31
0.0
  0
LINE
  5
55
100
AcDbEntity
  8
0
  6
CONTINUOUS
 62
               4
100
AcDbLine
 10
24.000003814697266
 20
67.5
 30
0.0
 11
24.550006866455078
 21
67.5
 31
0.0
  0
LINE
  5
56
100
AcDbEntity
  8
0
  6
CONTINUOUS
 62
               4
100
AcDbLine
 10
24.000003814697266
 20
66.5
 30
0.0
 11
24.550006866455078
 21
66.5
 31
0.0
  0
LINE
  5
57
100
AcDbEntity
  8
0
  6
CONTINUOUS
 62
               4
100
AcDbLine
 10
16.450004577636719
 20
67.5
 30
0.0
 11
17.000003814697266
 21
67.5
 31
0.0
  0
LINE
  5
58
100
AcDbEntity
  8
0
  6
CONTINUOUS
 62
               4
100
AcDbLine
 10
16.450004577636719
 20
66.5
 30
0.0
 11
17.000003814697266
 21
66.5
 31
0.0
  0
LINE
  5
59
100
AcDbEntity
  8
0
  6
CONTINUOUS
 62
               4
100
AcDbLine
 10
16.450000762939453
 20
67.500015258789063
 30
0.0
 11
16.450000762939453
 21
68.500015258789063
 31
0.0
  0
LINE
  5
5A
100
AcDbEntity
  8
0
  6
CONTINUOUS
 62
               4
100
AcDbLine
 10
24.550003051757813
 20
67.500015258789063
 30
0.0
 11
24.550003051757813
 21
68.500015258789063
 31
0.0
  0
LINE
  5
5B
100
AcDbEntity
  8
0
  6
CONTINUOUS
 62
               4
100
AcDbLine
 10
19.215011596679688
 20
78.155044555664062
 30
0.0
 11
19.215011596679688
 21
83.0
 31
0.0
  0
LINE
  5
5C
100
AcDbEntity
  8
0
  6
CONTINUOUS
 62
               4
100
AcDbLine
 10
17.784999847412109
 20
77.329421997070313
 30
0.0
 11
17.784999847412109
 21
83.0
 31
0.0
  0
LINE
  5
5D
100
AcDbEntity
  8
0
  6
CONTINUOUS
 62
               4
100
AcDbLine
 10
17.784996032714844
 20
83.0
 30
0.0
 11
19.215003967285156
 21
83.0
 31
0.0
  0
LINE
  5
5E
100
AcDbEntity
  8
0
  6
CONTINUOUS
 62
               4
100
AcDbLine
 10
18.900009155273438
 20
83.0
 30
0.0
 11
18.900009155273438
 21
88.0
 31
0.0
  0
LINE
  5
5F
100
AcDbEntity
  8
0
  6
CONTINUOUS
 62
               4
100
AcDbLine
 10
18.100002288818359
 20
83.0
 30
0.0
 11
18.100002288818359
 21
88.0
 31
0.0
  0
LINE
  5
60
100
AcDbEntity
  8
0
  6
CONTINUOUS
 62
               4
100
AcDbLine
 10
18.099998474121094
 20
88.0
 30
0.0
 11
18.900001525878906
 21
88.0
 31
0.0
  0
LINE
  5
61
100
AcDbEntity
  8
0
  6
CONTINUOUS
 62
               4
100
AcDbLine
 10
19.215011596679688
 20
75.0
 30
0.0
 11
19.215011596679688
 21
77.000335693359375
 31
0.0
  0
LINE
  5
62
100
AcDbEntity
  8
0
  6
CONTINUOUS
 62
               4
100
AcDbLine
 10
17.784999847412109
 20
75.0
 30
0.0
 11
17.784999847412109
 21
76.174728393554688
 31
0.0
  0
LINE
  5
63
100
AcDbEntity
  8
0
  6
CONTINUOUS
 62
             200
100
AcDbLine
 10
24.549986545459433
 20
81.235224210225169
 30
0.0
 11
16.449988322851823
 21
76.558685977706773
 31
0.0
  0
LINE
  5
64
100
AcDbEntity
  8
0
  6
CONTINUOUS
 62
               7
100
AcDbLine
 10
25.500003814697266
 20
-34.599990844726563
 30
0.0
 11
25.500003814697266
 21
8.4500141143798828
 31
0.0
  0
LINE
  5
65
100
AcDbEntity
  8
0
  6
CONTINUOUS
 62
               7
100
AcDbLine
 10
15.500003814697266
 20
-34.599990844726563
 30
0.0
 11
15.500003814697266
 21
31.0
 31
0.0
  0
LINE
  5
66
100
AcDbEntity
  8
0
  6
CONTINUOUS
 62
               4
100
AcDbLine
 10
25.400001525878906
 20
68.500015258789063
 30
0.0
 11
25.400001525878906
 21
75.0
 31
0.0
  0
LINE
  5
67
100
AcDbEntity
  8
0
  6
CONTINUOUS
 62
               4
100
AcDbLine
 10
15.600002288818359
 20
68.500015258789063
 30
0.0
 11
15.600002288818359
 21
75.0
 31
0.0
  0
LINE
  5
68
100
AcDbEntity
  8
0
  6
CONTINUOUS
 62
               4
100
AcDbLine
 10
16.500003814697266
 20
68.500015258789063
 30
0.0
 11
16.500003814697266
 21
75.0
 31
0.0
  0
LINE
  5
69
100
AcDbEntity
  8
0
  6
CONTINUOUS
 62
               4
100
AcDbLine
 10
24.500003814697266
 20
68.500015258789063
 30
0.0
 11
24.500003814697266
 21
75.0
 31
0.0
  0
LINE
  5
6A
100
AcDbEntity
  8
0
  6
CONTINUOUS
 62
               7
100
AcDbLine
 10
15.5
 20
12.0
 30
0.0
 11
25.5
 21
12.0
 31
0.0
  0
LINE
  5
6B
100
AcDbEntity
  8
0
  6
CONTINUOUS
 62
               7
100
AcDbLine
 10
15.499996185302734
 20
-19.999996185302734
 30
0.0
 11
25.499996185302734
 21
-19.999996185302734
 31
0.0
  0
LINE
  5
6C
100
AcDbEntity
  8
0
  6
CONTINUOUS
 62
               7
100
AcDbLine
 10
18.700000762939453
 20
-19.799999237060547
 30
0.0
 11
25.099994659423828
 21
-19.799999237060547
 31
0.0
  0
LINE
  5
6D
100
AcDbEntity
  8
0
  6
CONTINUOUS
 62
               7
100
AcDbLine
 10
15.900001525878906
 20
11.799999237060547
 30
0.0
 11
22.299999237060547
 21
11.799999237060547
 31
0.0
  0
LINE
  5
6E
100
AcDbEntity
  8
0
  6
CONTINUOUS
 62
               7
100
AcDbLine
 10
22.700004577636719
 20
8.7999954223632812
 30
0.0
 11
22.700004577636719
 21
11.399999618530273
 31
0.0
  0
LINE
  5
6F
100
AcDbEntity
  8
0
  6
CONTINUOUS
 62
               7
100
AcDbLine
 10
18.300006866455078
 20
-16.800006866455078
 30
0.0
 11
18.300006866455078
 21
-19.400005340576172
 31
0.0
  0
LINE
  5
70
100
AcDbEntity
  8
0
  6
CONTINUOUS
 62
               7
100
AcDbLine
 10
16.700000762939453
 20
-15.200000762939453
 30
0.0
 11
15.900001525878906
 21
-15.200000762939453
 31
0.0
  0
LINE
  5
71
100
AcDbEntity
  8
0
  6
CONTINUOUS
 62
               7
100
AcDbLine
 10
24.299995422363281
 20
7.2000026702880859
 30
0.0
 11
25.099998474121094
 21
7.2000026702880859
 31
0.0
  0
LINE
  5
72
100
AcDbEntity
  8
0
  6
CONTINUOUS
 62
               7
100
AcDbLine
 10
24.383878310834575
 20
-17.883899686961286
 30
0.0
 11
22.616111537133861
 21
-16.116132466225736
 31
0.0
  0
LINE
  5
73
100
AcDbEntity
  8
0
  6
CONTINUOUS
 62
               7
100
AcDbLine
 10
18.383868232374596
 20
8.1161027948461992
 30
0.0
 11
16.616100784324374
 21
9.8838706899314275
 31
0.0
  0
LINE
  5
74
100
AcDbEntity
  8
0
  6
CONTINUOUS
 62
               7
100
AcDbLine
 10
16.616107631691591
 20
8.1161182010156381
 30
0.0
 11
18.383874703415529
 21
9.8838851237279641
 31
0.0
  0
LINE
  5
75
100
AcDbEntity
  8
0
  6
CONTINUOUS
 62
               7
100
AcDbLine
 10
22.616113158290716
 20
-17.883910749011989
 30
0.0
 11
24.38388292741314
 21
-16.116141128901404
 31
0.0
  0
LINE
  5
76
100
AcDbEntity
  8
0
  6
CONTINUOUS
 62
               7
100
AcDbLine
 10
15.499996185302734
 20
-28.0
 30
0.0
 11
25.499996185302734
 21
-28.0
 31
0.0
  0
LINE
  5
77
100
AcDbEntity
  8
0
  6
CONTINUOUS
 62
               7
100
AcDbLine
 10
15.899997711181641
 20
-35.0
 30
0.0
 11
25.099998474121094
 21
-35.0
 31
0.0
  0
LINE
  5
78
100
AcDbEntity
  8
0
  6
CONTINUOUS
 62
               7
100
AcDbLine
 10
16.098966735098259
 20
-17.401046494325328
 30
0.0
 11
17.301047534650991
 21
-16.198965796100424
 31
0.0
  0
LINE
  5
79
100
AcDbEntity
  8
0
  6
CONTINUOUS
 62
               7
100
AcDbLine
 10
23.698957185795848
 20
8.1989583782547015
 30
0.0
 11
24.901039334047823
 21
9.4010404251787349
 31
0.0
  0
LINE
  5
7A
100
AcDbEntity
  8
0
  6
CONTINUOUS
 62
               7
100
AcDbLine
 10
23.698965547730609
 20
9.4010474889909119
 30
0.0
 11
24.901047695982584
 21
8.1989654420668785
 31
0.0
  0
LINE
  5
7B
100
AcDbEntity
  8
0
  6
CONTINUOUS
 62
               7
100
AcDbLine
 10
16.098965116659258
 20
-16.198955326822443
 30
0.0
 11
17.301047264911233
 21
-17.401037373746476
 31
0.0
  0
LINE
  5
7C
100
AcDbEntity
  8
0
  6
CONTINUOUS
 62
               4
100
AcDbLine
 10
15.500003814697266
 20
31.0
 30
0.0
 11
15.500003814697266
 21
55.0
 31
0.0
  0
LINE
  5
7D
100
AcDbEntity
  8
0
  6
CONTINUOUS
 62
               4
100
AcDbLine
 10
25.500003814697266
 20
31.0
 30
0.0
 11
25.500003814697266
 21
55.0
 31
0.0
  0
LINE
  5
7E
100
AcDbEntity
  8
0
  6
CONTINUOUS
 62
               2
100
AcDbLine
 10
20.500003814697266
 20
-37.307876586914063
 30
0.0
 11
20.500003814697266
 21
76.720718427536212
 31
0.0
  0
LINE
  5
7F
100
AcDbEntity
  8
0
  6
CONTINUOUS
 62
               7
100
AcDbLine
 10
20.500000883325811
 20
-20.499984741210938
 30
0.0
 11
20.500000883325811
 21
-21.499984741210938
 31
0.0
  0
LINE
  5
80
100
AcDbEntity
  8
0
  6
CONTINUOUS
 62
               7
100
AcDbLine
 10
20.499997663768454
 20
-20.999990540458612
 30
0.0
 11
19.499998436071053
 21
-20.732041412770684
 31
0.0
  0
LINE
  5
81
100
AcDbEntity
  8
0
  6
CONTINUOUS
 62
               7
100
AcDbLine
 10
17.999996185302734
 20
-23.999984741210937
 30
0.0
 11
16.999996185302734
 21
-23.999984741210937
 31
0.0
  0
LINE
  5
82
100
AcDbEntity
  8
0
  6
CONTINUOUS
 62
               7
100
AcDbLine
 10
23.000003814697266
 20
27.699996948242187
 30
0.0
 11
24.000003814697266
 21
27.699996948242187
 31
0.0
  0
LINE
  5
83
100
AcDbEntity
  8
0
  6
CONTINUOUS
 62
               7
100
AcDbLine
 10
20.499999766173232
 20
24.699988394197817
 30
0.0
 11
21.49999905557786
 21
24.432039451631567
 31
0.0
  0
LINE
  5
84
100
AcDbEntity
  8
0
  6
CONTINUOUS
 62
               7
100
AcDbLine
 10
20.500003814697266
 20
24.199996948242188
 30
0.0
 11
20.500003814697266
 21
25.199996948242187
 31
0.0
  0
CIRCLE
  5
85
100
AcDbEntity
  8
0
  6
CONTINUOUS
 62
               7
100
AcDbCircle
 10
20.5
 20
-23.999984741210937
 30
0.0
 40
2.0
  0
CIRCLE
  5
86
100
AcDbEntity
  8
0
  6
CONTINUOUS
 62
               7
100
AcDbCircle
 10
20.5
 20
-23.999984741210937
 30
0.0
 40
1.9499998092651367
  0
CIRCLE
  5
87
100
AcDbEntity
  8
0
  6
CONTINUOUS
 62
               7
100
AcDbCircle
 10
20.500003814697266
 20
27.699996948242187
 30
0.0
 40
2.0
  0
CIRCLE
  5
88
100
AcDbEntity
  8
0
  6
CONTINUOUS
 62
               7
100
AcDbCircle
 10
20.500003814697266
 20
27.699996948242187
 30
0.0
 40
1.9499998092651367
  0
ARC
  5
89
100
AcDbEntity
  8
0
  6
CONTINUOUS
 62
               4
100
AcDbCircle
 10
24.950004577636719
 20
63.5
 30
0.0
 40
0.5
100
AcDbArc
 50
359.99995901886416
 51
89.999982013910454
  0
ARC
  5
8A
100
AcDbEntity
  8
0
  6
CONTINUOUS
 62
               4
100
AcDbCircle
 10
16.050003051757813
 20
63.500015258789063
 30
0.0
 40
0.5
100
AcDbArc
 50
89.999982013910454
 51
179.99996402782091
  0
ARC
  5
8B
100
AcDbEntity
  8
0
  6
CONTINUOUS
 62
               7
100
AcDbCircle
 10
25.099998474121094
 20
-34.599990844726563
 30
0.0
 40
0.4000000357627869
100
AcDbArc
 50
270.00001798608872
 51
0.00001366037834
  0
ARC
  5
8C
100
AcDbEntity
  8
0
  6
CONTINUOUS
 62
               7
100
AcDbCircle
 10
15.899997711181641
 20
-34.599990844726563
 30
0.0
 40
0.4000000357627869
100
AcDbArc
 50
179.99996402782091
 51
269.99994604173139
  0
ARC
  5
8D
100
AcDbEntity
  8
0
  6
CONTINUOUS
 62
               7
100
AcDbCircle
 10
25.100002288818359
 20
12.399993896484375
 30
0.0
 40
0.4000000357627869
100
AcDbArc
 50
270.00001798608872
 51
0.0
  0
ARC
  5
8E
100
AcDbEntity
  8
0
  6
CONTINUOUS
 62
               7
100
AcDbCircle
 10
15.900001525878906
 20
12.399993896484375
 30
0.0
 40
0.4000000357627869
100
AcDbArc
 50
179.99996402782091
 51
270.00000068324471
  0
ARC
  5
8F
100
AcDbEntity
  8
0
  6
CONTINUOUS
 62
               7
100
AcDbCircle
 10
15.900001525878906
 20
-14.799999237060547
 30
0.0
 40
0.4000000357627869
100
AcDbArc
 50
179.99996402782091
 51
270.00000068324471
  0
ARC
  5
90
100
AcDbEntity
  8
0
  6
CONTINUOUS
 62
               7
100
AcDbCircle
 10
15.900001525878906
 20
11.399999618530273
 30
0.0
 40
0.4000000357627869
100
AcDbArc
 50
89.999982013910454
 51
179.99996402782091
  0
ARC
  5
91
100
AcDbEntity
  8
0
  6
CONTINUOUS
 62
               7
100
AcDbCircle
 10
22.299999237060547
 20
11.399999618530273
 30
0.0
 40
0.4000000357627869
100
AcDbArc
 50
0.0
 51
89.999982013910454
  0
ARC
  5
92
100
AcDbEntity
  8
0
  6
CONTINUOUS
 62
               7
100
AcDbCircle
 10
25.099998474121094
 20
6.7999973297119141
 30
0.0
 40
0.4000000357627869
100
AcDbArc
 50
0.0
 51
89.999982013910454
  0
ARC
  5
93
100
AcDbEntity
  8
0
  6
CONTINUOUS
 62
               7
100
AcDbCircle
 10
25.099998474121094
 20
-19.400005340576172
 30
0.0
 40
0.4000000357627869
100
AcDbArc
 50
270.00001798608872
 51
0.0
  0
ARC
  5
94
100
AcDbEntity
  8
0
  6
CONTINUOUS
 62
               7
100
AcDbCircle
 10
18.700000762939453
 20
-19.400005340576172
 30
0.0
 40
0.4000000357627869
100
AcDbArc
 50
179.99996402782091
 51
270.00000068324471
  0
ARC
  5
95
100
AcDbEntity
  8
0
  6
CONTINUOUS
 62
               7
100
AcDbCircle
 10
24.299999237060547
 20
8.7999954223632812
 30
0.0
 40
1.5999994277954102
100
AcDbArc
 50
179.99996402782091
 51
270.00000068324471
  0
ARC
  5
96
100
AcDbEntity
  8
0
  6
CONTINUOUS
 62
               7
100
AcDbCircle
 10
16.700000762939453
 20
-16.799999237060547
 30
0.0
 40
1.5999994277954102
100
AcDbArc
 50
0.0
 51
89.999982013910454
  0
CIRCLE
  5
97
100
AcDbEntity
  8
0
  6
CONTINUOUS
 62
               7
100
AcDbCircle
 10
23.5
 20
-17.000003814697266
 30
0.0
 40
1.3999996185302734
  0
CIRCLE
  5
98
100
AcDbEntity
  8
0
  6
CONTINUOUS
 62
               7
100
AcDbCircle
 10
17.500003814697266
 20
8.9999961853027344
 30
0.0
 40
1.3999996185302734
  0
CIRCLE
  5
99
100
AcDbEntity
  8
0
  6
CONTINUOUS
 62
               7
100
AcDbCircle
 10
23.5
 20
-17.000003814697266
 30
0.0
 40
1.25
  0
CIRCLE
  5
9A
100
AcDbEntity
  8
0
  6
CONTINUOUS
 62
               7
100
AcDbCircle
 10
17.500003814697266
 20
8.9999961853027344
 30
0.0
 40
1.25
  0
CIRCLE
  5
9B
100
AcDbEntity
  8
0
  6
CONTINUOUS
 62
               7
100
AcDbCircle
 10
24.299999237060547
 20
8.7999992370605469
 30
0.0
 40
1.25
  0
CIRCLE
  5
9C
100
AcDbEntity
  8
0
  6
CONTINUOUS
 62
               7
100
AcDbCircle
 10
16.700000762939453
 20
-16.799999237060547
 30
0.0
 40
1.25
  0
ARC
  5
9D
100
AcDbEntity
  8
0
  6
CONTINUOUS
 62
               7
100
AcDbCircle
 10
20.599996089935303
 20
-23.999984741210937
 30
0.0
 40
3.0
100
AcDbArc
 50
91.910194679466258
 51
179.99996402782091
  0
ARC
  5
9E
100
AcDbEntity
  8
0
  6
CONTINUOUS
 62
               7
100
AcDbCircle
 10
20.399996101856232
 20
-23.999984741210937
 30
0.0
 40
3.0
100
AcDbArc
 50
88.08976934835465
 51
179.99996402782091
  0
ARC
  5
9F
100
AcDbEntity
  8
0
  6
CONTINUOUS
 62
               7
100
AcDbCircle
 10
20.499996096758878
 20
-23.999984741210937
 30
0.0
 40
3.0
100
AcDbArc
 50
86.177425663777811
 51
183.82257501946691
  0
ARC
  5
A0
100
AcDbEntity
  8
0
  6
CONTINUOUS
 62
               7
100
AcDbCircle
 10
20.400003850460052
 20
27.699996948242187
 30
0.0
 40
3.0
100
AcDbArc
 50
271.91023065164455
 51
0.0
  0
ARC
  5
A1
100
AcDbEntity
  8
0
  6
CONTINUOUS
 62
               7
100
AcDbCircle
 10
20.600003778934479
 20
27.699996948242187
 30
0.0
 40
3.0
100
AcDbArc
 50
268.089805320533
 51
0.0
  0
ARC
  5
A2
100
AcDbEntity
  8
0
  6
CONTINUOUS
 62
               7
100
AcDbCircle
 10
20.500003814697266
 20
27.699996948242187
 30
0.0
 40
3.0
100
AcDbArc
 50
266.17746163595609
 51
3.822566595416411
  0
LINE
  5
A3
100
AcDbEntity
  8
0
  6
CONTINUOUS
 62
               7
100
AcDbLine
 10
27.000008583068848
 20
-28.0
 30
0.0
 11
27.000008583068848
 21
-26.0
 31
0.0
  0
LINE
  5
A4
100
AcDbEntity
  8
0
  6
CONTINUOUS
 62
               7
100
AcDbLine
 10
25.999995231628418
 20
-26.0
 30
0.0
 11
27.399996757507324
 21
-26.0
 31
0.0
  0
LINE
  5
A5
100
AcDbEntity
  8
0
  6
CONTINUOUS
 62
               2
100
AcDbLine
 10
28.499995231628418
 20
-24.0
 30
0.0
 11
33.499995231628418
 21
-24.0
 31
0.0
  0
LINE
  5
A6
100
AcDbEntity
  8
0
  6
CONTINUOUS
 62
               7
100
AcDbLine
 10
27.399996757507324
 20
-22.0
 30
0.0
 11
25.999995231628418
 21
-22.0
 31
0.0
  0
LINE
  5
A7
100
AcDbEntity
  8
0
  6
CONTINUOUS
 62
               7
100
AcDbLine
 10
27.000008583068848
 20
-22.0
 30
0.0
 11
27.000008583068848
 21
-20.0
 31
0.0
  0
LINE
  5
A8
100
AcDbEntity
  8
0
  6
CONTINUOUS
 62
               7
100
AcDbLine
 10
35.000004768371582
 20
-28.0
 30
0.0
 11
35.000004768371582
 21
-26.0
 31
0.0
  0
LINE
  5
A9
100
AcDbEntity
  8
0
  6
CONTINUOUS
 62
               7
100
AcDbLine
 10
34.599997520446777
 20
-26.0
 30
0.0
 11
35.999995231628418
 21
-26.0
 31
0.0
  0
LINE
  5
AA
100
AcDbEntity
  8
0
  6
CONTINUOUS
 62
               7
100
AcDbLine
 10
35.999995231628418
 20
-22.0
 30
0.0
 11
34.599997520446777
 21
-22.0
 31
0.0
  0
LINE
  5
AB
100
AcDbEntity
  8
0
  6
CONTINUOUS
 62
               7
100
AcDbLine
 10
35.000004768371582
 20
-22.0
 30
0.0
 11
35.000004768371582
 21
-20.0
 31
0.0
  0
LINE
  5
AC
100
AcDbEntity
  8
0
  6
CONTINUOUS
 62
               7
100
AcDbLine
 10
29.073214530944824
 20
-24.29998779296875
 30
0.0
 11
32.926783561706543
 21
-24.29998779296875
 31
0.0
  0
LINE
  5
AD
100
AcDbEntity
  8
0
  6
CONTINUOUS
 62
               7
100
AcDbLine
 10
29.073214530944824
 20
-23.699996948242188
 30
0.0
 11
32.926783561706543
 21
-23.699996948242188
 31
0.0
  0
LINE
  5
AE
100
AcDbEntity
  8
0
  6
CONTINUOUS
 62
               7
100
AcDbLine
 10
26.000003814697266
 20
19.5
 30
0.0
 11
36.000003814697266
 21
19.5
 31
0.0
  0
LINE
  5
AF
100
AcDbEntity
  8
0
  6
CONTINUOUS
 62
               7
100
AcDbLine
 10
26.0
 20
21.499984741210938
 30
0.0
 11
36.0
 21
21.499984741210938
 31
0.0
  0
LINE
  5
B0
100
AcDbEntity
  8
0
  6
CONTINUOUS
 62
               2
100
AcDbLine
 10
28.5
 20
27.699996948242187
 30
0.0
 11
33.5
 21
27.699996948242187
 31
0.0
  0
LINE
  5
B1
100
AcDbEntity
  8
0
  6
CONTINUOUS
 62
               4
100
AcDbLine
 10
26.0
 20
55.0
 30
0.0
 11
36.0
 21
55.0
 31
0.0
  0
LINE
  5
B2
100
AcDbEntity
  8
0
  6
CONTINUOUS
 62
               7
100
AcDbLine
 10
26.0
 20
31.0
 30
0.0
 11
36.0
 21
31.0
 31
0.0
  0
LINE
  5
B3
100
AcDbEntity
  8
0
  6
CONTINUOUS
 62
               7
100
AcDbLine
 10
29.073211669921875
 20
27.399993896484375
 30
0.0
 11
32.926788330078125
 21
27.399993896484375
 31
0.0
  0
LINE
  5
B4
100
AcDbEntity
  8
0
  6
CONTINUOUS
 62
               7
100
AcDbLine
 10
29.073211669921875
 20
27.999984741210937
 30
0.0
 11
32.926788330078125
 21
27.999984741210937
 31
0.0
  0
LINE
  5
B5
100
AcDbEntity
  8
0
  6
CONTINUOUS
 62
               4
100
AcDbLine
 10
26.049999237060547
 20
55.000015258789063
 30
0.0
 11
26.049999237060547
 21
68.500015258789063
 31
0.0
  0
LINE
  5
B6
100
AcDbEntity
  8
0
  6
CONTINUOUS
 62
               4
100
AcDbLine
 10
35.500003814697266
 20
64.0
 30
0.0
 11
26.500003814697266
 21
64.0
 31
0.0
  0
LINE
  5
B7
100
AcDbEntity
  8
0
  6
CONTINUOUS
 62
               2
100
AcDbLine
 10
35.949996948242187
 20
59.5
 30
0.0
 11
26.049999237060547
 21
59.5
 31
0.0
  0
LINE
  5
B8
100
AcDbEntity
  8
0
  6
CONTINUOUS
 62
               4
100
AcDbLine
 10
35.949996948242187
 20
55.0
 30
0.0
 11
35.949996948242187
 21
68.500015258789063
 31
0.0
  0
LINE
  5
B9
100
AcDbEntity
  8
0
  6
CONTINUOUS
 62
               4
100
AcDbLine
 10
32.284999847412109
 20
75.0
 30
0.0
 11
32.284999847412109
 21
78.484130859375
 31
0.0
  0
LINE
  5
BA
100
AcDbEntity
  8
0
  6
CONTINUOUS
 62
               4
100
AcDbLine
 10
33.715011596679687
 20
75.0
 30
0.0
 11
33.715011596679687
 21
79.30975341796875
 31
0.0
  0
LINE
  5
BB
100
AcDbEntity
  8
0
  6
CONTINUOUS
 62
               4
100
AcDbLine
 10
32.600002288818359
 20
83.0
 30
0.0
 11
32.600002288818359
 21
88.0
 31
0.0
  0
LINE
  5
BC
100
AcDbEntity
  8
0
  6
CONTINUOUS
 62
               4
100
AcDbLine
 10
33.400009155273438
 20
83.0
 30
0.0
 11
33.400009155273438
 21
88.0
 31
0.0
  0
LINE
  5
BD
100
AcDbEntity
  8
0
  6
CONTINUOUS
 62
               4
100
AcDbLine
 10
32.599998474121094
 20
88.0
 30
0.0
 11
33.400001525878906
 21
88.0
 31
0.0
  0
LINE
  5
BE
100
AcDbEntity
  8
0
  6
CONTINUOUS
 62
               4
100
AcDbLine
 10
32.284996032714844
 20
83.0
 30
0.0
 11
33.715003967285156
 21
83.0
 31
0.0
  0
LINE
  5
BF
100
AcDbEntity
  8
0
  6
CONTINUOUS
 62
             200
100
AcDbLine
 10
35.050041845914166
 20
80.080417549070262
 30
0.0
 11
26.950043623306556
 21
75.403880989011668
 31
0.0
  0
LINE
  5
C0
100
AcDbEntity
  8
0
  6
CONTINUOUS
 62
               4
100
AcDbLine
 10
32.284999847412109
 20
79.638824462890625
 30
0.0
 11
32.284999847412109
 21
83.0
 31
0.0
  0
LINE
  5
C1
100
AcDbEntity
  8
0
  6
CONTINUOUS
 62
               4
100
AcDbLine
 10
33.715011596679687
 20
80.464447021484375
 30
0.0
 11
33.715011596679687
 21
83.0
 31
0.0
  0
LINE
  5
C2
100
AcDbEntity
  8
0
  6
CONTINUOUS
 62
               4
100
AcDbLine
 10
26.050003051757812
 20
68.5
 30
0.0
 11
27.500003814697266
 21
68.5
 31
0.0
  0
LINE
  5
C3
100
AcDbEntity
  8
0
  6
CONTINUOUS
 62
               4
100
AcDbLine
 10
26.950000762939453
 20
64.000015258789063
 30
0.0
 11
26.950000762939453
 21
66.500015258789063
 31
0.0
  0
LINE
  5
C4
100
AcDbEntity
  8
0
  6
CONTINUOUS
 62
               4
100
AcDbLine
 10
35.050003051757813
 20
64.0
 30
0.0
 11
35.050003051757813
 21
66.500015258789063
 31
0.0
  0
LINE
  5
C5
100
AcDbEntity
  8
0
  6
CONTINUOUS
 62
               4
100
AcDbLine
 10
34.500003814697266
 20
64.498458862304688
 30
0.0
 11
34.500003814697266
 21
75.0
 31
0.0
  0
LINE
  5
C6
100
AcDbEntity
  8
0
  6
CONTINUOUS
 62
               4
100
AcDbLine
 10
27.500003814697266
 20
64.498458862304688
 30
0.0
 11
27.500003814697266
 21
75.0
 31
0.0
  0
LINE
  5
C7
100
AcDbEntity
  8
0
  6
CONTINUOUS
 62
               4
100
AcDbLine
 10
27.500003814697266
 20
64.498458862304688
 30
0.0
 11
34.500003814697266
 21
64.498458862304688
 31
0.0
  0
LINE
  5
C8
100
AcDbEntity
  8
0
  6
CONTINUOUS
 62
               4
100
AcDbLine
 10
27.500003814697266
 20
68.05615234375
 30
0.0
 11
34.500003814697266
 21
68.05615234375
 31
0.0
  0
LINE
  5
C9
100
AcDbEntity
  8
0
  6
CONTINUOUS
 62
               4
100
AcDbLine
 10
27.500003814697266
 20
73.5
 30
0.0
 11
34.500003814697266
 21
73.5
 31
0.0
  0
LINE
  5
CA
100
AcDbEntity
  8
0
  6
CONTINUOUS
 62
               4
100
AcDbLine
 10
26.100006103515625
 20
75.0
 30
0.0
 11
35.900005340576172
 21
75.0
 31
0.0
  0
LINE
  5
CB
100
AcDbEntity
  8
0
  6
CONTINUOUS
 62
               4
100
AcDbLine
 10
34.500003814697266
 20
68.5
 30
0.0
 11
35.950000762939453
 21
68.5
 31
0.0
  0
LINE
  5
CC
100
AcDbEntity
  8
0
  6
CONTINUOUS
 62
               4
100
AcDbLine
 10
34.500003814697266
 20
67.5
 30
0.0
 11
35.050006866455078
 21
67.5
 31
0.0
  0
LINE
  5
CD
100
AcDbEntity
  8
0
  6
CONTINUOUS
 62
               4
100
AcDbLine
 10
34.500003814697266
 20
66.5
 30
0.0
 11
35.050006866455078
 21
66.5
 31
0.0
  0
LINE
  5
CE
100
AcDbEntity
  8
0
  6
CONTINUOUS
 62
               4
100
AcDbLine
 10
26.950004577636719
 20
67.5
 30
0.0
 11
27.500003814697266
 21
67.5
 31
0.0
  0
LINE
  5
CF
100
AcDbEntity
  8
0
  6
CONTINUOUS
 62
               4
100
AcDbLine
 10
26.950004577636719
 20
66.5
 30
0.0
 11
27.500003814697266
 21
66.5
 31
0.0
  0
LINE
  5
D0
100
AcDbEntity
  8
0
  6
CONTINUOUS
 62
               4
100
AcDbLine
 10
26.950000762939453
 20
67.500015258789063
 30
0.0
 11
26.950000762939453
 21
68.500015258789063
 31
0.0
  0
LINE
  5
D1
100
AcDbEntity
  8
0
  6
CONTINUOUS
 62
               4
100
AcDbLine
 10
35.050003051757813
 20
67.500015258789063
 30
0.0
 11
35.050003051757813
 21
68.500015258789063
 31
0.0
  0
LINE
  5
D2
100
AcDbEntity
  8
0
  6
CONTINUOUS
 62
               4
100
AcDbLine
 10
29.715011596679688
 20
78.155044555664062
 30
0.0
 11
29.715011596679688
 21
83.0
 31
0.0
  0
LINE
  5
D3
100
AcDbEntity
  8
0
  6
CONTINUOUS
 62
               4
100
AcDbLine
 10
28.284999847412109
 20
77.329421997070313
 30
0.0
 11
28.284999847412109
 21
83.0
 31
0.0
  0
LINE
  5
D4
100
AcDbEntity
  8
0
  6
CONTINUOUS
 62
               4
100
AcDbLine
 10
28.284996032714844
 20
83.0
 30
0.0
 11
29.715003967285156
 21
83.0
 31
0.0
  0
LINE
  5
D5
100
AcDbEntity
  8
0
  6
CONTINUOUS
 62
               4
100
AcDbLine
 10
29.400009155273438
 20
83.0
 30
0.0
 11
29.400009155273438
 21
88.0
 31
0.0
  0
LINE
  5
D6
100
AcDbEntity
  8
0
  6
CONTINUOUS
 62
               4
100
AcDbLine
 10
28.600002288818359
 20
83.0
 30
0.0
 11
28.600002288818359
 21
88.0
 31
0.0
  0
LINE
  5
D7
100
AcDbEntity
  8
0
  6
CONTINUOUS
 62
               4
100
AcDbLine
 10
28.599998474121094
 20
88.0
 30
0.0
 11
29.400001525878906
 21
88.0
 31
0.0
  0
LINE
  5
D8
100
AcDbEntity
  8
0
  6
CONTINUOUS
 62
               4
100
AcDbLine
 10
29.715011596679688
 20
75.0
 30
0.0
 11
29.715011596679688
 21
77.000335693359375
 31
0.0
  0
LINE
  5
D9
100
AcDbEntity
  8
0
  6
CONTINUOUS
 62
               4
100
AcDbLine
 10
28.284999847412109
 20
75.0
 30
0.0
 11
28.284999847412109
 21
76.174728393554688
 31
0.0
  0
LINE
  5
DA
100
AcDbEntity
  8
0
  6
CONTINUOUS
 62
             200
100
AcDbLine
 10
35.049986545459433
 20
81.235224210225169
 30
0.0
 11
26.949988322851823
 21
76.558685977706773
 31
0.0
  0
LINE
  5
DB
100
AcDbEntity
  8
0
  6
CONTINUOUS
 62
               7
100
AcDbLine
 10
36.000003814697266
 20
-34.599990844726563
 30
0.0
 11
36.000003814697266
 21
8.4500141143798828
 31
0.0
  0
LINE
  5
DC
100
AcDbEntity
  8
0
  6
CONTINUOUS
 62
               7
100
AcDbLine
 10
26.000003814697266
 20
-34.599990844726563
 30
0.0
 11
26.000003814697266
 21
31.0
 31
0.0
  0
LINE
  5
DD
100
AcDbEntity
  8
0
  6
CONTINUOUS
 62
               4
100
AcDbLine
 10
35.900001525878906
 20
68.500015258789063
 30
0.0
 11
35.900001525878906
 21
75.0
 31
0.0
  0
LINE
  5
DE
100
AcDbEntity
  8
0
  6
CONTINUOUS
 62
               4
100
AcDbLine
 10
26.100002288818359
 20
68.500015258789063
 30
0.0
 11
26.100002288818359
 21
75.0
 31
0.0
  0
LINE
  5
DF
100
AcDbEntity
  8
0
  6
CONTINUOUS
 62
               4
100
AcDbLine
 10
27.000003814697266
 20
68.500015258789063
 30
0.0
 11
27.000003814697266
 21
75.0
 31
0.0
  0
LINE
  5
E0
100
AcDbEntity
  8
0
  6
CONTINUOUS
 62
               4
100
AcDbLine
 10
35.000003814697266
 20
68.500015258789063
 30
0.0
 11
35.000003814697266
 21
75.0
 31
0.0
  0
LINE
  5
E1
100
AcDbEntity
  8
0
  6
CONTINUOUS
 62
               7
100
AcDbLine
 10
26.0
 20
12.0
 30
0.0
 11
36.0
 21
12.0
 31
0.0
  0
LINE
  5
E2
100
AcDbEntity
  8
0
  6
CONTINUOUS
 62
               7
100
AcDbLine
 10
25.999996185302734
 20
-19.999996185302734
 30
0.0
 11
35.999996185302734
 21
-19.999996185302734
 31
0.0
  0
LINE
  5
E3
100
AcDbEntity
  8
0
  6
CONTINUOUS
 62
               7
100
AcDbLine
 10
29.200000762939453
 20
-19.799999237060547
 30
0.0
 11
35.599994659423828
 21
-19.799999237060547
 31
0.0
  0
LINE
  5
E4
100
AcDbEntity
  8
0
  6
CONTINUOUS
 62
               7
100
AcDbLine
 10
26.400001525878906
 20
11.799999237060547
 30
0.0
 11
32.799999237060547
 21
11.799999237060547
 31
0.0
  0
LINE
  5
E5
100
AcDbEntity
  8
0
  6
CONTINUOUS
 62
               7
100
AcDbLine
 10
33.200004577636719
 20
8.7999954223632812
 30
0.0
 11
33.200004577636719
 21
11.399999618530273
 31
0.0
  0
LINE
  5
E6
100
AcDbEntity
  8
0
  6
CONTINUOUS
 62
               7
100
AcDbLine
 10
28.800006866455078
 20
-16.800006866455078
 30
0.0
 11
28.800006866455078
 21
-19.400005340576172
 31
0.0
  0
LINE
  5
E7
100
AcDbEntity
  8
0
  6
CONTINUOUS
 62
               7
100
AcDbLine
 10
27.200000762939453
 20
-15.200000762939453
 30
0.0
 11
26.400001525878906
 21
-15.200000762939453
 31
0.0
  0
LINE
  5
E8
100
AcDbEntity
  8
0
  6
CONTINUOUS
 62
               7
100
AcDbLine
 10
34.799995422363281
 20
7.2000026702880859
 30
0.0
 11
35.599998474121094
 21
7.2000026702880859
 31
0.0
  0
LINE
  5
E9
100
AcDbEntity
  8
0
  6
CONTINUOUS
 62
               7
100
AcDbLine
 10
34.883878310834575
 20
-17.883899686961286
 30
0.0
 11
33.116111537133861
 21
-16.116132466225736
 31
0.0
  0
LINE
  5
EA
100
AcDbEntity
  8
0
  6
CONTINUOUS
 62
               7
100
AcDbLine
 10
28.883868232374596
 20
8.1161027948461992
 30
0.0
 11
27.116100784324374
 21
9.8838706899314275
 31
0.0
  0
LINE
  5
EB
100
AcDbEntity
  8
0
  6
CONTINUOUS
 62
               7
100
AcDbLine
 10
27.116107631691591
 20
8.1161182010156381
 30
0.0
 11
28.883874703415529
 21
9.8838851237279641
 31
0.0
  0
LINE
  5
EC
100
AcDbEntity
  8
0
  6
CONTINUOUS
 62
               7
100
AcDbLine
 10
33.116113158290716
 20
-17.883910749011989
 30
0.0
 11
34.88388292741314
 21
-16.116141128901404
 31
0.0
  0
LINE
  5
ED
100
AcDbEntity
  8
0
  6
CONTINUOUS
 62
               7
100
AcDbLine
 10
25.999996185302734
 20
-28.0
 30
0.0
 11
35.999996185302734
 21
-28.0
 31
0.0
  0
LINE
  5
EE
100
AcDbEntity
  8
0
  6
CONTINUOUS
 62
               7
100
AcDbLine
 10
26.399997711181641
 20
-35.0
 30
0.0
 11
35.599998474121094
 21
-35.0
 31
0.0
  0
LINE
  5
EF
100
AcDbEntity
  8
0
  6
CONTINUOUS
 62
               7
100
AcDbLine
 10
26.598966735098259
 20
-17.401046494325328
 30
0.0
 11
27.801047534650991
 21
-16.198965796100424
 31
0.0
  0
LINE
  5
F0
100
AcDbEntity
  8
0
  6
CONTINUOUS
 62
               7
100
AcDbLine
 10
34.198957185795848
 20
8.1989583782547015
 30
0.0
 11
35.401039334047823
 21
9.4010404251787349
 31
0.0
  0
LINE
  5
F1
100
AcDbEntity
  8
0
  6
CONTINUOUS
 62
               7
100
AcDbLine
 10
34.198965547730609
 20
9.4010474889909119
 30
0.0
 11
35.401047695982584
 21
8.1989654420668785
 31
0.0
  0
LINE
  5
F2
100
AcDbEntity
  8
0
  6
CONTINUOUS
 62
               7
100
AcDbLine
 10
26.598965116659258
 20
-16.198955326822443
 30
0.0
 11
27.801047264911233
 21
-17.401037373746476
 31
0.0
  0
LINE
  5
F3
100
AcDbEntity
  8
0
  6
CONTINUOUS
 62
               4
100
AcDbLine
 10
26.000003814697266
 20
31.0
 30
0.0
 11
26.000003814697266
 21
55.0
 31
0.0
  0
LINE
  5
F4
100
AcDbEntity
  8
0
  6
CONTINUOUS
 62
               4
100
AcDbLine
 10
36.000003814697266
 20
31.0
 30
0.0
 11
36.000003814697266
 21
55.0
 31
0.0
  0
LINE
  5
F5
100
AcDbEntity
  8
0
  6
CONTINUOUS
 62
               2
100
AcDbLine
 10
31.000003814697266
 20
-37.307876586914063
 30
0.0
 11
31.000003814697266
 21
76.720718427536212
 31
0.0
  0
LINE
  5
F6
100
AcDbEntity
  8
0
  6
CONTINUOUS
 62
               7
100
AcDbLine
 10
31.000000883325811
 20
-20.499984741210938
 30
0.0
 11
31.000000883325811
 21
-21.499984741210938
 31
0.0
  0
LINE
  5
F7
100
AcDbEntity
  8
0
  6
CONTINUOUS
 62
               7
100
AcDbLine
 10
30.999997663768454
 20
-20.999990540458612
 30
0.0
 11
29.999998436071053
 21
-20.732041412770684
 31
0.0
  0
LINE
  5
F8
100
AcDbEntity
  8
0
  6
CONTINUOUS
 62
               7
100
AcDbLine
 10
28.499996185302734
 20
-23.999984741210937
 30
0.0
 11
27.499996185302734
 21
-23.999984741210937
 31
0.0
  0
LINE
  5
F9
100
AcDbEntity
  8
0
  6
CONTINUOUS
 62
               7
100
AcDbLine
 10
33.500003814697266
 20
27.699996948242187
 30
0.0
 11
34.500003814697266
 21
27.699996948242187
 31
0.0
  0
LINE
  5
FA
100
AcDbEntity
  8
0
  6
CONTINUOUS
 62
               7
100
AcDbLine
 10
30.999999766173232
 20
24.699988394197817
 30
0.0
 11
31.99999905557786
 21
24.432039451631567
 31
0.0
  0
LINE
  5
FB
100
AcDbEntity
  8
0
  6
CONTINUOUS
 62
               7
100
AcDbLine
 10
31.000003814697266
 20
24.199996948242188
 30
0.0
 11
31.000003814697266
 21
25.199996948242187
 31
0.0
  0
CIRCLE
  5
FC
100
AcDbEntity
  8
0
  6
CONTINUOUS
 62
               7
100
AcDbCircle
 10
31.0
 20
-23.999984741210937
 30
0.0
 40
2.0
  0
CIRCLE
  5
FD
100
AcDbEntity
  8
0
  6
CONTINUOUS
 62
               7
100
AcDbCircle
 10
31.0
 20
-23.999984741210937
 30
0.0
 40
1.9499998092651367
  0
CIRCLE
  5
FE
100
AcDbEntity
  8
0
  6
CONTINUOUS
 62
               7
100
AcDbCircle
 10
31.000003814697266
 20
27.699996948242187
 30
0.0
 40
2.0
  0
CIRCLE
  5
FF
100
AcDbEntity
  8
0
  6
CONTINUOUS
 62
               7
100
AcDbCircle
 10
31.000003814697266
 20
27.699996948242187
 30
0.0
 40
1.9499998092651367
  0
ARC
  5
100
100
AcDbEntity
  8
0
  6
CONTINUOUS
 62
               4
100
AcDbCircle
 10
35.450004577636719
 20
63.5
 30
0.0
 40
0.5
100
AcDbArc
 50
359.99995901886416
 51
89.999982013910454
  0
ARC
  5
101
100
AcDbEntity
  8
0
  6
CONTINUOUS
 62
               4
100
AcDbCircle
 10
26.550003051757813
 20
63.500015258789063
 30
0.0
 40
0.5
100
AcDbArc
 50
89.999982013910454
 51
179.99996402782091
  0
ARC
  5
102
100
AcDbEntity
  8
0
  6
CONTINUOUS
 62
               7
100
AcDbCircle
 10
35.599998474121094
 20
-34.599990844726563
 30
0.0
 40
0.4000000357627869
100
AcDbArc
 50
270.00001798608872
 51
0.00001366037834
  0
ARC
  5
103
100
AcDbEntity
  8
0
  6
CONTINUOUS
 62
               7
100
AcDbCircle
 10
26.399997711181641
 20
-34.599990844726563
 30
0.0
 40
0.4000000357627869
100
AcDbArc
 50
179.99996402782091
 51
269.99994604173139
  0
ARC
  5
104
100
AcDbEntity
  8
0
  6
CONTINUOUS
 62
               7
100
AcDbCircle
 10
35.600002288818359
 20
12.399993896484375
 30
0.0
 40
0.4000000357627869
100
AcDbArc
 50
270.00001798608872
 51
0.0
  0
ARC
  5
105
100
AcDbEntity
  8
0
  6
CONTINUOUS
 62
               7
100
AcDbCircle
 10
26.400001525878906
 20
12.399993896484375
 30
0.0
 40
0.4000000357627869
100
AcDbArc
 50
179.99996402782091
 51
270.00000068324471
  0
ARC
  5
106
100
AcDbEntity
  8
0
  6
CONTINUOUS
 62
               7
100
AcDbCircle
 10
26.400001525878906
 20
-14.799999237060547
 30
0.0
 40
0.4000000357627869
100
AcDbArc
 50
179.99996402782091
 51
270.00000068324471
  0
ARC
  5
107
100
AcDbEntity
  8
0
  6
CONTINUOUS
 62
               7
100
AcDbCircle
 10
26.400001525878906
 20
11.399999618530273
 30
0.0
 40
0.4000000357627869
100
AcDbArc
 50
89.999982013910454
 51
179.99996402782091
  0
ARC
  5
108
100
AcDbEntity
  8
0
  6
CONTINUOUS
 62
               7
100
AcDbCircle
 10
32.799999237060547
 20
11.399999618530273
 30
0.0
 40
0.4000000357627869
100
AcDbArc
 50
0.0
 51
89.999982013910454
  0
ARC
  5
109
100
AcDbEntity
  8
0
  6
CONTINUOUS
 62
               7
100
AcDbCircle
 10
35.599998474121094
 20
6.7999973297119141
 30
0.0
 40
0.4000000357627869
100
AcDbArc
 50
0.0
 51
89.999982013910454
  0
ARC
  5
10A
100
AcDbEntity
  8
0
  6
CONTINUOUS
 62
               7
100
AcDbCircle
 10
35.599998474121094
 20
-19.400005340576172
 30
0.0
 40
0.4000000357627869
100
AcDbArc
 50
270.00001798608872
 51
0.0
  0
ARC
  5
10B
100
AcDbEntity
  8
0
  6
CONTINUOUS
 62
               7
100
AcDbCircle
 10
29.200000762939453
 20
-19.400005340576172
 30
0.0
 40
0.4000000357627869
100
AcDbArc
 50
179.99996402782091
 51
270.00000068324471
  0
ARC
  5
10C
100
AcDbEntity
  8
0
  6
CONTINUOUS
 62
               7
100
AcDbCircle
 10
34.799999237060547
 20
8.7999954223632812
 30
0.0
 40
1.5999994277954102
100
AcDbArc
 50
179.99996402782091
 51
270.00000068324471
  0
ARC
  5
10D
100
AcDbEntity
  8
0
  6
CONTINUOUS
 62
               7
100
AcDbCircle
 10
27.200000762939453
 20
-16.799999237060547
 30
0.0
 40
1.5999994277954102
100
AcDbArc
 50
0.0
 51
89.999982013910454
  0
CIRCLE
  5
10E
100
AcDbEntity
  8
0
  6
CONTINUOUS
 62
               7
100
AcDbCircle
 10
34.0
 20
-17.000003814697266
 30
0.0
 40
1.3999996185302734
  0
CIRCLE
  5
10F
100
AcDbEntity
  8
0
  6
CONTINUOUS
 62
               7
100
AcDbCircle
 10
28.000003814697266
 20
8.9999961853027344
 30
0.0
 40
1.3999996185302734
  0
CIRCLE
  5
110
100
AcDbEntity
  8
0
  6
CONTINUOUS
 62
               7
100
AcDbCircle
 10
34.0
 20
-17.000003814697266
 30
0.0
 40
1.25
  0
CIRCLE
  5
111
100
AcDbEntity
  8
0
  6
CONTINUOUS
 62
               7
100
AcDbCircle
 10
28.000003814697266
 20
8.9999961853027344
 30
0.0
 40
1.25
  0
CIRCLE
  5
112
100
AcDbEntity
  8
0
  6
CONTINUOUS
 62
               7
100
AcDbCircle
 10
34.799999237060547
 20
8.7999992370605469
 30
0.0
 40
1.25
  0
CIRCLE
  5
113
100
AcDbEntity
  8
0
  6
CONTINUOUS
 62
               7
100
AcDbCircle
 10
27.200000762939453
 20
-16.799999237060547
 30
0.0
 40
1.25
  0
ARC
  5
114
100
AcDbEntity
  8
0
  6
CONTINUOUS
 62
               7
100
AcDbCircle
 10
31.099996089935303
 20
-23.999984741210937
 30
0.0
 40
3.0
100
AcDbArc
 50
91.910194679466258
 51
179.99996402782091
  0
ARC
  5
115
100
AcDbEntity
  8
0
  6
CONTINUOUS
 62
               7
100
AcDbCircle
 10
30.899996101856232
 20
-23.999984741210937
 30
0.0
 40
3.0
100
AcDbArc
 50
88.08976934835465
 51
179.99996402782091
  0
ARC
  5
116
100
AcDbEntity
  8
0
  6
CONTINUOUS
 62
               7
100
AcDbCircle
 10
30.999996096758878
 20
-23.999984741210937
 30
0.0
 40
3.0
100
AcDbArc
 50
86.177425663777811
 51
183.82257501946691
  0
ARC
  5
117
100
AcDbEntity
  8
0
  6
CONTINUOUS
 62
               7
100
AcDbCircle
 10
30.900003850460052
 20
27.699996948242187
 30
0.0
 40
3.0
100
AcDbArc
 50
271.91023065164455
 51
0.0
  0
ARC
  5
118
100
AcDbEntity
  8
0
  6
CONTINUOUS
 62
               7
100
AcDbCircle
 10
31.100003778934479
 20
27.699996948242187
 30
0.0
 40
3.0
100
AcDbArc
 50
268.089805320533
 51
0.0
  0
ARC
  5
119
100
AcDbEntity
  8
0
  6
CONTINUOUS
 62
               7
100
AcDbCircle
 10
31.000003814697266
 20
27.699996948242187
 30
0.0
 40
3.0
100
AcDbArc
 50
266.17746163595609
 51
3.822566595416411
  0
LINE
  5
11A
100
AcDbEntity
  8
0
  6
CONTINUOUS
 62
               4
100
AcDbLine
 10
46.5
 20
-42.300000000000011
 30
0.0
 11
46.5
 21
-37.5
 31
0.0
  0
LINE
  5
11B
100
AcDbEntity
  8
0
  6
CONTINUOUS
 62
               4
100
AcDbLine
 10
36.5
 20
-42.299999999999997
 30
0.0
 11
36.5
 21
-37.5
 31
0.0
  0
LINE
  5
11C
100
AcDbEntity
  8
0
  6
CONTINUOUS
 62
               4
100
AcDbLine
 10
36.5
 20
-42.299999999999997
 30
0.0
 11
46.5
 21
-42.299999999999997
 31
0.0
  0
LINE
  5
11D
100
AcDbEntity
  8
0
  6
CONTINUOUS
 62
               4
100
AcDbLine
 10
46.199999999999989
 20
-54.0
 30
0.0
 11
36.800000011920929
 21
-54.0
 31
0.0
  0
LINE
  5
11E
100
AcDbEntity
  8
0
  6
CONTINUOUS
 62
               4
100
AcDbLine
 10
36.599999999999994
 20
-53.799999999999997
 30
0.0
 11
36.599999999999994
 21
-53.0
 31
0.0
  0
ARC
  5
11F
100
AcDbEntity
  8
0
  6
CONTINUOUS
 62
               4
100
AcDbCircle
 10
36.800000000000011
 20
-53.799999999999997
 30
0.0
 40
0.2
100
AcDbArc
 50
179.99999999999963
 51
269.99999999999937
  0
LINE
  5
120
100
AcDbEntity
  8
0
  6
CONTINUOUS
 62
               4
100
AcDbLine
 10
38.0
 20
-53.0
 30
0.0
 11
38.0
 21
-52.099999999999994
 31
0.0
  0
LINE
  5
121
100
AcDbEntity
  8
0
  6
CONTINUOUS
 62
               4
100
AcDbLine
 10
46.400000000000006
 20
-53.0
 30
0.0
 11
36.599999994039536
 21
-53.0
 31
0.0
  0
LINE
  5
122
100
AcDbEntity
  8
0
  6
CONTINUOUS
 62
               4
100
AcDbLine
 10
36.5
 20
-51.161879999999996
 30
0.0
 11
36.5
 21
-47.200000000000003
 31
0.0
  0
ARC
  5
123
100
AcDbEntity
  8
0
  6
CONTINUOUS
 62
               4
100
AcDbCircle
 10
46.199999999999989
 20
-53.799999999999997
 30
0.0
 40
0.2
100
AcDbArc
 50
269.99999999999937
 51
0.0
  0
LINE
  5
124
100
AcDbEntity
  8
0
  6
CONTINUOUS
 62
               4
100
AcDbLine
 10
46.400000000000006
 20
-53.799999999999997
 30
0.0
 11
46.400000000000006
 21
-53.0
 31
0.0
  0
LINE
  5
125
100
AcDbEntity
  8
0
  6
CONTINUOUS
 62
               4
100
AcDbLine
 10
46.5
 20
-46.099999999999994
 30
0.0
 11
46.5
 21
-42.5
 31
0.0
  0
LINE
  5
126
100
AcDbEntity
  8
0
  6
CONTINUOUS
 62
               4
100
AcDbLine
 10
36.5
 20
-46.099999999999994
 30
0.0
 11
36.5
 21
-42.5
 31
0.0
  0
LINE
  5
127
100
AcDbEntity
  8
0
  6
CONTINUOUS
 62
               4
100
AcDbLine
 10
46.5
 20
-46.099999999999994
 30
0.0
 11
36.5
 21
-46.099999999999994
 31
0.0
  0
LINE
  5
128
100
AcDbEntity
  8
0
  6
CONTINUOUS
 62
               4
100
AcDbLine
 10
46.300000000000011
 20
-46.299999999999997
 30
0.0
 11
36.699999999999989
 21
-46.299999999999997
 31
0.0
  0
LINE
  5
129
100
AcDbEntity
  8
0
  6
CONTINUOUS
 62
               4
100
AcDbLine
 10
36.699999999999989
 20
-46.299999999999997
 30
0.0
 11
36.5
 21
-46.099999999999994
 31
0.0
  0
LINE
  5
12A
100
AcDbEntity
  8
0
  6
CONTINUOUS
 62
               4
100
AcDbLine
 10
46.300000000000011
 20
-46.299999999999997
 30
0.0
 11
46.5
 21
-46.099999999999994
 31
0.0
  0
LINE
  5
12B
100
AcDbEntity
  8
0
  6
CONTINUOUS
 62
               4
100
AcDbLine
 10
46.300000000000011
 20
-47.0
 30
0.0
 11
36.699999999999989
 21
-47.0
 31
0.0
  0
LINE
  5
12C
100
AcDbEntity
  8
0
  6
CONTINUOUS
 62
               4
100
AcDbLine
 10
46.5
 20
-47.200000000000003
 30
0.0
 11
36.5
 21
-47.200000000000003
 31
0.0
  0
LINE
  5
12D
100
AcDbEntity
  8
0
  6
CONTINUOUS
 62
               4
100
AcDbLine
 10
37.25
 20
-47.0
 30
0.0
 11
37.25
 21
-46.299999999999997
 31
0.0
  0
LINE
  5
12E
100
AcDbEntity
  8
0
  6
CONTINUOUS
 62
               4
100
AcDbLine
 10
45.75
 20
-46.299999999999997
 30
0.0
 11
45.75
 21
-47.0
 31
0.0
  0
LINE
  5
12F
100
AcDbEntity
  8
0
  6
CONTINUOUS
 62
               4
100
AcDbLine
 10
36.5
 20
-47.200000000000003
 30
0.0
 11
36.699999999999989
 21
-47.0
 31
0.0
  0
LINE
  5
130
100
AcDbEntity
  8
0
  6
CONTINUOUS
 62
               4
100
AcDbLine
 10
46.5
 20
-47.200000000000003
 30
0.0
 11
46.300000000000011
 21
-47.0
 31
0.0
  0
LINE
  5
131
100
AcDbEntity
  8
0
  6
CONTINUOUS
 62
               4
100
AcDbLine
 10
36.5
 20
-51.161879999999996
 30
0.0
 11
36.566025199999984
 21
-51.200000000000003
 31
0.0
  0
LINE
  5
132
100
AcDbEntity
  8
0
  6
CONTINUOUS
 62
               4
100
AcDbLine
 10
36.566025499999995
 20
-51.200000000000003
 30
0.0
 11
36.700000399999993
 21
-51.700000000000003
 31
0.0
  0
LINE
  5
133
100
AcDbEntity
  8
0
  6
CONTINUOUS
 62
               4
100
AcDbLine
 10
37.449999999999989
 20
-51.700000000000003
 30
0.0
 11
37.449999999999989
 21
-52.0
 31
0.0
  0
LINE
  5
134
100
AcDbEntity
  8
0
  6
CONTINUOUS
 62
               4
100
AcDbLine
 10
37.449999999999989
 20
-52.0
 30
0.0
 11
37.549999999999983
 21
-52.099999999999994
 31
0.0
  0
LINE
  5
135
100
AcDbEntity
  8
0
  6
CONTINUOUS
 62
               4
100
AcDbLine
 10
45.450000000000017
 20
-52.099999999999994
 30
0.0
 11
37.549999999999983
 21
-52.099999999999994
 31
0.0
  0
LINE
  5
136
100
AcDbEntity
  8
0
  6
CONTINUOUS
 62
               4
100
AcDbLine
 10
46.299999600000007
 20
-51.700000000000003
 30
0.0
 11
36.700000405311584
 21
-51.700000000000003
 31
0.0
  0
LINE
  5
137
100
AcDbEntity
  8
0
  6
CONTINUOUS
 62
               4
100
AcDbLine
 10
45.0
 20
-53.0
 30
0.0
 11
45.0
 21
-52.099999999999994
 31
0.0
  0
LINE
  5
138
100
AcDbEntity
  8
0
  6
CONTINUOUS
 62
               4
100
AcDbLine
 10
46.5
 20
-51.161879999999996
 30
0.0
 11
46.5
 21
-47.200000000000003
 31
0.0
  0
LINE
  5
139
100
AcDbEntity
  8
0
  6
CONTINUOUS
 62
               4
100
AcDbLine
 10
45.550000000000011
 20
-52.0
 30
0.0
 11
45.450000000000017
 21
-52.099999999999994
 31
0.0
  0
LINE
  5
13A
100
AcDbEntity
  8
0
  6
CONTINUOUS
 62
               4
100
AcDbLine
 10
45.550000000000011
 20
-51.700000000000003
 30
0.0
 11
45.550000000000011
 21
-52.0
 31
0.0
  0
LINE
  5
13B
100
AcDbEntity
  8
0
  6
CONTINUOUS
 62
               4
100
AcDbLine
 10
46.433974500000005
 20
-51.200000000000003
 30
0.0
 11
46.299999600000007
 21
-51.700000000000003
 31
0.0
  0
LINE
  5
13C
100
AcDbEntity
  8
0
  6
CONTINUOUS
 62
               4
100
AcDbLine
 10
46.5
 20
-51.161879999999996
 30
0.0
 11
46.433974800000016
 21
-51.200000000000003
 31
0.0
  0
LINE
  5
13D
100
AcDbEntity
  8
0
  6
CONTINUOUS
 62
               4
100
AcDbLine
 10
45.550000000000011
 20
-52.0
 30
0.0
 11
37.449999999999989
 21
-52.0
 31
0.0
  0
LINE
  5
13E
100
AcDbEntity
  8
0
  6
CONTINUOUS
 62
               4
100
AcDbLine
 10
46.5
 20
-51.161879999999996
 30
0.0
 11
36.5
 21
-51.161879999999996
 31
0.0
  0
LINE
  5
13F
100
AcDbEntity
  8
0
  6
CONTINUOUS
 62
               4
100
AcDbLine
 10
46.43397444486618
 20
-51.200000204906019
 30
0.0
 11
36.56602555513382
 21
-51.200000204906019
 31
0.0
  0
LINE
  5
140
100
AcDbEntity
  8
0
  6
CONTINUOUS
 62
               4
100
AcDbLine
 10
46.400000000000006
 20
-42.400000000000006
 30
0.0
 11
36.599999999999994
 21
-42.400000000000006
 31
0.0
  0
LINE
  5
141
100
AcDbEntity
  8
0
  6
CONTINUOUS
 62
               4
100
AcDbLine
 10
46.5
 20
-42.5
 30
0.0
 11
36.5
 21
-42.5
 31
0.0
  0
LINE
  5
142
100
AcDbEntity
  8
0
  6
CONTINUOUS
 62
               4
100
AcDbLine
 10
36.5
 20
-42.5
 30
0.0
 11
36.599999999999994
 21
-42.400000000000006
 31
0.0
  0
LINE
  5
143
100
AcDbEntity
  8
0
  6
CONTINUOUS
 62
               4
100
AcDbLine
 10
36.599999999999994
 20
-42.400000000000006
 30
0.0
 11
36.5
 21
-42.300000000000011
 31
0.0
  0
LINE
  5
144
100
AcDbEntity
  8
0
  6
CONTINUOUS
 62
               7
100
AcDbLine
 10
46.400000000000006
 20
-42.400000000000006
 30
0.0
 11
46.5
 21
-42.300000000000011
 31
0.0
  0
LINE
  5
145
100
AcDbEntity
  8
0
  6
CONTINUOUS
 62
               7
100
AcDbLine
 10
46.5
 20
-42.5
 30
0.0
 11
46.400000000000006
 21
-42.400000000000006
 31
0.0
  0
LINE
  5
146
100
AcDbEntity
  8
0
  6
CONTINUOUS
 62
               4
100
AcDbLine
 10
36.0
 20
-42.300000000000011
 30
0.0
 11
36.0
 21
-37.5
 31
0.0
  0
LINE
  5
147
100
AcDbEntity
  8
0
  6
CONTINUOUS
 62
               4
100
AcDbLine
 10
26.0
 20
-42.299999999999997
 30
0.0
 11
26.0
 21
-37.5
 31
0.0
  0
LINE
  5
148
100
AcDbEntity
  8
0
  6
CONTINUOUS
 62
               4
100
AcDbLine
 10
26.0
 20
-42.299999999999997
 30
0.0
 11
36.0
 21
-42.299999999999997
 31
0.0
  0
LINE
  5
149
100
AcDbEntity
  8
0
  6
CONTINUOUS
 62
               4
100
AcDbLine
 10
35.699999999999989
 20
-54.0
 30
0.0
 11
26.300000011920929
 21
-54.0
 31
0.0
  0
LINE
  5
14A
100
AcDbEntity
  8
0
  6
CONTINUOUS
 62
               4
100
AcDbLine
 10
26.099999999999994
 20
-53.799999999999997
 30
0.0
 11
26.099999999999994
 21
-53.0
 31
0.0
  0
ARC
  5
14B
100
AcDbEntity
  8
0
  6
CONTINUOUS
 62
               4
100
AcDbCircle
 10
26.300000000000011
 20
-53.799999999999997
 30
0.0
 40
0.2
100
AcDbArc
 50
179.99999999999963
 51
269.99999999999937
  0
LINE
  5
14C
100
AcDbEntity
  8
0
  6
CONTINUOUS
 62
               4
100
AcDbLine
 10
27.5
 20
-53.0
 30
0.0
 11
27.5
 21
-52.099999999999994
 31
0.0
  0
LINE
  5
14D
100
AcDbEntity
  8
0
  6
CONTINUOUS
 62
               4
100
AcDbLine
 10
35.900000000000006
 20
-53.0
 30
0.0
 11
26.099999994039536
 21
-53.0
 31
0.0
  0
LINE
  5
14E
100
AcDbEntity
  8
0
  6
CONTINUOUS
 62
               4
100
AcDbLine
 10
26.0
 20
-51.161879999999996
 30
0.0
 11
26.0
 21
-47.200000000000003
 31
0.0
  0
ARC
  5
14F
100
AcDbEntity
  8
0
  6
CONTINUOUS
 62
               4
100
AcDbCircle
 10
35.699999999999989
 20
-53.799999999999997
 30
0.0
 40
0.2
100
AcDbArc
 50
269.99999999999937
 51
0.0
  0
LINE
  5
150
100
AcDbEntity
  8
0
  6
CONTINUOUS
 62
               4
100
AcDbLine
 10
35.900000000000006
 20
-53.799999999999997
 30
0.0
 11
35.900000000000006
 21
-53.0
 31
0.0
  0
LINE
  5
151
100
AcDbEntity
  8
0
  6
CONTINUOUS
 62
               4
100
AcDbLine
 10
36.0
 20
-46.099999999999994
 30
0.0
 11
36.0
 21
-42.5
 31
0.0
  0
LINE
  5
152
100
AcDbEntity
  8
0
  6
CONTINUOUS
 62
               4
100
AcDbLine
 10
26.0
 20
-46.099999999999994
 30
0.0
 11
26.0
 21
-42.5
 31
0.0
  0
LINE
  5
153
100
AcDbEntity
  8
0
  6
CONTINUOUS
 62
               4
100
AcDbLine
 10
36.0
 20
-46.099999999999994
 30
0.0
 11
26.0
 21
-46.099999999999994
 31
0.0
  0
LINE
  5
154
100
AcDbEntity
  8
0
  6
CONTINUOUS
 62
               4
100
AcDbLine
 10
35.800000000000011
 20
-46.299999999999997
 30
0.0
 11
26.199999999999989
 21
-46.299999999999997
 31
0.0
  0
LINE
  5
155
100
AcDbEntity
  8
0
  6
CONTINUOUS
 62
               4
100
AcDbLine
 10
26.199999999999989
 20
-46.299999999999997
 30
0.0
 11
26.0
 21
-46.099999999999994
 31
0.0
  0
LINE
  5
156
100
AcDbEntity
  8
0
  6
CONTINUOUS
 62
               4
100
AcDbLine
 10
35.800000000000011
 20
-46.299999999999997
 30
0.0
 11
36.0
 21
-46.099999999999994
 31
0.0
  0
LINE
  5
157
100
AcDbEntity
  8
0
  6
CONTINUOUS
 62
               4
100
AcDbLine
 10
35.800000000000011
 20
-47.0
 30
0.0
 11
26.199999999999989
 21
-47.0
 31
0.0
  0
LINE
  5
158
100
AcDbEntity
  8
0
  6
CONTINUOUS
 62
               4
100
AcDbLine
 10
36.0
 20
-47.200000000000003
 30
0.0
 11
26.0
 21
-47.200000000000003
 31
0.0
  0
LINE
  5
159
100
AcDbEntity
  8
0
  6
CONTINUOUS
 62
               4
100
AcDbLine
 10
26.75
 20
-47.0
 30
0.0
 11
26.75
 21
-46.299999999999997
 31
0.0
  0
LINE
  5
15A
100
AcDbEntity
  8
0
  6
CONTINUOUS
 62
               4
100
AcDbLine
 10
35.25
 20
-46.299999999999997
 30
0.0
 11
35.25
 21
-47.0
 31
0.0
  0
LINE
  5
15B
100
AcDbEntity
  8
0
  6
CONTINUOUS
 62
               4
100
AcDbLine
 10
26.0
 20
-47.200000000000003
 30
0.0
 11
26.199999999999989
 21
-47.0
 31
0.0
  0
LINE
  5
15C
100
AcDbEntity
  8
0
  6
CONTINUOUS
 62
               4
100
AcDbLine
 10
36.0
 20
-47.200000000000003
 30
0.0
 11
35.800000000000011
 21
-47.0
 31
0.0
  0
LINE
  5
15D
100
AcDbEntity
  8
0
  6
CONTINUOUS
 62
               4
100
AcDbLine
 10
26.0
 20
-51.161879999999996
 30
0.0
 11
26.066025199999984
 21
-51.200000000000003
 31
0.0
  0
LINE
  5
15E
100
AcDbEntity
  8
0
  6
CONTINUOUS
 62
               4
100
AcDbLine
 10
26.066025499999995
 20
-51.200000000000003
 30
0.0
 11
26.200000399999993
 21
-51.700000000000003
 31
0.0
  0
LINE
  5
15F
100
AcDbEntity
  8
0
  6
CONTINUOUS
 62
               4
100
AcDbLine
 10
26.949999999999989
 20
-51.700000000000003
 30
0.0
 11
26.949999999999989
 21
-52.0
 31
0.0
  0
LINE
  5
160
100
AcDbEntity
  8
0
  6
CONTINUOUS
 62
               4
100
AcDbLine
 10
26.949999999999989
 20
-52.0
 30
0.0
 11
27.049999999999983
 21
-52.099999999999994
 31
0.0
  0
LINE
  5
161
100
AcDbEntity
  8
0
  6
CONTINUOUS
 62
               4
100
AcDbLine
 10
34.950000000000017
 20
-52.099999999999994
 30
0.0
 11
27.049999999999983
 21
-52.099999999999994
 31
0.0
  0
LINE
  5
162
100
AcDbEntity
  8
0
  6
CONTINUOUS
 62
               4
100
AcDbLine
 10
35.799999600000007
 20
-51.700000000000003
 30
0.0
 11
26.200000405311584
 21
-51.700000000000003
 31
0.0
  0
LINE
  5
163
100
AcDbEntity
  8
0
  6
CONTINUOUS
 62
               4
100
AcDbLine
 10
34.5
 20
-53.0
 30
0.0
 11
34.5
 21
-52.099999999999994
 31
0.0
  0
LINE
  5
164
100
AcDbEntity
  8
0
  6
CONTINUOUS
 62
               4
100
AcDbLine
 10
36.0
 20
-51.161879999999996
 30
0.0
 11
36.0
 21
-47.200000000000003
 31
0.0
  0
LINE
  5
165
100
AcDbEntity
  8
0
  6
CONTINUOUS
 62
               4
100
AcDbLine
 10
35.050000000000011
 20
-52.0
 30
0.0
 11
34.950000000000017
 21
-52.099999999999994
 31
0.0
  0
LINE
  5
166
100
AcDbEntity
  8
0
  6
CONTINUOUS
 62
               4
100
AcDbLine
 10
35.050000000000011
 20
-51.700000000000003
 30
0.0
 11
35.050000000000011
 21
-52.0
 31
0.0
  0
LINE
  5
167
100
AcDbEntity
  8
0
  6
CONTINUOUS
 62
               4
100
AcDbLine
 10
35.933974500000005
 20
-51.200000000000003
 30
0.0
 11
35.799999600000007
 21
-51.700000000000003
 31
0.0
  0
LINE
  5
168
100
AcDbEntity
  8
0
  6
CONTINUOUS
 62
               4
100
AcDbLine
 10
36.0
 20
-51.161879999999996
 30
0.0
 11
35.933974800000016
 21
-51.200000000000003
 31
0.0
  0
LINE
  5
169
100
AcDbEntity
  8
0
  6
CONTINUOUS
 62
               4
100
AcDbLine
 10
35.050000000000011
 20
-52.0
 30
0.0
 11
26.949999999999989
 21
-52.0
 31
0.0
  0
LINE
  5
16A
100
AcDbEntity
  8
0
  6
CONTINUOUS
 62
               4
100
AcDbLine
 10
36.0
 20
-51.161879999999996
 30
0.0
 11
26.0
 21
-51.161879999999996
 31
0.0
  0
LINE
  5
16B
100
AcDbEntity
  8
0
  6
CONTINUOUS
 62
               4
100
AcDbLine
 10
35.93397444486618
 20
-51.200000204906019
 30
0.0
 11
26.06602555513382
 21
-51.200000204906019
 31
0.0
  0
LINE
  5
16C
100
AcDbEntity
  8
0
  6
CONTINUOUS
 62
               4
100
AcDbLine
 10
35.900000000000006
 20
-42.400000000000006
 30
0.0
 11
26.099999999999994
 21
-42.400000000000006
 31
0.0
  0
LINE
  5
16D
100
AcDbEntity
  8
0
  6
CONTINUOUS
 62
               4
100
AcDbLine
 10
36.0
 20
-42.5
 30
0.0
 11
26.0
 21
-42.5
 31
0.0
  0
LINE
  5
16E
100
AcDbEntity
  8
0
  6
CONTINUOUS
 62
               4
100
AcDbLine
 10
26.0
 20
-42.5
 30
0.0
 11
26.099999999999994
 21
-42.400000000000006
 31
0.0
  0
LINE
  5
16F
100
AcDbEntity
  8
0
  6
CONTINUOUS
 62
               4
100
AcDbLine
 10
26.099999999999994
 20
-42.400000000000006
 30
0.0
 11
26.0
 21
-42.300000000000011
 31
0.0
  0
LINE
  5
170
100
AcDbEntity
  8
0
  6
CONTINUOUS
 62
               4
100
AcDbLine
 10
35.900000000000006
 20
-42.400000000000006
 30
0.0
 11
36.0
 21
-42.300000000000011
 31
0.0
  0
LINE
  5
171
100
AcDbEntity
  8
0
  6
CONTINUOUS
 62
               4
100
AcDbLine
 10
36.0
 20
-42.5
 30
0.0
 11
35.900000000000006
 21
-42.400000000000006
 31
0.0
  0
LINE
  5
172
100
AcDbEntity
  8
0
  6
CONTINUOUS
 62
               4
100
AcDbLine
 10
25.5
 20
-42.300000000000011
 30
0.0
 11
25.5
 21
-37.5
 31
0.0
  0
LINE
  5
173
100
AcDbEntity
  8
0
  6
CONTINUOUS
 62
               4
100
AcDbLine
 10
15.5
 20
-42.299999999999997
 30
0.0
 11
15.5
 21
-37.5
 31
0.0
  0
LINE
  5
174
100
AcDbEntity
  8
0
  6
CONTINUOUS
 62
               4
100
AcDbLine
 10
15.5
 20
-42.299999999999997
 30
0.0
 11
25.5
 21
-42.299999999999997
 31
0.0
  0
LINE
  5
175
100
AcDbEntity
  8
0
  6
CONTINUOUS
 62
               4
100
AcDbLine
 10
25.199999999999989
 20
-54.0
 30
0.0
 11
15.800000011920929
 21
-54.0
 31
0.0
  0
LINE
  5
176
100
AcDbEntity
  8
0
  6
CONTINUOUS
 62
               4
100
AcDbLine
 10
15.599999999999994
 20
-53.799999999999997
 30
0.0
 11
15.599999999999994
 21
-53.0
 31
0.0
  0
ARC
  5
177
100
AcDbEntity
  8
0
  6
CONTINUOUS
 62
               4
100
AcDbCircle
 10
15.800000000000011
 20
-53.799999999999997
 30
0.0
 40
0.2
100
AcDbArc
 50
179.99999999999963
 51
269.99999999999937
  0
LINE
  5
178
100
AcDbEntity
  8
0
  6
CONTINUOUS
 62
               4
100
AcDbLine
 10
17.0
 20
-53.0
 30
0.0
 11
17.0
 21
-52.099999999999994
 31
0.0
  0
LINE
  5
179
100
AcDbEntity
  8
0
  6
CONTINUOUS
 62
               4
100
AcDbLine
 10
25.400000000000006
 20
-53.0
 30
0.0
 11
15.599999994039536
 21
-53.0
 31
0.0
  0
LINE
  5
17A
100
AcDbEntity
  8
0
  6
CONTINUOUS
 62
               4
100
AcDbLine
 10
15.5
 20
-51.161879999999996
 30
0.0
 11
15.5
 21
-47.200000000000003
 31
0.0
  0
ARC
  5
17B
100
AcDbEntity
  8
0
  6
CONTINUOUS
 62
               4
100
AcDbCircle
 10
25.199999999999989
 20
-53.799999999999997
 30
0.0
 40
0.2
100
AcDbArc
 50
269.99999999999937
 51
0.0
  0
LINE
  5
17C
100
AcDbEntity
  8
0
  6
CONTINUOUS
 62
               4
100
AcDbLine
 10
25.400000000000006
 20
-53.799999999999997
 30
0.0
 11
25.400000000000006
 21
-53.0
 31
0.0
  0
LINE
  5
17D
100
AcDbEntity
  8
0
  6
CONTINUOUS
 62
               4
100
AcDbLine
 10
25.5
 20
-46.099999999999994
 30
0.0
 11
25.5
 21
-42.5
 31
0.0
  0
LINE
  5
17E
100
AcDbEntity
  8
0
  6
CONTINUOUS
 62
               4
100
AcDbLine
 10
15.5
 20
-46.099999999999994
 30
0.0
 11
15.5
 21
-42.5
 31
0.0
  0
LINE
  5
17F
100
AcDbEntity
  8
0
  6
CONTINUOUS
 62
               4
100
AcDbLine
 10
25.5
 20
-46.099999999999994
 30
0.0
 11
15.5
 21
-46.099999999999994
 31
0.0
  0
LINE
  5
180
100
AcDbEntity
  8
0
  6
CONTINUOUS
 62
               4
100
AcDbLine
 10
25.300000000000011
 20
-46.299999999999997
 30
0.0
 11
15.699999999999989
 21
-46.299999999999997
 31
0.0
  0
LINE
  5
181
100
AcDbEntity
  8
0
  6
CONTINUOUS
 62
               4
100
AcDbLine
 10
15.699999999999989
 20
-46.299999999999997
 30
0.0
 11
15.5
 21
-46.099999999999994
 31
0.0
  0
LINE
  5
182
100
AcDbEntity
  8
0
  6
CONTINUOUS
 62
               4
100
AcDbLine
 10
25.300000000000011
 20
-46.299999999999997
 30
0.0
 11
25.5
 21
-46.099999999999994
 31
0.0
  0
LINE
  5
183
100
AcDbEntity
  8
0
  6
CONTINUOUS
 62
               4
100
AcDbLine
 10
25.300000000000011
 20
-47.0
 30
0.0
 11
15.699999999999989
 21
-47.0
 31
0.0
  0
LINE
  5
184
100
AcDbEntity
  8
0
  6
CONTINUOUS
 62
               4
100
AcDbLine
 10
25.5
 20
-47.200000000000003
 30
0.0
 11
15.5
 21
-47.200000000000003
 31
0.0
  0
LINE
  5
185
100
AcDbEntity
  8
0
  6
CONTINUOUS
 62
               4
100
AcDbLine
 10
16.25
 20
-47.0
 30
0.0
 11
16.25
 21
-46.299999999999997
 31
0.0
  0
LINE
  5
186
100
AcDbEntity
  8
0
  6
CONTINUOUS
 62
               4
100
AcDbLine
 10
24.75
 20
-46.299999999999997
 30
0.0
 11
24.75
 21
-47.0
 31
0.0
  0
LINE
  5
187
100
AcDbEntity
  8
0
  6
CONTINUOUS
 62
               4
100
AcDbLine
 10
15.5
 20
-47.200000000000003
 30
0.0
 11
15.699999999999989
 21
-47.0
 31
0.0
  0
LINE
  5
188
100
AcDbEntity
  8
0
  6
CONTINUOUS
 62
               4
100
AcDbLine
 10
25.5
 20
-47.200000000000003
 30
0.0
 11
25.300000000000011
 21
-47.0
 31
0.0
  0
LINE
  5
189
100
AcDbEntity
  8
0
  6
CONTINUOUS
 62
               4
100
AcDbLine
 10
15.5
 20
-51.161879999999996
 30
0.0
 11
15.566025199999984
 21
-51.200000000000003
 31
0.0
  0
LINE
  5
18A
100
AcDbEntity
  8
0
  6
CONTINUOUS
 62
               4
100
AcDbLine
 10
15.566025499999995
 20
-51.200000000000003
 30
0.0
 11
15.700000399999993
 21
-51.700000000000003
 31
0.0
  0
LINE
  5
18B
100
AcDbEntity
  8
0
  6
CONTINUOUS
 62
               4
100
AcDbLine
 10
16.449999999999989
 20
-51.700000000000003
 30
0.0
 11
16.449999999999989
 21
-52.0
 31
0.0
  0
LINE
  5
18C
100
AcDbEntity
  8
0
  6
CONTINUOUS
 62
               4
100
AcDbLine
 10
16.449999999999989
 20
-52.0
 30
0.0
 11
16.549999999999983
 21
-52.099999999999994
 31
0.0
  0
LINE
  5
18D
100
AcDbEntity
  8
0
  6
CONTINUOUS
 62
               4
100
AcDbLine
 10
24.450000000000017
 20
-52.099999999999994
 30
0.0
 11
16.549999999999983
 21
-52.099999999999994
 31
0.0
  0
LINE
  5
18E
100
AcDbEntity
  8
0
  6
CONTINUOUS
 62
               4
100
AcDbLine
 10
25.299999600000007
 20
-51.700000000000003
 30
0.0
 11
15.700000405311584
 21
-51.700000000000003
 31
0.0
  0
LINE
  5
18F
100
AcDbEntity
  8
0
  6
CONTINUOUS
 62
               4
100
AcDbLine
 10
24.0
 20
-53.0
 30
0.0
 11
24.0
 21
-52.099999999999994
 31
0.0
  0
LINE
  5
190
100
AcDbEntity
  8
0
  6
CONTINUOUS
 62
               4
100
AcDbLine
 10
25.5
 20
-51.161879999999996
 30
0.0
 11
25.5
 21
-47.200000000000003
 31
0.0
  0
LINE
  5
191
100
AcDbEntity
  8
0
  6
CONTINUOUS
 62
               4
100
AcDbLine
 10
24.550000000000011
 20
-52.0
 30
0.0
 11
24.450000000000017
 21
-52.099999999999994
 31
0.0
  0
LINE
  5
192
100
AcDbEntity
  8
0
  6
CONTINUOUS
 62
               4
100
AcDbLine
 10
24.550000000000011
 20
-51.700000000000003
 30
0.0
 11
24.550000000000011
 21
-52.0
 31
0.0
  0
LINE
  5
193
100
AcDbEntity
  8
0
  6
CONTINUOUS
 62
               4
100
AcDbLine
 10
25.433974500000005
 20
-51.200000000000003
 30
0.0
 11
25.299999600000007
 21
-51.700000000000003
 31
0.0
  0
LINE
  5
194
100
AcDbEntity
  8
0
  6
CONTINUOUS
 62
               4
100
AcDbLine
 10
25.5
 20
-51.161879999999996
 30
0.0
 11
25.433974800000016
 21
-51.200000000000003
 31
0.0
  0
LINE
  5
195
100
AcDbEntity
  8
0
  6
CONTINUOUS
 62
               4
100
AcDbLine
 10
24.550000000000011
 20
-52.0
 30
0.0
 11
16.449999999999989
 21
-52.0
 31
0.0
  0
LINE
  5
196
100
AcDbEntity
  8
0
  6
CONTINUOUS
 62
               4
100
AcDbLine
 10
25.5
 20
-51.161879999999996
 30
0.0
 11
15.5
 21
-51.161879999999996
 31
0.0
  0
LINE
  5
197
100
AcDbEntity
  8
0
  6
CONTINUOUS
 62
               4
100
AcDbLine
 10
25.43397444486618
 20
-51.200000204906019
 30
0.0
 11
15.56602555513382
 21
-51.200000204906019
 31
0.0
  0
LINE
  5
198
100
AcDbEntity
  8
0
  6
CONTINUOUS
 62
               4
100
AcDbLine
 10
25.400000000000006
 20
-42.400000000000006
 30
0.0
 11
15.599999999999994
 21
-42.400000000000006
 31
0.0
  0
LINE
  5
199
100
AcDbEntity
  8
0
  6
CONTINUOUS
 62
               4
100
AcDbLine
 10
25.5
 20
-42.5
 30
0.0
 11
15.5
 21
-42.5
 31
0.0
  0
LINE
  5
19A
100
AcDbEntity
  8
0
  6
CONTINUOUS
 62
               4
100
AcDbLine
 10
15.5
 20
-42.5
 30
0.0
 11
15.599999999999994
 21
-42.400000000000006
 31
0.0
  0
LINE
  5
19B
100
AcDbEntity
  8
0
  6
CONTINUOUS
 62
               4
100
AcDbLine
 10
15.599999999999994
 20
-42.400000000000006
 30
0.0
 11
15.5
 21
-42.300000000000011
 31
0.0
  0
LINE
  5
19C
100
AcDbEntity
  8
0
  6
CONTINUOUS
 62
               4
100
AcDbLine
 10
25.400000000000006
 20
-42.400000000000006
 30
0.0
 11
25.5
 21
-42.300000000000011
 31
0.0
  0
LINE
  5
19D
100
AcDbEntity
  8
0
  6
CONTINUOUS
 62
               4
100
AcDbLine
 10
25.5
 20
-42.5
 30
0.0
 11
25.400000000000006
 21
-42.400000000000006
 31
0.0
  0
LINE
  5
19E
100
AcDbEntity
  8
0
  6
CONTINUOUS
 62
               4
100
AcDbLine
 10
15.0
 20
-42.300000000000011
 30
0.0
 11
15.0
 21
-37.5
 31
0.0
  0
LINE
  5
19F
100
AcDbEntity
  8
0
  6
CONTINUOUS
 62
               4
100
AcDbLine
 10
5.0
 20
-42.299999999999997
 30
0.0
 11
5.0
 21
-37.5
 31
0.0
  0
LINE
  5
1A0
100
AcDbEntity
  8
0
  6
CONTINUOUS
 62
               4
100
AcDbLine
 10
5.0
 20
-42.299999999999997
 30
0.0
 11
15.0
 21
-42.299999999999997
 31
0.0
  0
LINE
  5
1A1
100
AcDbEntity
  8
0
  6
CONTINUOUS
 62
               4
100
AcDbLine
 10
14.699999999999989
 20
-54.0
 30
0.0
 11
5.300000011920929
 21
-54.0
 31
0.0
  0
LINE
  5
1A2
100
AcDbEntity
  8
0
  6
CONTINUOUS
 62
               4
100
AcDbLine
 10
5.0999999999999943
 20
-53.799999999999997
 30
0.0
 11
5.0999999999999943
 21
-53.0
 31
0.0
  0
ARC
  5
1A3
100
AcDbEntity
  8
0
  6
CONTINUOUS
 62
               4
100
AcDbCircle
 10
5.3000000000000114
 20
-53.799999999999997
 30
0.0
 40
0.2
100
AcDbArc
 50
179.99999999999963
 51
269.99999999999937
  0
LINE
  5
1A4
100
AcDbEntity
  8
0
  6
CONTINUOUS
 62
               4
100
AcDbLine
 10
6.5
 20
-53.0
 30
0.0
 11
6.5
 21
-52.099999999999994
 31
0.0
  0
LINE
  5
1A5
100
AcDbEntity
  8
0
  6
CONTINUOUS
 62
               4
100
AcDbLine
 10
14.900000000000006
 20
-53.0
 30
0.0
 11
5.0999999940395355
 21
-53.0
 31
0.0
  0
LINE
  5
1A6
100
AcDbEntity
  8
0
  6
CONTINUOUS
 62
               4
100
AcDbLine
 10
5.0
 20
-51.161879999999996
 30
0.0
 11
5.0
 21
-47.200000000000003
 31
0.0
  0
ARC
  5
1A7
100
AcDbEntity
  8
0
  6
CONTINUOUS
 62
               4
100
AcDbCircle
 10
14.699999999999989
 20
-53.799999999999997
 30
0.0
 40
0.2
100
AcDbArc
 50
269.99999999999937
 51
0.0
  0
LINE
  5
1A8
100
AcDbEntity
  8
0
  6
CONTINUOUS
 62
               4
100
AcDbLine
 10
14.900000000000006
 20
-53.799999999999997
 30
0.0
 11
14.900000000000006
 21
-53.0
 31
0.0
  0
LINE
  5
1A9
100
AcDbEntity
  8
0
  6
CONTINUOUS
 62
               4
100
AcDbLine
 10
15.0
 20
-46.099999999999994
 30
0.0
 11
15.0
 21
-42.5
 31
0.0
  0
LINE
  5
1AA
100
AcDbEntity
  8
0
  6
CONTINUOUS
 62
               4
100
AcDbLine
 10
5.0
 20
-46.099999999999994
 30
0.0
 11
5.0
 21
-42.5
 31
0.0
  0
LINE
  5
1AB
100
AcDbEntity
  8
0
  6
CONTINUOUS
 62
               4
100
AcDbLine
 10
15.0
 20
-46.099999999999994
 30
0.0
 11
5.0
 21
-46.099999999999994
 31
0.0
  0
LINE
  5
1AC
100
AcDbEntity
  8
0
  6
CONTINUOUS
 62
               4
100
AcDbLine
 10
14.800000000000011
 20
-46.299999999999997
 30
0.0
 11
5.1999999999999886
 21
-46.299999999999997
 31
0.0
  0
LINE
  5
1AD
100
AcDbEntity
  8
0
  6
CONTINUOUS
 62
               4
100
AcDbLine
 10
5.1999999999999886
 20
-46.299999999999997
 30
0.0
 11
5.0
 21
-46.099999999999994
 31
0.0
  0
LINE
  5
1AE
100
AcDbEntity
  8
0
  6
CONTINUOUS
 62
               4
100
AcDbLine
 10
14.800000000000011
 20
-46.299999999999997
 30
0.0
 11
15.0
 21
-46.099999999999994
 31
0.0
  0
LINE
  5
1AF
100
AcDbEntity
  8
0
  6
CONTINUOUS
 62
               4
100
AcDbLine
 10
14.800000000000011
 20
-47.0
 30
0.0
 11
5.1999999999999886
 21
-47.0
 31
0.0
  0
LINE
  5
1B0
100
AcDbEntity
  8
0
  6
CONTINUOUS
 62
               4
100
AcDbLine
 10
15.0
 20
-47.200000000000003
 30
0.0
 11
5.0
 21
-47.200000000000003
 31
0.0
  0
LINE
  5
1B1
100
AcDbEntity
  8
0
  6
CONTINUOUS
 62
               4
100
AcDbLine
 10
5.75
 20
-47.0
 30
0.0
 11
5.75
 21
-46.299999999999997
 31
0.0
  0
LINE
  5
1B2
100
AcDbEntity
  8
0
  6
CONTINUOUS
 62
               4
100
AcDbLine
 10
14.25
 20
-46.299999999999997
 30
0.0
 11
14.25
 21
-47.0
 31
0.0
  0
LINE
  5
1B3
100
AcDbEntity
  8
0
  6
CONTINUOUS
 62
               4
100
AcDbLine
 10
5.0
 20
-47.200000000000003
 30
0.0
 11
5.1999999999999886
 21
-47.0
 31
0.0
  0
LINE
  5
1B4
100
AcDbEntity
  8
0
  6
CONTINUOUS
 62
               4
100
AcDbLine
 10
15.0
 20
-47.200000000000003
 30
0.0
 11
14.800000000000011
 21
-47.0
 31
0.0
  0
LINE
  5
1B5
100
AcDbEntity
  8
0
  6
CONTINUOUS
 62
               4
100
AcDbLine
 10
5.0
 20
-51.161879999999996
 30
0.0
 11
5.0660251999999844
 21
-51.200000000000003
 31
0.0
  0
LINE
  5
1B6
100
AcDbEntity
  8
0
  6
CONTINUOUS
 62
               4
100
AcDbLine
 10
5.066025499999995
 20
-51.200000000000003
 30
0.0
 11
5.2000003999999933
 21
-51.700000000000003
 31
0.0
  0
LINE
  5
1B7
100
AcDbEntity
  8
0
  6
CONTINUOUS
 62
               4
100
AcDbLine
 10
5.9499999999999886
 20
-51.700000000000003
 30
0.0
 11
5.9499999999999886
 21
-52.0
 31
0.0
  0
LINE
  5
1B8
100
AcDbEntity
  8
0
  6
CONTINUOUS
 62
               4
100
AcDbLine
 10
5.9499999999999886
 20
-52.0
 30
0.0
 11
6.0499999999999829
 21
-52.099999999999994
 31
0.0
  0
LINE
  5
1B9
100
AcDbEntity
  8
0
  6
CONTINUOUS
 62
               4
100
AcDbLine
 10
13.950000000000017
 20
-52.099999999999994
 30
0.0
 11
6.0499999999999829
 21
-52.099999999999994
 31
0.0
  0
LINE
  5
1BA
100
AcDbEntity
  8
0
  6
CONTINUOUS
 62
               4
100
AcDbLine
 10
14.799999600000007
 20
-51.700000000000003
 30
0.0
 11
5.2000004053115845
 21
-51.700000000000003
 31
0.0
  0
LINE
  5
1BB
100
AcDbEntity
  8
0
  6
CONTINUOUS
 62
               4
100
AcDbLine
 10
13.5
 20
-53.0
 30
0.0
 11
13.5
 21
-52.099999999999994
 31
0.0
  0
LINE
  5
1BC
100
AcDbEntity
  8
0
  6
CONTINUOUS
 62
               4
100
AcDbLine
 10
15.0
 20
-51.161879999999996
 30
0.0
 11
15.0
 21
-47.200000000000003
 31
0.0
  0
LINE
  5
1BD
100
AcDbEntity
  8
0
  6
CONTINUOUS
 62
               4
100
AcDbLine
 10
14.050000000000011
 20
-52.0
 30
0.0
 11
13.950000000000017
 21
-52.099999999999994
 31
0.0
  0
LINE
  5
1BE
100
AcDbEntity
  8
0
  6
CONTINUOUS
 62
               4
100
AcDbLine
 10
14.050000000000011
 20
-51.700000000000003
 30
0.0
 11
14.050000000000011
 21
-52.0
 31
0.0
  0
LINE
  5
1BF
100
AcDbEntity
  8
0
  6
CONTINUOUS
 62
               4
100
AcDbLine
 10
14.933974500000005
 20
-51.200000000000003
 30
0.0
 11
14.799999600000007
 21
-51.700000000000003
 31
0.0
  0
LINE
  5
1C0
100
AcDbEntity
  8
0
  6
CONTINUOUS
 62
               4
100
AcDbLine
 10
15.0
 20
-51.161879999999996
 30
0.0
 11
14.933974800000016
 21
-51.200000000000003
 31
0.0
  0
LINE
  5
1C1
100
AcDbEntity
  8
0
  6
CONTINUOUS
 62
               4
100
AcDbLine
 10
14.050000000000011
 20
-52.0
 30
0.0
 11
5.9499999999999886
 21
-52.0
 31
0.0
  0
LINE
  5
1C2
100
AcDbEntity
  8
0
  6
CONTINUOUS
 62
               4
100
AcDbLine
 10
15.0
 20
-51.161879999999996
 30
0.0
 11
5.0
 21
-51.161879999999996
 31
0.0
  0
LINE
  5
1C3
100
AcDbEntity
  8
0
  6
CONTINUOUS
 62
               4
100
AcDbLine
 10
14.93397444486618
 20
-51.200000204906019
 30
0.0
 11
5.0660255551338196
 21
-51.200000204906019
 31
0.0
  0
LINE
  5
1C4
100
AcDbEntity
  8
0
  6
CONTINUOUS
 62
               4
100
AcDbLine
 10
14.900000000000006
 20
-42.400000000000006
 30
0.0
 11
5.0999999999999943
 21
-42.400000000000006
 31
0.0
  0
LINE
  5
1C5
100
AcDbEntity
  8
0
  6
CONTINUOUS
 62
               4
100
AcDbLine
 10
15.0
 20
-42.5
 30
0.0
 11
5.0
 21
-42.5
 31
0.0
  0
LINE
  5
1C6
100
AcDbEntity
  8
0
  6
CONTINUOUS
 62
               4
100
AcDbLine
 10
5.0
 20
-42.5
 30
0.0
 11
5.0999999999999943
 21
-42.400000000000006
 31
0.0
  0
LINE
  5
1C7
100
AcDbEntity
  8
0
  6
CONTINUOUS
 62
               4
100
AcDbLine
 10
5.0999999999999943
 20
-42.400000000000006
 30
0.0
 11
5.0
 21
-42.300000000000011
 31
0.0
  0
LINE
  5
1C8
100
AcDbEntity
  8
0
  6
CONTINUOUS
 62
               4
100
AcDbLine
 10
14.900000000000006
 20
-42.400000000000006
 30
0.0
 11
15.0
 21
-42.300000000000011
 31
0.0
  0
LINE
  5
1C9
100
AcDbEntity
  8
0
  6
CONTINUOUS
 62
               4
100
AcDbLine
 10
15.0
 20
-42.5
 30
0.0
 11
14.900000000000006
 21
-42.400000000000006
 31
0.0
  0
ARC
  5
1CA
100
AcDbEntity
  8
0
  6
CONTINUOUS
 62
               7
100
AcDbCircle
 10
9.899993896484375
 20
27.699996948242187
 30
0.0
 40
3.0
100
AcDbArc
 50
271.91023065164455
 51
0.0
  0
ARC
  5
1CB
100
AcDbEntity
  8
0
  6
CONTINUOUS
 62
               7
100
AcDbCircle
 10
10.0
 20
27.699996948242187
 30
0.0
 40
3.0
100
AcDbArc
 50
266.17746163595609
 51
3.822566595416411
  0
ARC
  5
1CC
100
AcDbEntity
  8
0
  6
CONTINUOUS
 62
               7
100
AcDbCircle
 10
10.100006103515625
 20
27.699996948242187
 30
0.0
 40
3.0
100
AcDbArc
 50
268.089805320533
 51
0.0
  0
CIRCLE
  5
1CD
100
AcDbEntity
  8
0
  6
CONTINUOUS
 62
               4
100
AcDbCircle
 10
45.300003051757813
 20
8.79998779296875
 30
0.0
 40
1.25
  0
CIRCLE
  5
1CE
100
AcDbEntity
  8
0
  6
CONTINUOUS
 62
               4
100
AcDbCircle
 10
37.699996948242187
 20
-16.800003051757812
 30
0.0
 40
1.25
  0
CIRCLE
  5
1CF
100
AcDbEntity
  8
0
  6
CONTINUOUS
 62
               7
100
AcDbCircle
 10
6.1999969482421875
 20
-16.800003051757812
 30
0.0
 40
1.25
  0
CIRCLE
  5
1D0
100
AcDbEntity
  8
0
  6
CONTINUOUS
 62
               7
100
AcDbCircle
 10
13.800003051757812
 20
8.79998779296875
 30
0.0
 40
1.25
  0
CIRCLE
  5
1D1
100
AcDbEntity
  8
0
  6
CONTINUOUS
 62
               7
100
AcDbCircle
 10
7.0
 20
8.9999847412109375
 30
0.0
 40
1.25
  0
CIRCLE
  5
1D2
100
AcDbEntity
  8
0
  6
CONTINUOUS
 62
               7
100
AcDbCircle
 10
13.0
 20
-17.000015258789063
 30
0.0
 40
1.25
  0
CIRCLE
  5
1D3
100
AcDbEntity
  8
0
  6
CONTINUOUS
 62
               7
100
AcDbCircle
 10
7.0
 20
8.9999847412109375
 30
0.0
 40
1.3999996185302734
  0
CIRCLE
  5
1D4
100
AcDbEntity
  8
0
  6
CONTINUOUS
 62
               7
100
AcDbCircle
 10
13.0
 20
-17.000015258789063
 30
0.0
 40
1.3999996185302734
  0
ARC
  5
1D5
100
AcDbEntity
  8
0
  6
CONTINUOUS
 62
               7
100
AcDbCircle
 10
6.1999969482421875
 20
-16.800003051757812
 30
0.0
 40
1.5999994277954102
100
AcDbArc
 50
0.0
 51
89.999982013910454
  0
ARC
  5
1D6
100
AcDbEntity
  8
0
  6
CONTINUOUS
 62
               7
100
AcDbCircle
 10
13.800003051757812
 20
8.79998779296875
 30
0.0
 40
1.5999994277954102
100
AcDbArc
 50
179.99996402782091
 51
270.00000068324471
  0
ARC
  5
1D7
100
AcDbEntity
  8
0
  6
CONTINUOUS
 62
               7
100
AcDbCircle
 10
8.1999969482421875
 20
-19.400009155273438
 30
0.0
 40
0.4000000357627869
100
AcDbArc
 50
179.99996402782091
 51
270.00000068324471
  0
ARC
  5
1D8
100
AcDbEntity
  8
0
  6
CONTINUOUS
 62
               7
100
AcDbCircle
 10
14.600006103515625
 20
-19.400009155273438
 30
0.0
 40
0.4000000357627869
100
AcDbArc
 50
270.00001798608872
 51
0.0
  0
ARC
  5
1D9
100
AcDbEntity
  8
0
  6
CONTINUOUS
 62
               7
100
AcDbCircle
 10
14.600006103515625
 20
6.79998779296875
 30
0.0
 40
0.4000000357627869
100
AcDbArc
 50
0.0
 51
89.999982013910454
  0
ARC
  5
1DA
100
AcDbEntity
  8
0
  6
CONTINUOUS
 62
               7
100
AcDbCircle
 10
11.800003051757813
 20
11.399993896484375
 30
0.0
 40
0.4000000357627869
100
AcDbArc
 50
0.0
 51
89.999982013910454
  0
ARC
  5
1DB
100
AcDbEntity
  8
0
  6
CONTINUOUS
 62
               7
100
AcDbCircle
 10
5.399993896484375
 20
11.399993896484375
 30
0.0
 40
0.4000000357627869
100
AcDbArc
 50
89.999982013910454
 51
179.99996402782091
  0
ARC
  5
1DC
100
AcDbEntity
  8
0
  6
CONTINUOUS
 62
               7
100
AcDbCircle
 10
5.399993896484375
 20
-14.800003051757812
 30
0.0
 40
0.4000000357627869
100
AcDbArc
 50
179.99996402782091
 51
270.00000068324471
  0
ARC
  5
1DD
100
AcDbEntity
  8
0
  6
CONTINUOUS
 62
               7
100
AcDbCircle
 10
5.399993896484375
 20
12.399993896484375
 30
0.0
 40
0.4000000357627869
100
AcDbArc
 50
179.99996402782091
 51
270.00000068324471
  0
ARC
  5
1DE
100
AcDbEntity
  8
0
  6
CONTINUOUS
 62
               7
100
AcDbCircle
 10
14.600006103515625
 20
12.399993896484375
 30
0.0
 40
0.4000000357627869
100
AcDbArc
 50
270.00001798608872
 51
0.0
  0
ARC
  5
1DF
100
AcDbEntity
  8
0
  6
CONTINUOUS
 62
               7
100
AcDbCircle
 10
5.399993896484375
 20
-34.600006103515625
 30
0.0
 40
0.4000000357627869
100
AcDbArc
 50
179.99996402782091
 51
269.99994604173139
  0
ARC
  5
1E0
100
AcDbEntity
  8
0
  6
CONTINUOUS
 62
               7
100
AcDbCircle
 10
14.600006103515625
 20
-34.600006103515625
 30
0.0
 40
0.4000000357627869
100
AcDbArc
 50
270.00001798608872
 51
0.00001366037834
  0
ARC
  5
1E1
100
AcDbEntity
  8
0
  6
CONTINUOUS
 62
               4
100
AcDbCircle
 10
5.5500030517578125
 20
63.500015258789063
 30
0.0
 40
0.5
100
AcDbArc
 50
89.999982013910454
 51
179.99996402782091
  0
ARC
  5
1E2
100
AcDbEntity
  8
0
  6
CONTINUOUS
 62
               4
100
AcDbCircle
 10
14.45001220703125
 20
63.5
 30
0.0
 40
0.5
100
AcDbArc
 50
359.99995901886416
 51
89.999982013910454
  0
CIRCLE
  5
1E3
100
AcDbEntity
  8
0
  6
CONTINUOUS
 62
               7
100
AcDbCircle
 10
10.0
 20
27.699996948242187
 30
0.0
 40
1.9499998092651367
  0
CIRCLE
  5
1E4
100
AcDbEntity
  8
0
  6
CONTINUOUS
 62
               7
100
AcDbCircle
 10
10.0
 20
27.699996948242187
 30
0.0
 40
2.0
  0
CIRCLE
  5
1E5
100
AcDbEntity
  8
0
  6
CONTINUOUS
 62
               7
100
AcDbCircle
 10
0.0
 20
-16.0
 30
0.0
 40
2.25
  0
CIRCLE
  5
1E6
100
AcDbEntity
  8
0
  6
CONTINUOUS
 62
               7
100
AcDbCircle
 10
0.0
 20
0.0
 30
0.0
 40
2.25
  0
CIRCLE
  5
1E7
100
AcDbEntity
  8
0
  6
CONTINUOUS
 62
               7
100
AcDbCircle
 10
51.5
 20
-16.0
 30
0.0
 40
2.25
  0
CIRCLE
  5
1E8
100
AcDbEntity
  8
0
  6
CONTINUOUS
 62
               7
100
AcDbCircle
 10
51.5
 20
0.0
 30
0.0
 40
2.25
  0
LINE
  5
1E9
100
AcDbEntity
  8
0
  6
CONTINUOUS
 62
               7
100
AcDbLine
 10
9.9999926308846625
 20
24.699987559135479
 30
0.0
 11
10.999994683825207
 21
24.432037876082177
 31
0.0
  0
LINE
  5
1EA
100
AcDbEntity
  8
0
  6
CONTINUOUS
 62
               7
100
AcDbLine
 10
10.0
 20
24.199996948242188
 30
0.0
 11
10.0
 21
25.199996948242187
 31
0.0
  0
LINE
  5
1EB
100
AcDbEntity
  8
0
  6
CONTINUOUS
 62
               7
100
AcDbLine
 10
12.5
 20
27.699996948242187
 30
0.0
 11
13.5
 21
27.699996948242187
 31
0.0
  0
LINE
  5
1EC
100
AcDbEntity
  8
0
  6
CONTINUOUS
 62
               4
100
AcDbLine
 10
36.5
 20
-37.5
 30
0.0
 11
46.5
 21
-37.5
 31
0.0
  0
LINE
  5
1ED
100
AcDbEntity
  8
0
  6
CONTINUOUS
 62
               4
100
AcDbLine
 10
36.5
 20
-32.5
 30
0.0
 11
36.5
 21
-37.5
 31
0.0
  0
LINE
  5
1EE
100
AcDbEntity
  8
0
  6
CONTINUOUS
 62
               4
100
AcDbLine
 10
43.699996948242187
 20
-32.5
 30
0.0
 11
43.699996948242187
 21
-37.5
 31
0.0
  0
LINE
  5
1EF
100
AcDbEntity
  8
0
  6
CONTINUOUS
 62
               4
100
AcDbLine
 10
46.5
 20
-32.5
 30
0.0
 11
46.5
 21
-37.5
 31
0.0
  0
LINE
  5
1F0
100
AcDbEntity
  8
0
  6
CONTINUOUS
 62
               4
100
AcDbLine
 10
36.5
 20
19.5
 30
0.0
 11
46.5
 21
19.5
 31
0.0
  0
LINE
  5
1F1
100
AcDbEntity
  8
0
  6
CONTINUOUS
 62
               4
100
AcDbLine
 10
36.5
 20
-20.5
 30
0.0
 11
46.5
 21
-20.5
 31
0.0
  0
LINE
  5
1F2
100
AcDbEntity
  8
0
  6
CONTINUOUS
 62
               4
100
AcDbLine
 10
36.5
 20
-20.5
 30
0.0
 11
36.5
 21
-17.150009155273438
 31
0.0
  0
LINE
  5
1F3
100
AcDbEntity
  8
0
  6
CONTINUOUS
 62
               4
100
AcDbLine
 10
46.5
 20
9.1499786376953125
 30
0.0
 11
46.5
 21
19.5
 31
0.0
  0
LINE
  5
1F4
100
AcDbEntity
  8
0
  6
CONTINUOUS
 62
               2
100
AcDbLine
 10
41.5
 20
-37.5
 30
0.0
 11
41.5
 21
20.570938110351563
 31
0.0
  0
LINE
  5
1F5
100
AcDbEntity
  8
0
  6
CONTINUOUS
 62
               4
100
AcDbLine
 10
36.5
 20
-16.449996948242188
 30
0.0
 11
36.5
 21
19.5
 31
0.0
  0
LINE
  5
1F6
100
AcDbEntity
  8
0
  6
CONTINUOUS
 62
               4
100
AcDbLine
 10
46.5
 20
-20.5
 30
0.0
 11
46.5
 21
8.45001220703125
 31
0.0
  0
LINE
  5
1F7
100
AcDbEntity
  8
0
  6
CONTINUOUS
 62
               4
100
AcDbLine
 10
44.698961362513728
 20
8.1989560135516513
 30
0.0
 11
45.901040813367217
 21
9.4010353630774262
 31
0.0
  0
LINE
  5
1F8
100
AcDbEntity
  8
0
  6
CONTINUOUS
 62
               4
100
AcDbLine
 10
44.698966858462882
 20
9.4010509826994166
 30
0.0
 11
45.901046309316371
 21
8.1989716331736417
 31
0.0
  0
LINE
  5
1F9
100
AcDbEntity
  8
0
  6
CONTINUOUS
 62
               4
100
AcDbLine
 10
37.098964842670284
 20
-17.401037395085041
 30
0.0
 11
38.301044293523773
 21
-16.198958045559266
 31
0.0
  0
LINE
  5
1FA
100
AcDbEntity
  8
0
  6
CONTINUOUS
 62
               4
100
AcDbLine
 10
37.098983286131443
 20
-16.198953856162007
 30
0.0
 11
38.301062736984932
 21
-17.401033205687781
 31
0.0
  0
LINE
  5
1FB
100
AcDbEntity
  8
0
  6
CONTINUOUS
 62
               4
100
AcDbLine
 10
15.0
 20
31.0
 30
0.0
 11
15.0
 21
55.0
 31
0.0
  0
LINE
  5
1FC
100
AcDbEntity
  8
0
  6
CONTINUOUS
 62
               4
100
AcDbLine
 10
5.0
 20
31.0
 30
0.0
 11
5.0
 21
55.0
 31
0.0
  0
LINE
  5
1FD
100
AcDbEntity
  8
0
  6
CONTINUOUS
 62
               7
100
AcDbLine
 10
5.5989808872154754
 20
-16.198955183787803
 30
0.0
 11
6.8010603380689645
 21
-17.401034533313577
 31
0.0
  0
LINE
  5
1FE
100
AcDbEntity
  8
0
  6
CONTINUOUS
 62
               7
100
AcDbLine
 10
13.198964459546914
 20
9.4010496550736207
 30
0.0
 11
14.401043910400404
 21
8.1989703055478458
 31
0.0
  0
LINE
  5
1FF
100
AcDbEntity
  8
0
  6
CONTINUOUS
 62
               7
100
AcDbLine
 10
13.198958963597761
 20
8.1989573411774472
 30
0.0
 11
14.40103841445125
 21
9.4010366907032221
 31
0.0
  0
LINE
  5
200
100
AcDbEntity
  8
0
  6
CONTINUOUS
 62
               7
100
AcDbLine
 10
5.5989624437543171
 20
-17.401036067459245
 30
0.0
 11
6.8010418946078062
 21
-16.19895671793347
 31
0.0
  0
LINE
  5
201
100
AcDbEntity
  8
0
  6
CONTINUOUS
 62
               7
100
AcDbLine
 10
5.399993896484375
 20
-35.000015258789063
 30
0.0
 11
14.600006103515625
 21
-35.000015258789063
 31
0.0
  0
LINE
  5
202
100
AcDbEntity
  8
0
  6
CONTINUOUS
 62
               7
100
AcDbLine
 10
5.3000030517578125
 20
-22.0
 30
0.0
 11
5.0
 21
-22.0
 31
0.0
  0
LINE
  5
203
100
AcDbEntity
  8
0
  6
CONTINUOUS
 62
               7
100
AcDbLine
 10
14.699996948242188
 20
-26.000015258789063
 30
0.0
 11
15.0
 21
-26.000015258789063
 31
0.0
  0
LINE
  5
204
100
AcDbEntity
  8
0
  6
CONTINUOUS
 62
               7
100
AcDbLine
 10
15.0
 20
-22.0
 30
0.0
 11
14.699996948242188
 21
-22.0
 31
0.0
  0
LINE
  5
205
100
AcDbEntity
  8
0
  6
CONTINUOUS
 62
               7
100
AcDbLine
 10
5.0
 20
-26.000015258789063
 30
0.0
 11
5.3000030517578125
 21
-26.000015258789063
 31
0.0
  0
LINE
  5
206
100
AcDbEntity
  8
0
  6
CONTINUOUS
 62
               7
100
AcDbLine
 10
5.0
 20
-28.000015258789063
 30
0.0
 11
15.0
 21
-28.000015258789063
 31
0.0
  0
LINE
  5
207
100
AcDbEntity
  8
0
  6
CONTINUOUS
 62
               7
100
AcDbLine
 10
12.116125051336894
 20
-17.88390301954496
 30
0.0
 11
13.883892123060832
 21
-16.116136096832633
 31
0.0
  0
LINE
  5
208
100
AcDbEntity
  8
0
  6
CONTINUOUS
 62
               7
100
AcDbLine
 10
6.1161195247377691
 20
8.1161259304826672
 30
0.0
 11
7.8838865964617071
 21
9.8838928531949932
 31
0.0
  0
LINE
  5
209
100
AcDbEntity
  8
0
  6
CONTINUOUS
 62
               7
100
AcDbLine
 10
7.8838701787672107
 20
8.1161133903005975
 30
0.0
 11
6.1161034050664966
 21
9.8838806110361475
 31
0.0
  0
LINE
  5
20A
100
AcDbEntity
  8
0
  6
CONTINUOUS
 62
               7
100
AcDbLine
 10
13.883873513730578
 20
-17.883894486302779
 30
0.0
 11
12.116106740029863
 21
-16.116127265567229
 31
0.0
  0
LINE
  5
20B
100
AcDbEntity
  8
0
  6
CONTINUOUS
 62
               7
100
AcDbLine
 10
13.79998779296875
 20
7.1999969482421875
 30
0.0
 11
14.600006103515625
 21
7.1999969482421875
 31
0.0
  0
LINE
  5
20C
100
AcDbEntity
  8
0
  6
CONTINUOUS
 62
               7
100
AcDbLine
 10
6.1999969482421875
 20
-15.20001220703125
 30
0.0
 11
5.399993896484375
 21
-15.20001220703125
 31
0.0
  0
LINE
  5
20D
100
AcDbEntity
  8
0
  6
CONTINUOUS
 62
               7
100
AcDbLine
 10
7.8000030517578125
 20
-16.800018310546875
 30
0.0
 11
7.8000030517578125
 21
-19.400009155273438
 31
0.0
  0
LINE
  5
20E
100
AcDbEntity
  8
0
  6
CONTINUOUS
 62
               7
100
AcDbLine
 10
12.20001220703125
 20
8.79998779296875
 30
0.0
 11
12.20001220703125
 21
11.399993896484375
 31
0.0
  0
LINE
  5
20F
100
AcDbEntity
  8
0
  6
CONTINUOUS
 62
               7
100
AcDbLine
 10
5.399993896484375
 20
11.800003051757813
 30
0.0
 11
11.800003051757813
 21
11.800003051757813
 31
0.0
  0
LINE
  5
210
100
AcDbEntity
  8
0
  6
CONTINUOUS
 62
               7
100
AcDbLine
 10
8.1999969482421875
 20
-19.800003051757813
 30
0.0
 11
14.599990844726563
 21
-19.800003051757813
 31
0.0
  0
LINE
  5
211
100
AcDbEntity
  8
0
  6
CONTINUOUS
 62
               7
100
AcDbLine
 10
5.0
 20
-20.0
 30
0.0
 11
15.0
 21
-20.0
 31
0.0
  0
LINE
  5
212
100
AcDbEntity
  8
0
  6
CONTINUOUS
 62
               7
100
AcDbLine
 10
5.0
 20
12.0
 30
0.0
 11
15.0
 21
12.0
 31
0.0
  0
LINE
  5
213
100
AcDbEntity
  8
0
  6
CONTINUOUS
 62
               7
100
AcDbLine
 10
5.3000030517578125
 20
-28.000015258789063
 30
0.0
 11
5.3000030517578125
 21
-20.000015258789063
 31
0.0
  0
LINE
  5
214
100
AcDbEntity
  8
0
  6
CONTINUOUS
 62
               7
100
AcDbLine
 10
14.699996948242188
 20
-28.000015258789063
 30
0.0
 11
14.699996948242188
 21
-20.000015258789063
 31
0.0
  0
LINE
  5
215
100
AcDbEntity
  8
0
  6
CONTINUOUS
 62
               7
100
AcDbLine
 10
5.6999969482421875
 20
-27.600006103515625
 30
0.0
 11
14.300003051757813
 21
-27.600006103515625
 31
0.0
  0
LINE
  5
216
100
AcDbEntity
  8
0
  6
CONTINUOUS
 62
               7
100
AcDbLine
 10
5.6999969482421875
 20
-27.600006103515625
 30
0.0
 11
5.6999969482421875
 21
-20.400009155273438
 31
0.0
  0
LINE
  5
217
100
AcDbEntity
  8
0
  6
CONTINUOUS
 62
               7
100
AcDbLine
 10
5.6999969482421875
 20
-20.400009155273438
 30
0.0
 11
14.300003051757813
 21
-20.400009155273438
 31
0.0
  0
LINE
  5
218
100
AcDbEntity
  8
0
  6
CONTINUOUS
 62
               7
100
AcDbLine
 10
14.300003051757813
 20
-27.600006103515625
 30
0.0
 11
14.300003051757813
 21
-20.400009155273438
 31
0.0
  0
LINE
  5
219
100
AcDbEntity
  8
0
  6
CONTINUOUS
 62
               7
100
AcDbLine
 10
14.299976738691839
 20
-20.400001074212923
 30
0.0
 11
14.699979354963943
 21
-19.999998525376213
 31
0.0
  0
LINE
  5
21A
100
AcDbEntity
  8
0
  6
CONTINUOUS
 62
               7
100
AcDbLine
 10
14.300008500556942
 20
-27.59999361222981
 30
0.0
 11
14.700000259801527
 21
-27.99998543890797
 31
0.0
  0
LINE
  5
21B
100
AcDbEntity
  8
0
  6
CONTINUOUS
 62
               7
100
AcDbLine
 10
5.6999799496188643
 20
-27.60000367689463
 30
0.0
 11
5.2999881229407038
 21
-27.999995436139216
 31
0.0
  0
LINE
  5
21C
100
AcDbEntity
  8
0
  6
CONTINUOUS
 62
               7
100
AcDbLine
 10
5.7000129253156047
 20
-20.399967980511065
 30
0.0
 11
5.3000211660710193
 21
-19.999976153832904
 31
0.0
  0
LINE
  5
21D
100
AcDbEntity
  8
0
  6
CONTINUOUS
 62
               4
100
AcDbLine
 10
14.0
 20
68.500015258789063
 30
0.0
 11
14.0
 21
75.0
 31
0.0
  0
LINE
  5
21E
100
AcDbEntity
  8
0
  6
CONTINUOUS
 62
               4
100
AcDbLine
 10
6.0
 20
68.500015258789063
 30
0.0
 11
6.0
 21
75.0
 31
0.0
  0
LINE
  5
21F
100
AcDbEntity
  8
0
  6
CONTINUOUS
 62
               4
100
AcDbLine
 10
5.100006103515625
 20
68.500015258789063
 30
0.0
 11
5.100006103515625
 21
75.0
 31
0.0
  0
LINE
  5
220
100
AcDbEntity
  8
0
  6
CONTINUOUS
 62
               4
100
AcDbLine
 10
14.899993896484375
 20
68.500015258789063
 30
0.0
 11
14.899993896484375
 21
75.0
 31
0.0
  0
LINE
  5
221
100
AcDbEntity
  8
0
  6
CONTINUOUS
 62
               7
100
AcDbLine
 10
5.0
 20
-34.600006103515625
 30
0.0
 11
5.0
 21
31.0
 31
0.0
  0
LINE
  5
222
100
AcDbEntity
  8
0
  6
CONTINUOUS
 62
               7
100
AcDbLine
 10
15.0
 20
-34.600006103515625
 30
0.0
 11
15.0
 21
8.45001220703125
 31
0.0
  0
LINE
  5
223
100
AcDbEntity
  8
0
  6
CONTINUOUS
 62
             200
100
AcDbLine
 10
10.000010316408407
 20
80.732089983928745
 30
0.0
 11
6.0000082575779743
 21
78.422686692201751
 31
0.0
  0
LINE
  5
224
100
AcDbEntity
  8
0
  6
CONTINUOUS
 62
               4
100
AcDbLine
 10
7.285003662109375
 20
75.0
 30
0.0
 11
7.285003662109375
 21
78.009780883789063
 31
0.0
  0
LINE
  5
225
100
AcDbEntity
  8
0
  6
CONTINUOUS
 62
               4
100
AcDbLine
 10
8.7150115966796875
 20
75.0
 30
0.0
 11
8.7150115966796875
 21
78.83538818359375
 31
0.0
  0
LINE
  5
226
100
AcDbEntity
  8
0
  6
CONTINUOUS
 62
               4
100
AcDbLine
 10
7.600006103515625
 20
88.0
 30
0.0
 11
8.399993896484375
 21
88.0
 31
0.0
  0
LINE
  5
227
100
AcDbEntity
  8
0
  6
CONTINUOUS
 62
               4
100
AcDbLine
 10
7.600006103515625
 20
83.0
 30
0.0
 11
7.600006103515625
 21
88.0
 31
0.0
  0
LINE
  5
228
100
AcDbEntity
  8
0
  6
CONTINUOUS
 62
               4
100
AcDbLine
 10
8.4000091552734375
 20
83.0
 30
0.0
 11
8.4000091552734375
 21
88.0
 31
0.0
  0
LINE
  5
229
100
AcDbEntity
  8
0
  6
CONTINUOUS
 62
               4
100
AcDbLine
 10
7.285003662109375
 20
83.0
 30
0.0
 11
8.714996337890625
 21
83.0
 31
0.0
  0
LINE
  5
22A
100
AcDbEntity
  8
0
  6
CONTINUOUS
 62
               4
100
AcDbLine
 10
7.285003662109375
 20
79.164581298828125
 30
0.0
 11
7.285003662109375
 21
83.0
 31
0.0
  0
LINE
  5
22B
100
AcDbEntity
  8
0
  6
CONTINUOUS
 62
               4
100
AcDbLine
 10
8.7150115966796875
 20
79.990188598632813
 30
0.0
 11
8.7150115966796875
 21
83.0
 31
0.0
  0
LINE
  5
22C
100
AcDbEntity
  8
0
  6
CONTINUOUS
 62
               4
100
AcDbLine
 10
14.050003051757813
 20
67.500015258789063
 30
0.0
 11
14.050003051757813
 21
68.500015258789063
 31
0.0
  0
LINE
  5
22D
100
AcDbEntity
  8
0
  6
CONTINUOUS
 62
               4
100
AcDbLine
 10
5.9499969482421875
 20
67.500015258789063
 30
0.0
 11
5.9499969482421875
 21
68.500015258789063
 31
0.0
  0
LINE
  5
22E
100
AcDbEntity
  8
0
  6
CONTINUOUS
 62
               4
100
AcDbLine
 10
5.95001220703125
 20
66.5
 30
0.0
 11
6.5
 21
66.5
 31
0.0
  0
LINE
  5
22F
100
AcDbEntity
  8
0
  6
CONTINUOUS
 62
               4
100
AcDbLine
 10
5.95001220703125
 20
67.5
 30
0.0
 11
6.5
 21
67.5
 31
0.0
  0
LINE
  5
230
100
AcDbEntity
  8
0
  6
CONTINUOUS
 62
               4
100
AcDbLine
 10
13.5
 20
66.5
 30
0.0
 11
14.050003051757813
 21
66.5
 31
0.0
  0
LINE
  5
231
100
AcDbEntity
  8
0
  6
CONTINUOUS
 62
               4
100
AcDbLine
 10
13.5
 20
67.5
 30
0.0
 11
14.050003051757813
 21
67.5
 31
0.0
  0
LINE
  5
232
100
AcDbEntity
  8
0
  6
CONTINUOUS
 62
               4
100
AcDbLine
 10
13.5
 20
68.5
 30
0.0
 11
14.949996948242188
 21
68.5
 31
0.0
  0
LINE
  5
233
100
AcDbEntity
  8
0
  6
CONTINUOUS
 62
               4
100
AcDbLine
 10
5.100006103515625
 20
75.0
 30
0.0
 11
14.900009155273438
 21
75.0
 31
0.0
  0
LINE
  5
234
100
AcDbEntity
  8
0
  6
CONTINUOUS
 62
               4
100
AcDbLine
 10
6.5
 20
73.5
 30
0.0
 11
13.5
 21
73.5
 31
0.0
  0
LINE
  5
235
100
AcDbEntity
  8
0
  6
CONTINUOUS
 62
               4
100
AcDbLine
 10
6.5
 20
68.05615234375
 30
0.0
 11
13.5
 21
68.05615234375
 31
0.0
  0
LINE
  5
236
100
AcDbEntity
  8
0
  6
CONTINUOUS
 62
               4
100
AcDbLine
 10
6.5
 20
64.498458862304688
 30
0.0
 11
13.5
 21
64.498458862304688
 31
0.0
  0
LINE
  5
237
100
AcDbEntity
  8
0
  6
CONTINUOUS
 62
               4
100
AcDbLine
 10
6.5
 20
64.498458862304688
 30
0.0
 11
6.5
 21
75.0
 31
0.0
  0
LINE
  5
238
100
AcDbEntity
  8
0
  6
CONTINUOUS
 62
               4
100
AcDbLine
 10
13.5
 20
64.498458862304688
 30
0.0
 11
13.5
 21
75.0
 31
0.0
  0
LINE
  5
239
100
AcDbEntity
  8
0
  6
CONTINUOUS
 62
               4
100
AcDbLine
 10
14.050003051757813
 20
64.0
 30
0.0
 11
14.050003051757813
 21
66.500015258789063
 31
0.0
  0
LINE
  5
23A
100
AcDbEntity
  8
0
  6
CONTINUOUS
 62
               4
100
AcDbLine
 10
5.9499969482421875
 20
64.000015258789063
 30
0.0
 11
5.9499969482421875
 21
66.500015258789063
 31
0.0
  0
LINE
  5
23B
100
AcDbEntity
  8
0
  6
CONTINUOUS
 62
               4
100
AcDbLine
 10
5.0500030517578125
 20
68.5
 30
0.0
 11
6.5
 21
68.5
 31
0.0
  0
LINE
  5
23C
100
AcDbEntity
  8
0
  6
CONTINUOUS
 62
             200
100
AcDbLine
 10
10.000007109261787
 20
79.577286792749874
 30
0.0
 11
6.0000047751291277
 21
77.267884051627334
 31
0.0
  0
LINE
  5
23D
100
AcDbEntity
  8
0
  6
CONTINUOUS
 62
               4
100
AcDbLine
 10
14.949996948242188
 20
55.0
 30
0.0
 11
14.949996948242188
 21
68.500015258789063
 31
0.0
  0
LINE
  5
23E
100
AcDbEntity
  8
0
  6
CONTINUOUS
 62
               2
100
AcDbLine
 10
14.949996948242188
 20
59.5
 30
0.0
 11
5.0500030517578125
 21
59.5
 31
0.0
  0
LINE
  5
23F
100
AcDbEntity
  8
0
  6
CONTINUOUS
 62
               4
100
AcDbLine
 10
14.5
 20
64.0
 30
0.0
 11
5.5
 21
64.0
 31
0.0
  0
LINE
  5
240
100
AcDbEntity
  8
0
  6
CONTINUOUS
 62
               4
100
AcDbLine
 10
5.0500030517578125
 20
55.000015258789063
 30
0.0
 11
5.0500030517578125
 21
68.500015258789063
 31
0.0
  0
LINE
  5
241
100
AcDbEntity
  8
0
  6
CONTINUOUS
 62
               7
100
AcDbLine
 10
8.073211669921875
 20
28.0
 30
0.0
 11
11.926788330078125
 21
28.0
 31
0.0
  0
LINE
  5
242
100
AcDbEntity
  8
0
  6
CONTINUOUS
 62
               7
100
AcDbLine
 10
8.073211669921875
 20
27.399993896484375
 30
0.0
 11
11.926788330078125
 21
27.399993896484375
 31
0.0
  0
LINE
  5
243
100
AcDbEntity
  8
0
  6
CONTINUOUS
 62
               7
100
AcDbLine
 10
5.0
 20
31.0
 30
0.0
 11
15.0
 21
31.0
 31
0.0
  0
LINE
  5
244
100
AcDbEntity
  8
0
  6
CONTINUOUS
 62
               4
100
AcDbLine
 10
5.0
 20
55.0
 30
0.0
 11
15.0
 21
55.0
 31
0.0
  0
LINE
  5
245
100
AcDbEntity
  8
0
  6
CONTINUOUS
 62
               2
100
AcDbLine
 10
7.5
 20
27.699996948242187
 30
0.0
 11
12.5
 21
27.699996948242187
 31
0.0
  0
LINE
  5
246
100
AcDbEntity
  8
0
  6
CONTINUOUS
 62
               7
100
AcDbLine
 10
5.0
 20
21.5
 30
0.0
 11
15.0
 21
21.5
 31
0.0
  0
LINE
  5
247
100
AcDbEntity
  8
0
  6
CONTINUOUS
 62
               7
100
AcDbLine
 10
5.0
 20
19.5
 30
0.0
 11
15.0
 21
19.5
 31
0.0
  0
LINE
  5
248
100
AcDbEntity
  8
0
  6
CONTINUOUS
 62
               4
100
AcDbLine
 10
15.5
 20
-37.5
 30
0.0
 11
25.5
 21
-37.5
 31
0.0
  0
LINE
  5
249
100
AcDbEntity
  8
0
  6
CONTINUOUS
 62
               4
100
AcDbLine
 10
15.5
 20
-34.600006103515625
 30
0.0
 11
15.5
 21
-37.5
 31
0.0
  0
LINE
  5
24A
100
AcDbEntity
  8
0
  6
CONTINUOUS
 62
               4
100
AcDbLine
 10
22.699996948242188
 20
-35.000015258789063
 30
0.0
 11
22.699996948242188
 21
-37.5
 31
0.0
  0
LINE
  5
24B
100
AcDbEntity
  8
0
  6
CONTINUOUS
 62
               4
100
AcDbLine
 10
25.5
 20
-34.600006103515625
 30
0.0
 11
25.5
 21
-37.5
 31
0.0
  0
LINE
  5
24C
100
AcDbEntity
  8
0
  6
CONTINUOUS
 62
             200
100
AcDbLine
 10
20.5
 20
-35.100006103515625
 30
0.0
 11
20.5
 21
-54.601139068603516
 31
0.0
  0
LINE
  5
24D
100
AcDbEntity
  8
0
  6
CONTINUOUS
 62
               4
100
AcDbLine
 10
26.0
 20
-37.5
 30
0.0
 11
36.0
 21
-37.5
 31
0.0
  0
LINE
  5
24E
100
AcDbEntity
  8
0
  6
CONTINUOUS
 62
               4
100
AcDbLine
 10
26.0
 20
-34.600006103515625
 30
0.0
 11
26.0
 21
-37.5
 31
0.0
  0
LINE
  5
24F
100
AcDbEntity
  8
0
  6
CONTINUOUS
 62
               4
100
AcDbLine
 10
33.199996948242187
 20
-35.000015258789063
 30
0.0
 11
33.199996948242187
 21
-37.5
 31
0.0
  0
LINE
  5
250
100
AcDbEntity
  8
0
  6
CONTINUOUS
 62
               4
100
AcDbLine
 10
36.0
 20
-34.600006103515625
 30
0.0
 11
36.0
 21
-37.5
 31
0.0
  0
LINE
  5
251
100
AcDbEntity
  8
0
  6
CONTINUOUS
 62
             200
100
AcDbLine
 10
31.0
 20
-35.100006103515625
 30
0.0
 11
31.0
 21
-54.601139068603516
 31
0.0
  0
LINE
  5
252
100
AcDbEntity
  8
0
  6
CONTINUOUS
 62
               4
100
AcDbLine
 10
5.0
 20
-37.5
 30
0.0
 11
15.0
 21
-37.5
 31
0.0
  0
LINE
  5
253
100
AcDbEntity
  8
0
  6
CONTINUOUS
 62
               4
100
AcDbLine
 10
5.0
 20
-34.600006103515625
 30
0.0
 11
5.0
 21
-37.5
 31
0.0
  0
LINE
  5
254
100
AcDbEntity
  8
0
  6
CONTINUOUS
 62
               4
100
AcDbLine
 10
12.199996948242188
 20
-35.000015258789063
 30
0.0
 11
12.199996948242188
 21
-37.5
 31
0.0
  0
LINE
  5
255
100
AcDbEntity
  8
0
  6
CONTINUOUS
 62
               4
100
AcDbLine
 10
15.0
 20
-34.600006103515625
 30
0.0
 11
15.0
 21
-37.5
 31
0.0
  0
LINE
  5
256
100
AcDbEntity
  8
0
  6
CONTINUOUS
 62
               2
100
AcDbLine
 10
10.0
 20
77.643378037773232
 30
0.0
 11
10.0
 21
-35.000015258789063
 31
0.0
  0
LINE
  5
257
100
AcDbEntity
  8
0
  6
CONTINUOUS
 62
               7
100
AcDbLine
 10
15.0
 20
24.0
 30
0.0
 11
15.5
 21
24.0
 31
0.0
  0
LINE
  5
258
100
AcDbEntity
  8
0
  6
CONTINUOUS
 62
               7
100
AcDbLine
 10
15.0
 20
-32.0
 30
0.0
 11
15.5
 21
-32.0
 31
0.0
  0
LINE
  5
259
100
AcDbEntity
  8
0
  6
CONTINUOUS
 62
               7
100
AcDbLine
 10
36.0
 20
-32.5
 30
0.0
 11
55.5
 21
-32.5
 31
0.0
  0
LINE
  5
25A
100
AcDbEntity
  8
0
  6
CONTINUOUS
 62
               7
100
AcDbLine
 10
36.0
 20
23.5
 30
0.0
 11
55.5
 21
23.5
 31
0.0
  0
LINE
  5
25B
100
AcDbEntity
  8
0
  6
CONTINUOUS
 62
               7
100
AcDbLine
 10
25.5
 20
24.0
 30
0.0
 11
26.0
 21
24.0
 31
0.0
  0
LINE
  5
25C
100
AcDbEntity
  8
0
  6
CONTINUOUS
 62
               7
100
AcDbLine
 10
25.5
 20
-32.0
 30
0.0
 11
26.0
 21
-32.0
 31
0.0
  0
LINE
  5
25D
100
AcDbEntity
  8
0
  6
CONTINUOUS
 62
               2
100
AcDbLine
 10
-3.25
 20
-16.0
 30
0.0
 11
3.25
 21
-16.0
 31
0.0
  0
LINE
  5
25E
100
AcDbEntity
  8
0
  6
CONTINUOUS
 62
               2
100
AcDbLine
 10
0.0
 20
-12.75
 30
0.0
 11
0.0
 21
-19.25
 31
0.0
  0
LINE
  5
25F
100
AcDbEntity
  8
0
  6
CONTINUOUS
 62
               2
100
AcDbLine
 10
-3.25
 20
0.0
 30
0.0
 11
3.25
 21
0.0
 31
0.0
  0
LINE
  5
260
100
AcDbEntity
  8
0
  6
CONTINUOUS
 62
               2
100
AcDbLine
 10
0.0
 20
3.25
 30
0.0
 11
0.0
 21
-3.25
 31
0.0
  0
LINE
  5
261
100
AcDbEntity
  8
0
  6
CONTINUOUS
 62
               2
100
AcDbLine
 10
51.5
 20
-12.75
 30
0.0
 11
51.5
 21
-19.25
 31
0.0
  0
LINE
  5
262
100
AcDbEntity
  8
0
  6
CONTINUOUS
 62
               2
100
AcDbLine
 10
48.25
 20
-16.0
 30
0.0
 11
54.75
 21
-16.0
 31
0.0
  0
LINE
  5
263
100
AcDbEntity
  8
0
  6
CONTINUOUS
 62
               2
100
AcDbLine
 10
48.25
 20
0.0
 30
0.0
 11
54.75
 21
0.0
 31
0.0
  0
LINE
  5
264
100
AcDbEntity
  8
0
  6
CONTINUOUS
 62
               7
100
AcDbLine
 10
-4.0
 20
23.5
 30
0.0
 11
5.0
 21
23.5
 31
0.0
  0
LINE
  5
265
100
AcDbEntity
  8
0
  6
CONTINUOUS
 62
               7
100
AcDbLine
 10
-4.0
 20
-32.5
 30
0.0
 11
5.0
 21
-32.5
 31
0.0
  0
LINE
  5
266
100
AcDbEntity
  8
0
  6
CONTINUOUS
 62
               2
100
AcDbLine
 10
51.5
 20
3.25
 30
0.0
 11
51.5
 21
-3.25
 31
0.0
  0
LINE
  5
267
100
AcDbEntity
  8
0
  6
CONTINUOUS
 62
               7
100
AcDbLine
 10
55.5
 20
23.5
 30
0.0
 11
55.5
 21
-32.5
 31
0.0
  0
LINE
  5
268
100
AcDbEntity
  8
0
  6
CONTINUOUS
 62
               7
100
AcDbLine
 10
-4.0
 20
23.5
 30
0.0
 11
-4.0
 21
-32.5
 31
0.0
  0
ENDBLK
  5
269
100
AcDbEntity
  8
0
100
AcDbBlockEnd
  0
BLOCK
  5
26A
100
AcDbEntity
  8
0
100
AcDbBlockBegin
  2
F10MA-2
 70
               0
 10
0.0
 20
0.0
 30
0.0
  3
F10MA-2
  1

  0
LINE
  5
26B
100
AcDbEntity
  8
0
  6
CONTINUOUS
 62
             200
100
AcDbLine
 10
21.499183097248316
 20
-35.399372338155622
 30
0.0
 11
21.498730760385783
 21
-55.000496142750769
 31
0.0
  0
LINE
  5
26C
100
AcDbEntity
  8
0
  6
CONTINUOUS
 62
             200
100
AcDbLine
 10
10.499183094216885
 20
-35.399118490185536
 30
0.0
 11
10.498730757354352
 21
-55.000242294780683
 31
0.0
  0
LINE
  5
26D
100
AcDbEntity
  8
0
  6
CONTINUOUS
 62
               2
100
AcDbLine
 10
-2.0003692328782838
 20
-15.999953841563229
 30
0.0
 11
1.9996307660566122
 21
-16.000046149915939
 31
0.0
  0
LINE
  5
26E
100
AcDbEntity
  8
0
  6
CONTINUOUS
 62
               2
100
AcDbLine
 10
-1.9999999994674478
 20
0.0000461541763545
 30
0.0
 11
1.999999999467448
 21
-0.0000461541763545
 31
0.0
  0
LINE
  5
26F
100
AcDbEntity
  8
0
  6
CONTINUOUS
 62
               2
100
AcDbLine
 10
2.1747804545784186
 20
17.499949817059502
 30
0.0
 11
9.0004038466466163
 21
17.499792301546577
 31
0.0
  0
LINE
  5
270
100
AcDbEntity
  8
0
  6
CONTINUOUS
 62
               7
100
AcDbLine
 10
32.499538449230357
 20
-20.000765258829297
 30
0.0
 11
31.999538449363495
 21
-20.000753720285211
 31
0.0
  0
LINE
  5
271
100
AcDbEntity
  8
0
  6
CONTINUOUS
 62
               7
100
AcDbLine
 10
32.500438455669268
 20
18.99923473078594
 30
0.0
 11
32.000438455802403
 21
18.999246269330026
 31
0.0
  0
LINE
  5
272
100
AcDbEntity
  8
0
  6
CONTINUOUS
 62
               4
100
AcDbLine
 10
26.499023832113792
 20
-42.300611531573232
 30
0.0
 11
26.499134602137044
 21
-37.500611532851345
 31
0.0
  0
LINE
  5
273
100
AcDbEntity
  8
0
  6
CONTINUOUS
 62
               4
100
AcDbLine
 10
16.499023834776548
 20
-42.300380760691446
 30
0.0
 11
16.499134604799799
 21
-37.500380761969573
 31
0.0
  0
LINE
  5
274
100
AcDbEntity
  8
0
  6
CONTINUOUS
 62
               4
100
AcDbLine
 10
16.499023834776548
 20
-42.300380760691446
 30
0.0
 11
26.499023832113792
 21
-42.300611531573217
 31
0.0
  0
LINE
  5
275
100
AcDbEntity
  8
0
  6
CONTINUOUS
 62
               4
100
AcDbLine
 10
26.198753830261996
 20
-54.00060460533134
 30
0.0
 11
16.798753844685919
 21
-54.000387680702751
 31
0.0
  0
LINE
  5
276
100
AcDbEntity
  8
0
  6
CONTINUOUS
 62
               4
100
AcDbLine
 10
16.598758448235877
 20
-53.800383065338089
 30
0.0
 11
16.59877690990642
 21
-53.000383065551112
 31
0.0
  0
ARC
  5
277
100
AcDbEntity
  8
0
  6
CONTINUOUS
 62
               4
100
AcDbCircle
 10
16.798758448182625
 20
-53.800387680755726
 30
0.0
 40
0.2
100
AcDbArc
 50
179.99867778024353
 51
269.99867778024333
  0
LINE
  5
278
100
AcDbEntity
  8
0
  6
CONTINUOUS
 62
               4
100
AcDbLine
 10
17.998776909533639
 20
-53.00041537347456
 30
0.0
 11
17.998797678912997
 21
-52.100415373714206
 31
0.0
  0
LINE
  5
279
100
AcDbEntity
  8
0
  6
CONTINUOUS
 62
               4
100
AcDbLine
 10
26.398776907296917
 20
-53.000609221015253
 30
0.0
 11
16.598776903945961
 21
-53.000383065550977
 31
0.0
  0
LINE
  5
27A
100
AcDbEntity
  8
0
  6
CONTINUOUS
 62
               4
100
AcDbLine
 10
16.498819328390372
 20
-51.16226075833174
 30
0.0
 11
16.498910757044481
 21
-47.200380759386697
 31
0.0
  0
ARC
  5
27B
100
AcDbEntity
  8
0
  6
CONTINUOUS
 62
               4
100
AcDbCircle
 10
26.198758445679633
 20
-53.800604605384592
 30
0.0
 40
0.2
100
AcDbArc
 50
269.99867778024333
 51
359.99867778024316
  0
LINE
  5
27C
100
AcDbEntity
  8
0
  6
CONTINUOUS
 62
               4
100
AcDbLine
 10
26.398758445626374
 20
-53.80060922080223
 30
0.0
 11
26.398776907296917
 21
-53.000609221015253
 31
0.0
  0
LINE
  5
27D
100
AcDbEntity
  8
0
  6
CONTINUOUS
 62
               4
100
AcDbLine
 10
26.498936139178713
 20
-46.100611530561366
 30
0.0
 11
26.499019216696158
 21
-42.500611531519965
 31
0.0
  0
LINE
  5
27E
100
AcDbEntity
  8
0
  6
CONTINUOUS
 62
               4
100
AcDbLine
 10
16.498936141841476
 20
-46.100380759679595
 30
0.0
 11
16.499019219358914
 21
-42.500380760638194
 31
0.0
  0
LINE
  5
27F
100
AcDbEntity
  8
0
  6
CONTINUOUS
 62
               4
100
AcDbLine
 10
26.498936139178713
 20
-46.100611530561366
 30
0.0
 11
16.498936141841476
 21
-46.100380759679595
 31
0.0
  0
LINE
  5
280
100
AcDbEntity
  8
0
  6
CONTINUOUS
 62
               4
100
AcDbLine
 10
26.298931523814336
 20
-46.300606915090484
 30
0.0
 11
16.698931526370586
 21
-46.30038537504398
 31
0.0
  0
LINE
  5
281
100
AcDbEntity
  8
0
  6
CONTINUOUS
 62
               4
100
AcDbLine
 10
16.698931526370586
 20
-46.30038537504398
 30
0.0
 11
16.498936141841476
 21
-46.100380759679595
 31
0.0
  0
LINE
  5
282
100
AcDbEntity
  8
0
  6
CONTINUOUS
 62
               4
100
AcDbLine
 10
26.298931523814336
 20
-46.300606915090484
 30
0.0
 11
26.498936139178713
 21
-46.100611530561366
 31
0.0
  0
LINE
  5
283
100
AcDbEntity
  8
0
  6
CONTINUOUS
 62
               4
100
AcDbLine
 10
26.298915369852612
 20
-47.00060691490409
 30
0.0
 11
16.698915372408862
 21
-47.000385374857586
 31
0.0
  0
LINE
  5
284
100
AcDbEntity
  8
0
  6
CONTINUOUS
 62
               4
100
AcDbLine
 10
26.498910754381718
 20
-47.200611530268468
 30
0.0
 11
16.498910757044481
 21
-47.200380759386697
 31
0.0
  0
LINE
  5
285
100
AcDbEntity
  8
0
  6
CONTINUOUS
 62
               4
100
AcDbLine
 10
17.24891537226241
 20
-47.000398067256086
 30
0.0
 11
17.248931526224133
 21
-46.30039806744248
 31
0.0
  0
LINE
  5
286
100
AcDbEntity
  8
0
  6
CONTINUOUS
 62
               4
100
AcDbLine
 10
25.748931523960785
 20
-46.300594222691984
 30
0.0
 11
25.748915369999061
 21
-47.00059422250559
 31
0.0
  0
LINE
  5
287
100
AcDbEntity
  8
0
  6
CONTINUOUS
 62
               4
100
AcDbLine
 10
16.498910757044481
 20
-47.200380759386697
 30
0.0
 11
16.698915372408862
 21
-47.000385374857586
 31
0.0
  0
LINE
  5
288
100
AcDbEntity
  8
0
  6
CONTINUOUS
 62
               4
100
AcDbLine
 10
26.498910754381718
 20
-47.200611530268468
 30
0.0
 11
26.298915369852612
 21
-47.00060691490409
 31
0.0
  0
LINE
  5
289
100
AcDbEntity
  8
0
  6
CONTINUOUS
 62
               4
100
AcDbLine
 10
16.498819328390372
 20
-51.16226075833174
 30
0.0
 11
16.564843648674177
 21
-51.200382281990954
 31
0.0
  0
LINE
  5
28A
100
AcDbEntity
  8
0
  6
CONTINUOUS
 62
               4
100
AcDbLine
 10
16.564843948674188
 20
-51.200382281997882
 30
0.0
 11
16.69880731009442
 21
-51.700385373615326
 31
0.0
  0
LINE
  5
28B
100
AcDbEntity
  8
0
  6
CONTINUOUS
 62
               4
100
AcDbLine
 10
17.448806909894724
 20
-51.700402681422226
 30
0.0
 11
17.448799986768272
 21
-52.000402681342337
 31
0.0
  0
LINE
  5
28C
100
AcDbEntity
  8
0
  6
CONTINUOUS
 62
               4
100
AcDbLine
 10
17.448799986768272
 20
-52.000402681342337
 30
0.0
 11
17.548797679032806
 21
-52.100404989024526
 31
0.0
  0
LINE
  5
28D
100
AcDbEntity
  8
0
  6
CONTINUOUS
 62
               4
100
AcDbLine
 10
25.448797676929249
 20
-52.100587298021125
 30
0.0
 11
17.548797679032806
 21
-52.100404989024526
 31
0.0
  0
LINE
  5
28E
100
AcDbEntity
  8
0
  6
CONTINUOUS
 62
               4
100
AcDbLine
 10
26.298806507538174
 20
-51.700606913643369
 30
0.0
 11
16.698807315406011
 21
-51.700385373615447
 31
0.0
  0
LINE
  5
28F
100
AcDbEntity
  8
0
  6
CONTINUOUS
 62
               4
100
AcDbLine
 10
24.998776907669704
 20
-53.000576913091805
 30
0.0
 11
24.998797677049062
 21
-52.100576913331452
 31
0.0
  0
LINE
  5
290
100
AcDbEntity
  8
0
  6
CONTINUOUS
 62
               4
100
AcDbLine
 10
26.498819325727609
 20
-51.162491529213511
 30
0.0
 11
26.498910754381718
 21
-47.200611530268468
 31
0.0
  0
LINE
  5
291
100
AcDbEntity
  8
0
  6
CONTINUOUS
 62
               4
100
AcDbLine
 10
25.548799984611435
 20
-52.000589605756574
 30
0.0
 11
25.448797676929249
 21
-52.100587298021125
 31
0.0
  0
LINE
  5
292
100
AcDbEntity
  8
0
  6
CONTINUOUS
 62
               4
100
AcDbLine
 10
25.548806907737887
 20
-51.700589605836463
 30
0.0
 11
25.548799984611435
 21
-52.000589605756574
 31
0.0
  0
LINE
  5
293
100
AcDbEntity
  8
0
  6
CONTINUOUS
 62
               4
100
AcDbLine
 10
26.43279294604659
 20
-51.200610005527082
 30
0.0
 11
26.298806507538174
 21
-51.700606913643369
 31
0.0
  0
LINE
  5
294
100
AcDbEntity
  8
0
  6
CONTINUOUS
 62
               4
100
AcDbLine
 10
26.498819325727609
 20
-51.162491529213511
 30
0.0
 11
26.4327932460466
 21
-51.200610005534003
 31
0.0
  0
LINE
  5
295
100
AcDbEntity
  8
0
  6
CONTINUOUS
 62
               4
100
AcDbLine
 10
25.548799984611435
 20
-52.000589605756574
 30
0.0
 11
17.448799986768272
 21
-52.000402681342337
 31
0.0
  0
LINE
  5
296
100
AcDbEntity
  8
0
  6
CONTINUOUS
 62
               4
100
AcDbLine
 10
26.498819325727609
 20
-51.162491529213511
 30
0.0
 11
16.498819328390372
 21
-51.16226075833174
 31
0.0
  0
LINE
  5
297
100
AcDbEntity
  8
0
  6
CONTINUOUS
 62
               4
100
AcDbLine
 10
26.432792890908043
 20
-51.200610210431826
 30
0.0
 11
16.564844003803284
 21
-51.20038248690517
 31
0.0
  0
LINE
  5
298
100
AcDbEntity
  8
0
  6
CONTINUOUS
 62
               4
100
AcDbLine
 10
26.3990215244316
 20
-42.400609223837783
 30
0.0
 11
16.599021527041096
 21
-42.400383068373642
 31
0.0
  0
LINE
  5
299
100
AcDbEntity
  8
0
  6
CONTINUOUS
 62
               4
100
AcDbLine
 10
26.499019216696158
 20
-42.500611531519965
 30
0.0
 11
16.499019219358914
 21
-42.500380760638194
 31
0.0
  0
LINE
  5
29A
100
AcDbEntity
  8
0
  6
CONTINUOUS
 62
               4
100
AcDbLine
 10
16.499019219358914
 20
-42.500380760638194
 30
0.0
 11
16.599021527041096
 21
-42.400383068373642
 31
0.0
  0
LINE
  5
29B
100
AcDbEntity
  8
0
  6
CONTINUOUS
 62
               4
100
AcDbLine
 10
16.599021527041096
 20
-42.400383068373642
 30
0.0
 11
16.499023834776548
 21
-42.300380760691461
 31
0.0
  0
LINE
  5
29C
100
AcDbEntity
  8
0
  6
CONTINUOUS
 62
               4
100
AcDbLine
 10
26.3990215244316
 20
-42.400609223837783
 30
0.0
 11
26.499023832113792
 21
-42.300611531573232
 31
0.0
  0
LINE
  5
29D
100
AcDbEntity
  8
0
  6
CONTINUOUS
 62
               4
100
AcDbLine
 10
26.499019216696158
 20
-42.500611531519965
 30
0.0
 11
26.399021524431593
 21
-42.400609223837783
 31
0.0
  0
LINE
  5
29E
100
AcDbEntity
  8
0
  6
CONTINUOUS
 62
               4
100
AcDbLine
 10
15.499023835042824
 20
-42.300357683603288
 30
0.0
 11
15.499134605066075
 21
-37.500357684881401
 31
0.0
  0
LINE
  5
29F
100
AcDbEntity
  8
0
  6
CONTINUOUS
 62
               4
100
AcDbLine
 10
5.4990238377055833
 20
-42.300126912721495
 30
0.0
 11
5.499134607728835
 21
-37.500126913999623
 31
0.0
  0
LINE
  5
2A0
100
AcDbEntity
  8
0
  6
CONTINUOUS
 62
               4
100
AcDbLine
 10
5.4990238377055833
 20
-42.300126912721495
 30
0.0
 11
15.499023835042824
 21
-42.300357683603274
 31
0.0
  0
LINE
  5
2A1
100
AcDbEntity
  8
0
  6
CONTINUOUS
 62
               4
100
AcDbLine
 10
15.198753833191036
 20
-54.000350757361389
 30
0.0
 11
5.7987538476149565
 21
-54.0001338327328
 31
0.0
  0
LINE
  5
2A2
100
AcDbEntity
  8
0
  6
CONTINUOUS
 62
               4
100
AcDbLine
 10
5.5987584511649118
 20
-53.800129217368138
 30
0.0
 11
5.5987769128354543
 21
-53.000129217581161
 31
0.0
  0
ARC
  5
2A3
100
AcDbEntity
  8
0
  6
CONTINUOUS
 62
               4
100
AcDbCircle
 10
5.7987584511116594
 20
-53.800133832785775
 30
0.0
 40
0.2
100
AcDbArc
 50
179.99867778024353
 51
269.99867778024333
  0
LINE
  5
2A4
100
AcDbEntity
  8
0
  6
CONTINUOUS
 62
               4
100
AcDbLine
 10
6.9987769124626737
 20
-53.000161525504609
 30
0.0
 11
6.9987976818420332
 21
-52.100161525744255
 31
0.0
  0
LINE
  5
2A5
100
AcDbEntity
  8
0
  6
CONTINUOUS
 62
               4
100
AcDbLine
 10
15.398776910225946
 20
-53.000355373045302
 30
0.0
 11
5.5987769068749955
 21
-53.000129217581026
 31
0.0
  0
LINE
  5
2A6
100
AcDbEntity
  8
0
  6
CONTINUOUS
 62
               4
100
AcDbLine
 10
5.4988193313194076
 20
-51.162006910361789
 30
0.0
 11
5.4989107599735156
 21
-47.200126911416746
 31
0.0
  0
ARC
  5
2A7
100
AcDbEntity
  8
0
  6
CONTINUOUS
 62
               4
100
AcDbCircle
 10
15.198758448608672
 20
-53.800350757414641
 30
0.0
 40
0.2
100
AcDbArc
 50
269.99867778024333
 51
359.99867778024316
  0
LINE
  5
2A8
100
AcDbEntity
  8
0
  6
CONTINUOUS
 62
               4
100
AcDbLine
 10
15.398758448555405
 20
-53.800355372832279
 30
0.0
 11
15.398776910225946
 21
-53.000355373045302
 31
0.0
  0
LINE
  5
2A9
100
AcDbEntity
  8
0
  6
CONTINUOUS
 62
               4
100
AcDbLine
 10
15.49893614210775
 20
-46.100357682591422
 30
0.0
 11
15.499019219625188
 21
-42.500357683550021
 31
0.0
  0
LINE
  5
2AA
100
AcDbEntity
  8
0
  6
CONTINUOUS
 62
               4
100
AcDbLine
 10
5.4989361447705098
 20
-46.100126911709644
 30
0.0
 11
5.4990192222879486
 21
-42.500126912668243
 31
0.0
  0
LINE
  5
2AB
100
AcDbEntity
  8
0
  6
CONTINUOUS
 62
               4
100
AcDbLine
 10
15.49893614210775
 20
-46.100357682591422
 30
0.0
 11
5.4989361447705098
 21
-46.100126911709644
 31
0.0
  0
LINE
  5
2AC
100
AcDbEntity
  8
0
  6
CONTINUOUS
 62
               4
100
AcDbLine
 10
15.298931526743367
 20
-46.300353067120533
 30
0.0
 11
5.6989315292996228
 21
-46.300131527074029
 31
0.0
  0
LINE
  5
2AD
100
AcDbEntity
  8
0
  6
CONTINUOUS
 62
               4
100
AcDbLine
 10
5.6989315292996228
 20
-46.300131527074029
 30
0.0
 11
5.4989361447705098
 21
-46.100126911709644
 31
0.0
  0
LINE
  5
2AE
100
AcDbEntity
  8
0
  6
CONTINUOUS
 62
               4
100
AcDbLine
 10
15.298931526743367
 20
-46.300353067120533
 30
0.0
 11
15.49893614210775
 21
-46.100357682591422
 31
0.0
  0
LINE
  5
2AF
100
AcDbEntity
  8
0
  6
CONTINUOUS
 62
               4
100
AcDbLine
 10
15.298915372781643
 20
-47.000353066934139
 30
0.0
 11
5.698915375337898
 21
-47.000131526887635
 31
0.0
  0
LINE
  5
2B0
100
AcDbEntity
  8
0
  6
CONTINUOUS
 62
               4
100
AcDbLine
 10
15.498910757310755
 20
-47.200357682298524
 30
0.0
 11
5.4989107599735156
 21
-47.200126911416746
 31
0.0
  0
LINE
  5
2B1
100
AcDbEntity
  8
0
  6
CONTINUOUS
 62
               4
100
AcDbLine
 10
6.2489153751914435
 20
-47.000144219286135
 30
0.0
 11
6.2489315291531682
 21
-46.300144219472529
 31
0.0
  0
LINE
  5
2B2
100
AcDbEntity
  8
0
  6
CONTINUOUS
 62
               4
100
AcDbLine
 10
14.748931526889821
 20
-46.300340374722033
 30
0.0
 11
14.748915372928098
 21
-47.000340374535639
 31
0.0
  0
LINE
  5
2B3
100
AcDbEntity
  8
0
  6
CONTINUOUS
 62
               4
100
AcDbLine
 10
5.4989107599735156
 20
-47.200126911416746
 30
0.0
 11
5.698915375337898
 21
-47.000131526887635
 31
0.0
  0
LINE
  5
2B4
100
AcDbEntity
  8
0
  6
CONTINUOUS
 62
               4
100
AcDbLine
 10
15.498910757310755
 20
-47.200357682298524
 30
0.0
 11
15.298915372781643
 21
-47.000353066934139
 31
0.0
  0
LINE
  5
2B5
100
AcDbEntity
  8
0
  6
CONTINUOUS
 62
               4
100
AcDbLine
 10
5.4988193313194076
 20
-51.162006910361789
 30
0.0
 11
5.5648436516032103
 21
-51.200128434021011
 31
0.0
  0
LINE
  5
2B6
100
AcDbEntity
  8
0
  6
CONTINUOUS
 62
               4
100
AcDbLine
 10
5.5648439516032209
 20
-51.200128434027931
 30
0.0
 11
5.6988073130234556
 21
-51.700131525645375
 31
0.0
  0
LINE
  5
2B7
100
AcDbEntity
  8
0
  6
CONTINUOUS
 62
               4
100
AcDbLine
 10
6.4488069128237582
 20
-51.700148833452282
 30
0.0
 11
6.4487999896973047
 21
-52.000148833372393
 31
0.0
  0
LINE
  5
2B8
100
AcDbEntity
  8
0
  6
CONTINUOUS
 62
               4
100
AcDbLine
 10
6.4487999896973047
 20
-52.000148833372393
 30
0.0
 11
6.5487976819618403
 21
-52.100151141054575
 31
0.0
  0
LINE
  5
2B9
100
AcDbEntity
  8
0
  6
CONTINUOUS
 62
               4
100
AcDbLine
 10
14.448797679858279
 20
-52.100333450051181
 30
0.0
 11
6.5487976819618403
 21
-52.100151141054575
 31
0.0
  0
LINE
  5
2BA
100
AcDbEntity
  8
0
  6
CONTINUOUS
 62
               4
100
AcDbLine
 10
15.298806510467205
 20
-51.700353065673418
 30
0.0
 11
5.6988073183350467
 21
-51.700131525645503
 31
0.0
  0
LINE
  5
2BB
100
AcDbEntity
  8
0
  6
CONTINUOUS
 62
               4
100
AcDbLine
 10
13.998776910598741
 20
-53.000323065121854
 30
0.0
 11
13.9987976799781
 21
-52.100323065361501
 31
0.0
  0
LINE
  5
2BC
100
AcDbEntity
  8
0
  6
CONTINUOUS
 62
               4
100
AcDbLine
 10
15.498819328656648
 20
-51.162237681243568
 30
0.0
 11
15.498910757310755
 21
-47.200357682298524
 31
0.0
  0
LINE
  5
2BD
100
AcDbEntity
  8
0
  6
CONTINUOUS
 62
               4
100
AcDbLine
 10
14.548799987540464
 20
-52.000335757786623
 30
0.0
 11
14.448797679858279
 21
-52.100333450051181
 31
0.0
  0
LINE
  5
2BE
100
AcDbEntity
  8
0
  6
CONTINUOUS
 62
               4
100
AcDbLine
 10
14.548806910666917
 20
-51.700335757866512
 30
0.0
 11
14.548799987540464
 21
-52.000335757786623
 31
0.0
  0
LINE
  5
2BF
100
AcDbEntity
  8
0
  6
CONTINUOUS
 62
               4
100
AcDbLine
 10
15.432792948975617
 20
-51.200356157557131
 30
0.0
 11
15.298806510467205
 21
-51.700353065673418
 31
0.0
  0
LINE
  5
2C0
100
AcDbEntity
  8
0
  6
CONTINUOUS
 62
               4
100
AcDbLine
 10
15.498819328656648
 20
-51.162237681243568
 30
0.0
 11
15.432793248975628
 21
-51.200356157564052
 31
0.0
  0
LINE
  5
2C1
100
AcDbEntity
  8
0
  6
CONTINUOUS
 62
               4
100
AcDbLine
 10
14.548799987540464
 20
-52.000335757786623
 30
0.0
 11
6.4487999896973047
 21
-52.000148833372393
 31
0.0
  0
LINE
  5
2C2
100
AcDbEntity
  8
0
  6
CONTINUOUS
 62
               4
100
AcDbLine
 10
15.498819328656648
 20
-51.162237681243568
 30
0.0
 11
5.4988193313194076
 21
-51.162006910361789
 31
0.0
  0
LINE
  5
2C3
100
AcDbEntity
  8
0
  6
CONTINUOUS
 62
               4
100
AcDbLine
 10
15.432792893837078
 20
-51.200356362461875
 30
0.0
 11
5.5648440067323168
 21
-51.200128638935219
 31
0.0
  0
LINE
  5
2C4
100
AcDbEntity
  8
0
  6
CONTINUOUS
 62
               4
100
AcDbLine
 10
15.39902152736064
 20
-42.400355375867832
 30
0.0
 11
5.5990215299701331
 21
-42.400129220403691
 31
0.0
  0
LINE
  5
2C5
100
AcDbEntity
  8
0
  6
CONTINUOUS
 62
               4
100
AcDbLine
 10
15.499019219625188
 20
-42.500357683550021
 30
0.0
 11
5.4990192222879486
 21
-42.500126912668243
 31
0.0
  0
LINE
  5
2C6
100
AcDbEntity
  8
0
  6
CONTINUOUS
 62
               4
100
AcDbLine
 10
5.4990192222879486
 20
-42.500126912668243
 30
0.0
 11
5.5990215299701331
 21
-42.400129220403691
 31
0.0
  0
LINE
  5
2C7
100
AcDbEntity
  8
0
  6
CONTINUOUS
 62
               4
100
AcDbLine
 10
5.5990215299701331
 20
-42.400129220403691
 30
0.0
 11
5.4990238377055833
 21
-42.30012691272151
 31
0.0
  0
LINE
  5
2C8
100
AcDbEntity
  8
0
  6
CONTINUOUS
 62
               4
100
AcDbLine
 10
15.39902152736064
 20
-42.400355375867832
 30
0.0
 11
15.499023835042824
 21
-42.300357683603288
 31
0.0
  0
LINE
  5
2C9
100
AcDbEntity
  8
0
  6
CONTINUOUS
 62
               4
100
AcDbLine
 10
15.499019219625188
 20
-42.500357683550021
 30
0.0
 11
15.399021527360626
 21
-42.400355375867832
 31
0.0
  0
LINE
  5
2CA
100
AcDbEntity
  8
0
  6
CONTINUOUS
 62
               4
100
AcDbLine
 10
15.499023835042831
 20
-42.300357683603274
 30
0.0
 11
16.499023834776541
 21
-42.300380760691446
 31
0.0
  0
LINE
  5
2CB
100
AcDbEntity
  8
0
  6
CONTINUOUS
 62
               4
100
AcDbLine
 10
31.399134600832294
 20
-37.500724610583418
 30
0.0
 11
15.99913460493293
 21
-37.500369223425487
 31
0.0
  0
LINE
  5
2CC
100
AcDbEntity
  8
0
  6
CONTINUOUS
 62
               4
100
AcDbLine
 10
0.5991346090335888
 20
-37.500013836267556
 30
0.0
 11
15.999134604932944
 21
-37.500369223425487
 31
0.0
  0
ARC
  5
2CD
100
AcDbEntity
  8
0
  6
CONTINUOUS
 62
               4
100
AcDbCircle
 10
0.5991438398688598
 20
-37.10001383637406
 30
0.0
 40
0.4
100
AcDbArc
 50
179.99867778024347
 51
269.99867778024321
  0
ARC
  5
2CE
100
AcDbEntity
  8
0
  6
CONTINUOUS
 62
               4
100
AcDbCircle
 10
31.399143831667566
 20
-37.100724610689923
 30
0.0
 40
0.4
100
AcDbArc
 50
269.99867778024321
 51
359.9986777802431
  0
LINE
  5
2CF
100
AcDbEntity
  8
0
  6
CONTINUOUS
 62
               4
100
AcDbLine
 10
0.1991438399753716
 20
-37.100004605538793
 30
0.0
 11
0.199249994580987
 21
-32.500004606763675
 31
0.0
  0
LINE
  5
2D0
100
AcDbEntity
  8
0
  6
CONTINUOUS
 62
               4
100
AcDbLine
 10
4.7992559061368745
 20
-32.500110761505731
 30
0.0
 11
4.799140520695989
 21
-37.500110760174351
 31
0.0
  0
LINE
  5
2D1
100
AcDbEntity
  8
0
  6
CONTINUOUS
 62
               4
100
AcDbLine
 10
31.799143831561047
 20
-37.100733841525191
 30
0.0
 11
31.799249986166661
 21
-32.500733842750066
 31
0.0
  0
LINE
  5
2D2
100
AcDbEntity
  8
0
  6
CONTINUOUS
 62
               4
100
AcDbLine
 10
32.501093958316261
 20
47.999234723380852
 30
0.0
 11
34.101107690800369
 21
47.99919779972285
 31
0.0
  0
LINE
  5
2D3
100
AcDbEntity
  8
0
  6
CONTINUOUS
 62
               4
100
AcDbLine
 10
34.101107690800369
 20
47.99919779972285
 30
0.0
 11
34.101269230417607
 21
54.999197797858919
 31
0.0
  0
LINE
  5
2D4
100
AcDbEntity
  8
0
  6
CONTINUOUS
 62
               4
100
AcDbLine
 10
33.201107691040015
 20
47.999218569102212
 30
0.0
 11
33.201269230657253
 21
54.99921856723828
 31
0.0
  0
LINE
  5
2D5
100
AcDbEntity
  8
0
  6
CONTINUOUS
 62
               4
100
AcDbLine
 10
32.501255497933499
 20
54.99923472151692
 30
0.0
 11
59.501261594259667
 21
54.998611639995282
 31
0.0
  0
LINE
  5
2D6
100
AcDbEntity
  8
0
  6
CONTINUOUS
 62
               4
100
AcDbLine
 10
43.601567035668225
 20
68.498978562243437
 30
0.0
 11
43.601463188771426
 21
63.998978563441668
 31
0.0
  0
LINE
  5
2D7
100
AcDbEntity
  8
0
  6
CONTINUOUS
 62
               4
100
AcDbLine
 10
34.651704832093301
 20
74.999185100733527
 30
0.0
 11
43.651704829696818
 21
74.998977406939929
 31
0.0
  0
LINE
  5
2D8
100
AcDbEntity
  8
0
  6
CONTINUOUS
 62
               4
100
AcDbLine
 10
35.001567037958203
 20
68.49917702520176
 30
0.0
 11
43.651570087412722
 21
68.498977408318609
 31
0.0
  0
LINE
  5
2D9
100
AcDbEntity
  8
0
  6
CONTINUOUS
 62
               4
100
AcDbLine
 10
44.229066890089953
 20
74.998964083104752
 30
0.0
 11
45.651712458558791
 21
74.998931252587511
 31
0.0
  0
LINE
  5
2DA
100
AcDbEntity
  8
0
  6
CONTINUOUS
 62
               4
100
AcDbLine
 10
43.601509307382806
 20
65.997437425214216
 30
0.0
 11
43.651512359127302
 21
65.997436271289388
 31
0.0
  0
LINE
  5
2DB
100
AcDbEntity
  8
0
  6
CONTINUOUS
 62
               4
100
AcDbLine
 10
43.651477743495043
 20
64.497436271688798
 30
0.0
 11
44.651470113834236
 21
64.497413194776684
 31
0.0
  0
LINE
  5
2DC
100
AcDbEntity
  8
0
  6
CONTINUOUS
 62
               4
100
AcDbLine
 10
43.651512359127302
 20
65.997436271289388
 30
0.0
 11
43.651570087412722
 21
68.498977408318609
 31
0.0
  0
LINE
  5
2DD
100
AcDbEntity
  8
0
  6
CONTINUOUS
 62
               4
100
AcDbLine
 10
45.151677843059666
 20
73.498942791531007
 30
0.0
 11
45.651677842926524
 21
73.498931252986921
 31
0.0
  0
LINE
  5
2DE
100
AcDbEntity
  8
0
  6
CONTINUOUS
 62
               4
100
AcDbLine
 10
43.651474901497764
 20
64.497451561319835
 30
0.0
 11
43.601455502533568
 21
64.547473268941488
 31
0.0
  0
LINE
  5
2DF
100
AcDbEntity
  8
0
  6
CONTINUOUS
 62
               4
100
AcDbLine
 10
35.151570089676071
 20
68.499173563568107
 30
0.0
 11
35.151697013661042
 21
73.999173562103579
 31
0.0
  0
LINE
  5
2E0
100
AcDbEntity
  8
0
  6
CONTINUOUS
 62
               4
100
AcDbLine
 10
34.651697013794177
 20
73.999185100647665
 30
0.0
 11
34.651720090882357
 21
74.999185100381396
 31
0.0
  0
LINE
  5
2E1
100
AcDbEntity
  8
0
  6
CONTINUOUS
 62
               4
100
AcDbLine
 10
34.651681755005121
 20
73.999185100999796
 30
0.0
 11
35.15168175487198
 21
73.999173562455709
 31
0.0
  0
LINE
  5
2E2
100
AcDbEntity
  8
0
  6
CONTINUOUS
 62
               4
100
AcDbLine
 10
45.151559844301801
 20
68.055095136554513
 30
0.0
 11
45.15168547245419
 21
73.498942791354949
 31
0.0
  0
LINE
  5
2E3
100
AcDbEntity
  8
0
  6
CONTINUOUS
 62
               4
100
AcDbLine
 10
44.65147599352008
 20
64.497405074095681
 30
0.0
 11
45.151557203345646
 21
68.055081618313665
 31
0.0
  0
LINE
  5
2E4
100
AcDbEntity
  8
0
  6
CONTINUOUS
 62
               4
100
AcDbLine
 10
43.651570087412722
 20
68.498977408318609
 30
0.0
 11
43.651720088485874
 21
74.998977406587812
 31
0.0
  0
LINE
  5
2E5
100
AcDbEntity
  8
0
  6
CONTINUOUS
 62
               4
100
AcDbLine
 10
43.651738470296415
 20
73.998936348799006
 30
0.0
 11
44.229113363195651
 21
74.998931729888739
 31
0.0
  0
LINE
  5
2E6
100
AcDbEntity
  8
0
  6
CONTINUOUS
 62
               4
100
AcDbLine
 10
45.651685472321056
 20
73.498931252810863
 30
0.0
 11
45.651720087953322
 21
74.998931252411452
 31
0.0
  0
LINE
  5
2E7
100
AcDbEntity
  8
0
  6
CONTINUOUS
 62
               4
100
AcDbLine
 10
40.50202619498657
 20
87.999050095813118
 30
0.0
 11
39.702023143441778
 21
87.999068557554082
 31
0.0
  0
LINE
  5
2E8
100
AcDbEntity
  8
0
  6
CONTINUOUS
 62
               4
100
AcDbLine
 10
39.701907758000893
 20
82.999068558885469
 30
0.0
 11
39.702023143441778
 21
87.999068557554082
 31
0.0
  0
LINE
  5
2E9
100
AcDbEntity
  8
0
  6
CONTINUOUS
 62
               4
100
AcDbLine
 10
40.501910809545684
 20
82.999050097144504
 30
0.0
 11
40.50202619498657
 21
87.999050095813118
 31
0.0
  0
LINE
  5
2EA
100
AcDbEntity
  8
0
  6
CONTINUOUS
 62
               4
100
AcDbLine
 10
40.816728634162637
 20
74.99904282993559
 30
0.0
 11
40.816834751935616
 21
79.597446759375202
 31
0.0
  0
LINE
  5
2EB
100
AcDbEntity
  8
0
  6
CONTINUOUS
 62
               4
100
AcDbLine
 10
39.386720699973104
 20
74.999075830354798
 30
0.0
 11
39.386807765133625
 21
78.771872460209565
 31
0.0
  0
LINE
  5
2EC
100
AcDbEntity
  8
0
  6
CONTINUOUS
 62
               4
100
AcDbLine
 10
40.816913250868055
 20
82.999042827805383
 30
0.0
 11
39.386905316678522
 21
82.999075828224591
 31
0.0
  0
LINE
  5
2ED
100
AcDbEntity
  8
0
  6
CONTINUOUS
 62
               4
100
AcDbLine
 10
39.386834412099731
 20
79.926566063417724
 30
0.0
 11
39.386905316678522
 21
82.999075828224591
 31
0.0
  0
LINE
  5
2EE
100
AcDbEntity
  8
0
  6
CONTINUOUS
 62
               4
100
AcDbLine
 10
40.816861399253852
 20
80.752155621372424
 30
0.0
 11
40.816913250868055
 21
82.999042827805383
 31
0.0
  0
LINE
  5
2EF
100
AcDbEntity
  8
0
  6
CONTINUOUS
 62
               7
100
AcDbLine
 10
32.500715380727392
 20
30.999234727590625
 30
0.0
 11
59.500715373537943
 21
30.998611646209838
 31
0.0
  0
LINE
  5
2F0
100
AcDbEntity
  8
0
  6
CONTINUOUS
 62
               4
100
AcDbLine
 10
38.316828091035845
 20
79.30883868068814
 30
0.0
 11
38.316913251533748
 21
82.999100520525829
 31
0.0
  0
LINE
  5
2F1
100
AcDbEntity
  8
0
  6
CONTINUOUS
 62
               4
100
AcDbLine
 10
36.886801103881723
 20
78.48324912273344
 30
0.0
 11
36.886905317344208
 21
82.999133520945037
 31
0.0
  0
LINE
  5
2F2
100
AcDbEntity
  8
0
  6
CONTINUOUS
 62
               4
100
AcDbLine
 10
36.886905317344208
 20
82.999133520945037
 30
0.0
 11
38.316913251533748
 21
82.999100520525829
 31
0.0
  0
LINE
  5
2F3
100
AcDbEntity
  8
0
  6
CONTINUOUS
 62
               4
100
AcDbLine
 10
38.001910810211378
 20
82.999107789864951
 30
0.0
 11
38.002026195652263
 21
87.999107788533564
 31
0.0
  0
LINE
  5
2F4
100
AcDbEntity
  8
0
  6
CONTINUOUS
 62
               4
100
AcDbLine
 10
37.201907758666586
 20
82.999126251605915
 30
0.0
 11
37.202023143755341
 21
87.999110991485466
 31
0.0
  0
LINE
  5
2F5
100
AcDbEntity
  8
0
  6
CONTINUOUS
 62
               4
100
AcDbLine
 10
37.202023144107471
 20
87.999126250274529
 30
0.0
 11
38.002026195652263
 21
87.999107788533564
 31
0.0
  0
LINE
  5
2F6
100
AcDbEntity
  8
0
  6
CONTINUOUS
 62
               4
100
AcDbLine
 10
38.31672863482833
 20
74.999100522656036
 30
0.0
 11
38.316801443717615
 21
78.154129818690919
 31
0.0
  0
LINE
  5
2F7
100
AcDbEntity
  8
0
  6
CONTINUOUS
 62
               4
100
AcDbLine
 10
36.88672070063879
 20
74.999133523075244
 30
0.0
 11
36.886774456915617
 21
77.328555519525281
 31
0.0
  0
LINE
  5
2F8
100
AcDbEntity
  8
0
  6
CONTINUOUS
 62
             200
100
AcDbLine
 10
42.316888678243991
 20
81.618114022307282
 30
0.0
 11
35.386767255975293
 21
77.617225384483788
 31
0.0
  0
LINE
  5
2F9
100
AcDbEntity
  8
0
  6
CONTINUOUS
 62
             200
100
AcDbLine
 10
42.316837484117627
 20
80.463473028325254
 30
0.0
 11
35.38673499981622
 21
76.462581049330623
 31
0.0
  0
LINE
  5
2FA
100
AcDbEntity
  8
0
  6
CONTINUOUS
 62
               4
100
AcDbLine
 10
44.751267033215711
 20
55.498952027053605
 30
0.0
 11
47.251267032550018
 21
55.498894334333166
 31
0.0
  0
LINE
  5
2FB
100
AcDbEntity
  8
0
  6
CONTINUOUS
 62
               4
100
AcDbLine
 10
44.751267033215711
 20
55.498952027053605
 30
0.0
 11
44.751255494671618
 21
54.998952027186746
 31
0.0
  0
LINE
  5
2FC
100
AcDbEntity
  8
0
  6
CONTINUOUS
 62
               4
100
AcDbLine
 10
47.251267032550018
 20
55.498894334333166
 30
0.0
 11
47.251255494005925
 21
54.998894334466307
 31
0.0
  0
ARC
  5
2FD
100
AcDbEntity
  8
0
  6
CONTINUOUS
 62
               4
100
AcDbCircle
 10
33.00145165304987
 20
63.499223180709478
 30
0.0
 40
0.5
100
AcDbArc
 50
89.998677780243654
 51
179.99867778024347
  0
LINE
  5
2FE
100
AcDbEntity
  8
0
  6
CONTINUOUS
 62
               4
100
AcDbLine
 10
35.001463191061404
 20
63.999177026399991
 30
0.0
 11
33.001463191593956
 21
63.999223180576351
 31
0.0
  0
LINE
  5
2FF
100
AcDbEntity
  8
0
  6
CONTINUOUS
 62
               4
100
AcDbLine
 10
35.001567037958203
 20
68.49917702520176
 30
0.0
 11
35.001463191061404
 21
63.999177026399991
 31
0.0
  0
LINE
  5
300
100
AcDbEntity
  8
0
  6
CONTINUOUS
 62
               4
100
AcDbLine
 10
54.601288953826653
 20
56.448724717482115
 30
0.0
 11
52.501288954385835
 21
56.448773179367286
 31
0.0
  0
LINE
  5
301
100
AcDbEntity
  8
0
  6
CONTINUOUS
 62
               4
100
AcDbLine
 10
39.601288957820792
 20
56.449070873804779
 30
0.0
 11
37.501288958379973
 21
56.44911933568995
 31
0.0
  0
LINE
  5
302
100
AcDbEntity
  8
0
  6
CONTINUOUS
 62
               4
100
AcDbLine
 10
37.50131088161374
 20
57.399119335436978
 30
0.0
 11
37.501288958379973
 21
56.44911933568995
 31
0.0
  0
LINE
  5
303
100
AcDbEntity
  8
0
  6
CONTINUOUS
 62
               4
100
AcDbLine
 10
54.601310877060421
 20
57.398724717229143
 30
0.0
 11
54.601288953826653
 21
56.448724717482115
 31
0.0
  0
ARC
  5
304
100
AcDbEntity
  8
0
  6
CONTINUOUS
 62
               4
100
AcDbCircle
 10
58.003372339752865
 20
59.17825711195993
 30
0.0
 40
1.4979796551727449
100
AcDbArc
 50
0.0135602006093566
 51
24.044987552954574
  0
ARC
  5
305
100
AcDbEntity
  8
0
  6
CONTINUOUS
 62
               4
100
AcDbCircle
 10
57.175472487483205
 20
63.498765252145226
 30
0.0
 40
0.4999010215015999
100
AcDbArc
 50
24.196053989148648
 51
89.886451857108696
  0
LINE
  5
306
100
AcDbEntity
  8
0
  6
CONTINUOUS
 62
               4
100
AcDbLine
 10
57.631456377294548
 20
63.703654791973101
 30
0.0
 11
59.371366030031027
 21
59.78861463888213
 31
0.0
  0
LINE
  5
307
100
AcDbEntity
  8
0
  6
CONTINUOUS
 62
               4
100
AcDbLine
 10
57.175484023721033
 20
63.998665314565855
 30
0.0
 11
43.601463188771426
 21
63.998978563441668
 31
0.0
  0
LINE
  5
308
100
AcDbEntity
  8
0
  6
CONTINUOUS
 62
               4
100
AcDbLine
 10
59.50135195297262
 20
59.178611639023103
 30
0.0
 11
59.501255490744036
 21
54.998611640136133
 31
0.0
  0
LINE
  5
309
100
AcDbEntity
  8
0
  6
CONTINUOUS
 62
               4
100
AcDbLine
 10
39.601310881054559
 20
57.399070873551807
 30
0.0
 11
37.50131088161374
 21
57.399119335436978
 31
0.0
  0
LINE
  5
30A
100
AcDbEntity
  8
0
  6
CONTINUOUS
 62
               4
100
AcDbLine
 10
54.601310877060421
 20
57.398724717229143
 30
0.0
 11
52.501310877619602
 21
57.398773179114315
 31
0.0
  0
LINE
  5
30B
100
AcDbEntity
  8
0
  6
CONTINUOUS
 62
               4
100
AcDbLine
 10
39.601310881054559
 20
57.399070873551807
 30
0.0
 11
39.601288957820792
 21
56.449070873804779
 31
0.0
  0
LINE
  5
30C
100
AcDbEntity
  8
0
  6
CONTINUOUS
 62
               4
100
AcDbLine
 10
52.501310877619602
 20
57.398773179114315
 30
0.0
 11
52.501288954385835
 21
56.448773179367286
 31
0.0
  0
LINE
  5
30D
100
AcDbEntity
  8
0
  6
CONTINUOUS
 62
               4
100
AcDbLine
 10
32.501451653183011
 20
63.499234719253572
 30
0.0
 11
32.501255497933499
 21
54.99923472151692
 31
0.0
  0
LINE
  5
30E
100
AcDbEntity
  8
0
  6
CONTINUOUS
 62
               4
100
AcDbLine
 10
32.500715380727392
 20
30.999234727590625
 30
0.0
 11
32.501269230843647
 21
54.999234721200004
 31
0.0
  0
LINE
  5
30F
100
AcDbEntity
  8
0
  6
CONTINUOUS
 62
               4
100
AcDbLine
 10
59.500715373537943
 20
30.998611646209838
 30
0.0
 11
59.501269223654198
 21
54.998611639819217
 31
0.0
  0
ARC
  5
310
100
AcDbEntity
  8
0
  6
CONTINUOUS
 62
               7
100
AcDbCircle
 10
51.499629598951117
 20
-16.051191517525208
 30
0.0
 40
0.5
100
AcDbArc
 50
359.99862313872967
 51
89.998659794154293
  0
ARC
  5
311
100
AcDbEntity
  8
0
  6
CONTINUOUS
 62
               7
100
AcDbCircle
 10
51.49959498331885
 20
-17.551191517125794
 30
0.0
 40
0.5
100
AcDbArc
 50
269.99864112481924
 51
359.99862313872967
  0
ARC
  5
312
100
AcDbEntity
  8
0
  6
CONTINUOUS
 62
               7
100
AcDbCircle
 10
50.449219942852935
 20
-34.001179488939854
 30
0.0
 40
0.5
100
AcDbArc
 50
269.99869576633256
 51
359.99873242175642
  0
ARC
  5
313
100
AcDbEntity
  8
0
  6
CONTINUOUS
 62
               7
100
AcDbCircle
 10
48.949219943252352
 20
-34.001144873307588
 30
0.0
 40
0.5
100
AcDbArc
 50
179.99871375242213
 51
269.99869576633256
  0
ARC
  5
314
100
AcDbEntity
  8
0
  6
CONTINUOUS
 62
               7
100
AcDbCircle
 10
59.100292243531257
 20
12.398630037130427
 30
0.0
 40
0.4000000357627869
100
AcDbArc
 50
269.99875040784593
 51
359.99871876137803
  0
ARC
  5
315
100
AcDbEntity
  8
0
  6
CONTINUOUS
 62
               7
100
AcDbCircle
 10
56.100269167241905
 20
11.398699268661234
 30
0.0
 40
0.4000000357627869
100
AcDbArc
 50
359.99873242175647
 51
89.998714435667708
  0
ARC
  5
316
100
AcDbEntity
  8
0
  6
CONTINUOUS
 62
               7
100
AcDbCircle
 10
56.09955839285562
 20
-19.401303774895272
 30
0.0
 40
0.4000000357627869
100
AcDbArc
 50
269.99869576633256
 51
359.99871876137803
  0
ARC
  5
317
100
AcDbEntity
  8
0
  6
CONTINUOUS
 62
               7
100
AcDbCircle
 10
56.099207621185748
 20
-34.601300719090069
 30
0.0
 40
0.4000000357627869
100
AcDbArc
 50
269.99875040784593
 51
359.99871876137803
  0
ARC
  5
318
100
AcDbEntity
  8
0
  6
CONTINUOUS
 62
               7
100
AcDbCircle
 10
32.899210679121168
 20
-34.600765330714779
 30
0.0
 40
0.4000000357627869
100
AcDbArc
 50
179.99871375242213
 51
269.99875040784593
  0
CIRCLE
  5
319
100
AcDbEntity
  8
0
  6
CONTINUOUS
 62
               7
100
AcDbCircle
 10
26.000403842119926
 20
17.499399991047564
 30
0.0
 40
2.0
  0
CIRCLE
  5
31A
100
AcDbEntity
  8
0
  6
CONTINUOUS
 62
               7
100
AcDbCircle
 10
6.0004038474454457
 20
17.49986153281111
 30
0.0
 40
2.0
  0
CIRCLE
  5
31B
100
AcDbEntity
  8
0
  6
CONTINUOUS
 62
               2
100
AcDbCircle
 10
26.000403842119926
 20
17.499399991047564
 30
0.0
 40
2.5
  0
CIRCLE
  5
31C
100
AcDbEntity
  8
0
  6
CONTINUOUS
 62
               7
100
AcDbCircle
 10
16.000196150989094
 20
8.4996307643258167
 30
0.0
 40
4.2829999923706055
  0
CIRCLE
  5
31D
100
AcDbEntity
  8
0
  6
CONTINUOUS
 62
               7
100
AcDbCircle
 10
15.999815379034166
 20
-8.0003692312806294
 30
0.0
 40
4.2829999923706055
  0
CIRCLE
  5
31E
100
AcDbEntity
  8
0
  6
CONTINUOUS
 62
               7
100
AcDbCircle
 10
15.999434607079241
 20
-24.500369226887074
 30
0.0
 40
4.2829999923706055
  0
CIRCLE
  5
31F
100
AcDbEntity
  8
0
  6
CONTINUOUS
 62
               2
100
AcDbCircle
 10
15.999434607079241
 20
-24.500369226887074
 30
0.0
 40
4.8639993667602539
  0
CIRCLE
  5
320
100
AcDbEntity
  8
0
  6
CONTINUOUS
 62
               2
100
AcDbCircle
 10
15.999815379034166
 20
-8.0003692312806294
 30
0.0
 40
4.8639993667602539
  0
CIRCLE
  5
321
100
AcDbEntity
  8
0
  6
CONTINUOUS
 62
               2
100
AcDbCircle
 10
16.000196150989094
 20
8.4996307643258167
 30
0.0
 40
4.8639993667602539
  0
LINE
  5
322
100
AcDbEntity
  8
0
  6
CONTINUOUS
 62
               7
100
AcDbLine
 10
55.200493090587429
 20
21.49871088028905
 30
0.0
 11
36.000496147457739
 21
21.499153960311627
 31
0.0
  0
LINE
  5
323
100
AcDbEntity
  8
0
  6
CONTINUOUS
 62
               7
100
AcDbLine
 10
33.500496148123432
 20
21.49921165303207
 30
0.0
 11
32.500496148389708
 21
21.49923473012025
 31
0.0
  0
LINE
  5
324
100
AcDbEntity
  8
0
  6
CONTINUOUS
 62
               7
100
AcDbLine
 10
58.200446935964379
 20
19.498656908346131
 30
0.0
 11
58.200493089788601
 21
21.49864164902452
 31
0.0
  0
LINE
  5
325
100
AcDbEntity
  8
0
  6
CONTINUOUS
 62
               7
100
AcDbLine
 10
55.200446936763207
 20
19.49872613961066
 30
0.0
 11
55.200493090587429
 21
21.49871088028905
 31
0.0
  0
LINE
  5
326
100
AcDbEntity
  8
0
  6
CONTINUOUS
 62
               7
100
AcDbLine
 10
36.000449993633516
 20
19.499169219633238
 30
0.0
 11
36.000496147457739
 21
21.499153960311627
 31
0.0
  0
LINE
  5
327
100
AcDbEntity
  8
0
  6
CONTINUOUS
 62
               7
100
AcDbLine
 10
33.50044999429921
 20
19.499226912353681
 30
0.0
 11
33.500496148123432
 21
21.49921165303207
 31
0.0
  0
LINE
  5
328
100
AcDbEntity
  8
0
  6
CONTINUOUS
 62
               7
100
AcDbLine
 10
48.099198392269415
 20
-35.001125257551578
 30
0.0
 11
48.099221469357595
 21
-34.001125257817854
 31
0.0
  0
LINE
  5
329
100
AcDbEntity
  8
0
  6
CONTINUOUS
 62
               7
100
AcDbLine
 10
51.999629598817975
 20
-16.051203056069298
 30
0.0
 11
51.999594983185709
 21
-17.551203055669884
 31
0.0
  0
LINE
  5
32A
100
AcDbEntity
  8
0
  6
CONTINUOUS
 62
               7
100
AcDbLine
 10
56.499649212933413
 20
-15.201316058465867
 30
0.0
 11
51.499649214264792
 21
-15.201200673024982
 31
0.0
  0
LINE
  5
32B
100
AcDbEntity
  8
0
  6
CONTINUOUS
 62
               7
100
AcDbLine
 10
56.499397672813132
 20
-26.101309952047831
 30
0.0
 11
56.499494596513046
 21
-21.901313004924003
 31
0.0
  0
LINE
  5
32C
100
AcDbEntity
  8
0
  6
CONTINUOUS
 62
               7
100
AcDbLine
 10
54.59949307114006
 20
-21.901269158421254
 30
0.0
 11
54.59953691746675
 21
-20.001275262442803
 31
0.0
  0
LINE
  5
32D
100
AcDbEntity
  8
0
  6
CONTINUOUS
 62
               7
100
AcDbLine
 10
57.099493070474374
 20
-21.901326851141697
 30
0.0
 11
54.59949307114006
 21
-21.901269158421254
 31
0.0
  0
LINE
  5
32E
100
AcDbEntity
  8
0
  6
CONTINUOUS
 62
               7
100
AcDbLine
 10
57.09939614677446
 20
-26.101323798265526
 30
0.0
 11
54.599396147440146
 21
-26.101266105545083
 31
0.0
  0
LINE
  5
32F
100
AcDbEntity
  8
0
  6
CONTINUOUS
 62
               7
100
AcDbLine
 10
57.099352299391384
 20
-28.001363470611153
 30
0.0
 11
57.099536917153188
 21
-20.001317696374187
 31
0.0
  0
LINE
  5
330
100
AcDbEntity
  8
0
  6
CONTINUOUS
 62
               7
100
AcDbLine
 10
54.599352300761332
 20
-28.001275260312596
 30
0.0
 11
54.599396147440146
 21
-26.101266105545083
 31
0.0
  0
LINE
  5
331
100
AcDbEntity
  8
0
  6
CONTINUOUS
 62
               7
100
AcDbLine
 10
54.499492289195928
 20
-22.001272954236647
 30
0.0
 11
54.499538443724411
 21
-20.00125769598014
 31
0.0
  0
LINE
  5
332
100
AcDbEntity
  8
0
  6
CONTINUOUS
 62
               7
100
AcDbLine
 10
55.499492288929652
 20
-22.001296031324824
 30
0.0
 11
55.499494596779321
 21
-21.901289927835826
 31
0.0
  0
LINE
  5
333
100
AcDbEntity
  8
0
  6
CONTINUOUS
 62
               7
100
AcDbLine
 10
54.499353826666869
 20
-28.001272952638992
 30
0.0
 11
54.499399980843222
 21
-26.001272953171544
 31
0.0
  0
LINE
  5
334
100
AcDbEntity
  8
0
  6
CONTINUOUS
 62
               7
100
AcDbLine
 10
55.499397673079407
 20
-26.101286874959655
 30
0.0
 11
55.499399980576946
 21
-26.00129603025972
 31
0.0
  0
LINE
  5
335
100
AcDbEntity
  8
0
  6
CONTINUOUS
 62
               7
100
AcDbLine
 10
56.499492288663376
 20
-22.001319108413
 30
0.0
 11
54.499492289195928
 21
-22.001272954236647
 31
0.0
  0
LINE
  5
336
100
AcDbEntity
  8
0
  6
CONTINUOUS
 62
               7
100
AcDbLine
 10
56.49939998031067
 20
-26.001319107347896
 30
0.0
 11
54.499399980843222
 21
-26.001272953171544
 31
0.0
  0
LINE
  5
337
100
AcDbEntity
  8
0
  6
CONTINUOUS
 62
               7
100
AcDbLine
 10
50.449208404308848
 20
-34.501179488806713
 30
0.0
 11
48.949208404708266
 21
-34.501144873174447
 31
0.0
  0
LINE
  5
338
100
AcDbEntity
  8
0
  6
CONTINUOUS
 62
               7
100
AcDbLine
 10
51.299218416747699
 20
-34.001199104429595
 30
0.0
 11
48.099221469357595
 21
-34.001125257817854
 31
0.0
  0
LINE
  5
339
100
AcDbEntity
  8
0
  6
CONTINUOUS
 62
               7
100
AcDbLine
 10
51.299195339659519
 20
-35.001199104163319
 30
0.0
 11
51.299218416747699
 21
-34.001199104429595
 31
0.0
  0
LINE
  5
33A
100
AcDbEntity
  8
0
  6
CONTINUOUS
 62
               7
100
AcDbLine
 10
59.500449987376037
 20
19.498626908061073
 30
0.0
 11
32.500449994565486
 21
19.499249989441861
 31
0.0
  0
LINE
  5
33B
100
AcDbEntity
  8
0
  6
CONTINUOUS
 62
               7
100
AcDbLine
 10
56.0991983901392
 20
-35.001309874256997
 30
0.0
 11
32.899201448074621
 21
-35.000774485881706
 31
0.0
  0
LINE
  5
33C
100
AcDbEntity
  8
0
  6
CONTINUOUS
 62
               7
100
AcDbLine
 10
56.49920151756362
 20
-34.601309949784486
 30
0.0
 11
56.499353826134318
 21
-28.001319106815345
 31
0.0
  0
LINE
  5
33D
100
AcDbEntity
  8
0
  6
CONTINUOUS
 62
               7
100
AcDbLine
 10
57.09935992949017
 20
-28.001332953209104
 30
0.0
 11
32.499353832524939
 21
-28.00076525669909
 31
0.0
  0
LINE
  5
33E
100
AcDbEntity
  8
0
  6
CONTINUOUS
 62
               7
100
AcDbLine
 10
56.099549162161203
 20
-19.80129767127314
 30
0.0
 11
51.499543059870454
 21
-19.801191516526675
 31
0.0
  0
LINE
  5
33F
100
AcDbEntity
  8
0
  6
CONTINUOUS
 62
               7
100
AcDbLine
 10
56.100278398288452
 20
11.798708423828158
 30
0.0
 11
51.500272295997704
 21
11.798814578574625
 31
0.0
  0
LINE
  5
340
100
AcDbEntity
  8
0
  6
CONTINUOUS
 62
               7
100
AcDbLine
 10
56.500263063619776
 20
11.398690037966816
 30
0.0
 11
56.499552289233492
 21
-19.401313005589692
 31
0.0
  0
LINE
  5
341
100
AcDbEntity
  8
0
  6
CONTINUOUS
 62
               7
100
AcDbLine
 10
59.100283012836833
 20
11.998636140752561
 30
0.0
 11
32.500276916404154
 21
11.999249991438926
 31
0.0
  0
LINE
  5
342
100
AcDbEntity
  8
0
  6
CONTINUOUS
 62
               7
100
AcDbLine
 10
57.099544546195588
 20
-20.001332955339311
 30
0.0
 11
32.499538449230357
 21
-20.000765258829297
 31
0.0
  0
LINE
  5
343
100
AcDbEntity
  8
0
  6
CONTINUOUS
 62
               7
100
AcDbLine
 10
51.500276911344912
 20
11.998811526763559
 30
0.0
 11
51.499538444171115
 21
-20.001203723504666
 31
0.0
  0
LINE
  5
344
100
AcDbEntity
  8
0
  6
CONTINUOUS
 62
               7
100
AcDbLine
 10
57.499363056914589
 20
-27.601333028736594
 30
0.0
 11
57.499529211879036
 21
-20.401336082411593
 31
0.0
  0
LINE
  5
345
100
AcDbEntity
  8
0
  6
CONTINUOUS
 62
               7
100
AcDbLine
 10
57.499369952445086
 20
-27.601339651036927
 30
0.0
 11
57.099359083175273
 21
-28.001333980424956
 31
0.0
  0
LINE
  5
346
100
AcDbEntity
  8
0
  6
CONTINUOUS
 62
               7
100
AcDbLine
 10
57.499528926413959
 20
-20.401338926955191
 30
0.0
 11
57.099531730955533
 21
-20.001330923623488
 31
0.0
  0
LINE
  5
347
100
AcDbEntity
  8
0
  6
CONTINUOUS
 62
               7
100
AcDbLine
 10
32.499201523954241
 20
-34.600756099668232
 30
0.0
 11
32.500715380727392
 21
30.999234727590625
 31
0.0
  0
LINE
  5
348
100
AcDbEntity
  8
0
  6
CONTINUOUS
 62
               7
100
AcDbLine
 10
59.500286139909129
 20
12.398620806436007
 30
0.0
 11
59.500715373537943
 21
30.998611646209838
 31
0.0
  0
LINE
  5
349
100
AcDbEntity
  8
0
  6
CONTINUOUS
 62
               7
100
AcDbLine
 10
60.500646142007135
 20
27.998588569920493
 30
0.0
 11
60.500684219413905
 21
29.64859772475457
 31
0.0
  0
LINE
  5
34A
100
AcDbEntity
  8
0
  6
CONTINUOUS
 62
               7
100
AcDbLine
 10
60.500646142359265
 20
27.998603828709548
 30
0.0
 11
59.900640039003406
 21
27.998617675103304
 31
0.0
  0
LINE
  5
34B
100
AcDbEntity
  8
0
  6
CONTINUOUS
 62
               7
100
AcDbLine
 10
60.500632295965509
 20
27.398597725353692
 30
0.0
 11
59.90062619260965
 21
27.398611571747448
 31
0.0
  0
LINE
  5
34C
100
AcDbEntity
  8
0
  6
CONTINUOUS
 62
               7
100
AcDbLine
 10
59.90062619260965
 20
27.398611571747448
 30
0.0
 11
59.900640038651275
 21
27.998602416314249
 31
0.0
  0
LINE
  5
34D
100
AcDbEntity
  8
0
  6
CONTINUOUS
 62
               7
100
AcDbLine
 10
60.500676590019374
 20
29.648597724930635
 30
0.0
 11
59.500684219680181
 21
29.648620801842746
 31
0.0
  0
LINE
  5
34E
100
AcDbEntity
  8
0
  6
CONTINUOUS
 62
               7
100
AcDbLine
 10
60.500594218910869
 20
25.748603829308671
 30
0.0
 11
59.500594219177145
 21
25.748626906396847
 31
0.0
  0
LINE
  5
34F
100
AcDbEntity
  8
0
  6
CONTINUOUS
 62
               7
100
AcDbLine
 10
60.500594218558739
 20
25.748588570519612
 30
0.0
 11
60.500632295965509
 21
27.398597725353692
 31
0.0
  0
LINE
  5
350
100
AcDbEntity
  8
0
  6
CONTINUOUS
 62
               2
100
AcDbLine
 10
61.500639218896112
 20
27.698577699943446
 30
0.0
 11
58.800634641978334
 21
27.698640008187162
 31
0.0
  0
LINE
  5
351
100
AcDbEntity
  8
0
  6
CONTINUOUS
 62
               7
100
AcDbLine
 10
59.500496141200259
 20
21.498611648739463
 30
0.0
 11
58.200493089788601
 21
21.49864164902452
 31
0.0
  0
LINE
  5
352
100
AcDbEntity
  8
0
  6
CONTINUOUS
 62
               2
100
AcDbLine
 10
22.1747804492529
 20
17.499488275295956
 30
0.0
 11
29.000403841321098
 21
17.499330759783032
 31
0.0
  0
LINE
  5
353
100
AcDbEntity
  8
0
  6
CONTINUOUS
 62
               2
100
AcDbLine
 10
6.0004730787099776
 20
20.499861532012282
 30
0.0
 11
6.0003346161809139
 21
14.499861533609934
 31
0.0
  0
LINE
  5
354
100
AcDbEntity
  8
0
  6
CONTINUOUS
 62
               2
100
AcDbLine
 10
26.000473073384459
 20
20.499399990248737
 30
0.0
 11
26.000334610855393
 21
14.499399991846389
 31
0.0
  0
LINE
  5
355
100
AcDbEntity
  8
0
  6
CONTINUOUS
 62
               2
100
AcDbLine
 10
10.136182480675537
 20
8.4997660886863962
 30
0.0
 11
21.864209821302644
 21
8.4994954399652389
 31
0.0
  0
LINE
  5
356
100
AcDbEntity
  8
0
  6
CONTINUOUS
 62
               2
100
AcDbLine
 10
10.135420936765687
 20
-24.500233902526496
 30
0.0
 11
21.863448277392795
 21
-24.500504551247651
 31
0.0
  0
LINE
  5
357
100
AcDbEntity
  8
0
  6
CONTINUOUS
 62
               2
100
AcDbLine
 10
10.135801708720612
 20
-8.0002339069200499
 30
0.0
 11
21.863829049347721
 21
-8.0005045556412071
 31
0.0
  0
LINE
  5
358
100
AcDbEntity
  8
0
  6
CONTINUOUS
 62
               2
100
AcDbLine
 10
16.000324995130345
 20
14.082836939596955
 30
0.0
 11
15.999279831144705
 21
-31.207278404788685
 31
0.0
  0
LINE
  5
359
100
AcDbEntity
  8
0
  6
CONTINUOUS
 62
               7
100
AcDbLine
 10
-0.0007500053657606
 20
-32.49999999134603
 30
0.0
 11
31.999249986113409
 21
-32.500738458167703
 31
0.0
  0
LINE
  5
35A
100
AcDbEntity
  8
0
  6
CONTINUOUS
 62
               7
100
AcDbLine
 10
0.0005423115721656
 20
23.499999993742517
 30
0.0
 11
32.000542303051333
 21
23.499261526920844
 31
0.0
  0
LINE
  5
35B
100
AcDbEntity
  8
0
  6
CONTINUOUS
 62
               7
100
AcDbLine
 10
32.000542303051333
 20
23.499261526920844
 30
0.0
 11
31.999249986113409
 21
-32.500738458167703
 31
0.0
  0
LINE
  5
35C
100
AcDbEntity
  8
0
  6
CONTINUOUS
 62
               7
100
AcDbLine
 10
-0.0007500053657606
 20
-32.49999999134603
 30
0.0
 11
0.0005423115721656
 21
23.499999993742517
 31
0.0
  0
ENDBLK
  5
35D
100
AcDbEntity
  8
0
100
AcDbBlockEnd
  0
BLOCK
  5
35E
100
AcDbEntity
  8
0
100
AcDbBlockBegin
  2
F10MA-3
 70
               0
 10
0.0
 20
0.0
 30
0.0
  3
F10MA-3
  1

  0
LINE
  5
35F
100
AcDbEntity
  8
0
  6
CONTINUOUS
 62
             200
100
AcDbLine
 10
4.0
 20
10.5
 30
0.0
 11
47.5
 21
10.5
 31
0.0
  0
LINE
  5
360
100
AcDbEntity
  8
0
  6
CONTINUOUS
 62
             200
100
AcDbLine
 10
4.0
 20
21.5
 30
0.0
 11
47.5
 21
21.5
 31
0.0
  0
LINE
  5
361
100
AcDbEntity
  8
0
  6
CONTINUOUS
 62
               2
100
AcDbLine
 10
51.5
 20
-1.7992423176765442
 30
0.0
 11
51.5
 21
2.0
 31
0.0
  0
LINE
  5
362
100
AcDbEntity
  8
0
  6
CONTINUOUS
 62
               2
100
AcDbLine
 10
0.0
 20
-1.7992423176765442
 30
0.0
 11
0.0
 21
2.0
 31
0.0
  0
LINE
  5
363
100
AcDbEntity
  8
0
  6
CONTINUOUS
 62
               7
100
AcDbLine
 10
26.0
 20
32.5
 30
0.0
 11
36.0
 21
32.5
 31
0.0
  0
LINE
  5
364
100
AcDbEntity
  8
0
  6
CONTINUOUS
 62
               7
100
AcDbLine
 10
26.0
 20
32.5
 30
0.0
 11
26.0
 21
32.0
 31
0.0
  0
LINE
  5
365
100
AcDbEntity
  8
0
  6
CONTINUOUS
 62
               7
100
AcDbLine
 10
36.0
 20
32.5
 30
0.0
 11
36.0
 21
32.0
 31
0.0
  0
LINE
  5
366
100
AcDbEntity
  8
0
  6
CONTINUOUS
 62
               7
100
AcDbLine
 10
15.5
 20
32.5
 30
0.0
 11
25.5
 21
32.5
 31
0.0
  0
LINE
  5
367
100
AcDbEntity
  8
0
  6
CONTINUOUS
 62
               7
100
AcDbLine
 10
15.5
 20
32.5
 30
0.0
 11
15.5
 21
32.0
 31
0.0
  0
LINE
  5
368
100
AcDbEntity
  8
0
  6
CONTINUOUS
 62
               7
100
AcDbLine
 10
25.5
 20
32.5
 30
0.0
 11
25.5
 21
32.0
 31
0.0
  0
LINE
  5
369
100
AcDbEntity
  8
0
  6
CONTINUOUS
 62
               2
100
AcDbLine
 10
20.5
 20
30.525444030761719
 30
0.0
 11
20.5
 21
62.192108154296875
 31
0.0
  0
LINE
  5
36A
100
AcDbEntity
  8
0
  6
CONTINUOUS
 62
               7
100
AcDbLine
 10
15.5
 20
59.099990844726563
 30
0.0
 11
15.5
 21
32.5
 31
0.0
  0
LINE
  5
36B
100
AcDbEntity
  8
0
  6
CONTINUOUS
 62
               7
100
AcDbLine
 10
25.5
 20
59.099990844726563
 30
0.0
 11
25.5
 21
32.5
 31
0.0
  0
LINE
  5
36C
100
AcDbEntity
  8
0
  6
CONTINUOUS
 62
               7
100
AcDbLine
 10
15.90000057220459
 20
56.5
 30
0.0
 11
25.09999942779541
 21
56.5
 31
0.0
  0
LINE
  5
36D
100
AcDbEntity
  8
0
  6
CONTINUOUS
 62
               7
100
AcDbLine
 10
15.5
 20
51.300003051757813
 30
0.0
 11
17.300002098083496
 21
51.300003051757813
 31
0.0
  0
LINE
  5
36E
100
AcDbEntity
  8
0
  6
CONTINUOUS
 62
               7
100
AcDbLine
 10
15.5
 20
48.100006103515625
 30
0.0
 11
17.300002098083496
 21
48.100006103515625
 31
0.0
  0
LINE
  5
36F
100
AcDbEntity
  8
0
  6
CONTINUOUS
 62
               7
100
AcDbLine
 10
22.09999942779541
 20
34.300003051757812
 30
0.0
 11
22.09999942779541
 21
32.5
 31
0.0
  0
LINE
  5
370
100
AcDbEntity
  8
0
  6
CONTINUOUS
 62
               7
100
AcDbLine
 10
23.699999809265137
 20
35.900001525878906
 30
0.0
 11
25.5
 21
35.900001525878906
 31
0.0
  0
LINE
  5
371
100
AcDbEntity
  8
0
  6
CONTINUOUS
 62
               7
100
AcDbLine
 10
23.098965319601604
 20
33.698959964127368
 30
0.0
 11
24.301044770455093
 21
34.901039313653143
 31
0.0
  0
LINE
  5
372
100
AcDbEntity
  8
0
  6
CONTINUOUS
 62
               7
100
AcDbLine
 10
16.698965850550962
 20
49.098960844712565
 30
0.0
 11
17.901050696201423
 21
50.301045589034857
 31
0.0
  0
LINE
  5
373
100
AcDbEntity
  8
0
  6
CONTINUOUS
 62
               7
100
AcDbLine
 10
16.698958963755899
 20
50.301037227100323
 30
0.0
 11
17.901038414609388
 21
49.098957877574549
 31
0.0
  0
LINE
  5
374
100
AcDbEntity
  8
0
  6
CONTINUOUS
 62
               7
100
AcDbLine
 10
23.098960320985412
 20
34.901036295938923
 30
0.0
 11
24.301039518957793
 21
33.698957199294227
 31
0.0
  0
LINE
  5
375
100
AcDbEntity
  8
0
  6
CONTINUOUS
 62
               7
100
AcDbLine
 10
18.549996376037598
 20
57.5
 30
0.0
 11
22.449995994567871
 21
57.5
 31
0.0
  0
LINE
  5
376
100
AcDbEntity
  8
0
  6
CONTINUOUS
 62
               7
100
AcDbLine
 10
15.90000057220459
 20
59.5
 30
0.0
 11
25.09999942779541
 21
59.5
 31
0.0
  0
LINE
  5
377
100
AcDbEntity
  8
0
  6
CONTINUOUS
 62
               7
100
AcDbLine
 10
18.550000190734863
 20
60.5
 30
0.0
 11
22.449999809265137
 21
60.5
 31
0.0
  0
LINE
  5
378
100
AcDbEntity
  8
0
  6
CONTINUOUS
 62
               7
100
AcDbLine
 10
18.550000190734863
 20
60.5
 30
0.0
 11
18.550000190734863
 21
59.5
 31
0.0
  0
LINE
  5
379
100
AcDbEntity
  8
0
  6
CONTINUOUS
 62
               7
100
AcDbLine
 10
22.449999809265137
 20
60.5
 30
0.0
 11
22.449999809265137
 21
59.5
 31
0.0
  0
LINE
  5
37A
100
AcDbEntity
  8
0
  6
CONTINUOUS
 62
               7
100
AcDbLine
 10
18.549996376037598
 20
57.5
 30
0.0
 11
18.549996376037598
 21
56.5
 31
0.0
  0
LINE
  5
37B
100
AcDbEntity
  8
0
  6
CONTINUOUS
 62
               7
100
AcDbLine
 10
22.449995994567871
 20
57.5
 30
0.0
 11
22.449995994567871
 21
56.5
 31
0.0
  0
ARC
  5
37C
100
AcDbEntity
  8
0
  6
CONTINUOUS
 62
               7
100
AcDbCircle
 10
15.90000057220459
 20
32.900001525878906
 30
0.0
 40
0.3999999761581421
100
AcDbArc
 50
179.99998133066492
 51
270.00001798608872
  0
ARC
  5
37D
100
AcDbEntity
  8
0
  6
CONTINUOUS
 62
               7
100
AcDbCircle
 10
15.90000057220459
 20
56.099990844726562
 30
0.0
 40
0.3999999761581421
100
AcDbArc
 50
89.999982013910454
 51
179.99996402782091
  0
ARC
  5
37E
100
AcDbEntity
  8
0
  6
CONTINUOUS
 62
               7
100
AcDbCircle
 10
25.09999942779541
 20
56.099990844726562
 30
0.0
 40
0.3999999761581421
100
AcDbArc
 50
0.0
 51
89.999982013910454
  0
ARC
  5
37F
100
AcDbEntity
  8
0
  6
CONTINUOUS
 62
               7
100
AcDbCircle
 10
25.09999942779541
 20
32.900001525878906
 30
0.0
 40
0.3999999761581421
100
AcDbArc
 50
270.00001798608872
 51
0.0
  0
CIRCLE
  5
380
100
AcDbEntity
  8
0
  6
CONTINUOUS
 62
               7
100
AcDbCircle
 10
23.699999809265137
 20
34.300003051757812
 30
0.0
 40
1.25
  0
CIRCLE
  5
381
100
AcDbEntity
  8
0
  6
CONTINUOUS
 62
               7
100
AcDbCircle
 10
17.300000190734863
 20
49.699996948242188
 30
0.0
 40
1.25
  0
ARC
  5
382
100
AcDbEntity
  8
0
  6
CONTINUOUS
 62
               7
100
AcDbCircle
 10
23.699999809265137
 20
34.300003051757812
 30
0.0
 40
1.5999994277954102
100
AcDbArc
 50
89.999982013910454
 51
179.99996402782091
  0
ARC
  5
383
100
AcDbEntity
  8
0
  6
CONTINUOUS
 62
               7
100
AcDbCircle
 10
17.300002098083496
 20
49.699996948242188
 30
0.0
 40
1.5999984741210938
100
AcDbArc
 50
270.00001798608872
 51
89.999982013910454
  0
ARC
  5
384
100
AcDbEntity
  8
0
  6
CONTINUOUS
 62
               7
100
AcDbCircle
 10
15.90000057220459
 20
59.099990844726563
 30
0.0
 40
0.3999999761581421
100
AcDbArc
 50
89.999982013910454
 51
179.99996402782091
  0
ARC
  5
385
100
AcDbEntity
  8
0
  6
CONTINUOUS
 62
               7
100
AcDbCircle
 10
25.09999942779541
 20
59.099990844726563
 30
0.0
 40
0.3999999761581421
100
AcDbArc
 50
0.0
 51
89.999982013910454
  0
LINE
  5
386
100
AcDbEntity
  8
0
  6
CONTINUOUS
 62
               2
100
AcDbLine
 10
31.0
 20
30.525444030761719
 30
0.0
 11
31.0
 21
62.192108154296875
 31
0.0
  0
LINE
  5
387
100
AcDbEntity
  8
0
  6
CONTINUOUS
 62
               7
100
AcDbLine
 10
26.0
 20
59.099990844726563
 30
0.0
 11
26.0
 21
32.5
 31
0.0
  0
LINE
  5
388
100
AcDbEntity
  8
0
  6
CONTINUOUS
 62
               7
100
AcDbLine
 10
36.0
 20
59.099990844726563
 30
0.0
 11
36.0
 21
32.5
 31
0.0
  0
LINE
  5
389
100
AcDbEntity
  8
0
  6
CONTINUOUS
 62
               7
100
AcDbLine
 10
26.40000057220459
 20
56.5
 30
0.0
 11
35.59999942779541
 21
56.5
 31
0.0
  0
LINE
  5
38A
100
AcDbEntity
  8
0
  6
CONTINUOUS
 62
               7
100
AcDbLine
 10
26.0
 20
51.300003051757813
 30
0.0
 11
27.800002098083496
 21
51.300003051757813
 31
0.0
  0
LINE
  5
38B
100
AcDbEntity
  8
0
  6
CONTINUOUS
 62
               7
100
AcDbLine
 10
26.0
 20
48.100006103515625
 30
0.0
 11
27.800002098083496
 21
48.100006103515625
 31
0.0
  0
LINE
  5
38C
100
AcDbEntity
  8
0
  6
CONTINUOUS
 62
               7
100
AcDbLine
 10
32.59999942779541
 20
34.300003051757812
 30
0.0
 11
32.59999942779541
 21
32.5
 31
0.0
  0
LINE
  5
38D
100
AcDbEntity
  8
0
  6
CONTINUOUS
 62
               7
100
AcDbLine
 10
34.199999809265137
 20
35.900001525878906
 30
0.0
 11
36.0
 21
35.900001525878906
 31
0.0
  0
LINE
  5
38E
100
AcDbEntity
  8
0
  6
CONTINUOUS
 62
               7
100
AcDbLine
 10
33.598965319601604
 20
33.698959964127368
 30
0.0
 11
34.801044770455093
 21
34.901039313653143
 31
0.0
  0
LINE
  5
38F
100
AcDbEntity
  8
0
  6
CONTINUOUS
 62
               7
100
AcDbLine
 10
27.198965850550962
 20
49.098960844712565
 30
0.0
 11
28.401050696201423
 21
50.301045589034857
 31
0.0
  0
LINE
  5
390
100
AcDbEntity
  8
0
  6
CONTINUOUS
 62
               7
100
AcDbLine
 10
27.198958963755899
 20
50.301037227100323
 30
0.0
 11
28.401038414609388
 21
49.098957877574549
 31
0.0
  0
LINE
  5
391
100
AcDbEntity
  8
0
  6
CONTINUOUS
 62
               7
100
AcDbLine
 10
33.598960320985412
 20
34.901036295938923
 30
0.0
 11
34.801039518957793
 21
33.698957199294227
 31
0.0
  0
LINE
  5
392
100
AcDbEntity
  8
0
  6
CONTINUOUS
 62
               7
100
AcDbLine
 10
29.049996376037598
 20
57.5
 30
0.0
 11
32.949995994567871
 21
57.5
 31
0.0
  0
LINE
  5
393
100
AcDbEntity
  8
0
  6
CONTINUOUS
 62
               7
100
AcDbLine
 10
26.40000057220459
 20
59.5
 30
0.0
 11
35.59999942779541
 21
59.5
 31
0.0
  0
LINE
  5
394
100
AcDbEntity
  8
0
  6
CONTINUOUS
 62
               7
100
AcDbLine
 10
29.050000190734863
 20
60.5
 30
0.0
 11
32.949999809265137
 21
60.5
 31
0.0
  0
LINE
  5
395
100
AcDbEntity
  8
0
  6
CONTINUOUS
 62
               7
100
AcDbLine
 10
29.050000190734863
 20
60.5
 30
0.0
 11
29.050000190734863
 21
59.5
 31
0.0
  0
LINE
  5
396
100
AcDbEntity
  8
0
  6
CONTINUOUS
 62
               7
100
AcDbLine
 10
32.949999809265137
 20
60.5
 30
0.0
 11
32.949999809265137
 21
59.5
 31
0.0
  0
LINE
  5
397
100
AcDbEntity
  8
0
  6
CONTINUOUS
 62
               7
100
AcDbLine
 10
29.049996376037598
 20
57.5
 30
0.0
 11
29.049996376037598
 21
56.5
 31
0.0
  0
LINE
  5
398
100
AcDbEntity
  8
0
  6
CONTINUOUS
 62
               7
100
AcDbLine
 10
32.949995994567871
 20
57.5
 30
0.0
 11
32.949995994567871
 21
56.5
 31
0.0
  0
ARC
  5
399
100
AcDbEntity
  8
0
  6
CONTINUOUS
 62
               7
100
AcDbCircle
 10
26.40000057220459
 20
32.900001525878906
 30
0.0
 40
0.3999999761581421
100
AcDbArc
 50
179.99998133066492
 51
270.00001798608872
  0
ARC
  5
39A
100
AcDbEntity
  8
0
  6
CONTINUOUS
 62
               7
100
AcDbCircle
 10
26.40000057220459
 20
56.099990844726562
 30
0.0
 40
0.3999999761581421
100
AcDbArc
 50
89.999982013910454
 51
179.99996402782091
  0
ARC
  5
39B
100
AcDbEntity
  8
0
  6
CONTINUOUS
 62
               7
100
AcDbCircle
 10
35.59999942779541
 20
56.099990844726562
 30
0.0
 40
0.3999999761581421
100
AcDbArc
 50
0.0
 51
89.999982013910454
  0
ARC
  5
39C
100
AcDbEntity
  8
0
  6
CONTINUOUS
 62
               7
100
AcDbCircle
 10
35.59999942779541
 20
32.900001525878906
 30
0.0
 40
0.3999999761581421
100
AcDbArc
 50
270.00001798608872
 51
0.0
  0
CIRCLE
  5
39D
100
AcDbEntity
  8
0
  6
CONTINUOUS
 62
               7
100
AcDbCircle
 10
34.199999809265137
 20
34.300003051757812
 30
0.0
 40
1.25
  0
CIRCLE
  5
39E
100
AcDbEntity
  8
0
  6
CONTINUOUS
 62
               7
100
AcDbCircle
 10
27.800000190734863
 20
49.699996948242188
 30
0.0
 40
1.25
  0
ARC
  5
39F
100
AcDbEntity
  8
0
  6
CONTINUOUS
 62
               7
100
AcDbCircle
 10
34.199999809265137
 20
34.300003051757812
 30
0.0
 40
1.5999994277954102
100
AcDbArc
 50
89.999982013910454
 51
179.99996402782091
  0
ARC
  5
3A0
100
AcDbEntity
  8
0
  6
CONTINUOUS
 62
               7
100
AcDbCircle
 10
27.800002098083496
 20
49.699996948242188
 30
0.0
 40
1.5999984741210938
100
AcDbArc
 50
270.00001798608872
 51
89.999982013910454
  0
ARC
  5
3A1
100
AcDbEntity
  8
0
  6
CONTINUOUS
 62
               7
100
AcDbCircle
 10
26.40000057220459
 20
59.099990844726563
 30
0.0
 40
0.3999999761581421
100
AcDbArc
 50
89.999982013910454
 51
179.99996402782091
  0
ARC
  5
3A2
100
AcDbEntity
  8
0
  6
CONTINUOUS
 62
               7
100
AcDbCircle
 10
35.59999942779541
 20
59.099990844726563
 30
0.0
 40
0.3999999761581421
100
AcDbArc
 50
0.0
 51
89.999982013910454
  0
LINE
  5
3A3
100
AcDbEntity
  8
0
  6
CONTINUOUS
 62
               4
100
AcDbLine
 10
36.5
 20
32.5
 30
0.0
 11
46.5
 21
32.5
 31
0.0
  0
LINE
  5
3A4
100
AcDbEntity
  8
0
  6
CONTINUOUS
 62
               7
100
AcDbLine
 10
36.5
 20
32.5
 30
0.0
 11
36.5
 21
32.0
 31
0.0
  0
LINE
  5
3A5
100
AcDbEntity
  8
0
  6
CONTINUOUS
 62
               7
100
AcDbLine
 10
5.0
 20
32.5
 30
0.0
 11
15.0
 21
32.5
 31
0.0
  0
LINE
  5
3A6
100
AcDbEntity
  8
0
  6
CONTINUOUS
 62
               7
100
AcDbLine
 10
5.0
 20
32.5
 30
0.0
 11
5.0
 21
32.0
 31
0.0
  0
LINE
  5
3A7
100
AcDbEntity
  8
0
  6
CONTINUOUS
 62
               7
100
AcDbLine
 10
15.0
 20
32.5
 30
0.0
 11
15.0
 21
32.0
 31
0.0
  0
LINE
  5
3A8
100
AcDbEntity
  8
0
  6
CONTINUOUS
 62
               4
100
AcDbLine
 10
46.5
 20
0.600006103515625
 30
0.0
 11
46.5
 21
26.80000114440918
 31
0.0
  0
LINE
  5
3A9
100
AcDbEntity
  8
0
  6
CONTINUOUS
 62
               4
100
AcDbLine
 10
39.699996948242187
 20
0.20001220703125
 30
0.0
 11
46.099990844726563
 21
0.20001220703125
 31
0.0
  0
LINE
  5
3AA
100
AcDbEntity
  8
0
  6
CONTINUOUS
 62
               4
100
AcDbLine
 10
36.899997711181641
 20
31.800003051757813
 30
0.0
 11
43.299995422363281
 21
31.800003051757813
 31
0.0
  0
LINE
  5
3AB
100
AcDbEntity
  8
0
  6
CONTINUOUS
 62
               4
100
AcDbLine
 10
43.700000762939453
 20
28.799999237060547
 30
0.0
 11
43.700000762939453
 21
31.400003433227539
 31
0.0
  0
LINE
  5
3AC
100
AcDbEntity
  8
0
  6
CONTINUOUS
 62
               4
100
AcDbLine
 10
39.300003051757813
 20
3.1999969482421875
 30
0.0
 11
39.300003051757813
 21
0.600006103515625
 31
0.0
  0
LINE
  5
3AD
100
AcDbEntity
  8
0
  6
CONTINUOUS
 62
               4
100
AcDbLine
 10
37.699996948242187
 20
4.8000030517578125
 30
0.0
 11
36.899997711181641
 21
4.8000030517578125
 31
0.0
  0
LINE
  5
3AE
100
AcDbEntity
  8
0
  6
CONTINUOUS
 62
               4
100
AcDbLine
 10
45.299991607666016
 20
27.200006484985352
 30
0.0
 11
46.099994659423828
 21
27.200006484985352
 31
0.0
  0
LINE
  5
3AF
100
AcDbEntity
  8
0
  6
CONTINUOUS
 62
               4
100
AcDbLine
 10
43.898950965482527
 20
2.3989596978930194
 30
0.0
 11
45.101033113734502
 21
3.6010417448170529
 31
0.0
  0
LINE
  5
3B0
100
AcDbEntity
  8
0
  6
CONTINUOUS
 62
               4
100
AcDbLine
 10
43.898955180166865
 20
3.6010523658226248
 30
0.0
 11
45.101034631020354
 21
2.3989730162968499
 31
0.0
  0
LINE
  5
3B1
100
AcDbEntity
  8
0
  6
CONTINUOUS
 62
               4
100
AcDbLine
 10
36.5
 20
5.20001220703125
 30
0.0
 11
36.5
 21
31.400003433227539
 31
0.0
  0
LINE
  5
3B2
100
AcDbEntity
  8
0
  6
CONTINUOUS
 62
               4
100
AcDbLine
 10
37.898966218094131
 20
29.60104831568276
 30
0.0
 11
39.101048366346106
 21
28.398966268758727
 31
0.0
  0
LINE
  5
3B3
100
AcDbEntity
  8
0
  6
CONTINUOUS
 62
               4
100
AcDbLine
 10
37.898956217735105
 20
28.398959661628268
 30
0.0
 11
39.10103836598708
 21
29.601041708552302
 31
0.0
  0
ARC
  5
3B4
100
AcDbEntity
  8
0
  6
CONTINUOUS
 62
               4
100
AcDbCircle
 10
36.899997711181641
 20
5.20001220703125
 30
0.0
 40
0.4000000357627869
100
AcDbArc
 50
179.99996402782091
 51
270.00000068324471
  0
ARC
  5
3B5
100
AcDbEntity
  8
0
  6
CONTINUOUS
 62
               4
100
AcDbCircle
 10
36.899997711181641
 20
31.400003433227539
 30
0.0
 40
0.4000000357627869
100
AcDbArc
 50
89.999982013910454
 51
179.99996402782091
  0
ARC
  5
3B6
100
AcDbEntity
  8
0
  6
CONTINUOUS
 62
               4
100
AcDbCircle
 10
43.299995422363281
 20
31.400003433227539
 30
0.0
 40
0.4000000357627869
100
AcDbArc
 50
0.0
 51
89.999982013910454
  0
ARC
  5
3B7
100
AcDbEntity
  8
0
  6
CONTINUOUS
 62
               4
100
AcDbCircle
 10
46.099994659423828
 20
26.80000114440918
 30
0.0
 40
0.4000000357627869
100
AcDbArc
 50
0.0
 51
89.999982013910454
  0
ARC
  5
3B8
100
AcDbEntity
  8
0
  6
CONTINUOUS
 62
               4
100
AcDbCircle
 10
46.099994659423828
 20
0.600006103515625
 30
0.0
 40
0.4000000357627869
100
AcDbArc
 50
270.00001798608872
 51
0.0
  0
ARC
  5
3B9
100
AcDbEntity
  8
0
  6
CONTINUOUS
 62
               4
100
AcDbCircle
 10
39.699996948242187
 20
0.600006103515625
 30
0.0
 40
0.4000000357627869
100
AcDbArc
 50
179.99996402782091
 51
270.00000068324471
  0
ARC
  5
3BA
100
AcDbEntity
  8
0
  6
CONTINUOUS
 62
               4
100
AcDbCircle
 10
45.299995422363281
 20
28.799999237060547
 30
0.0
 40
1.5999994277954102
100
AcDbArc
 50
179.99996402782091
 51
270.00000068324471
  0
ARC
  5
3BB
100
AcDbEntity
  8
0
  6
CONTINUOUS
 62
               4
100
AcDbCircle
 10
37.699996948242187
 20
3.20001220703125
 30
0.0
 40
1.5999994277954102
100
AcDbArc
 50
0.0
 51
89.999982013910454
  0
CIRCLE
  5
3BC
100
AcDbEntity
  8
0
  6
CONTINUOUS
 62
               4
100
AcDbCircle
 10
44.499996185302734
 20
3.0
 30
0.0
 40
1.3999996185302734
  0
CIRCLE
  5
3BD
100
AcDbEntity
  8
0
  6
CONTINUOUS
 62
               4
100
AcDbCircle
 10
38.5
 20
29.0
 30
0.0
 40
1.3999996185302734
  0
CIRCLE
  5
3BE
100
AcDbEntity
  8
0
  6
CONTINUOUS
 62
               4
100
AcDbCircle
 10
44.499996185302734
 20
3.0
 30
0.0
 40
1.25
  0
CIRCLE
  5
3BF
100
AcDbEntity
  8
0
  6
CONTINUOUS
 62
               4
100
AcDbCircle
 10
38.5
 20
29.0
 30
0.0
 40
1.25
  0
CIRCLE
  5
3C0
100
AcDbEntity
  8
0
  6
CONTINUOUS
 62
               4
100
AcDbCircle
 10
41.5
 20
21.5
 30
0.0
 40
5.0
  0
ARC
  5
3C1
100
AcDbEntity
  8
0
  6
CONTINUOUS
 62
               4
100
AcDbCircle
 10
41.5
 20
21.5
 30
0.0
 40
4.9000000000000004
100
AcDbArc
 50
10.399137031557631
 51
169.60086296844196
  0
CIRCLE
  5
3C2
100
AcDbEntity
  8
0
  6
CONTINUOUS
 62
               4
100
AcDbCircle
 10
41.5
 20
21.5
 30
0.0
 40
3.0500000000000003
  0
CIRCLE
  5
3C3
100
AcDbEntity
  8
0
  6
CONTINUOUS
 62
               4
100
AcDbCircle
 10
41.5
 20
21.5
 30
0.0
 40
2.0500000000000003
  0
LINE
  5
3C4
100
AcDbEntity
  8
0
  6
CONTINUOUS
 62
               4
100
AcDbLine
 10
46.0
 20
22.200000000000003
 30
0.0
 11
46.319513529119973
 21
22.384471222047139
 31
0.0
  0
LINE
  5
3C5
100
AcDbEntity
  8
0
  6
CONTINUOUS
 62
               4
100
AcDbLine
 10
46.0
 20
20.799999999999997
 30
0.0
 11
46.319513529119973
 21
20.615528777952861
 31
0.0
  0
ARC
  5
3C6
100
AcDbEntity
  8
0
  6
CONTINUOUS
 62
               4
100
AcDbCircle
 10
41.5
 20
21.5
 30
0.0
 40
4.9000000000000004
100
AcDbArc
 50
190.39913703155722
 51
349.60086296844156
  0
LINE
  5
3C7
100
AcDbEntity
  8
0
  6
CONTINUOUS
 62
               4
100
AcDbLine
 10
46.0
 20
20.799999999999997
 30
0.0
 11
46.0
 21
22.200000000000003
 31
0.0
  0
LINE
  5
3C8
100
AcDbEntity
  8
0
  6
CONTINUOUS
 62
               4
100
AcDbLine
 10
37.0
 20
22.200000000000003
 30
0.0
 11
36.680486470880027
 21
22.384471222047139
 31
0.0
  0
LINE
  5
3C9
100
AcDbEntity
  8
0
  6
CONTINUOUS
 62
               4
100
AcDbLine
 10
37.0
 20
20.799999999999997
 30
0.0
 11
37.0
 21
22.200000000000003
 31
0.0
  0
LINE
  5
3CA
100
AcDbEntity
  8
0
  6
CONTINUOUS
 62
               4
100
AcDbLine
 10
37.0
 20
20.799999999999997
 30
0.0
 11
36.680486470880027
 21
20.615528777952861
 31
0.0
  0
CIRCLE
  5
3CB
100
AcDbEntity
  8
0
  6
CONTINUOUS
 62
               4
100
AcDbCircle
 10
41.5
 20
10.5
 30
0.0
 40
5.0
  0
ARC
  5
3CC
100
AcDbEntity
  8
0
  6
CONTINUOUS
 62
               4
100
AcDbCircle
 10
41.5
 20
10.5
 30
0.0
 40
4.9000000000000004
100
AcDbArc
 50
10.399137031557631
 51
169.60086296844196
  0
CIRCLE
  5
3CD
100
AcDbEntity
  8
0
  6
CONTINUOUS
 62
               4
100
AcDbCircle
 10
41.5
 20
10.5
 30
0.0
 40
3.0500000000000003
  0
CIRCLE
  5
3CE
100
AcDbEntity
  8
0
  6
CONTINUOUS
 62
               4
100
AcDbCircle
 10
41.5
 20
10.5
 30
0.0
 40
2.0500000000000003
  0
LINE
  5
3CF
100
AcDbEntity
  8
0
  6
CONTINUOUS
 62
               4
100
AcDbLine
 10
37.0
 20
11.200000000000003
 30
0.0
 11
36.680486470880027
 21
11.384471222047139
 31
0.0
  0
LINE
  5
3D0
100
AcDbEntity
  8
0
  6
CONTINUOUS
 62
               4
100
AcDbLine
 10
37.0
 20
9.7999999999999972
 30
0.0
 11
37.0
 21
11.200000000000003
 31
0.0
  0
LINE
  5
3D1
100
AcDbEntity
  8
0
  6
CONTINUOUS
 62
               4
100
AcDbLine
 10
37.0
 20
9.7999999999999972
 30
0.0
 11
36.680486470880027
 21
9.6155287779528607
 31
0.0
  0
ARC
  5
3D2
100
AcDbEntity
  8
0
  6
CONTINUOUS
 62
               4
100
AcDbCircle
 10
41.5
 20
10.5
 30
0.0
 40
4.9000000000000004
100
AcDbArc
 50
190.39913703155722
 51
349.60086296844156
  0
LINE
  5
3D3
100
AcDbEntity
  8
0
  6
CONTINUOUS
 62
               4
100
AcDbLine
 10
46.0
 20
9.7999999999999972
 30
0.0
 11
46.319513529119973
 21
9.6155287779528607
 31
0.0
  0
LINE
  5
3D4
100
AcDbEntity
  8
0
  6
CONTINUOUS
 62
               4
100
AcDbLine
 10
46.0
 20
9.7999999999999972
 30
0.0
 11
46.0
 21
11.200000000000003
 31
0.0
  0
LINE
  5
3D5
100
AcDbEntity
  8
0
  6
CONTINUOUS
 62
               4
100
AcDbLine
 10
46.0
 20
11.200000000000003
 30
0.0
 11
46.319513529119973
 21
11.384471222047139
 31
0.0
  0
ARC
  5
3D6
100
AcDbEntity
  8
0
  6
CONTINUOUS
 62
               4
100
AcDbCircle
 10
42.650000000000006
 20
16.22387452764815
 30
0.0
 40
0.4
100
AcDbArc
 50
102.29604620064599
 51
179.99999999999963
  0
LINE
  5
3D7
100
AcDbEntity
  8
0
  6
CONTINUOUS
 62
               4
100
AcDbLine
 10
42.25
 20
15.77612547235185
 30
0.0
 11
42.25
 21
16.22387452764815
 31
0.0
  0
ARC
  5
3D8
100
AcDbEntity
  8
0
  6
CONTINUOUS
 62
               4
100
AcDbCircle
 10
42.650000000000006
 20
15.77612547235185
 30
0.0
 40
0.4
100
AcDbArc
 50
179.99999999999963
 51
257.7039537993532
  0
ARC
  5
3D9
100
AcDbEntity
  8
0
  6
CONTINUOUS
 62
               4
100
AcDbCircle
 10
40.349999999999994
 20
15.77612547235185
 30
0.0
 40
0.4
100
AcDbArc
 50
282.2960462006464
 51
0.0
  0
LINE
  5
3DA
100
AcDbEntity
  8
0
  6
CONTINUOUS
 62
               4
100
AcDbLine
 10
40.75
 20
15.77612547235185
 30
0.0
 11
40.75
 21
16.22387452764815
 31
0.0
  0
ARC
  5
3DB
100
AcDbEntity
  8
0
  6
CONTINUOUS
 62
               4
100
AcDbCircle
 10
40.349999999999994
 20
16.22387452764815
 30
0.0
 40
0.4
100
AcDbArc
 50
0.0
 51
77.703953799353613
  0
LINE
  5
3DC
100
AcDbEntity
  8
0
  6
CONTINUOUS
 62
               4
100
AcDbLine
 10
36.0
 20
0.600006103515625
 30
0.0
 11
36.0
 21
26.80000114440918
 31
0.0
  0
LINE
  5
3DD
100
AcDbEntity
  8
0
  6
CONTINUOUS
 62
               4
100
AcDbLine
 10
29.199996948242188
 20
0.20001220703125
 30
0.0
 11
35.599990844726563
 21
0.20001220703125
 31
0.0
  0
LINE
  5
3DE
100
AcDbEntity
  8
0
  6
CONTINUOUS
 62
               4
100
AcDbLine
 10
26.399997711181641
 20
31.800003051757813
 30
0.0
 11
32.799995422363281
 21
31.800003051757813
 31
0.0
  0
LINE
  5
3DF
100
AcDbEntity
  8
0
  6
CONTINUOUS
 62
               4
100
AcDbLine
 10
33.200000762939453
 20
28.799999237060547
 30
0.0
 11
33.200000762939453
 21
31.400003433227539
 31
0.0
  0
LINE
  5
3E0
100
AcDbEntity
  8
0
  6
CONTINUOUS
 62
               4
100
AcDbLine
 10
28.800003051757813
 20
3.1999969482421875
 30
0.0
 11
28.800003051757813
 21
0.600006103515625
 31
0.0
  0
LINE
  5
3E1
100
AcDbEntity
  8
0
  6
CONTINUOUS
 62
               4
100
AcDbLine
 10
27.199996948242187
 20
4.8000030517578125
 30
0.0
 11
26.399997711181641
 21
4.8000030517578125
 31
0.0
  0
LINE
  5
3E2
100
AcDbEntity
  8
0
  6
CONTINUOUS
 62
               4
100
AcDbLine
 10
34.799991607666016
 20
27.200006484985352
 30
0.0
 11
35.599994659423828
 21
27.200006484985352
 31
0.0
  0
LINE
  5
3E3
100
AcDbEntity
  8
0
  6
CONTINUOUS
 62
               4
100
AcDbLine
 10
33.398950965482527
 20
2.3989596978930194
 30
0.0
 11
34.601033113734502
 21
3.6010417448170529
 31
0.0
  0
LINE
  5
3E4
100
AcDbEntity
  8
0
  6
CONTINUOUS
 62
               4
100
AcDbLine
 10
33.398955180166865
 20
3.6010523658226248
 30
0.0
 11
34.601034631020354
 21
2.3989730162968499
 31
0.0
  0
LINE
  5
3E5
100
AcDbEntity
  8
0
  6
CONTINUOUS
 62
               4
100
AcDbLine
 10
26.0
 20
5.20001220703125
 30
0.0
 11
26.0
 21
31.400003433227539
 31
0.0
  0
LINE
  5
3E6
100
AcDbEntity
  8
0
  6
CONTINUOUS
 62
               4
100
AcDbLine
 10
27.398966218094131
 20
29.60104831568276
 30
0.0
 11
28.601048366346106
 21
28.398966268758727
 31
0.0
  0
LINE
  5
3E7
100
AcDbEntity
  8
0
  6
CONTINUOUS
 62
               4
100
AcDbLine
 10
27.398956217735105
 20
28.398959661628268
 30
0.0
 11
28.60103836598708
 21
29.601041708552302
 31
0.0
  0
ARC
  5
3E8
100
AcDbEntity
  8
0
  6
CONTINUOUS
 62
               4
100
AcDbCircle
 10
26.399997711181641
 20
5.20001220703125
 30
0.0
 40
0.4000000357627869
100
AcDbArc
 50
179.99996402782091
 51
270.00000068324471
  0
ARC
  5
3E9
100
AcDbEntity
  8
0
  6
CONTINUOUS
 62
               4
100
AcDbCircle
 10
26.399997711181641
 20
31.400003433227539
 30
0.0
 40
0.4000000357627869
100
AcDbArc
 50
89.999982013910454
 51
179.99996402782091
  0
ARC
  5
3EA
100
AcDbEntity
  8
0
  6
CONTINUOUS
 62
               4
100
AcDbCircle
 10
32.799995422363281
 20
31.400003433227539
 30
0.0
 40
0.4000000357627869
100
AcDbArc
 50
0.0
 51
89.999982013910454
  0
ARC
  5
3EB
100
AcDbEntity
  8
0
  6
CONTINUOUS
 62
               4
100
AcDbCircle
 10
35.599994659423828
 20
26.80000114440918
 30
0.0
 40
0.4000000357627869
100
AcDbArc
 50
0.0
 51
89.999982013910454
  0
ARC
  5
3EC
100
AcDbEntity
  8
0
  6
CONTINUOUS
 62
               4
100
AcDbCircle
 10
35.599994659423828
 20
0.600006103515625
 30
0.0
 40
0.4000000357627869
100
AcDbArc
 50
270.00001798608872
 51
0.0
  0
ARC
  5
3ED
100
AcDbEntity
  8
0
  6
CONTINUOUS
 62
               4
100
AcDbCircle
 10
29.199996948242188
 20
0.600006103515625
 30
0.0
 40
0.4000000357627869
100
AcDbArc
 50
179.99996402782091
 51
270.00000068324471
  0
ARC
  5
3EE
100
AcDbEntity
  8
0
  6
CONTINUOUS
 62
               4
100
AcDbCircle
 10
34.799995422363281
 20
28.799999237060547
 30
0.0
 40
1.5999994277954102
100
AcDbArc
 50
179.99996402782091
 51
270.00000068324471
  0
ARC
  5
3EF
100
AcDbEntity
  8
0
  6
CONTINUOUS
 62
               4
100
AcDbCircle
 10
27.199996948242187
 20
3.20001220703125
 30
0.0
 40
1.5999994277954102
100
AcDbArc
 50
0.0
 51
89.999982013910454
  0
CIRCLE
  5
3F0
100
AcDbEntity
  8
0
  6
CONTINUOUS
 62
               4
100
AcDbCircle
 10
33.999996185302734
 20
3.0
 30
0.0
 40
1.3999996185302734
  0
CIRCLE
  5
3F1
100
AcDbEntity
  8
0
  6
CONTINUOUS
 62
               4
100
AcDbCircle
 10
28.0
 20
29.0
 30
0.0
 40
1.3999996185302734
  0
CIRCLE
  5
3F2
100
AcDbEntity
  8
0
  6
CONTINUOUS
 62
               4
100
AcDbCircle
 10
33.999996185302734
 20
3.0
 30
0.0
 40
1.25
  0
CIRCLE
  5
3F3
100
AcDbEntity
  8
0
  6
CONTINUOUS
 62
               4
100
AcDbCircle
 10
28.0
 20
29.0
 30
0.0
 40
1.25
  0
CIRCLE
  5
3F4
100
AcDbEntity
  8
0
  6
CONTINUOUS
 62
               4
100
AcDbCircle
 10
31.0
 20
21.5
 30
0.0
 40
5.0
  0
ARC
  5
3F5
100
AcDbEntity
  8
0
  6
CONTINUOUS
 62
               4
100
AcDbCircle
 10
31.0
 20
21.5
 30
0.0
 40
4.9000000000000004
100
AcDbArc
 50
10.399137031557631
 51
169.60086296844196
  0
CIRCLE
  5
3F6
100
AcDbEntity
  8
0
  6
CONTINUOUS
 62
               4
100
AcDbCircle
 10
31.0
 20
21.5
 30
0.0
 40
3.0500000000000003
  0
CIRCLE
  5
3F7
100
AcDbEntity
  8
0
  6
CONTINUOUS
 62
               4
100
AcDbCircle
 10
31.0
 20
21.5
 30
0.0
 40
2.0500000000000003
  0
LINE
  5
3F8
100
AcDbEntity
  8
0
  6
CONTINUOUS
 62
               4
100
AcDbLine
 10
35.5
 20
22.200000000000003
 30
0.0
 11
35.819513529119973
 21
22.384471222047139
 31
0.0
  0
LINE
  5
3F9
100
AcDbEntity
  8
0
  6
CONTINUOUS
 62
               4
100
AcDbLine
 10
35.5
 20
20.799999999999997
 30
0.0
 11
35.819513529119973
 21
20.615528777952861
 31
0.0
  0
ARC
  5
3FA
100
AcDbEntity
  8
0
  6
CONTINUOUS
 62
               4
100
AcDbCircle
 10
31.0
 20
21.5
 30
0.0
 40
4.9000000000000004
100
AcDbArc
 50
190.39913703155722
 51
349.60086296844156
  0
LINE
  5
3FB
100
AcDbEntity
  8
0
  6
CONTINUOUS
 62
               4
100
AcDbLine
 10
35.5
 20
20.799999999999997
 30
0.0
 11
35.5
 21
22.200000000000003
 31
0.0
  0
LINE
  5
3FC
100
AcDbEntity
  8
0
  6
CONTINUOUS
 62
               4
100
AcDbLine
 10
26.5
 20
22.200000000000003
 30
0.0
 11
26.180486470880027
 21
22.384471222047139
 31
0.0
  0
LINE
  5
3FD
100
AcDbEntity
  8
0
  6
CONTINUOUS
 62
               4
100
AcDbLine
 10
26.5
 20
20.799999999999997
 30
0.0
 11
26.5
 21
22.200000000000003
 31
0.0
  0
LINE
  5
3FE
100
AcDbEntity
  8
0
  6
CONTINUOUS
 62
               4
100
AcDbLine
 10
26.5
 20
20.799999999999997
 30
0.0
 11
26.180486470880027
 21
20.615528777952861
 31
0.0
  0
CIRCLE
  5
3FF
100
AcDbEntity
  8
0
  6
CONTINUOUS
 62
               4
100
AcDbCircle
 10
31.0
 20
10.5
 30
0.0
 40
5.0
  0
ARC
  5
400
100
AcDbEntity
  8
0
  6
CONTINUOUS
 62
               4
100
AcDbCircle
 10
31.0
 20
10.5
 30
0.0
 40
4.9000000000000004
100
AcDbArc
 50
10.399137031557631
 51
169.60086296844196
  0
CIRCLE
  5
401
100
AcDbEntity
  8
0
  6
CONTINUOUS
 62
               4
100
AcDbCircle
 10
31.0
 20
10.5
 30
0.0
 40
3.0500000000000003
  0
CIRCLE
  5
402
100
AcDbEntity
  8
0
  6
CONTINUOUS
 62
               4
100
AcDbCircle
 10
31.0
 20
10.5
 30
0.0
 40
2.0500000000000003
  0
LINE
  5
403
100
AcDbEntity
  8
0
  6
CONTINUOUS
 62
               4
100
AcDbLine
 10
26.5
 20
11.200000000000003
 30
0.0
 11
26.180486470880027
 21
11.384471222047139
 31
0.0
  0
LINE
  5
404
100
AcDbEntity
  8
0
  6
CONTINUOUS
 62
               4
100
AcDbLine
 10
26.5
 20
9.7999999999999972
 30
0.0
 11
26.5
 21
11.200000000000003
 31
0.0
  0
LINE
  5
405
100
AcDbEntity
  8
0
  6
CONTINUOUS
 62
               4
100
AcDbLine
 10
26.5
 20
9.7999999999999972
 30
0.0
 11
26.180486470880027
 21
9.6155287779528607
 31
0.0
  0
ARC
  5
406
100
AcDbEntity
  8
0
  6
CONTINUOUS
 62
               4
100
AcDbCircle
 10
31.0
 20
10.5
 30
0.0
 40
4.9000000000000004
100
AcDbArc
 50
190.39913703155722
 51
349.60086296844156
  0
LINE
  5
407
100
AcDbEntity
  8
0
  6
CONTINUOUS
 62
               4
100
AcDbLine
 10
35.5
 20
9.7999999999999972
 30
0.0
 11
35.819513529119973
 21
9.6155287779528607
 31
0.0
  0
LINE
  5
408
100
AcDbEntity
  8
0
  6
CONTINUOUS
 62
               4
100
AcDbLine
 10
35.5
 20
9.7999999999999972
 30
0.0
 11
35.5
 21
11.200000000000003
 31
0.0
  0
LINE
  5
409
100
AcDbEntity
  8
0
  6
CONTINUOUS
 62
               4
100
AcDbLine
 10
35.5
 20
11.200000000000003
 30
0.0
 11
35.819513529119973
 21
11.384471222047139
 31
0.0
  0
ARC
  5
40A
100
AcDbEntity
  8
0
  6
CONTINUOUS
 62
               4
100
AcDbCircle
 10
32.150000000000006
 20
16.22387452764815
 30
0.0
 40
0.4
100
AcDbArc
 50
102.29604620064599
 51
179.99999999999963
  0
LINE
  5
40B
100
AcDbEntity
  8
0
  6
CONTINUOUS
 62
               4
100
AcDbLine
 10
31.75
 20
15.77612547235185
 30
0.0
 11
31.75
 21
16.22387452764815
 31
0.0
  0
ARC
  5
40C
100
AcDbEntity
  8
0
  6
CONTINUOUS
 62
               4
100
AcDbCircle
 10
32.150000000000006
 20
15.77612547235185
 30
0.0
 40
0.4
100
AcDbArc
 50
179.99999999999963
 51
257.7039537993532
  0
ARC
  5
40D
100
AcDbEntity
  8
0
  6
CONTINUOUS
 62
               4
100
AcDbCircle
 10
29.849999999999994
 20
15.77612547235185
 30
0.0
 40
0.4
100
AcDbArc
 50
282.2960462006464
 51
0.0
  0
LINE
  5
40E
100
AcDbEntity
  8
0
  6
CONTINUOUS
 62
               4
100
AcDbLine
 10
30.25
 20
15.77612547235185
 30
0.0
 11
30.25
 21
16.22387452764815
 31
0.0
  0
ARC
  5
40F
100
AcDbEntity
  8
0
  6
CONTINUOUS
 62
               4
100
AcDbCircle
 10
29.849999999999994
 20
16.22387452764815
 30
0.0
 40
0.4
100
AcDbArc
 50
0.0
 51
77.703953799353613
  0
LINE
  5
410
100
AcDbEntity
  8
0
  6
CONTINUOUS
 62
               4
100
AcDbLine
 10
25.5
 20
0.600006103515625
 30
0.0
 11
25.5
 21
26.80000114440918
 31
0.0
  0
LINE
  5
411
100
AcDbEntity
  8
0
  6
CONTINUOUS
 62
               4
100
AcDbLine
 10
18.699996948242188
 20
0.20001220703125
 30
0.0
 11
25.099990844726563
 21
0.20001220703125
 31
0.0
  0
LINE
  5
412
100
AcDbEntity
  8
0
  6
CONTINUOUS
 62
               4
100
AcDbLine
 10
15.899997711181641
 20
31.800003051757813
 30
0.0
 11
22.299995422363281
 21
31.800003051757813
 31
0.0
  0
LINE
  5
413
100
AcDbEntity
  8
0
  6
CONTINUOUS
 62
               4
100
AcDbLine
 10
22.700000762939453
 20
28.799999237060547
 30
0.0
 11
22.700000762939453
 21
31.400003433227539
 31
0.0
  0
LINE
  5
414
100
AcDbEntity
  8
0
  6
CONTINUOUS
 62
               4
100
AcDbLine
 10
18.300003051757813
 20
3.1999969482421875
 30
0.0
 11
18.300003051757813
 21
0.600006103515625
 31
0.0
  0
LINE
  5
415
100
AcDbEntity
  8
0
  6
CONTINUOUS
 62
               4
100
AcDbLine
 10
16.699996948242188
 20
4.8000030517578125
 30
0.0
 11
15.899997711181641
 21
4.8000030517578125
 31
0.0
  0
LINE
  5
416
100
AcDbEntity
  8
0
  6
CONTINUOUS
 62
               4
100
AcDbLine
 10
24.299991607666016
 20
27.200006484985352
 30
0.0
 11
25.099994659423828
 21
27.200006484985352
 31
0.0
  0
LINE
  5
417
100
AcDbEntity
  8
0
  6
CONTINUOUS
 62
               4
100
AcDbLine
 10
22.898950965482527
 20
2.3989596978930194
 30
0.0
 11
24.101033113734502
 21
3.6010417448170529
 31
0.0
  0
LINE
  5
418
100
AcDbEntity
  8
0
  6
CONTINUOUS
 62
               4
100
AcDbLine
 10
22.898955180166865
 20
3.6010523658226248
 30
0.0
 11
24.101034631020354
 21
2.3989730162968499
 31
0.0
  0
LINE
  5
419
100
AcDbEntity
  8
0
  6
CONTINUOUS
 62
               4
100
AcDbLine
 10
15.5
 20
5.20001220703125
 30
0.0
 11
15.5
 21
31.400003433227539
 31
0.0
  0
LINE
  5
41A
100
AcDbEntity
  8
0
  6
CONTINUOUS
 62
               4
100
AcDbLine
 10
16.898966218094131
 20
29.60104831568276
 30
0.0
 11
18.101048366346106
 21
28.398966268758727
 31
0.0
  0
LINE
  5
41B
100
AcDbEntity
  8
0
  6
CONTINUOUS
 62
               4
100
AcDbLine
 10
16.898956217735105
 20
28.398959661628268
 30
0.0
 11
18.10103836598708
 21
29.601041708552302
 31
0.0
  0
ARC
  5
41C
100
AcDbEntity
  8
0
  6
CONTINUOUS
 62
               4
100
AcDbCircle
 10
15.899997711181641
 20
5.20001220703125
 30
0.0
 40
0.4000000357627869
100
AcDbArc
 50
179.99996402782091
 51
270.00000068324471
  0
ARC
  5
41D
100
AcDbEntity
  8
0
  6
CONTINUOUS
 62
               4
100
AcDbCircle
 10
15.899997711181641
 20
31.400003433227539
 30
0.0
 40
0.4000000357627869
100
AcDbArc
 50
89.999982013910454
 51
179.99996402782091
  0
ARC
  5
41E
100
AcDbEntity
  8
0
  6
CONTINUOUS
 62
               4
100
AcDbCircle
 10
22.299995422363281
 20
31.400003433227539
 30
0.0
 40
0.4000000357627869
100
AcDbArc
 50
0.0
 51
89.999982013910454
  0
ARC
  5
41F
100
AcDbEntity
  8
0
  6
CONTINUOUS
 62
               4
100
AcDbCircle
 10
25.099994659423828
 20
26.80000114440918
 30
0.0
 40
0.4000000357627869
100
AcDbArc
 50
0.0
 51
89.999982013910454
  0
ARC
  5
420
100
AcDbEntity
  8
0
  6
CONTINUOUS
 62
               4
100
AcDbCircle
 10
25.099994659423828
 20
0.600006103515625
 30
0.0
 40
0.4000000357627869
100
AcDbArc
 50
270.00001798608872
 51
0.0
  0
ARC
  5
421
100
AcDbEntity
  8
0
  6
CONTINUOUS
 62
               4
100
AcDbCircle
 10
18.699996948242188
 20
0.600006103515625
 30
0.0
 40
0.4000000357627869
100
AcDbArc
 50
179.99996402782091
 51
270.00000068324471
  0
ARC
  5
422
100
AcDbEntity
  8
0
  6
CONTINUOUS
 62
               4
100
AcDbCircle
 10
24.299995422363281
 20
28.799999237060547
 30
0.0
 40
1.5999994277954102
100
AcDbArc
 50
179.99996402782091
 51
270.00000068324471
  0
ARC
  5
423
100
AcDbEntity
  8
0
  6
CONTINUOUS
 62
               4
100
AcDbCircle
 10
16.699996948242188
 20
3.20001220703125
 30
0.0
 40
1.5999994277954102
100
AcDbArc
 50
0.0
 51
89.999982013910454
  0
CIRCLE
  5
424
100
AcDbEntity
  8
0
  6
CONTINUOUS
 62
               4
100
AcDbCircle
 10
23.499996185302734
 20
3.0
 30
0.0
 40
1.3999996185302734
  0
CIRCLE
  5
425
100
AcDbEntity
  8
0
  6
CONTINUOUS
 62
               4
100
AcDbCircle
 10
17.5
 20
29.0
 30
0.0
 40
1.3999996185302734
  0
CIRCLE
  5
426
100
AcDbEntity
  8
0
  6
CONTINUOUS
 62
               4
100
AcDbCircle
 10
23.499996185302734
 20
3.0
 30
0.0
 40
1.25
  0
CIRCLE
  5
427
100
AcDbEntity
  8
0
  6
CONTINUOUS
 62
               4
100
AcDbCircle
 10
17.5
 20
29.0
 30
0.0
 40
1.25
  0
CIRCLE
  5
428
100
AcDbEntity
  8
0
  6
CONTINUOUS
 62
               4
100
AcDbCircle
 10
20.5
 20
21.5
 30
0.0
 40
5.0
  0
ARC
  5
429
100
AcDbEntity
  8
0
  6
CONTINUOUS
 62
               4
100
AcDbCircle
 10
20.5
 20
21.5
 30
0.0
 40
4.9000000000000004
100
AcDbArc
 50
10.399137031557631
 51
169.60086296844196
  0
CIRCLE
  5
42A
100
AcDbEntity
  8
0
  6
CONTINUOUS
 62
               4
100
AcDbCircle
 10
20.5
 20
21.5
 30
0.0
 40
3.0500000000000003
  0
CIRCLE
  5
42B
100
AcDbEntity
  8
0
  6
CONTINUOUS
 62
               4
100
AcDbCircle
 10
20.5
 20
21.5
 30
0.0
 40
2.0500000000000003
  0
LINE
  5
42C
100
AcDbEntity
  8
0
  6
CONTINUOUS
 62
               4
100
AcDbLine
 10
25.0
 20
22.200000000000003
 30
0.0
 11
25.319513529119973
 21
22.384471222047139
 31
0.0
  0
LINE
  5
42D
100
AcDbEntity
  8
0
  6
CONTINUOUS
 62
               4
100
AcDbLine
 10
25.0
 20
20.799999999999997
 30
0.0
 11
25.319513529119973
 21
20.615528777952861
 31
0.0
  0
ARC
  5
42E
100
AcDbEntity
  8
0
  6
CONTINUOUS
 62
               4
100
AcDbCircle
 10
20.5
 20
21.5
 30
0.0
 40
4.9000000000000004
100
AcDbArc
 50
190.39913703155722
 51
349.60086296844156
  0
LINE
  5
42F
100
AcDbEntity
  8
0
  6
CONTINUOUS
 62
               4
100
AcDbLine
 10
25.0
 20
20.799999999999997
 30
0.0
 11
25.0
 21
22.200000000000003
 31
0.0
  0
LINE
  5
430
100
AcDbEntity
  8
0
  6
CONTINUOUS
 62
               4
100
AcDbLine
 10
16.0
 20
22.200000000000003
 30
0.0
 11
15.680486470880027
 21
22.384471222047139
 31
0.0
  0
LINE
  5
431
100
AcDbEntity
  8
0
  6
CONTINUOUS
 62
               4
100
AcDbLine
 10
16.0
 20
20.799999999999997
 30
0.0
 11
16.0
 21
22.200000000000003
 31
0.0
  0
LINE
  5
432
100
AcDbEntity
  8
0
  6
CONTINUOUS
 62
               4
100
AcDbLine
 10
16.0
 20
20.799999999999997
 30
0.0
 11
15.680486470880027
 21
20.615528777952861
 31
0.0
  0
CIRCLE
  5
433
100
AcDbEntity
  8
0
  6
CONTINUOUS
 62
               4
100
AcDbCircle
 10
20.5
 20
10.5
 30
0.0
 40
5.0
  0
ARC
  5
434
100
AcDbEntity
  8
0
  6
CONTINUOUS
 62
               4
100
AcDbCircle
 10
20.5
 20
10.5
 30
0.0
 40
4.9000000000000004
100
AcDbArc
 50
10.399137031557631
 51
169.60086296844196
  0
CIRCLE
  5
435
100
AcDbEntity
  8
0
  6
CONTINUOUS
 62
               4
100
AcDbCircle
 10
20.5
 20
10.5
 30
0.0
 40
3.0500000000000003
  0
CIRCLE
  5
436
100
AcDbEntity
  8
0
  6
CONTINUOUS
 62
               4
100
AcDbCircle
 10
20.5
 20
10.5
 30
0.0
 40
2.0500000000000003
  0
LINE
  5
437
100
AcDbEntity
  8
0
  6
CONTINUOUS
 62
               4
100
AcDbLine
 10
16.0
 20
11.200000000000003
 30
0.0
 11
15.680486470880027
 21
11.384471222047139
 31
0.0
  0
LINE
  5
438
100
AcDbEntity
  8
0
  6
CONTINUOUS
 62
               4
100
AcDbLine
 10
16.0
 20
9.7999999999999972
 30
0.0
 11
16.0
 21
11.200000000000003
 31
0.0
  0
LINE
  5
439
100
AcDbEntity
  8
0
  6
CONTINUOUS
 62
               4
100
AcDbLine
 10
16.0
 20
9.7999999999999972
 30
0.0
 11
15.680486470880027
 21
9.6155287779528607
 31
0.0
  0
ARC
  5
43A
100
AcDbEntity
  8
0
  6
CONTINUOUS
 62
               4
100
AcDbCircle
 10
20.5
 20
10.5
 30
0.0
 40
4.9000000000000004
100
AcDbArc
 50
190.39913703155722
 51
349.60086296844156
  0
LINE
  5
43B
100
AcDbEntity
  8
0
  6
CONTINUOUS
 62
               4
100
AcDbLine
 10
25.0
 20
9.7999999999999972
 30
0.0
 11
25.319513529119973
 21
9.6155287779528607
 31
0.0
  0
LINE
  5
43C
100
AcDbEntity
  8
0
  6
CONTINUOUS
 62
               4
100
AcDbLine
 10
25.0
 20
9.7999999999999972
 30
0.0
 11
25.0
 21
11.200000000000003
 31
0.0
  0
LINE
  5
43D
100
AcDbEntity
  8
0
  6
CONTINUOUS
 62
               4
100
AcDbLine
 10
25.0
 20
11.200000000000003
 30
0.0
 11
25.319513529119973
 21
11.384471222047139
 31
0.0
  0
ARC
  5
43E
100
AcDbEntity
  8
0
  6
CONTINUOUS
 62
               4
100
AcDbCircle
 10
21.650000000000006
 20
16.22387452764815
 30
0.0
 40
0.4
100
AcDbArc
 50
102.29604620064599
 51
179.99999999999963
  0
LINE
  5
43F
100
AcDbEntity
  8
0
  6
CONTINUOUS
 62
               4
100
AcDbLine
 10
21.25
 20
15.77612547235185
 30
0.0
 11
21.25
 21
16.22387452764815
 31
0.0
  0
ARC
  5
440
100
AcDbEntity
  8
0
  6
CONTINUOUS
 62
               4
100
AcDbCircle
 10
21.650000000000006
 20
15.77612547235185
 30
0.0
 40
0.4
100
AcDbArc
 50
179.99999999999963
 51
257.7039537993532
  0
ARC
  5
441
100
AcDbEntity
  8
0
  6
CONTINUOUS
 62
               4
100
AcDbCircle
 10
19.349999999999994
 20
15.77612547235185
 30
0.0
 40
0.4
100
AcDbArc
 50
282.2960462006464
 51
0.0
  0
LINE
  5
442
100
AcDbEntity
  8
0
  6
CONTINUOUS
 62
               4
100
AcDbLine
 10
19.75
 20
15.77612547235185
 30
0.0
 11
19.75
 21
16.22387452764815
 31
0.0
  0
ARC
  5
443
100
AcDbEntity
  8
0
  6
CONTINUOUS
 62
               4
100
AcDbCircle
 10
19.349999999999994
 20
16.22387452764815
 30
0.0
 40
0.4
100
AcDbArc
 50
0.0
 51
77.703953799353613
  0
LINE
  5
444
100
AcDbEntity
  8
0
  6
CONTINUOUS
 62
               4
100
AcDbLine
 10
15.0
 20
0.600006103515625
 30
0.0
 11
15.0
 21
26.80000114440918
 31
0.0
  0
LINE
  5
445
100
AcDbEntity
  8
0
  6
CONTINUOUS
 62
               4
100
AcDbLine
 10
8.1999969482421875
 20
0.20001220703125
 30
0.0
 11
14.599990844726563
 21
0.20001220703125
 31
0.0
  0
LINE
  5
446
100
AcDbEntity
  8
0
  6
CONTINUOUS
 62
               4
100
AcDbLine
 10
5.3999977111816406
 20
31.800003051757813
 30
0.0
 11
11.799995422363281
 21
31.800003051757813
 31
0.0
  0
LINE
  5
447
100
AcDbEntity
  8
0
  6
CONTINUOUS
 62
               4
100
AcDbLine
 10
12.200000762939453
 20
28.799999237060547
 30
0.0
 11
12.200000762939453
 21
31.400003433227539
 31
0.0
  0
LINE
  5
448
100
AcDbEntity
  8
0
  6
CONTINUOUS
 62
               4
100
AcDbLine
 10
7.8000030517578125
 20
3.1999969482421875
 30
0.0
 11
7.8000030517578125
 21
0.600006103515625
 31
0.0
  0
LINE
  5
449
100
AcDbEntity
  8
0
  6
CONTINUOUS
 62
               4
100
AcDbLine
 10
6.1999969482421875
 20
4.8000030517578125
 30
0.0
 11
5.3999977111816406
 21
4.8000030517578125
 31
0.0
  0
LINE
  5
44A
100
AcDbEntity
  8
0
  6
CONTINUOUS
 62
               4
100
AcDbLine
 10
13.799991607666016
 20
27.200006484985352
 30
0.0
 11
14.599994659423828
 21
27.200006484985352
 31
0.0
  0
LINE
  5
44B
100
AcDbEntity
  8
0
  6
CONTINUOUS
 62
               4
100
AcDbLine
 10
12.398950965482527
 20
2.3989596978930194
 30
0.0
 11
13.601033113734502
 21
3.6010417448170529
 31
0.0
  0
LINE
  5
44C
100
AcDbEntity
  8
0
  6
CONTINUOUS
 62
               4
100
AcDbLine
 10
12.398955180166865
 20
3.6010523658226248
 30
0.0
 11
13.601034631020354
 21
2.3989730162968499
 31
0.0
  0
LINE
  5
44D
100
AcDbEntity
  8
0
  6
CONTINUOUS
 62
               4
100
AcDbLine
 10
5.0
 20
5.20001220703125
 30
0.0
 11
5.0
 21
31.400003433227539
 31
0.0
  0
LINE
  5
44E
100
AcDbEntity
  8
0
  6
CONTINUOUS
 62
               4
100
AcDbLine
 10
6.3989662180941309
 20
29.60104831568276
 30
0.0
 11
7.6010483663461059
 21
28.398966268758727
 31
0.0
  0
LINE
  5
44F
100
AcDbEntity
  8
0
  6
CONTINUOUS
 62
               4
100
AcDbLine
 10
6.3989562177351047
 20
28.398959661628268
 30
0.0
 11
7.6010383659870797
 21
29.601041708552302
 31
0.0
  0
ARC
  5
450
100
AcDbEntity
  8
0
  6
CONTINUOUS
 62
               4
100
AcDbCircle
 10
5.3999977111816406
 20
5.20001220703125
 30
0.0
 40
0.4000000357627869
100
AcDbArc
 50
179.99996402782091
 51
270.00000068324471
  0
ARC
  5
451
100
AcDbEntity
  8
0
  6
CONTINUOUS
 62
               4
100
AcDbCircle
 10
5.3999977111816406
 20
31.400003433227539
 30
0.0
 40
0.4000000357627869
100
AcDbArc
 50
89.999982013910454
 51
179.99996402782091
  0
ARC
  5
452
100
AcDbEntity
  8
0
  6
CONTINUOUS
 62
               4
100
AcDbCircle
 10
11.799995422363281
 20
31.400003433227539
 30
0.0
 40
0.4000000357627869
100
AcDbArc
 50
0.0
 51
89.999982013910454
  0
ARC
  5
453
100
AcDbEntity
  8
0
  6
CONTINUOUS
 62
               4
100
AcDbCircle
 10
14.599994659423828
 20
26.80000114440918
 30
0.0
 40
0.4000000357627869
100
AcDbArc
 50
0.0
 51
89.999982013910454
  0
ARC
  5
454
100
AcDbEntity
  8
0
  6
CONTINUOUS
 62
               4
100
AcDbCircle
 10
14.599994659423828
 20
0.600006103515625
 30
0.0
 40
0.4000000357627869
100
AcDbArc
 50
270.00001798608872
 51
0.0
  0
ARC
  5
455
100
AcDbEntity
  8
0
  6
CONTINUOUS
 62
               4
100
AcDbCircle
 10
8.1999969482421875
 20
0.600006103515625
 30
0.0
 40
0.4000000357627869
100
AcDbArc
 50
179.99996402782091
 51
270.00000068324471
  0
ARC
  5
456
100
AcDbEntity
  8
0
  6
CONTINUOUS
 62
               4
100
AcDbCircle
 10
13.799995422363281
 20
28.799999237060547
 30
0.0
 40
1.5999994277954102
100
AcDbArc
 50
179.99996402782091
 51
270.00000068324471
  0
ARC
  5
457
100
AcDbEntity
  8
0
  6
CONTINUOUS
 62
               4
100
AcDbCircle
 10
6.1999969482421875
 20
3.20001220703125
 30
0.0
 40
1.5999994277954102
100
AcDbArc
 50
0.0
 51
89.999982013910454
  0
CIRCLE
  5
458
100
AcDbEntity
  8
0
  6
CONTINUOUS
 62
               4
100
AcDbCircle
 10
12.999996185302734
 20
3.0
 30
0.0
 40
1.3999996185302734
  0
CIRCLE
  5
459
100
AcDbEntity
  8
0
  6
CONTINUOUS
 62
               4
100
AcDbCircle
 10
7.0
 20
29.0
 30
0.0
 40
1.3999996185302734
  0
CIRCLE
  5
45A
100
AcDbEntity
  8
0
  6
CONTINUOUS
 62
               4
100
AcDbCircle
 10
12.999996185302734
 20
3.0
 30
0.0
 40
1.25
  0
CIRCLE
  5
45B
100
AcDbEntity
  8
0
  6
CONTINUOUS
 62
               4
100
AcDbCircle
 10
7.0
 20
29.0
 30
0.0
 40
1.25
  0
CIRCLE
  5
45C
100
AcDbEntity
  8
0
  6
CONTINUOUS
 62
               4
100
AcDbCircle
 10
10.0
 20
21.5
 30
0.0
 40
5.0
  0
ARC
  5
45D
100
AcDbEntity
  8
0
  6
CONTINUOUS
 62
               4
100
AcDbCircle
 10
10.0
 20
21.5
 30
0.0
 40
4.9000000000000004
100
AcDbArc
 50
10.399137031557631
 51
169.60086296844196
  0
CIRCLE
  5
45E
100
AcDbEntity
  8
0
  6
CONTINUOUS
 62
               4
100
AcDbCircle
 10
10.0
 20
21.5
 30
0.0
 40
3.0500000000000003
  0
CIRCLE
  5
45F
100
AcDbEntity
  8
0
  6
CONTINUOUS
 62
               4
100
AcDbCircle
 10
10.0
 20
21.5
 30
0.0
 40
2.0500000000000003
  0
LINE
  5
460
100
AcDbEntity
  8
0
  6
CONTINUOUS
 62
               4
100
AcDbLine
 10
14.5
 20
22.200000000000003
 30
0.0
 11
14.819513529119973
 21
22.384471222047139
 31
0.0
  0
LINE
  5
461
100
AcDbEntity
  8
0
  6
CONTINUOUS
 62
               4
100
AcDbLine
 10
14.5
 20
20.799999999999997
 30
0.0
 11
14.819513529119973
 21
20.615528777952861
 31
0.0
  0
ARC
  5
462
100
AcDbEntity
  8
0
  6
CONTINUOUS
 62
               4
100
AcDbCircle
 10
10.0
 20
21.5
 30
0.0
 40
4.9000000000000004
100
AcDbArc
 50
190.39913703155722
 51
349.60086296844156
  0
LINE
  5
463
100
AcDbEntity
  8
0
  6
CONTINUOUS
 62
               4
100
AcDbLine
 10
14.5
 20
20.799999999999997
 30
0.0
 11
14.5
 21
22.200000000000003
 31
0.0
  0
LINE
  5
464
100
AcDbEntity
  8
0
  6
CONTINUOUS
 62
               4
100
AcDbLine
 10
5.5
 20
22.200000000000003
 30
0.0
 11
5.1804864708800267
 21
22.384471222047139
 31
0.0
  0
LINE
  5
465
100
AcDbEntity
  8
0
  6
CONTINUOUS
 62
               4
100
AcDbLine
 10
5.5
 20
20.799999999999997
 30
0.0
 11
5.5
 21
22.200000000000003
 31
0.0
  0
LINE
  5
466
100
AcDbEntity
  8
0
  6
CONTINUOUS
 62
               4
100
AcDbLine
 10
5.5
 20
20.799999999999997
 30
0.0
 11
5.1804864708800267
 21
20.615528777952861
 31
0.0
  0
CIRCLE
  5
467
100
AcDbEntity
  8
0
  6
CONTINUOUS
 62
               4
100
AcDbCircle
 10
10.0
 20
10.5
 30
0.0
 40
5.0
  0
ARC
  5
468
100
AcDbEntity
  8
0
  6
CONTINUOUS
 62
               4
100
AcDbCircle
 10
10.0
 20
10.5
 30
0.0
 40
4.9000000000000004
100
AcDbArc
 50
10.399137031557631
 51
169.60086296844196
  0
CIRCLE
  5
469
100
AcDbEntity
  8
0
  6
CONTINUOUS
 62
               4
100
AcDbCircle
 10
10.0
 20
10.5
 30
0.0
 40
3.0500000000000003
  0
CIRCLE
  5
46A
100
AcDbEntity
  8
0
  6
CONTINUOUS
 62
               4
100
AcDbCircle
 10
10.0
 20
10.5
 30
0.0
 40
2.0500000000000003
  0
LINE
  5
46B
100
AcDbEntity
  8
0
  6
CONTINUOUS
 62
               4
100
AcDbLine
 10
5.5
 20
11.200000000000003
 30
0.0
 11
5.1804864708800267
 21
11.384471222047139
 31
0.0
  0
LINE
  5
46C
100
AcDbEntity
  8
0
  6
CONTINUOUS
 62
               4
100
AcDbLine
 10
5.5
 20
9.7999999999999972
 30
0.0
 11
5.5
 21
11.200000000000003
 31
0.0
  0
LINE
  5
46D
100
AcDbEntity
  8
0
  6
CONTINUOUS
 62
               4
100
AcDbLine
 10
5.5
 20
9.7999999999999972
 30
0.0
 11
5.1804864708800267
 21
9.6155287779528607
 31
0.0
  0
ARC
  5
46E
100
AcDbEntity
  8
0
  6
CONTINUOUS
 62
               4
100
AcDbCircle
 10
10.0
 20
10.5
 30
0.0
 40
4.9000000000000004
100
AcDbArc
 50
190.39913703155722
 51
349.60086296844156
  0
LINE
  5
46F
100
AcDbEntity
  8
0
  6
CONTINUOUS
 62
               4
100
AcDbLine
 10
14.5
 20
9.7999999999999972
 30
0.0
 11
14.819513529119973
 21
9.6155287779528607
 31
0.0
  0
LINE
  5
470
100
AcDbEntity
  8
0
  6
CONTINUOUS
 62
               4
100
AcDbLine
 10
14.5
 20
9.7999999999999972
 30
0.0
 11
14.5
 21
11.200000000000003
 31
0.0
  0
LINE
  5
471
100
AcDbEntity
  8
0
  6
CONTINUOUS
 62
               4
100
AcDbLine
 10
14.5
 20
11.200000000000003
 30
0.0
 11
14.819513529119973
 21
11.384471222047139
 31
0.0
  0
ARC
  5
472
100
AcDbEntity
  8
0
  6
CONTINUOUS
 62
               4
100
AcDbCircle
 10
11.150000000000006
 20
16.22387452764815
 30
0.0
 40
0.4
100
AcDbArc
 50
102.29604620064599
 51
179.99999999999963
  0
LINE
  5
473
100
AcDbEntity
  8
0
  6
CONTINUOUS
 62
               4
100
AcDbLine
 10
10.75
 20
15.77612547235185
 30
0.0
 11
10.75
 21
16.22387452764815
 31
0.0
  0
ARC
  5
474
100
AcDbEntity
  8
0
  6
CONTINUOUS
 62
               4
100
AcDbCircle
 10
11.150000000000006
 20
15.77612547235185
 30
0.0
 40
0.4
100
AcDbArc
 50
179.99999999999963
 51
257.7039537993532
  0
ARC
  5
475
100
AcDbEntity
  8
0
  6
CONTINUOUS
 62
               4
100
AcDbCircle
 10
8.8499999999999943
 20
15.77612547235185
 30
0.0
 40
0.4
100
AcDbArc
 50
282.2960462006464
 51
0.0
  0
LINE
  5
476
100
AcDbEntity
  8
0
  6
CONTINUOUS
 62
               4
100
AcDbLine
 10
9.25
 20
15.77612547235185
 30
0.0
 11
9.25
 21
16.22387452764815
 31
0.0
  0
ARC
  5
477
100
AcDbEntity
  8
0
  6
CONTINUOUS
 62
               4
100
AcDbCircle
 10
8.8499999999999943
 20
16.22387452764815
 30
0.0
 40
0.4
100
AcDbArc
 50
0.0
 51
77.703953799353613
  0
LINE
  5
478
100
AcDbEntity
  8
0
  6
CONTINUOUS
 62
               2
100
AcDbLine
 10
41.5
 20
32.0
 30
0.0
 11
41.5
 21
-3.0147484590573015
 31
0.0
  0
LINE
  5
479
100
AcDbEntity
  8
0
  6
CONTINUOUS
 62
               2
100
AcDbLine
 10
10.0
 20
30.52545166015625
 30
0.0
 11
10.0
 21
-3.0147484590573015
 31
0.0
  0
LINE
  5
47A
100
AcDbEntity
  8
0
  6
CONTINUOUS
 62
               2
100
AcDbLine
 10
20.5
 20
30.525444030761719
 30
0.0
 11
20.5
 21
-3.0147484590573015
 31
0.0
  0
LINE
  5
47B
100
AcDbEntity
  8
0
  6
CONTINUOUS
 62
               2
100
AcDbLine
 10
31.0
 20
30.525444030761719
 30
0.0
 11
31.0
 21
-3.0147484590573015
 31
0.0
  0
ARC
  5
47C
100
AcDbEntity
  8
0
  6
CONTINUOUS
 62
               7
100
AcDbCircle
 10
14.600006103515625
 20
59.100006103515625
 30
0.0
 40
0.3999999761581421
100
AcDbArc
 50
0.0
 51
89.999982013910454
  0
ARC
  5
47D
100
AcDbEntity
  8
0
  6
CONTINUOUS
 62
               7
100
AcDbCircle
 10
5.399993896484375
 20
59.100006103515625
 30
0.0
 40
0.3999999761581421
100
AcDbArc
 50
89.999982013910454
 51
179.99996402782091
  0
ARC
  5
47E
100
AcDbEntity
  8
0
  6
CONTINUOUS
 62
               7
100
AcDbCircle
 10
6.8000030517578125
 20
49.70001220703125
 30
0.0
 40
1.5999984741210938
100
AcDbArc
 50
270.00001798608872
 51
89.999982013910454
  0
ARC
  5
47F
100
AcDbEntity
  8
0
  6
CONTINUOUS
 62
               7
100
AcDbCircle
 10
13.199996948242188
 20
34.300003051757812
 30
0.0
 40
1.5999994277954102
100
AcDbArc
 50
89.999982013910454
 51
179.99996402782091
  0
CIRCLE
  5
480
100
AcDbEntity
  8
0
  6
CONTINUOUS
 62
               7
100
AcDbCircle
 10
6.8000030517578125
 20
49.70001220703125
 30
0.0
 40
1.25
  0
CIRCLE
  5
481
100
AcDbEntity
  8
0
  6
CONTINUOUS
 62
               7
100
AcDbCircle
 10
13.199996948242188
 20
34.300003051757812
 30
0.0
 40
1.25
  0
ARC
  5
482
100
AcDbEntity
  8
0
  6
CONTINUOUS
 62
               7
100
AcDbCircle
 10
14.600006103515625
 20
32.900009155273437
 30
0.0
 40
0.3999999761581421
100
AcDbArc
 50
270.00001798608872
 51
0.0
  0
ARC
  5
483
100
AcDbEntity
  8
0
  6
CONTINUOUS
 62
               7
100
AcDbCircle
 10
14.600006103515625
 20
56.100006103515625
 30
0.0
 40
0.3999999761581421
100
AcDbArc
 50
0.0
 51
89.999982013910454
  0
ARC
  5
484
100
AcDbEntity
  8
0
  6
CONTINUOUS
 62
               7
100
AcDbCircle
 10
5.399993896484375
 20
56.100006103515625
 30
0.0
 40
0.3999999761581421
100
AcDbArc
 50
89.999982013910454
 51
179.99996402782091
  0
ARC
  5
485
100
AcDbEntity
  8
0
  6
CONTINUOUS
 62
               7
100
AcDbCircle
 10
5.399993896484375
 20
32.900009155273437
 30
0.0
 40
0.3999999761581421
100
AcDbArc
 50
179.99998133066492
 51
270.00001798608872
  0
ARC
  5
486
100
AcDbEntity
  8
0
  6
CONTINUOUS
 62
               4
100
AcDbCircle
 10
46.050003051757813
 20
34.100006103515625
 30
0.0
 40
0.5
100
AcDbArc
 50
0.0
 51
89.999982013910454
  0
ARC
  5
487
100
AcDbEntity
  8
0
  6
CONTINUOUS
 62
               4
100
AcDbCircle
 10
44.550003051757813
 20
34.100006103515625
 30
0.0
 40
0.5
100
AcDbArc
 50
89.999982013910454
 51
179.99996402782091
  0
ARC
  5
488
100
AcDbEntity
  8
0
  6
CONTINUOUS
 62
               4
100
AcDbCircle
 10
38.449996948242188
 20
34.100006103515625
 30
0.0
 40
0.5
100
AcDbArc
 50
0.0
 51
89.999982013910454
  0
ARC
  5
489
100
AcDbEntity
  8
0
  6
CONTINUOUS
 62
               4
100
AcDbCircle
 10
36.949996948242188
 20
34.100006103515625
 30
0.0
 40
0.5
100
AcDbArc
 50
89.999982013910454
 51
179.99996402782091
  0
LINE
  5
48A
100
AcDbEntity
  8
0
  6
CONTINUOUS
 62
               7
100
AcDbLine
 10
11.949996948242188
 20
60.5
 30
0.0
 11
11.949996948242188
 21
59.5
 31
0.0
  0
LINE
  5
48B
100
AcDbEntity
  8
0
  6
CONTINUOUS
 62
               7
100
AcDbLine
 10
8.0500030517578125
 20
60.5
 30
0.0
 11
8.0500030517578125
 21
59.5
 31
0.0
  0
LINE
  5
48C
100
AcDbEntity
  8
0
  6
CONTINUOUS
 62
               7
100
AcDbLine
 10
8.0500030517578125
 20
60.5
 30
0.0
 11
11.949996948242188
 21
60.5
 31
0.0
  0
LINE
  5
48D
100
AcDbEntity
  8
0
  6
CONTINUOUS
 62
               7
100
AcDbLine
 10
5.399993896484375
 20
59.5
 30
0.0
 11
14.600006103515625
 21
59.5
 31
0.0
  0
LINE
  5
48E
100
AcDbEntity
  8
0
  6
CONTINUOUS
 62
               7
100
AcDbLine
 10
5.399982910581457
 20
57.50002494254295
 30
0.0
 11
4.9999810360986885
 21
57.100021651916904
 31
0.0
  0
LINE
  5
48F
100
AcDbEntity
  8
0
  6
CONTINUOUS
 62
               7
100
AcDbLine
 10
14.999995335437234
 20
57.099991053447411
 30
0.0
 11
14.599992280835068
 21
57.499993163954059
 31
0.0
  0
LINE
  5
490
100
AcDbEntity
  8
0
  6
CONTINUOUS
 62
               7
100
AcDbLine
 10
5.0
 20
57.100006103515625
 30
0.0
 11
15.0
 21
57.100006103515625
 31
0.0
  0
LINE
  5
491
100
AcDbEntity
  8
0
  6
CONTINUOUS
 62
               7
100
AcDbLine
 10
5.399993896484375
 20
57.5
 30
0.0
 11
14.600006103515625
 21
57.5
 31
0.0
  0
LINE
  5
492
100
AcDbEntity
  8
0
  6
CONTINUOUS
 62
               7
100
AcDbLine
 10
12.598961593024796
 20
34.901043153887258
 30
0.0
 11
13.801041043878286
 21
33.698963804361483
 31
0.0
  0
LINE
  5
493
100
AcDbEntity
  8
0
  6
CONTINUOUS
 62
               7
100
AcDbLine
 10
6.1989625117248579
 20
50.301051250013188
 30
0.0
 11
7.401041962578347
 21
49.098971900487413
 31
0.0
  0
LINE
  5
494
100
AcDbEntity
  8
0
  6
CONTINUOUS
 62
               7
100
AcDbLine
 10
6.1989778278893937
 20
49.098927157391699
 30
0.0
 11
7.4010680683368264
 21
50.301017296510508
 31
0.0
  0
LINE
  5
495
100
AcDbEntity
  8
0
  6
CONTINUOUS
 62
               7
100
AcDbLine
 10
12.598975611066635
 20
33.698940100973232
 30
0.0
 11
13.801055061920124
 21
34.901019450499007
 31
0.0
  0
LINE
  5
496
100
AcDbEntity
  8
0
  6
CONTINUOUS
 62
               7
100
AcDbLine
 10
13.199996948242188
 20
35.900009155273438
 30
0.0
 11
15.0
 21
35.900009155273438
 31
0.0
  0
LINE
  5
497
100
AcDbEntity
  8
0
  6
CONTINUOUS
 62
               7
100
AcDbLine
 10
11.600006103515625
 20
34.300003051757812
 30
0.0
 11
11.600006103515625
 21
32.5
 31
0.0
  0
LINE
  5
498
100
AcDbEntity
  8
0
  6
CONTINUOUS
 62
               7
100
AcDbLine
 10
5.0
 20
48.100006103515625
 30
0.0
 11
6.8000030517578125
 21
48.100006103515625
 31
0.0
  0
LINE
  5
499
100
AcDbEntity
  8
0
  6
CONTINUOUS
 62
               7
100
AcDbLine
 10
5.0
 20
51.300003051757813
 30
0.0
 11
6.8000030517578125
 21
51.300003051757813
 31
0.0
  0
LINE
  5
49A
100
AcDbEntity
  8
0
  6
CONTINUOUS
 62
               7
100
AcDbLine
 10
5.399993896484375
 20
56.5
 30
0.0
 11
14.600006103515625
 21
56.5
 31
0.0
  0
LINE
  5
49B
100
AcDbEntity
  8
0
  6
CONTINUOUS
 62
               7
100
AcDbLine
 10
15.0
 20
59.100006103515625
 30
0.0
 11
15.0
 21
32.5
 31
0.0
  0
LINE
  5
49C
100
AcDbEntity
  8
0
  6
CONTINUOUS
 62
               7
100
AcDbLine
 10
5.0
 20
59.100006103515625
 30
0.0
 11
5.0
 21
32.5
 31
0.0
  0
LINE
  5
49D
100
AcDbEntity
  8
0
  6
CONTINUOUS
 62
               2
100
AcDbLine
 10
10.0
 20
30.52545166015625
 30
0.0
 11
10.0
 21
62.192123413085938
 31
0.0
  0
LINE
  5
49E
100
AcDbEntity
  8
0
  6
CONTINUOUS
 62
               4
100
AcDbLine
 10
46.050003051757813
 20
34.600006103515625
 30
0.0
 11
44.550003051757813
 21
34.600006103515625
 31
0.0
  0
LINE
  5
49F
100
AcDbEntity
  8
0
  6
CONTINUOUS
 62
               4
100
AcDbLine
 10
36.949996948242188
 20
34.600006103515625
 30
0.0
 11
38.449996948242188
 21
34.600006103515625
 31
0.0
  0
LINE
  5
4A0
100
AcDbEntity
  8
0
  6
CONTINUOUS
 62
               4
100
AcDbLine
 10
46.5
 20
34.100006103515625
 30
0.0
 11
46.5
 21
32.0
 31
0.0
  0
LINE
  5
4A1
100
AcDbEntity
  8
0
  6
CONTINUOUS
 62
               4
100
AcDbLine
 10
36.5
 20
34.100006103515625
 30
0.0
 11
36.5
 21
32.0
 31
0.0
  0
LINE
  5
4A2
100
AcDbEntity
  8
0
  6
CONTINUOUS
 62
               2
100
AcDbLine
 10
41.5
 20
35.533172607421875
 30
0.0
 11
41.5
 21
32.0
 31
0.0
  0
LINE
  5
4A3
100
AcDbEntity
  8
0
  6
CONTINUOUS
 62
               4
100
AcDbLine
 10
36.449996948242188
 20
34.100006103515625
 30
0.0
 11
46.550003051757813
 21
34.100006103515625
 31
0.0
  0
LINE
  5
4A4
100
AcDbEntity
  8
0
  6
CONTINUOUS
 62
               7
100
AcDbLine
 10
-4.0
 20
32.0
 30
0.0
 11
55.5
 21
32.0
 31
0.0
  0
LINE
  5
4A5
100
AcDbEntity
  8
0
  6
CONTINUOUS
 62
               7
100
AcDbLine
 10
-4.0
 20
0.0
 30
0.0
 11
55.5
 21
0.0
 31
0.0
  0
LINE
  5
4A6
100
AcDbEntity
  8
0
  6
CONTINUOUS
 62
               7
100
AcDbLine
 10
55.5
 20
32.0
 30
0.0
 11
55.5
 21
0.0
 31
0.0
  0
LINE
  5
4A7
100
AcDbEntity
  8
0
  6
CONTINUOUS
 62
               7
100
AcDbLine
 10
-4.0
 20
32.0
 30
0.0
 11
-4.0
 21
0.0
 31
0.0
  0
ENDBLK
  5
4A8
100
AcDbEntity
  8
0
100
AcDbBlockEnd
  0
BLOCK
  5
4A9
100
AcDbEntity
  8
0
100
AcDbBlockBegin
  2
F10MA-4
 70
               0
 10
0.0
 20
0.0
 30
0.0
  3
F10MA-4
  1

  0
LINE
  5
4AA
100
AcDbEntity
  8
0
  6
CONTINUOUS
 62
               4
100
AcDbLine
 10
-1.6000000000000001
 20
-5.0
 30
0.0
 11
7.5999999999999996
 21
-5.0
 31
0.0
  0
LINE
  5
4AB
100
AcDbEntity
  8
0
  6
CONTINUOUS
 62
               4
100
AcDbLine
 10
-2.0
 20
0.0
 30
0.0
 11
-2.0
 21
-4.5999999999999996
 31
0.0
  0
LINE
  5
4AC
100
AcDbEntity
  8
0
  6
CONTINUOUS
 62
               4
100
AcDbLine
 10
8.0
 20
0.0
 30
0.0
 11
8.0
 21
-4.5999999999999996
 31
0.0
  0
LINE
  5
4AD
100
AcDbEntity
  8
0
  6
CONTINUOUS
 62
               4
100
AcDbLine
 10
5.2000000000000002
 20
0.0
 30
0.0
 11
5.2000000000000002
 21
-5.0
 31
0.0
  0
LINE
  5
4AE
100
AcDbEntity
  8
0
  6
CONTINUOUS
 62
             200
100
AcDbLine
 10
3.0
 20
2.1099999999999999
 30
0.0
 11
3.0
 21
-7.0800000000000001
 31
0.0
  0
ARC
  5
4AF
100
AcDbEntity
  8
0
  6
CONTINUOUS
 62
               4
100
AcDbCircle
 10
-1.5999984741210938
 20
-4.5999984741210938
 30
0.0
 40
0.4000015258818166
100
AcDbArc
 50
180.00021856521926
 51
269.99978143477972
  0
ARC
  5
4B0
100
AcDbEntity
  8
0
  6
CONTINUOUS
 62
               4
100
AcDbCircle
 10
7.5999984741210938
 20
-4.5999984741210938
 30
0.0
 40
0.4000015258818166
100
AcDbArc
 50
270.00021856521903
 51
359.99978143477955
  0
ENDBLK
  5
4B1
100
AcDbEntity
  8
0
100
AcDbBlockEnd
  0
BLOCK
  5
4B2
100
AcDbEntity
  8
0
100
AcDbBlockBegin
  2
F10MA-5
 70
               0
 10
0.0
 20
0.0
 30
0.0
  3
F10MA-5
  1

  0
LINE
  5
4B3
100
AcDbEntity
  8
0
  6
CONTINUOUS
 62
               4
100
AcDbLine
 10
2.3999999999999999
 20
-5.0
 30
0.0
 11
-28.399999999999999
 21
-5.0
 31
0.0
  0
LINE
  5
4B4
100
AcDbEntity
  8
0
  6
CONTINUOUS
 62
               4
100
AcDbLine
 10
2.7999999999999998
 20
-4.5999999999999996
 30
0.0
 11
2.7999999999999998
 21
0.0
 31
0.0
  0
LINE
  5
4B5
100
AcDbEntity
  8
0
  6
CONTINUOUS
 62
               4
100
AcDbLine
 10
-28.800000000000001
 20
-4.5999999999999996
 30
0.0
 11
-28.800000000000001
 21
0.0
 31
0.0
  0
LINE
  5
4B6
100
AcDbEntity
  8
0
  6
CONTINUOUS
 62
               4
100
AcDbLine
 10
-24.199999999999999
 20
-5.0
 30
0.0
 11
-24.199999999999999
 21
0.0
 31
0.0
  0
LINE
  5
4B7
100
AcDbEntity
  8
0
  6
CONTINUOUS
 62
             200
100
AcDbLine
 10
-7.0999999999999996
 20
-2.5
 30
0.0
 11
-7.0999999999999996
 21
-7.5
 31
0.0
  0
LINE
  5
4B8
100
AcDbEntity
  8
0
  6
CONTINUOUS
 62
             200
100
AcDbLine
 10
-18.899999999999999
 20
-2.5
 30
0.0
 11
-18.899999999999999
 21
-7.5
 31
0.0
  0
ARC
  5
4B9
100
AcDbEntity
  8
0
  6
CONTINUOUS
 62
               4
100
AcDbCircle
 10
-28.400000476783035
 20
-4.6000004767830314
 30
0.0
 40
0.3999995232172526
100
AcDbArc
 50
179.99993170577955
 51
270.00006829422011
  0
ARC
  5
4BA
100
AcDbEntity
  8
0
  6
CONTINUOUS
 62
               4
100
AcDbCircle
 10
2.399998092589112
 20
-4.5999980925891126
 30
0.0
 40
0.4000019074154354
100
AcDbArc
 50
270.00027321518075
 51
359.99972678481799
  0
ENDBLK
  5
4BB
100
AcDbEntity
  8
0
100
AcDbBlockEnd
  0
BLOCK
  5
4BC
100
AcDbEntity
  8
0
100
AcDbBlockBegin
  2
F10MA-6
 70
               0
 10
0.0
 20
0.0
 30
0.0
  3
F10MA-6
  1

  0
LINE
  5
4BD
100
AcDbEntity
  8
0
  6
CONTINUOUS
 62
             200
100
AcDbLine
 10
3.0
 20
-30.75
 30
0.0
 11
3.0
 21
4.3399999999999999
 31
0.0
  0
LINE
  5
4BE
100
AcDbEntity
  8
0
  6
CONTINUOUS
 62
               4
100
AcDbLine
 10
8.0
 20
-28.399999999999999
 30
0.0
 11
8.0
 21
-2.2000000000000002
 31
0.0
  0
LINE
  5
4BF
100
AcDbEntity
  8
0
  6
CONTINUOUS
 62
               4
100
AcDbLine
 10
-2.0
 20
-23.800000000000001
 30
0.0
 11
-2.0
 21
2.3999999999999999
 31
0.0
  0
LINE
  5
4C0
100
AcDbEntity
  8
0
  6
CONTINUOUS
 62
               4
100
AcDbLine
 10
1.2
 20
-28.800000000000001
 30
0.0
 11
7.5999999999999996
 21
-28.800000000000001
 31
0.0
  0
LINE
  5
4C1
100
AcDbEntity
  8
0
  6
CONTINUOUS
 62
               4
100
AcDbLine
 10
-1.6000000000000001
 20
2.7999999999999998
 30
0.0
 11
4.7999999999999998
 21
2.7999999999999998
 31
0.0
  0
LINE
  5
4C2
100
AcDbEntity
  8
0
  6
CONTINUOUS
 62
               4
100
AcDbLine
 10
5.2000000000000002
 20
-0.2
 30
0.0
 11
5.2000000000000002
 21
2.3999999999999999
 31
0.0
  0
LINE
  5
4C3
100
AcDbEntity
  8
0
  6
CONTINUOUS
 62
               4
100
AcDbLine
 10
0.8
 20
-25.800000000000001
 30
0.0
 11
0.8
 21
-28.399999999999999
 31
0.0
  0
LINE
  5
4C4
100
AcDbEntity
  8
0
  6
CONTINUOUS
 62
               4
100
AcDbLine
 10
-0.8
 20
-24.199999999999999
 30
0.0
 11
-1.6000000000000001
 21
-24.199999999999999
 31
0.0
  0
LINE
  5
4C5
100
AcDbEntity
  8
0
  6
CONTINUOUS
 62
               4
100
AcDbLine
 10
6.7999999999999998
 20
-1.8
 30
0.0
 11
7.5999999999999996
 21
-1.8
 31
0.0
  0
LINE
  5
4C6
100
AcDbEntity
  8
0
  6
CONTINUOUS
 62
               4
100
AcDbLine
 10
5.3899999999999997
 20
-26.600000000000001
 30
0.0
 11
6.5999999999999996
 21
-25.390000000000001
 31
0.0
  0
LINE
  5
4C7
100
AcDbEntity
  8
0
  6
CONTINUOUS
 62
               4
100
AcDbLine
 10
5.3899999999999997
 20
-25.390000000000001
 30
0.0
 11
6.5999999999999996
 21
-26.600000000000001
 31
0.0
  0
LINE
  5
4C8
100
AcDbEntity
  8
0
  6
CONTINUOUS
 62
             200
100
AcDbLine
 10
0.0
 20
-18.899999999999999
 30
0.0
 11
6.0
 21
-18.899999999999999
 31
0.0
  0
LINE
  5
4C9
100
AcDbEntity
  8
0
  6
CONTINUOUS
 62
             200
100
AcDbLine
 10
0.0
 20
-7.0999999999999996
 30
0.0
 11
6.0
 21
-7.0999999999999996
 31
0.0
  0
LINE
  5
4CA
100
AcDbEntity
  8
0
  6
CONTINUOUS
 62
               4
100
AcDbLine
 10
-0.6
 20
0.6
 30
0.0
 11
0.6
 21
-0.6
 31
0.0
  0
LINE
  5
4CB
100
AcDbEntity
  8
0
  6
CONTINUOUS
 62
               4
100
AcDbLine
 10
-0.6
 20
-0.6
 30
0.0
 11
0.6
 21
0.6
 31
0.0
  0
ARC
  5
4CC
100
AcDbEntity
  8
0
  6
CONTINUOUS
 62
               4
100
AcDbCircle
 10
-1.5999969481374141
 20
-23.799996948137412
 30
0.0
 40
0.4000030518742281
100
AcDbArc
 50
180.00043714377924
 51
269.99956285622011
  0
ARC
  5
4CD
100
AcDbEntity
  8
0
  6
CONTINUOUS
 62
               4
100
AcDbCircle
 10
-1.599999999953434
 20
2.3999999999534336
 30
0.0
 40
0.400000000046566
100
AcDbArc
 50
90.000000006669907
 51
179.99999999332945
  0
ARC
  5
4CE
100
AcDbEntity
  8
0
  6
CONTINUOUS
 62
               4
100
AcDbCircle
 10
4.7999908447149213
 20
2.3999908447149205
 30
0.0
 40
0.4000091553898507
100
AcDbArc
 50
0.0013113679731219
 51
89.998688632026798
  0
ARC
  5
4CF
100
AcDbEntity
  8
0
  6
CONTINUOUS
 62
               4
100
AcDbCircle
 10
7.599989318844746
 20
-2.2000106811552542
 30
0.0
 40
0.4000106812978591
100
AcDbArc
 50
0.0015299219372538
 51
89.99847007806261
  0
ARC
  5
4D0
100
AcDbEntity
  8
0
  6
CONTINUOUS
 62
               4
100
AcDbCircle
 10
7.5999923706025578
 20
-28.399992370602561
 30
0.0
 40
0.4000076294702002
100
AcDbArc
 50
270.00109280983963
 51
359.99890719015957
  0
ARC
  5
4D1
100
AcDbEntity
  8
0
  6
CONTINUOUS
 62
               4
100
AcDbCircle
 10
1.2000015259051002
 20
-28.399998474094904
 30
0.0
 40
0.4000015259080105
100
AcDbArc
 50
180.00021856897047
 51
269.99978143102771
  0
ARC
  5
4D2
100
AcDbEntity
  8
0
  6
CONTINUOUS
 62
               4
100
AcDbCircle
 10
6.79998779296875
 20
-0.2000122070312504
 30
0.0
 40
1.5999877930153164
100
AcDbArc
 50
179.99956286455765
 51
270.0004371354413
  0
ARC
  5
4D3
100
AcDbEntity
  8
0
  6
CONTINUOUS
 62
               4
100
AcDbCircle
 10
-0.7999954223814716
 20
-25.799995422381471
 30
0.0
 40
1.5999954223880197
100
AcDbArc
 50
359.9998360756415
 51
90.000163924357494
  0
CIRCLE
  5
4D4
100
AcDbEntity
  8
0
  6
CONTINUOUS
 62
               4
100
AcDbCircle
 10
6.0
 20
-26.0
 30
0.0
 40
1.25
  0
CIRCLE
  5
4D5
100
AcDbEntity
  8
0
  6
CONTINUOUS
 62
               4
100
AcDbCircle
 10
0.0
 20
0.0
 30
0.0
 40
1.25
  0
CIRCLE
  5
4D6
100
AcDbEntity
  8
0
  6
CONTINUOUS
 62
             200
100
AcDbCircle
 10
3.0
 20
-7.0999908447265625
 30
0.0
 40
2.5
  0
CIRCLE
  5
4D7
100
AcDbEntity
  8
0
  6
CONTINUOUS
 62
             200
100
AcDbCircle
 10
3.0
 20
-18.899993896484375
 30
0.0
 40
2.5
  0
CIRCLE
  5
4D8
100
AcDbEntity
  8
0
  6
CONTINUOUS
 62
               4
100
AcDbCircle
 10
3.0
 20
-18.899993896484375
 30
0.0
 40
2.0999994277954102
  0
CIRCLE
  5
4D9
100
AcDbEntity
  8
0
  6
CONTINUOUS
 62
               4
100
AcDbCircle
 10
3.0
 20
-7.0999908447265625
 30
0.0
 40
2.0999994277954102
  0
ENDBLK
  5
4DA
100
AcDbEntity
  8
0
100
AcDbBlockEnd
  0
BLOCK
  5
4DB
100
AcDbEntity
  8
0
100
AcDbBlockBegin
  2
F10MA-7
 70
               0
 10
0.0
 20
0.0
 30
0.0
  3
F10MA-7
  1

  0
LINE
  5
4DC
100
AcDbEntity
  8
0
  6
CONTINUOUS
 62
               4
100
AcDbLine
 10
27.0
 20
23.999999913736957
 30
0.0
 11
27.0
 21
-0.0000000862630429
 31
0.0
  0
LINE
  5
4DD
100
AcDbEntity
  8
0
  6
CONTINUOUS
 62
               4
100
AcDbLine
 10
-0.0000000000000036
 20
16.999999913736957
 30
0.0
 11
0.0000000000000071
 21
0.0000049999999874
 31
0.0
  0
LINE
  5
4DE
100
AcDbEntity
  8
0
  6
CONTINUOUS
 62
               4
100
AcDbLine
 10
1.3999999999999915
 20
16.999999913736957
 30
0.0
 11
1.3999999999999915
 21
25.499999909445421
 31
0.0
  0
LINE
  5
4DF
100
AcDbEntity
  8
0
  6
CONTINUOUS
 62
               4
100
AcDbLine
 10
-10.000000000000014
 20
25.499999913736957
 30
0.0
 11
-10.000000000000014
 21
16.999999913736957
 31
0.0
  0
LINE
  5
4E0
100
AcDbEntity
  8
0
  6
CONTINUOUS
 62
               4
100
AcDbLine
 10
-10.000000000000014
 20
25.499999913736957
 30
0.0
 11
1.3999999999999915
 21
25.499999913736957
 31
0.0
  0
LINE
  5
4E1
100
AcDbEntity
  8
0
  6
CONTINUOUS
 62
               4
100
AcDbLine
 10
-10.000000000000014
 20
16.999999913736957
 30
0.0
 11
1.3999999999999915
 21
16.999999913736957
 31
0.0
  0
LINE
  5
4E2
100
AcDbEntity
  8
0
  6
CONTINUOUS
 62
               4
100
AcDbLine
 10
27.0
 20
23.999999913736957
 30
0.0
 11
1.3999999999999915
 21
23.999999913736957
 31
0.0
  0
LINE
  5
4E3
100
AcDbEntity
  8
0
  6
CONTINUOUS
 62
               4
100
AcDbLine
 10
14.295000000000009
 20
23.999999913736957
 30
0.0
 11
12.795000000000009
 21
23.999999913736957
 31
0.0
  0
LINE
  5
4E4
100
AcDbEntity
  8
0
  6
CONTINUOUS
 62
               4
100
AcDbLine
 10
1.4999999999999964
 20
25.599999913736951
 30
0.0
 11
-3.0000000000000142
 21
25.599999913736951
 31
0.0
  0
ARC
  5
4E5
100
AcDbEntity
  8
0
  6
CONTINUOUS
 62
               4
100
AcDbCircle
 10
-2.5015404500182825
 20
32.501540363755225
 30
0.0
 40
0.4984619302958243
100
AcDbArc
 50
89.822932465397898
 51
180.17706753460195
  0
LINE
  5
4E6
100
AcDbEntity
  8
0
  6
CONTINUOUS
 62
               4
100
AcDbLine
 10
-3.0000000000000142
 20
32.499999913736957
 30
0.0
 11
-3.0000000000000142
 21
25.599999913736951
 31
0.0
  0
LINE
  5
4E7
100
AcDbEntity
  8
0
  6
CONTINUOUS
 62
               4
100
AcDbLine
 10
1.4999999999999964
 20
25.599999913736951
 30
0.0
 11
1.4999999999999964
 21
23.999999913736957
 31
0.0
  0
ARC
  5
4E8
100
AcDbEntity
  8
0
  6
CONTINUOUS
 62
               4
100
AcDbCircle
 10
25.501123948313893
 20
28.179394315853983
 30
0.0
 40
1.4988865337462252
100
AcDbArc
 50
0.2142776266259142
 51
24.039904443234629
  0
ARC
  5
4E9
100
AcDbEntity
  8
0
  6
CONTINUOUS
 62
               4
100
AcDbCircle
 10
24.675687863874504
 20
32.50267102581455
 30
0.0
 40
0.4973293636201366
100
AcDbArc
 50
24.005903588636794
 51
90.079246697133684
  0
LINE
  5
4EA
100
AcDbEntity
  8
0
  6
CONTINUOUS
 62
               4
100
AcDbLine
 10
25.129999999999999
 20
32.704999913736941
 30
0.0
 11
26.870000000000008
 21
28.789999913736949
 31
0.0
  0
LINE
  5
4EB
100
AcDbEntity
  8
0
  6
CONTINUOUS
 62
               4
100
AcDbLine
 10
24.674999999999994
 20
32.999999913736957
 30
0.0
 11
-2.503080900033293
 21
32.999999913736957
 31
0.0
  0
LINE
  5
4EC
100
AcDbEntity
  8
0
  6
CONTINUOUS
 62
               4
100
AcDbLine
 10
27.000000000000004
 20
28.184999913736931
 30
0.0
 11
27.000000000000004
 21
23.999999913736957
 31
0.0
  0
LINE
  5
4ED
100
AcDbEntity
  8
0
  6
CONTINUOUS
 62
             200
100
AcDbLine
 10
-20.089214565994553
 20
24.164996126888383
 30
0.0
 11
-21.946103769656474
 21
17.234991332879673
 31
0.0
  0
LINE
  5
4EE
100
AcDbEntity
  8
0
  6
CONTINUOUS
 62
             200
100
AcDbLine
 10
-19.053935707232995
 20
24.165006172564773
 30
0.0
 11
-20.910828860160109
 21
17.234986639697837
 31
0.0
  0
LINE
  5
4EF
100
AcDbEntity
  8
0
  6
CONTINUOUS
 62
               4
100
AcDbLine
 10
-20.491119384765625
 20
22.665023717447895
 30
0.0
 11
-24.500015258789063
 21
22.665023717447895
 31
0.0
  0
LINE
  5
4F0
100
AcDbEntity
  8
0
  6
CONTINUOUS
 62
               4
100
AcDbLine
 10
-20.874298095703125
 20
21.235015782877582
 30
0.0
 11
-24.500015258789063
 21
21.235015782877582
 31
0.0
  0
LINE
  5
4F1
100
AcDbEntity
  8
0
  6
CONTINUOUS
 62
               4
100
AcDbLine
 10
-21.160995483398438
 20
20.165023717447895
 30
0.0
 11
-24.500015258789063
 21
20.165023717447895
 31
0.0
  0
LINE
  5
4F2
100
AcDbEntity
  8
0
  6
CONTINUOUS
 62
               4
100
AcDbLine
 10
-21.544174194335937
 20
18.735015782877582
 30
0.0
 11
-24.500015258789063
 21
18.735015782877582
 31
0.0
  0
LINE
  5
4F3
100
AcDbEntity
  8
0
  6
CONTINUOUS
 62
               4
100
AcDbLine
 10
-24.5
 20
22.665008458658832
 30
0.0
 11
-24.5
 21
21.23500052408852
 31
0.0
  0
LINE
  5
4F4
100
AcDbEntity
  8
0
  6
CONTINUOUS
 62
               4
100
AcDbLine
 10
-24.5
 20
18.73500052408852
 30
0.0
 11
-24.5
 21
20.165008458658832
 31
0.0
  0
LINE
  5
4F5
100
AcDbEntity
  8
0
  6
CONTINUOUS
 62
               4
100
AcDbLine
 10
-29.5
 20
22.350006017252582
 30
0.0
 11
-29.5
 21
21.55000296549477
 31
0.0
  0
LINE
  5
4F6
100
AcDbEntity
  8
0
  6
CONTINUOUS
 62
               4
100
AcDbLine
 10
-24.500015258789063
 20
21.55000296549477
 30
0.0
 11
-29.5
 21
21.55000296549477
 31
0.0
  0
LINE
  5
4F7
100
AcDbEntity
  8
0
  6
CONTINUOUS
 62
               4
100
AcDbLine
 10
-24.500015258789063
 20
22.350006017252582
 30
0.0
 11
-29.5
 21
22.350006017252582
 31
0.0
  0
LINE
  5
4F8
100
AcDbEntity
  8
0
  6
CONTINUOUS
 62
               4
100
AcDbLine
 10
-16.5
 20
20.165023717447895
 30
0.0
 11
-20.125717163085938
 21
20.165023717447895
 31
0.0
  0
LINE
  5
4F9
100
AcDbEntity
  8
0
  6
CONTINUOUS
 62
               4
100
AcDbLine
 10
-16.5
 20
18.735015782877582
 30
0.0
 11
-20.508895874023438
 21
18.735015782877582
 31
0.0
  0
LINE
  5
4FA
100
AcDbEntity
  8
0
  6
CONTINUOUS
 62
               4
100
AcDbLine
 10
-16.5
 20
21.235015782877582
 30
0.0
 11
-19.839019775390625
 21
21.235015782877582
 31
0.0
  0
LINE
  5
4FB
100
AcDbEntity
  8
0
  6
CONTINUOUS
 62
               4
100
AcDbLine
 10
-16.5
 20
22.665023717447895
 30
0.0
 11
-19.455841064453125
 21
22.665023717447895
 31
0.0
  0
LINE
  5
4FC
100
AcDbEntity
  8
0
  6
CONTINUOUS
 62
               4
100
AcDbLine
 10
-24.500015258789063
 20
19.05000296549477
 30
0.0
 11
-29.5
 21
19.05000296549477
 31
0.0
  0
LINE
  5
4FD
100
AcDbEntity
  8
0
  6
CONTINUOUS
 62
               4
100
AcDbLine
 10
-24.500015258789063
 20
19.850006017252582
 30
0.0
 11
-29.5
 21
19.850006017252582
 31
0.0
  0
LINE
  5
4FE
100
AcDbEntity
  8
0
  6
CONTINUOUS
 62
               4
100
AcDbLine
 10
-29.5
 20
19.05000296549477
 30
0.0
 11
-29.5
 21
19.850006017252582
 31
0.0
  0
LINE
  5
4FF
100
AcDbEntity
  8
0
  6
CONTINUOUS
 62
               4
100
AcDbLine
 10
-15.0
 20
27.499999913736957
 30
0.0
 11
-16.5
 21
27.499999913736957
 31
0.0
  0
LINE
  5
500
100
AcDbEntity
  8
0
  6
CONTINUOUS
 62
               4
100
AcDbLine
 10
-15.499999958178705
 20
25.499978352823547
 30
0.0
 11
-16.499994209762917
 21
26.077324672805645
 31
0.0
  0
LINE
  5
501
100
AcDbEntity
  8
0
  6
CONTINUOUS
 62
               4
100
AcDbLine
 10
-10.0
 20
25.499999913736957
 30
0.0
 11
-16.5
 21
25.499999913736957
 31
0.0
  0
LINE
  5
502
100
AcDbEntity
  8
0
  6
CONTINUOUS
 62
               4
100
AcDbLine
 10
-5.998454579468671
 20
26.500071061293767
 30
0.0
 11
-9.5561426631575159
 21
27.000070384309566
 31
0.0
  0
LINE
  5
503
100
AcDbEntity
  8
0
  6
CONTINUOUS
 62
               4
100
AcDbLine
 10
-9.55615234375
 20
26.999999913736957
 30
0.0
 11
-15.0
 21
26.999999913736957
 31
0.0
  0
LINE
  5
504
100
AcDbEntity
  8
0
  6
CONTINUOUS
 62
               4
100
AcDbLine
 10
-15.5
 20
16.499999913736957
 30
0.0
 11
-15.5
 21
16.999999913736957
 31
0.0
  0
LINE
  5
505
100
AcDbEntity
  8
0
  6
CONTINUOUS
 62
               4
100
AcDbLine
 10
-15.5
 20
16.499999913736957
 30
0.0
 11
-16.5
 21
16.499999913736957
 31
0.0
  0
LINE
  5
506
100
AcDbEntity
  8
0
  6
CONTINUOUS
 62
               4
100
AcDbLine
 10
-10.0
 20
16.999999913736957
 30
0.0
 11
-15.5
 21
16.999999913736957
 31
0.0
  0
LINE
  5
507
100
AcDbEntity
  8
0
  6
CONTINUOUS
 62
               4
100
AcDbLine
 10
-15.0
 20
26.999999913736957
 30
0.0
 11
-15.0
 21
27.499999913736957
 31
0.0
  0
LINE
  5
508
100
AcDbEntity
  8
0
  6
CONTINUOUS
 62
               4
100
AcDbLine
 10
-5.9984588623046875
 20
25.499999913736957
 30
0.0
 11
-5.9984588623046875
 21
26.499999913736957
 31
0.0
  0
LINE
  5
509
100
AcDbEntity
  8
0
  6
CONTINUOUS
 62
               4
100
AcDbLine
 10
-16.5
 20
26.07734671549477
 30
0.0
 11
-16.5
 21
27.499999913736957
 31
0.0
  0
LINE
  5
50A
100
AcDbEntity
  8
0
  6
CONTINUOUS
 62
               4
100
AcDbLine
 10
-10.0
 20
25.449996861979145
 30
0.0
 11
-10.0
 21
25.499999913736957
 31
0.0
  0
LINE
  5
50B
100
AcDbEntity
  8
0
  6
CONTINUOUS
 62
               4
100
AcDbLine
 10
-16.5
 20
16.499999913736957
 30
0.0
 11
-16.5
 21
25.499999913736957
 31
0.0
  0
ENDBLK
  5
50C
100
AcDbEntity
  8
0
100
AcDbBlockEnd
  0
BLOCK
  5
50D
100
AcDbEntity
  8
0
100
AcDbBlockBegin
  2
F10MA-8
 70
               0
 10
0.0
 20
0.0
 30
0.0
  3
F10MA-8
  1

  0
LINE
  5
50E
100
AcDbEntity
  8
0
  6
CONTINUOUS
 62
               4
100
AcDbLine
 10
0.0
 20
24.0
 30
0.0
 11
10.0
 21
24.0
 31
0.0
  0
LINE
  5
50F
100
AcDbEntity
  8
0
  6
CONTINUOUS
 62
               4
100
AcDbLine
 10
0.05
 20
24.0
 30
0.0
 11
0.05
 21
32.5
 31
0.0
  0
LINE
  5
510
100
AcDbEntity
  8
0
  6
CONTINUOUS
 62
               4
100
AcDbLine
 10
9.5
 20
33.0
 30
0.0
 11
0.5
 21
33.0
 31
0.0
  0
LINE
  5
511
100
AcDbEntity
  8
0
  6
CONTINUOUS
 62
               4
100
AcDbLine
 10
9.9499999999999993
 20
28.5
 30
0.0
 11
0.05
 21
28.5
 31
0.0
  0
LINE
  5
512
100
AcDbEntity
  8
0
  6
CONTINUOUS
 62
               4
100
AcDbLine
 10
9.9499999999999993
 20
24.0
 30
0.0
 11
9.9499999999999993
 21
32.5
 31
0.0
  0
LINE
  5
513
100
AcDbEntity
  8
0
  6
CONTINUOUS
 62
               4
100
AcDbLine
 10
0.0
 20
0.0
 30
0.0
 11
0.0
 21
24.0
 31
0.0
  0
LINE
  5
514
100
AcDbEntity
  8
0
  6
CONTINUOUS
 62
               4
100
AcDbLine
 10
10.0
 20
0.0
 30
0.0
 11
10.0
 21
24.0
 31
0.0
  0
ARC
  5
515
100
AcDbEntity
  8
0
  6
CONTINUOUS
 62
               4
100
AcDbCircle
 10
9.4500137329078271
 20
32.500013732907831
 30
0.0
 40
0.4999862672807696
100
AcDbArc
 50
359.99842628145819
 51
90.001573718540826
  0
ARC
  5
516
100
AcDbEntity
  8
0
  6
CONTINUOUS
 62
               4
100
AcDbCircle
 10
0.5499786377791315
 20
32.500021362220863
 30
0.0
 40
0.4999786382354955
100
AcDbArc
 50
89.997551965216786
 51
180.00244803478242
  0
ENDBLK
  5
517
100
AcDbEntity
  8
0
100
AcDbBlockEnd
  0
BLOCK
  5
58D
100
AcDbEntity
  8
0
  6
ByBlock
 62
               0
100
AcDbBlockBegin
  2
*D8
 70
               1
 10
0.0
 20
0.0
 30
0.0
  3
*D8
  1

  0
LINE
  5
58E
100
AcDbEntity
  8
0
  6
CONTINUOUS
 62
               2
100
AcDbLine
 10
-34.0
 20
144.19296264648437
 30
0.0
 11
-30.0
 21
144.19296264648437
 31
0.0
  0
LINE
  5
58F
100
AcDbEntity
  8
0
  6
CONTINUOUS
 62
               2
100
AcDbLine
 10
-42.329370498657227
 20
144.19296264648437
 30
0.0
 11
-34.0
 21
144.19296264648437
 31
0.0
  0
LINE
  5
590
100
AcDbEntity
  8
0
  6
CONTINUOUS
 62
               2
100
AcDbLine
 10
-30.0
 20
54.25
 30
0.0
 11
-30.0
 21
145.69296264648437
 31
0.0
  0
LINE
  5
591
100
AcDbEntity
  8
0
  6
CONTINUOUS
 62
               2
100
AcDbLine
 10
-34.0
 20
144.19296264648437
 30
0.0
 11
-37.555999994277954
 21
144.19296264648437
 31
0.0
  0
LINE
  5
592
100
AcDbEntity
  8
0
  6
CONTINUOUS
 62
               2
100
AcDbLine
 10
-30.0
 20
144.19296264648437
 30
0.0
 11
-26.444000005722046
 21
144.19296264648437
 31
0.0
  0
INSERT
  5
599
100
AcDbEntity
  8
0
  6
CONTINUOUS
 62
               2
100
AcDbBlockReference
  2
_OPEN30
 10
-34.0
 20
144.19296264648437
 30
0.0
 41
2.77
 42
2.77
 43
2.77
  0
INSERT
  5
59A
100
AcDbEntity
  8
0
  6
CONTINUOUS
 62
               2
100
AcDbBlockReference
  2
_OPEN30
 10
-30.0
 20
144.19296264648437
 30
0.0
 41
2.77
 42
2.77
 43
2.77
 50
180.0
  0
MTEXT
  5
59B
100
AcDbEntity
  8
0
  6
CONTINUOUS
 62
               2
100
AcDbMText
 10
-40.079370498657227
 20
147.44296264648437
 30
0.0
 40
4.5
 41
0.0
 71
               5
 72
               1
  1
\A1;4
  0
POINT
  5
59C
100
AcDbEntity
  8
DEFPOINTS
  6
CONTINUOUS
 62
               0
100
AcDbPoint
 10
-34.0
 20
79.5
 30
0.0
  0
POINT
  5
59D
100
AcDbEntity
  8
DEFPOINTS
  6
CONTINUOUS
 62
               0
100
AcDbPoint
 10
-30.0
 20
54.25
 30
0.0
  0
POINT
  5
59E
100
AcDbEntity
  8
DEFPOINTS
  6
CONTINUOUS
 62
               0
100
AcDbPoint
 10
-30.0
 20
144.19296264648437
 30
0.0
  0
ENDBLK
  5
59F
100
AcDbEntity
  8
0
  6
ByBlock
 62
               0
100
AcDbBlockEnd
  0
BLOCK
  5
594
100
AcDbEntity
  8
0
  6
ByBlock
 62
               0
100
AcDbBlockBegin
  2
_OPEN30
 70
               2
 10
0.0
 20
0.0
 30
0.0
  3
_OPEN30
  1

  0
LINE
  5
595
100
AcDbEntity
  8
0
  6
ByBlock
 62
               0
100
AcDbLine
 10
-1.0
 20
0.267949
 30
0.0
 11
0.0
 21
0.0
 31
0.0
  0
LINE
  5
596
100
AcDbEntity
  8
0
  6
ByBlock
 62
               0
100
AcDbLine
 10
0.0
 20
0.0
 30
0.0
 11
-1.0
 21
-0.267949
 31
0.0
  0
LINE
  5
597
100
AcDbEntity
  8
0
  6
ByBlock
 62
               0
100
AcDbLine
 10
0.0
 20
0.0
 30
0.0
 11
-1.0
 21
0.0
 31
0.0
  0
ENDBLK
  5
598
100
AcDbEntity
  8
0
  6
ByBlock
 62
               0
100
AcDbBlockEnd
  0
BLOCK
  5
5A2
100
AcDbEntity
  8
0
  6
ByBlock
 62
               0
100
AcDbBlockBegin
  2
*D10
 70
               1
 10
0.0
 20
0.0
 30
0.0
  3
*D10
  1

  0
LINE
  5
5A3
100
AcDbEntity
  8
0
  6
CONTINUOUS
 62
               2
100
AcDbLine
 10
-30.0
 20
144.19296264648437
 30
0.0
 11
21.5
 21
144.19296264648437
 31
0.0
  0
LINE
  5
5A4
100
AcDbEntity
  8
0
  6
CONTINUOUS
 62
               2
100
AcDbLine
 10
21.5
 20
54.25
 30
0.0
 11
21.5
 21
145.69296264648437
 31
0.0
  0
INSERT
  5
5A5
100
AcDbEntity
  8
0
  6
CONTINUOUS
 62
               2
100
AcDbBlockReference
  2
_OPEN30
 10
-30.0
 20
144.19296264648437
 30
0.0
 41
2.77
 42
2.77
 43
2.77
 50
180.0
  0
INSERT
  5
5A6
100
AcDbEntity
  8
0
  6
CONTINUOUS
 62
               2
100
AcDbBlockReference
  2
_OPEN30
 10
21.5
 20
144.19296264648437
 30
0.0
 41
2.77
 42
2.77
 43
2.77
  0
MTEXT
  5
5A7
100
AcDbEntity
  8
0
  6
CONTINUOUS
 62
               2
100
AcDbMText
 10
-4.25
 20
147.44296264648437
 30
0.0
 40
4.5
 41
0.0
 71
               5
 72
               1
  1
\A1;P
  0
POINT
  5
5A8
100
AcDbEntity
  8
DEFPOINTS
  6
CONTINUOUS
 62
               0
100
AcDbPoint
 10
-30.0
 20
59.25
 30
0.0
  0
POINT
  5
5A9
100
AcDbEntity
  8
DEFPOINTS
  6
CONTINUOUS
 62
               0
100
AcDbPoint
 10
21.5
 20
54.25
 30
0.0
  0
POINT
  5
5AA
100
AcDbEntity
  8
DEFPOINTS
  6
CONTINUOUS
 62
               0
100
AcDbPoint
 10
21.5
 20
144.19296264648437
 30
0.0
  0
ENDBLK
  5
5AB
100
AcDbEntity
  8
0
  6
ByBlock
 62
               0
100
AcDbBlockEnd
  0
BLOCK
  5
5AE
100
AcDbEntity
  8
0
  6
ByBlock
 62
               0
100
AcDbBlockBegin
  2
*D11
 70
               1
 10
0.0
 20
0.0
 30
0.0
  3
*D11
  1

  0
LINE
  5
5AF
100
AcDbEntity
  8
0
  6
CONTINUOUS
 62
               2
100
AcDbLine
 10
21.5
 20
144.19296264648437
 30
0.0
 11
25.5
 21
144.19296264648437
 31
0.0
  0
LINE
  5
5B0
100
AcDbEntity
  8
0
  6
CONTINUOUS
 62
               2
100
AcDbLine
 10
25.5
 20
144.19296264648437
 30
0.0
 11
33.841526031494141
 21
144.19296264648437
 31
0.0
  0
LINE
  5
5B1
100
AcDbEntity
  8
0
  6
CONTINUOUS
 62
               2
100
AcDbLine
 10
21.5
 20
144.19296264648437
 30
0.0
 11
17.944000005722046
 21
144.19296264648437
 31
0.0
  0
LINE
  5
5B2
100
AcDbEntity
  8
0
  6
CONTINUOUS
 62
               2
100
AcDbLine
 10
25.5
 20
144.19296264648437
 30
0.0
 11
29.055999994277954
 21
144.19296264648437
 31
0.0
  0
INSERT
  5
5B3
100
AcDbEntity
  8
0
  6
CONTINUOUS
 62
               2
100
AcDbBlockReference
  2
_OPEN30
 10
21.5
 20
144.19296264648437
 30
0.0
 41
2.77
 42
2.77
 43
2.77
  0
INSERT
  5
5B4
100
AcDbEntity
  8
0
  6
CONTINUOUS
 62
               2
100
AcDbBlockReference
  2
_OPEN30
 10
25.5
 20
144.19296264648437
 30
0.0
 41
2.77
 42
2.77
 43
2.77
 50
180.0
  0
MTEXT
  5
5B5
100
AcDbEntity
  8
0
  6
CONTINUOUS
 62
               2
100
AcDbMText
 10
31.591526031494141
 20
147.44296264648437
 30
0.0
 40
4.5
 41
0.0
 71
               5
 72
               1
  1
\A1;4
  0
POINT
  5
5B6
100
AcDbEntity
  8
DEFPOINTS
  6
CONTINUOUS
 62
               0
100
AcDbPoint
 10
21.5
 20
59.25
 30
0.0
  0
POINT
  5
5B7
100
AcDbEntity
  8
DEFPOINTS
  6
CONTINUOUS
 62
               0
100
AcDbPoint
 10
25.5
 20
79.5
 30
0.0
  0
POINT
  5
5B8
100
AcDbEntity
  8
DEFPOINTS
  6
CONTINUOUS
 62
               0
100
AcDbPoint
 10
25.5
 20
144.19296264648437
 30
0.0
  0
ENDBLK
  5
5B9
100
AcDbEntity
  8
0
  6
ByBlock
 62
               0
100
AcDbBlockEnd
  0
BLOCK
  5
5BC
100
AcDbEntity
  8
0
  6
ByBlock
 62
               0
100
AcDbBlockBegin
  2
*D12
 70
               1
 10
0.0
 20
0.0
 30
0.0
  3
*D12
  1

  0
LINE
  5
5BD
100
AcDbEntity
  8
0
  6
CONTINUOUS
 62
               2
100
AcDbLine
 10
-34.0
 20
154.19296264648437
 30
0.0
 11
25.5
 21
154.19296264648437
 31
0.0
  0
LINE
  5
5BE
100
AcDbEntity
  8
0
  6
CONTINUOUS
 62
               2
100
AcDbLine
 10
-34.0
 20
76.0
 30
0.0
 11
-34.0
 21
155.69296264648437
 31
0.0
  0
LINE
  5
5BF
100
AcDbEntity
  8
0
  6
CONTINUOUS
 62
               2
100
AcDbLine
 10
25.5
 20
76.0
 30
0.0
 11
25.5
 21
155.69296264648437
 31
0.0
  0
INSERT
  5
5C0
100
AcDbEntity
  8
0
  6
CONTINUOUS
 62
               2
100
AcDbBlockReference
  2
_OPEN30
 10
-34.0
 20
154.19296264648437
 30
0.0
 41
2.77
 42
2.77
 43
2.77
 50
180.0
  0
INSERT
  5
5C1
100
AcDbEntity
  8
0
  6
CONTINUOUS
 62
               2
100
AcDbBlockReference
  2
_OPEN30
 10
25.5
 20
154.19296264648437
 30
0.0
 41
2.77
 42
2.77
 43
2.77
  0
MTEXT
  5
5C2
100
AcDbEntity
  8
0
  6
CONTINUOUS
 62
               2
100
AcDbMText
 10
-4.25
 20
157.44296264648437
 30
0.0
 40
4.5
 41
0.0
 71
               5
 72
               1
  1
\A1;L
  0
POINT
  5
5C3
100
AcDbEntity
  8
DEFPOINTS
  6
CONTINUOUS
 62
               0
100
AcDbPoint
 10
-34.0
 20
74.5
 30
0.0
  0
POINT
  5
5C4
100
AcDbEntity
  8
DEFPOINTS
  6
CONTINUOUS
 62
               0
100
AcDbPoint
 10
25.5
 20
74.5
 30
0.0
  0
POINT
  5
5C5
100
AcDbEntity
  8
DEFPOINTS
  6
CONTINUOUS
 62
               0
100
AcDbPoint
 10
25.5
 20
154.19296264648437
 30
0.0
  0
ENDBLK
  5
5C6
100
AcDbEntity
  8
0
  6
ByBlock
 62
               0
100
AcDbBlockEnd
  0
ENDSEC
  0
SECTION
  2
ENTITIES
  0
INSERT
  5
518
100
AcDbEntity
  8
0
  6
ByBlock
100
AcDbBlockReference
  2
F10MA-1
 10
-30.0
 20
51.0
 30
0.0
  0
INSERT
  5
519
100
AcDbEntity
  8
0
  6
ByBlock
100
AcDbBlockReference
  2
F10MA-3
 10
-30.0
 20
-127.0
 30
0.0
  0
INSERT
  5
51A
100
AcDbEntity
  8
0
  6
ByBlock
100
AcDbBlockReference
  2
F10MA-4
 10
222.25
 20
121.81
 30
0.0
  0
INSERT
  5
51B
100
AcDbEntity
  8
0
  6
ByBlock
100
AcDbBlockReference
  2
F10MA-5
 10
158.35000000000002
 20
121.81
 30
0.0
  0
INSERT
  5
51C
100
AcDbEntity
  8
0
  6
ByBlock
100
AcDbBlockReference
  2
F10MA-6
 10
222.25
 20
63.031158447265625
 30
0.0
  0
INSERT
  5
51D
100
AcDbEntity
  8
0
  6
ByBlock
100
AcDbBlockReference
  2
F10MA-7
 10
141.09999999999999
 20
-102.20000499999999
 30
0.0
  0
INSERT
  5
51E
100
AcDbEntity
  8
0
  6
ByBlock
100
AcDbBlockReference
  2
F10MA-8
 10
226.59999999999999
 20
-102.2
 30
0.0
  0
INSERT
  5
51F
100
AcDbEntity
  8
0
  6
ByBlock
100
AcDbBlockReference
  2
F10MA-2
 10
-180.0
 20
51.0
 30
0.0
 50
0.0013222197561112
  0
LINE
  5
520
100
AcDbEntity
  8
0
  6
CONTINUOUS
 62
               7
100
AcDbLine
 10
-281.25
 20
195.5
 30
0.0
 11
282.10000000000002
 21
195.5
 31
0.0
  0
LINE
  5
521
100
AcDbEntity
  8
0
  6
CONTINUOUS
 62
               7
100
AcDbLine
 10
282.10000000000002
 20
195.5
 30
0.0
 11
282.10000000000002
 21
-195.0
 31
0.0
  0
LINE
  5
522
100
AcDbEntity
  8
0
  6
CONTINUOUS
 62
               7
100
AcDbLine
 10
-281.25
 20
-195.0
 30
0.0
 11
282.10000000000002
 21
-195.0
 31
0.0
  0
LINE
  5
523
100
AcDbEntity
  8
0
  6
CONTINUOUS
 62
               7
100
AcDbLine
 10
162.09999999999999
 20
-175.0
 30
0.0
 11
162.09999999999999
 21
-195.0
 31
0.0
  0
LINE
  5
524
100
AcDbEntity
  8
0
  6
CONTINUOUS
 62
               7
100
AcDbLine
 10
162.09999999999999
 20
-175.0
 30
0.0
 11
282.10000000000002
 21
-175.0
 31
0.0
  0
LINE
  5
525
100
AcDbEntity
  8
0
  6
CONTINUOUS
 62
               7
100
AcDbLine
 10
162.09999999999999
 20
175.5
 30
0.0
 11
282.10000000000002
 21
175.5
 31
0.0
  0
LINE
  5
526
100
AcDbEntity
  8
0
  6
CONTINUOUS
 62
               7
100
AcDbLine
 10
-281.25
 20
175.5
 30
0.0
 11
-161.25
 21
175.5
 31
0.0
  0
LINE
  5
527
100
AcDbEntity
  8
0
  6
CONTINUOUS
 62
               7
100
AcDbLine
 10
162.09999999999999
 20
195.5
 30
0.0
 11
162.09999999999999
 21
175.5
 31
0.0
  0
LINE
  5
528
100
AcDbEntity
  8
0
  6
CONTINUOUS
 62
               7
100
AcDbLine
 10
-161.25
 20
195.5
 30
0.0
 11
-161.25
 21
175.5
 31
0.0
  0
LINE
  5
529
100
AcDbEntity
  8
0
  6
CONTINUOUS
 62
               7
100
AcDbLine
 10
-271.25
 20
-185.0
 30
0.0
 11
-171.25
 21
-185.0
 31
0.0
  0
LINE
  5
52A
100
AcDbEntity
  8
0
  6
CONTINUOUS
 62
               7
100
AcDbLine
 10
-271.25
 20
-177.0
 30
0.0
 11
-171.25
 21
-177.0
 31
0.0
  0
LINE
  5
52B
100
AcDbEntity
  8
0
  6
CONTINUOUS
 62
               7
100
AcDbLine
 10
-271.25
 20
-169.0
 30
0.0
 11
-171.25
 21
-169.0
 31
0.0
  0
LINE
  5
52C
100
AcDbEntity
  8
0
  6
CONTINUOUS
 62
               7
100
AcDbLine
 10
-271.25
 20
-161.0
 30
0.0
 11
-171.25
 21
-161.0
 31
0.0
  0
LINE
  5
52D
100
AcDbEntity
  8
0
  6
CONTINUOUS
 62
               7
100
AcDbLine
 10
-271.25
 20
-153.0
 30
0.0
 11
-171.25
 21
-153.0
 31
0.0
  0
LINE
  5
52E
100
AcDbEntity
  8
0
  6
CONTINUOUS
 62
               7
100
AcDbLine
 10
-271.25
 20
-145.0
 30
0.0
 11
-171.25
 21
-145.0
 31
0.0
  0
LINE
  5
52F
100
AcDbEntity
  8
0
  6
CONTINUOUS
 62
               7
100
AcDbLine
 10
-271.25
 20
-137.0
 30
0.0
 11
-171.25
 21
-137.0
 31
0.0
  0
LINE
  5
530
100
AcDbEntity
  8
0
  6
CONTINUOUS
 62
               7
100
AcDbLine
 10
-271.25
 20
-129.0
 30
0.0
 11
-171.25
 21
-129.0
 31
0.0
  0
LINE
  5
531
100
AcDbEntity
  8
0
  6
CONTINUOUS
 62
               7
100
AcDbLine
 10
-271.25
 20
-121.0
 30
0.0
 11
-171.25
 21
-121.0
 31
0.0
  0
LINE
  5
532
100
AcDbEntity
  8
0
  6
CONTINUOUS
 62
               7
100
AcDbLine
 10
-271.25
 20
-113.0
 30
0.0
 11
-171.25
 21
-113.0
 31
0.0
  0
LINE
  5
533
100
AcDbEntity
  8
0
  6
CONTINUOUS
 62
               7
100
AcDbLine
 10
-271.25
 20
-105.0
 30
0.0
 11
-171.25
 21
-105.0
 31
0.0
  0
LINE
  5
534
100
AcDbEntity
  8
0
  6
CONTINUOUS
 62
               7
100
AcDbLine
 10
-271.25
 20
-97.0
 30
0.0
 11
-171.25
 21
-97.0
 31
0.0
  0
LINE
  5
535
100
AcDbEntity
  8
0
  6
CONTINUOUS
 62
               7
100
AcDbLine
 10
-271.25
 20
-89.0
 30
0.0
 11
-171.25
 21
-89.0
 31
0.0
  0
LINE
  5
536
100
AcDbEntity
  8
0
  6
CONTINUOUS
 62
               7
100
AcDbLine
 10
-271.25
 20
-81.0
 30
0.0
 11
-171.25
 21
-81.0
 31
0.0
  0
LINE
  5
537
100
AcDbEntity
  8
0
  6
CONTINUOUS
 62
               7
100
AcDbLine
 10
-271.25
 20
-73.0
 30
0.0
 11
-171.25
 21
-73.0
 31
0.0
  0
LINE
  5
538
100
AcDbEntity
  8
0
  6
CONTINUOUS
 62
               7
100
AcDbLine
 10
-271.25
 20
-65.0
 30
0.0
 11
-171.25
 21
-65.0
 31
0.0
  0
LINE
  5
539
100
AcDbEntity
  8
0
  6
CONTINUOUS
 62
               7
100
AcDbLine
 10
-271.25
 20
-57.0
 30
0.0
 11
-171.25
 21
-57.0
 31
0.0
  0
LINE
  5
53A
100
AcDbEntity
  8
0
  6
CONTINUOUS
 62
               7
100
AcDbLine
 10
-271.25
 20
-49.0
 30
0.0
 11
-171.25
 21
-49.0
 31
0.0
  0
LINE
  5
53B
100
AcDbEntity
  8
0
  6
CONTINUOUS
 62
               7
100
AcDbLine
 10
-271.25
 20
-41.0
 30
0.0
 11
-171.25
 21
-41.0
 31
0.0
  0
LINE
  5
53C
100
AcDbEntity
  8
0
  6
CONTINUOUS
 62
               7
100
AcDbLine
 10
-271.25
 20
-33.0
 30
0.0
 11
-171.25
 21
-33.0
 31
0.0
  0
LINE
  5
53D
100
AcDbEntity
  8
0
  6
CONTINUOUS
 62
               7
100
AcDbLine
 10
-271.25
 20
-25.0
 30
0.0
 11
-171.25
 21
-25.0
 31
0.0
  0
LINE
  5
53E
100
AcDbEntity
  8
0
  6
CONTINUOUS
 62
               7
100
AcDbLine
 10
-231.25
 20
-25.0
 30
0.0
 11
-231.25
 21
-185.0
 31
0.0
  0
LINE
  5
53F
100
AcDbEntity
  8
0
  6
CONTINUOUS
 62
               7
100
AcDbLine
 10
-271.25
 20
-25.0
 30
0.0
 11
-271.25
 21
-185.0
 31
0.0
  0
LINE
  5
540
100
AcDbEntity
  8
0
  6
CONTINUOUS
 62
               7
100
AcDbLine
 10
-281.25
 20
-195.0
 30
0.0
 11
-281.25
 21
195.5
 31
0.0
  0
LINE
  5
541
100
AcDbEntity
  8
0
  6
CONTINUOUS
 62
               7
100
AcDbLine
 10
-201.25
 20
-25.0
 30
0.0
 11
-201.25
 21
-185.0
 31
0.0
  0
LINE
  5
542
100
AcDbEntity
  8
0
  6
CONTINUOUS
 62
               7
100
AcDbLine
 10
-171.25
 20
-25.0
 30
0.0
 11
-171.25
 21
-185.0
 31
0.0
  0
LINE
  5
543
100
AcDbEntity
  8
0
  6
CONTINUOUS
 62
               7
100
AcDbLine
 10
94.310000000000002
 20
195.5
 30
0.0
 11
94.310000000000002
 21
-195.0
 31
0.0
  0
LINE
  5
544
100
AcDbEntity
  8
0
  6
CONTINUOUS
 62
               7
100
AcDbLine
 10
94.310000000000002
 20
0.25
 30
0.0
 11
282.10000000000002
 21
0.25
 31
0.0
  0
LINE
  5
545
100
AcDbEntity
  8
0
  6
CONTINUOUS
 62
               7
100
AcDbLine
 10
141.09999999999999
 20
-102.2
 30
0.0
 11
168.09999999999999
 21
-102.2
 31
0.0
  0
LINE
  5
546
100
AcDbEntity
  8
0
  6
CONTINUOUS
 62
               7
100
AcDbLine
 10
226.59999999999999
 20
-102.2
 30
0.0
 11
236.59999999999999
 21
-102.2
 31
0.0
  0
LINE
  5
547
100
AcDbEntity
  8
0
  6
CONTINUOUS
 62
               7
100
AcDbLine
 10
220.25
 20
121.81
 30
0.0
 11
230.25
 21
121.81
 31
0.0
  0
LINE
  5
548
100
AcDbEntity
  8
0
  6
CONTINUOUS
 62
               7
100
AcDbLine
 10
129.55000000000001
 20
121.81
 30
0.0
 11
161.15000000000001
 21
121.81
 31
0.0
  0
MTEXT
  5
549
100
AcDbEntity
  8
0
  6
CONTINUOUS
 62
               7
100
AcDbMText
 10
201.30997488927844
 20
185.5
 30
0.0
 40
6.3000001907348633
 41
0.0
 71
               4
 72
               1
  1
\W1.200;\A1;Ver.3.0
  0
MTEXT
  5
54A
100
AcDbEntity
  8
0
  6
CONTINUOUS
 62
               7
100
AcDbMText
 10
170.28099805280428
 20
-185.0
 30
0.0
 40
9.0
 41
0.0
 71
               4
 72
               1
  1
\W1.121;\A1;KOGANEI CORP.
  0
MTEXT
  5
54B
100
AcDbEntity
  8
0
  6
CONTINUOUS
 62
               7
100
AcDbMText
 10
-251.55228199356
 20
185.5
 30
0.0
 40
6.3000001907348633
 41
0.0
 71
               4
 72
               1
  1
\W1.141;\A1;F10 SERIES
  0
MTEXT
  5
54C
100
AcDbEntity
  8
0
  6
CONTINUOUS
 62
               7
100
AcDbMText
 10
-268.24647936344394
 20
160.5
 30
0.0
 40
6.3000001907348633
 41
0.0
 71
               4
 72
               1
  1
\W1.099;\A1;MODEL:F10M4AJ
  0
MTEXT
  5
54D
100
AcDbEntity
  8
0
  6
CONTINUOUS
 62
               7
100
AcDbMText
 10
-259.5
 20
-29.0
 30
0.0
 40
4.5
 41
0.0
 71
               4
 72
               1
  1
\A1;TYPE
  0
MTEXT
  5
54E
100
AcDbEntity
  8
0
  6
CONTINUOUS
 62
               7
100
AcDbMText
 10
-251.91666665578606
 20
-21.0
 30
0.0
 40
4.5
 41
0.0
 71
               4
 72
               1
  1
\W1.111;\A1;DIMENSION LIST
  0
MTEXT
  5
54F
100
AcDbEntity
  8
0
  6
CONTINUOUS
 62
               7
100
AcDbMText
 10
-217.75
 20
-29.0
 30
0.0
 40
4.5
 41
0.0
 71
               4
 72
               1
  1
\A1;L
  0
MTEXT
  5
550
100
AcDbEntity
  8
0
  6
CONTINUOUS
 62
               7
100
AcDbMText
 10
-187.75
 20
-29.0
 30
0.0
 40
4.5
 41
0.0
 71
               4
 72
               1
  1
\A1;P
  0
MTEXT
  5
551
100
AcDbEntity
  8
0
  6
CONTINUOUS
 62
               7
100
AcDbMText
 10
-222.1000000411272
 20
-37.0
 30
0.0
 40
4.5
 41
0.0
 71
               4
 72
               1
  1
\W1.200;\A1;38.5
  0
MTEXT
  5
552
100
AcDbEntity
  8
0
  6
CONTINUOUS
 62
               7
100
AcDbMText
 10
-222.25
 20
-45.0
 30
0.0
 40
4.5
 41
0.0
 71
               4
 72
               1
  1
\A1;49
  0
MTEXT
  5
553
100
AcDbEntity
  8
0
  6
CONTINUOUS
 62
               7
100
AcDbMText
 10
-222.1000000411272
 20
-53.0
 30
0.0
 40
4.5
 41
0.0
 71
               4
 72
               1
  1
\W1.200;\A1;59.5
  0
MTEXT
  5
554
100
AcDbEntity
  8
0
  6
CONTINUOUS
 62
               7
100
AcDbMText
 10
-222.18181817221173
 20
-61.0
 30
0.0
 40
4.5
 41
0.0
 71
               4
 72
               1
  1
\W1.091;\A1;70
  0
MTEXT
  5
555
100
AcDbEntity
  8
0
  6
CONTINUOUS
 62
               7
100
AcDbMText
 10
-222.05263161692301
 20
-69.0
 30
0.0
 40
4.5
 41
0.0
 71
               4
 72
               1
  1
\W1.263;\A1;80.5
  0
MTEXT
  5
556
100
AcDbEntity
  8
0
  6
CONTINUOUS
 62
               7
100
AcDbMText
 10
-222.10000005722048
 20
-77.0
 30
0.0
 40
4.5
 41
0.0
 71
               4
 72
               1
  1
\W1.200;\A1;91
  0
MTEXT
  5
557
100
AcDbEntity
  8
0
  6
CONTINUOUS
 62
               7
100
AcDbMText
 10
-226.42857147946111
 20
-85.0
 30
0.0
 40
4.5
 41
0.0
 71
               4
 72
               1
  1
\W1.429;\A1;101.5
  0
MTEXT
  5
558
100
AcDbEntity
  8
0
  6
CONTINUOUS
 62
               7
100
AcDbMText
 10
-226.53571434410617
 20
-93.0
 30
0.0
 40
4.5
 41
0.0
 71
               4
 72
               1
  1
\W1.286;\A1;112
  0
MTEXT
  5
559
100
AcDbEntity
  8
0
  6
CONTINUOUS
 62
               7
100
AcDbMText
 10
-226.56250001396984
 20
-101.0
 30
0.0
 40
4.5
 41
0.0
 71
               4
 72
               1
  1
\W1.250;\A1;122.5
  0
MTEXT
  5
55A
100
AcDbEntity
  8
0
  6
CONTINUOUS
 62
               7
100
AcDbMText
 10
-226.65625001257285
 20
-109.0
 30
0.0
 40
4.5
 41
0.0
 71
               4
 72
               1
  1
\W1.125;\A1;133
  0
MTEXT
  5
55B
100
AcDbEntity
  8
0
  6
CONTINUOUS
 62
               7
100
AcDbMText
 10
-226.56250001396984
 20
-117.0
 30
0.0
 40
4.5
 41
0.0
 71
               4
 72
               1
  1
\W1.250;\A1;143.5
  0
MTEXT
  5
55C
100
AcDbEntity
  8
0
  6
CONTINUOUS
 62
               7
100
AcDbMText
 10
-226.65625001257285
 20
-125.0
 30
0.0
 40
4.5
 41
0.0
 71
               4
 72
               1
  1
\W1.125;\A1;154
  0
MTEXT
  5
55D
100
AcDbEntity
  8
0
  6
CONTINUOUS
 62
               7
100
AcDbMText
 10
-226.56250001396984
 20
-133.0
 30
0.0
 40
4.5
 41
0.0
 71
               4
 72
               1
  1
\W1.250;\A1;164.5
  0
MTEXT
  5
55E
100
AcDbEntity
  8
0
  6
CONTINUOUS
 62
               7
100
AcDbMText
 10
-226.65625001257285
 20
-141.0
 30
0.0
 40
4.5
 41
0.0
 71
               4
 72
               1
  1
\W1.125;\A1;175
  0
MTEXT
  5
55F
100
AcDbEntity
  8
0
  6
CONTINUOUS
 62
               7
100
AcDbMText
 10
-226.56250001396984
 20
-149.0
 30
0.0
 40
4.5
 41
0.0
 71
               4
 72
               1
  1
\W1.250;\A1;185.5
  0
MTEXT
  5
560
100
AcDbEntity
  8
0
  6
CONTINUOUS
 62
               7
100
AcDbMText
 10
-226.65625001257285
 20
-157.0
 30
0.0
 40
4.5
 41
0.0
 71
               4
 72
               1
  1
\W1.125;\A1;196
  0
MTEXT
  5
561
100
AcDbEntity
  8
0
  6
CONTINUOUS
 62
               7
100
AcDbMText
 10
-226.60000003147127
 20
-165.0
 30
0.0
 40
4.5
 41
0.0
 71
               4
 72
               1
  1
\W1.200;\A1;206.5
  0
MTEXT
  5
562
100
AcDbEntity
  8
0
  6
CONTINUOUS
 62
               7
100
AcDbMText
 10
-226.65625001257285
 20
-173.0
 30
0.0
 40
4.5
 41
0.0
 71
               4
 72
               1
  1
\W1.125;\A1;217
  0
MTEXT
  5
563
100
AcDbEntity
  8
0
  6
CONTINUOUS
 62
               7
100
AcDbMText
 10
-226.63461535648861
 20
-181.0
 30
0.0
 40
4.5
 41
0.0
 71
               4
 72
               1
  1
\W1.154;\A1;227.5
  0
MTEXT
  5
564
100
AcDbEntity
  8
0
  6
CONTINUOUS
 62
               7
100
AcDbMText
 10
-192.05263161692301
 20
-37.0
 30
0.0
 40
4.5
 41
0.0
 71
               4
 72
               1
  1
\W1.263;\A1;30.5
  0
MTEXT
  5
565
100
AcDbEntity
  8
0
  6
CONTINUOUS
 62
               7
100
AcDbMText
 10
-192.10000005722048
 20
-45.0
 30
0.0
 40
4.5
 41
0.0
 71
               4
 72
               1
  1
\W1.200;\A1;41
  0
MTEXT
  5
566
100
AcDbEntity
  8
0
  6
CONTINUOUS
 62
               7
100
AcDbMText
 10
-192.0000000529794
 20
-53.0
 30
0.0
 40
4.5
 41
0.0
 71
               4
 72
               1
  1
\W1.333;\A1;51.5
  0
MTEXT
  5
567
100
AcDbEntity
  8
0
  6
CONTINUOUS
 62
               7
100
AcDbMText
 10
-192.25
 20
-61.0
 30
0.0
 40
4.5
 41
0.0
 71
               4
 72
               1
  1
\A1;62
  0
MTEXT
  5
568
100
AcDbEntity
  8
0
  6
CONTINUOUS
 62
               7
100
AcDbMText
 10
-192.1000000411272
 20
-69.0
 30
0.0
 40
4.5
 41
0.0
 71
               4
 72
               1
  1
\W1.200;\A1;72.5
  0
MTEXT
  5
569
100
AcDbEntity
  8
0
  6
CONTINUOUS
 62
               7
100
AcDbMText
 10
-192.25
 20
-77.0
 30
0.0
 40
4.5
 41
0.0
 71
               4
 72
               1
  1
\A1;83
  0
MTEXT
  5
56A
100
AcDbEntity
  8
0
  6
CONTINUOUS
 62
               7
100
AcDbMText
 10
-192.1000000411272
 20
-85.0
 30
0.0
 40
4.5
 41
0.0
 71
               4
 72
               1
  1
\W1.200;\A1;93.5
  0
MTEXT
  5
56B
100
AcDbEntity
  8
0
  6
CONTINUOUS
 62
               7
100
AcDbMText
 10
-196.60000003576278
 20
-93.0
 30
0.0
 40
4.5
 41
0.0
 71
               4
 72
               1
  1
\W1.200;\A1;104
  0
MTEXT
  5
56C
100
AcDbEntity
  8
0
  6
CONTINUOUS
 62
               7
100
AcDbMText
 10
-196.47727279020611
 20
-101.0
 30
0.0
 40
4.5
 41
0.0
 71
               4
 72
               1
  1
\W1.364;\A1;114.5
  0
MTEXT
  5
56D
100
AcDbEntity
  8
0
  6
CONTINUOUS
 62
               7
100
AcDbMText
 10
-196.65625001257285
 20
-109.0
 30
0.0
 40
4.5
 41
0.0
 71
               4
 72
               1
  1
\W1.125;\A1;125
  0
MTEXT
  5
56E
100
AcDbEntity
  8
0
  6
CONTINUOUS
 62
               7
100
AcDbMText
 10
-196.56250001396984
 20
-117.0
 30
0.0
 40
4.5
 41
0.0
 71
               4
 72
               1
  1
\W1.250;\A1;135.5
  0
MTEXT
  5
56F
100
AcDbEntity
  8
0
  6
CONTINUOUS
 62
               7
100
AcDbMText
 10
-196.65625001257285
 20
-125.0
 30
0.0
 40
4.5
 41
0.0
 71
               4
 72
               1
  1
\W1.125;\A1;146
  0
MTEXT
  5
570
100
AcDbEntity
  8
0
  6
CONTINUOUS
 62
               7
100
AcDbMText
 10
-196.56250001396984
 20
-133.0
 30
0.0
 40
4.5
 41
0.0
 71
               4
 72
               1
  1
\W1.250;\A1;156.5
  0
MTEXT
  5
571
100
AcDbEntity
  8
0
  6
CONTINUOUS
 62
               7
100
AcDbMText
 10
-196.65625001257285
 20
-141.0
 30
0.0
 40
4.5
 41
0.0
 71
               4
 72
               1
  1
\W1.125;\A1;167
  0
MTEXT
  5
572
100
AcDbEntity
  8
0
  6
CONTINUOUS
 62
               7
100
AcDbMText
 10
-196.56250001396984
 20
-149.0
 30
0.0
 40
4.5
 41
0.0
 71
               4
 72
               1
  1
\W1.250;\A1;177.5
  0
MTEXT
  5
573
100
AcDbEntity
  8
0
  6
CONTINUOUS
 62
               7
100
AcDbMText
 10
-196.65625001257285
 20
-157.0
 30
0.0
 40
4.5
 41
0.0
 71
               4
 72
               1
  1
\W1.125;\A1;188
  0
MTEXT
  5
574
100
AcDbEntity
  8
0
  6
CONTINUOUS
 62
               7
100
AcDbMText
 10
-196.56250001396984
 20
-165.0
 30
0.0
 40
4.5
 41
0.0
 71
               4
 72
               1
  1
\W1.250;\A1;198.5
  0
MTEXT
  5
575
100
AcDbEntity
  8
0
  6
CONTINUOUS
 62
               7
100
AcDbMText
 10
-196.70588234180306
 20
-173.0
 30
0.0
 40
4.5
 41
0.0
 71
               4
 72
               1
  1
\W1.059;\A1;209
  0
MTEXT
  5
576
100
AcDbEntity
  8
0
  6
CONTINUOUS
 62
               7
100
AcDbMText
 10
-196.56250001396984
 20
-181.0
 30
0.0
 40
4.5
 41
0.0
 71
               4
 72
               1
  1
\W1.250;\A1;219.5
  0
MTEXT
  5
577
100
AcDbEntity
  8
0
  6
CONTINUOUS
 62
               7
100
AcDbMText
 10
-268.4318181855125
 20
-181.0
 30
0.0
 40
4.5
 41
0.0
 71
               4
 72
               1
  1
\W1.091;\A1;F10M20AJ
  0
MTEXT
  5
578
100
AcDbEntity
  8
0
  6
CONTINUOUS
 62
               7
100
AcDbMText
 10
-263.94230771599672
 20
-37.0
 30
0.0
 40
4.5
 41
0.0
 71
               4
 72
               1
  1
\W1.077;\A1;F10M2AJ
  0
MTEXT
  5
579
100
AcDbEntity
  8
0
  6
CONTINUOUS
 62
               7
100
AcDbMText
 10
-263.94230771599672
 20
-45.0
 30
0.0
 40
4.5
 41
0.0
 71
               4
 72
               1
  1
\W1.077;\A1;F10M3AJ
  0
MTEXT
  5
57A
100
AcDbEntity
  8
0
  6
CONTINUOUS
 62
               7
100
AcDbMText
 10
-263.94230771599672
 20
-53.0
 30
0.0
 40
4.5
 41
0.0
 71
               4
 72
               1
  1
\W1.077;\A1;F10M4AJ
  0
MTEXT
  5
57B
100
AcDbEntity
  8
0
  6
CONTINUOUS
 62
               7
100
AcDbMText
 10
-263.94230771599672
 20
-61.0
 30
0.0
 40
4.5
 41
0.0
 71
               4
 72
               1
  1
\W1.077;\A1;F10M5AJ
  0
MTEXT
  5
57C
100
AcDbEntity
  8
0
  6
CONTINUOUS
 62
               7
100
AcDbMText
 10
-263.94230771599672
 20
-69.0
 30
0.0
 40
4.5
 41
0.0
 71
               4
 72
               1
  1
\W1.077;\A1;F10M6AJ
  0
MTEXT
  5
57D
100
AcDbEntity
  8
0
  6
CONTINUOUS
 62
               7
100
AcDbMText
 10
-263.94230771599672
 20
-77.0
 30
0.0
 40
4.5
 41
0.0
 71
               4
 72
               1
  1
\W1.077;\A1;F10M7AJ
  0
MTEXT
  5
57E
100
AcDbEntity
  8
0
  6
CONTINUOUS
 62
               7
100
AcDbMText
 10
-263.94230771599672
 20
-85.0
 30
0.0
 40
4.5
 41
0.0
 71
               4
 72
               1
  1
\W1.077;\A1;F10M8AJ
  0
MTEXT
  5
57F
100
AcDbEntity
  8
0
  6
CONTINUOUS
 62
               7
100
AcDbMText
 10
-263.94230771599672
 20
-93.0
 30
0.0
 40
4.5
 41
0.0
 71
               4
 72
               1
  1
\W1.077;\A1;F10M9AJ
  0
MTEXT
  5
580
100
AcDbEntity
  8
0
  6
CONTINUOUS
 62
               7
100
AcDbMText
 10
-268.39285711589315
 20
-101.0
 30
0.0
 40
4.5
 41
0.0
 71
               4
 72
               1
  1
\W1.143;\A1;F10M10AJ
  0
MTEXT
  5
581
100
AcDbEntity
  8
0
  6
CONTINUOUS
 62
               7
100
AcDbMText
 10
-268.37195120355733
 20
-109.0
 30
0.0
 40
4.5
 41
0.0
 71
               4
 72
               1
  1
\W1.171;\A1;F10M11AJ
  0
MTEXT
  5
582
100
AcDbEntity
  8
0
  6
CONTINUOUS
 62
               7
100
AcDbMText
 10
-268.41279080697052
 20
-117.0
 30
0.0
 40
4.5
 41
0.0
 71
               4
 72
               1
  1
\W1.116;\A1;F10M12AJ
  0
MTEXT
  5
583
100
AcDbEntity
  8
0
  6
CONTINUOUS
 62
               7
100
AcDbMText
 10
-268.41279080697052
 20
-125.0
 30
0.0
 40
4.5
 41
0.0
 71
               4
 72
               1
  1
\W1.116;\A1;F10M13AJ
  0
MTEXT
  5
584
100
AcDbEntity
  8
0
  6
CONTINUOUS
 62
               7
100
AcDbMText
 10
-268.41279080697052
 20
-133.0
 30
0.0
 40
4.5
 41
0.0
 71
               4
 72
               1
  1
\W1.116;\A1;F10M14AJ
  0
MTEXT
  5
585
100
AcDbEntity
  8
0
  6
CONTINUOUS
 62
               7
100
AcDbMText
 10
-268.41279080697052
 20
-141.0
 30
0.0
 40
4.5
 41
0.0
 71
               4
 72
               1
  1
\W1.116;\A1;F10M15AJ
  0
MTEXT
  5
586
100
AcDbEntity
  8
0
  6
CONTINUOUS
 62
               7
100
AcDbMText
 10
-268.41279080697052
 20
-149.0
 30
0.0
 40
4.5
 41
0.0
 71
               4
 72
               1
  1
\W1.116;\A1;F10M16AJ
  0
MTEXT
  5
587
100
AcDbEntity
  8
0
  6
CONTINUOUS
 62
               7
100
AcDbMText
 10
-268.41279080697052
 20
-157.0
 30
0.0
 40
4.5
 41
0.0
 71
               4
 72
               1
  1
\W1.116;\A1;F10M17AJ
  0
MTEXT
  5
588
100
AcDbEntity
  8
0
  6
CONTINUOUS
 62
               7
100
AcDbMText
 10
-268.41279080697052
 20
-165.0
 30
0.0
 40
4.5
 41
0.0
 71
               4
 72
               1
  1
\W1.116;\A1;F10M18AJ
  0
MTEXT
  5
589
100
AcDbEntity
  8
0
  6
CONTINUOUS
 62
               7
100
AcDbMText
 10
-268.41279080697052
 20
-173.0
 30
0.0
 40
4.5
 41
0.0
 71
               4
 72
               1
  1
\W1.116;\A1;F10M19AJ
  0
MTEXT
  5
58A
100
AcDbEntity
  8
0
  6
CONTINUOUS
 62
               7
100
AcDbMText
 10
107.32717668646974
 20
160.5
 30
0.0
 40
6.3000001907348633
 41
0.0
 71
               4
 72
               1
  1
\W1.105;\A1;MODEL:M
  0
MTEXT
  5
58B
100
AcDbEntity
  8
0
  6
CONTINUOUS
 62
               7
100
AcDbMText
 10
107.30065028182506
 20
-14.75
 30
0.0
 40
6.3000001907348633
 41
0.0
 71
               4
 72
               1
  1
\W1.080;\A1;MODEL:-PL
  0
DIMENSION
  5
5A0
100
AcDbEntity
  8
0
  6
CONTINUOUS
 62
               2
100
AcDbDimension
  2
*D8
 10
-30.0
 20
144.19296264648437
 30
0.0
 11
-40.079370498657227
 21
144.19296264648437
 31
0.0
 70
             128
  1
<>
  3
MXDIMSTYLE
100
AcDbAlignedDimension
 13
-34.0
 23
79.5
 33
0.0
 14
-30.0
 24
54.25
 34
0.0
100
AcDbRotatedDimension
1001
ACAD
1000
DSTYLE
1002
{
1070
               6
1000
_OPEN30
1070
               7
1000
_OPEN30
1070
              41
1040
2.77
1070
              42
1040
0.0
1070
              75
1070
               1
1070
             140
1040
4.5
1070
             173
1070
               1
1070
             271
1070
               0
1070
             284
1070
               8
1070
             341
1005
593
1002
}
  0
DIMENSION
  5
5AC
100
AcDbEntity
  8
0
  6
CONTINUOUS
 62
               2
100
AcDbDimension
  2
*D10
 10
21.5
 20
144.19296264648437
 30
0.0
 11
-4.25
 21
144.19296264648437
 31
0.0
 70
             128
  1
P
  3
MXDIMSTYLE
100
AcDbAlignedDimension
 13
-30.0
 23
59.25
 33
0.0
 14
21.5
 24
54.25
 34
0.0
100
AcDbRotatedDimension
1001
ACAD
1000
DSTYLE
1002
{
1070
               6
1000
_OPEN30
1070
               7
1000
_OPEN30
1070
              41
1040
2.77
1070
              42
1040
0.0
1070
              75
1070
               1
1070
              78
1070
               0
1070
             140
1040
4.5
1070
             173
1070
               1
1070
             271
1070
               0
1070
             341
1005
593
1002
}
  0
DIMENSION
  5
5BA
100
AcDbEntity
  8
0
  6
CONTINUOUS
 62
               2
100
AcDbDimension
  2
*D11
 10
25.5
 20
144.19296264648437
 30
0.0
 11
31.591526031494141
 21
144.19296264648437
 31
0.0
 70
             128
  1
<>
  3
MXDIMSTYLE
100
AcDbAlignedDimension
 13
21.5
 23
59.25
 33
0.0
 14
25.5
 24
79.5
 34
0.0
100
AcDbRotatedDimension
1001
ACAD
1000
DSTYLE
1002
{
1070
               6
1000
_OPEN30
1070
               7
1000
_OPEN30
1070
              41
1040
2.77
1070
              75
1070
               1
1070
              76
1070
               1
1070
             140
1040
4.5
1070
             173
1070
               1
1070
             271
1070
               0
1070
             284
1070
               8
1070
             341
1005
593
1002
}
  0
DIMENSION
  5
5C7
100
AcDbEntity
  8
0
  6
CONTINUOUS
 62
               2
100
AcDbDimension
  2
*D12
 10
25.5
 20
154.19296264648437
 30
0.0
 11
-4.25
 21
154.19296264648437
 31
0.0
 70
             128
  1
L
  3
MXDIMSTYLE
100
AcDbAlignedDimension
 13
-34.0
 23
74.5
 33
0.0
 14
25.5
 24
74.5
 34
0.0
100
AcDbRotatedDimension
1001
ACAD
1000
DSTYLE
1002
{
1070
               6
1000
_OPEN30
1070
               7
1000
_OPEN30
1070
              41
1040
2.77
1070
              78
1070
               0
1070
             140
1040
4.5
1070
             173
1070
               1
1070
             271
1070
               0
1070
             341
1005
593
1002
}
  0
MTEXT
  5
5C8
100
AcDbEntity
  8
0
  6
CONTINUOUS
 62
               2
100
AcDbMText
 10
-79.401785422899891
 20
-48.054458528757095
 30
0.0
 40
4.5
 41
0.0
 71
               7
 72
               1
  1
\W1.119;\A1;F10T1-A1-PS
  0
MTEXT
  5
5C9
100
AcDbEntity
  8
0
  6
CONTINUOUS
 62
               2
100
AcDbMText
 10
1.8565765616874703
 20
-48.054458528757095
 30
0.0
 40
4.5
 41
0.0
 71
               7
 72
               1
  1
\W1.082;\A1;F10T2-A1-PS
  0
MTEXT
  5
5CA
100
AcDbEntity
  8
0
  6
CONTINUOUS
 62
               2
100
AcDbMText
 10
7.6800256965141305
 20
-56.714752107858658
 30
0.0
 40
4.5
 41
0.0
 71
               7
 72
               1
  1
\W1.082;\A1;F10T3-A1-PS
  0
MTEXT
  5
5CB
100
AcDbEntity
  8
0
  6
CONTINUOUS
 62
               2
100
AcDbMText
 10
17.513097146043069
 20
-83.114776521921158
 30
0.0
 40
4.5
 41
0.0
 71
               7
 72
               1
  1
\W1.111;\A1;F10BP
  0
ENDSEC
  0
SECTION
  2
OBJECTS
  0
DICTIONARY
  5
19
100
AcDbDictionary
  3
ACAD_GROUP
350
1A
  3
ACAD_MLINESTYLE
350
1B
  0
DICTIONARY
  5
1A
102
{ACAD_REACTORS
330
19
102
}
100
AcDbDictionary
  0
DICTIONARY
  5
1B
102
{ACAD_REACTORS
330
19
102
}
100
AcDbDictionary
  3
STANDARD
350
1C
  0
MLINESTYLE
  5
1C
102
{ACAD_REACTORS
330
1B
102
}
100
AcDbMlineStyle
  2
Standard
 70
               0
  3

 62
               0
 51
90.0
 52
90.0
 71
               2
 49
0.5
 62
             256
  6
ByLayer
 49
-0.5
 62
             256
  6
ByLayer
  0
ENDSEC
  0
EOF
