  0
SECTION
  2
HEADER
  9
$ACADVER
  1
AC1003
  9
$EXTMIN
 10
-3.99250000E+02
 20
-2.76750000E+02
  9
$EXTMAX
 10
3.99799805E+02
 20
2.76250000E+02
  9
$LIMMIN
 10
-3.99251000E+02
 20
-2.76751000E+02
  9
$LIMMAX
 10
3.99800805E+02
 20
2.76251000E+02
  9
$SNAPUNIT
 10
1
 20
1
  9
$SNAPBASE
 10
0
 20
0
  9
$GRIDMODE
 70
0
  9
$GRIDUNIT
 10
0
 20
0
  9
$LTSCALE
 40
1.33174967E+01
  9
$TEXTSIZE
 40
3.2
  9
$DIMTAD
 70
0
  9
$LUNITS
 70
2
  9
$LUPREC
 70
4
  9
$FILLETRAD
 40
0
  9
$AUNITS
 70
0
  9
$AUPREC
 70
0
  0
ENDSEC
  0
SECTION
  2
TABLES
  0
TABLE
  2
LTYPE
 70
2
  0
LTYPE
  2
CONTINUOUS
 70
64
  3
Solid-Line
 72
65
 73
0
 40
0
  0
LTYPE
  2
DASHED
 70
64
  3
DASHED
 72
65
 73
2
 40
.75
 49
.5
 49
-.25
  0
LTYPE
  2
HIDDEN
 70
64
  3
HIDDEN
 72
65
 73
2
 40
.375
 49
.25
 49
-.125
  0
LTYPE
  2
CENTER
 70
64
  3
CENTER
 72
65
 73
4
 40
2
 49
1.25
 49
-.25
 49
.25
 49
-.25
  0
LTYPE
  2
PHANTOM
 70
64
  3
PHANTOM
 72
65
 73
6
 40
2.5
 49
1.25
 49
-.25
 49
.25
 49
-.25
 49
.25
 49
-.25
  0
ENDTAB
  0
TABLE
  2
LAYER
 70
1
  0
LAYER
  2
1
 70
0
 62
7
  6
CONTINUOUS
 0
ENDTAB
  0
TABLE
  2
STYLE
 70
2
  0
STYLE
  2
MONOTXT
 70
0
 40
0
 41
1
 50
0
 71
0
 42
.2
  3
monotxt
  0
STYLE
  2
BIGFONT
 70
0
 40
0
 41
1
 50
0
 71
0
 42
.2
  3
txt
  4
bigfont
  0
ENDTAB
  0
ENDSEC
  0
SECTION
  2
BLOCKS
  0
BLOCK
  8
0
  2
ARROW
 70
10
 10
0
 20
0
  0
POLYLINE
  8
0
  6
CONTINUOUS
 62
0
 66
1
  0
VERTEX
  8
0
  6
CONTINUOUS
 62
0
 10
4.50534132E+00
 20
1.20720257E+00
  0
VERTEX
  8
0
  6
CONTINUOUS
 62
0
 10
0.0
 20
0.0
  0
VERTEX
  8
0
  6
CONTINUOUS
 62
0
 10
4.50534132E+00
 20
-1.20720257E+00
  0
SEQEND
  8
0
  0
ENDBLK
  8
0
  0
BLOCK
  8
0
  2
*D1
 70
1
 10
0.0
 20
0.0
  0
LINE
  8
0
 62
2
 10
-1.22860184E+02
 20
1.81766968E+01
 11
-1.27860184E+02
 21
1.81766968E+01
  0
LINE
  8
0
 62
2
 10
-1.22860184E+02
 20
5.18340416E+01
 11
-1.22860184E+02
 21
1.66766968E+01
  0
LINE
  8
0
 62
2
 10
-1.27860184E+02
 20
5.76340408E+01
 11
-1.27860184E+02
 21
1.66766968E+01
  0
INSERT
  8
0
  2
ARROW
  6
BYBLOCK
 62
2
 10
-1.22860184E+02
 20
1.81766968E+01
 41
1.00000000E+00
 42
1.00000000E+00
 50
0.00000000E+00
  0
INSERT
  8
0
  2
ARROW
  6
BYBLOCK
 62
2
 10
-1.27860184E+02
 20
1.81766968E+01
 41
1.00000000E+00
 42
1.00000000E+00
 50
1.80000000E+02
  0
TEXT
  8
0
 62
2
 10
-1.18318450E+02
 20
2.07516968E+01
 40
6.30000019E+00
  1
5
 41
1.00000000E+00
  7
MONOTXT
  0
POINT
  8
0
 62
2
 10
-1.22860184E+02
 20
5.18340416E+01
  0
POINT
  8
0
 62
2
 10
-1.27860184E+02
 20
5.76340408E+01
  0
POINT
  8
0
 62
2
 10
-1.27860184E+02
 20
1.81766968E+01
  0
LINE
  8
0
 62
2
 10
-1.22860184E+02
 20
1.81766968E+01
 11
-1.12707513E+02
 21
1.81766968E+01
  0
LINE
  8
0
 62
2
 10
-1.27860184E+02
 20
1.81766968E+01
 11
-1.28360184E+02
 21
1.81766968E+01
  0
ENDBLK
  8
0
  0
BLOCK
  8
0
  2
*D2
 70
1
 10
0.0
 20
0.0
  0
LINE
  8
0
 62
2
 10
-2.21860184E+02
 20
1.81766968E+01
 11
-2.26860184E+02
 21
1.81766968E+01
  0
LINE
  8
0
 62
2
 10
-2.21860184E+02
 20
5.76340408E+01
 11
-2.21860184E+02
 21
1.66766968E+01
  0
LINE
  8
0
 62
2
 10
-2.26860184E+02
 20
5.18340416E+01
 11
-2.26860184E+02
 21
1.66766968E+01
  0
INSERT
  8
0
  2
ARROW
  6
BYBLOCK
 62
2
 10
-2.21860184E+02
 20
1.81766968E+01
 41
1.00000000E+00
 42
1.00000000E+00
 50
0.00000000E+00
  0
INSERT
  8
0
  2
ARROW
  6
BYBLOCK
 62
2
 10
-2.26860184E+02
 20
1.81766968E+01
 41
1.00000000E+00
 42
1.00000000E+00
 50
1.80000000E+02
  0
TEXT
  8
0
 62
2
 10
-2.45102521E+02
 20
2.07516968E+01
 40
6.30000019E+00
  1
(5)
 41
1.00000000E+00
  7
MONOTXT
  0
POINT
  8
0
 62
2
 10
-2.21860184E+02
 20
5.76340408E+01
  0
POINT
  8
0
 62
2
 10
-2.26860184E+02
 20
5.18340416E+01
  0
POINT
  8
0
 62
2
 10
-2.26860184E+02
 20
1.81766968E+01
  0
LINE
  8
0
 62
2
 10
-2.45791584E+02
 20
1.81766968E+01
 11
-2.26860184E+02
 21
1.81766968E+01
  0
LINE
  8
0
 62
2
 10
-2.21860184E+02
 20
1.81766968E+01
 11
-2.21360184E+02
 21
1.81766968E+01
  0
ENDBLK
  8
0
  0
BLOCK
  8
0
  2
*D3
 70
1
 10
0.0
 20
0.0
  0
LINE
  8
0
 62
2
 10
-2.26860184E+02
 20
-4.20582428E+01
 11
-2.11360184E+02
 21
-4.20582428E+01
  0
LINE
  8
0
 62
2
 10
-2.26860184E+02
 20
-6.88659592E+01
 11
-2.26860184E+02
 21
-4.05582428E+01
  0
LINE
  8
0
 62
2
 10
-2.11360184E+02
 20
-6.88659592E+01
 11
-2.11360184E+02
 21
-4.05582428E+01
  0
INSERT
  8
0
  2
ARROW
  6
BYBLOCK
 62
2
 10
-2.26860184E+02
 20
-4.20582428E+01
 41
1.00000000E+00
 42
1.00000000E+00
 50
0.00000000E+00
  0
INSERT
  8
0
  2
ARROW
  6
BYBLOCK
 62
2
 10
-2.11360184E+02
 20
-4.20582428E+01
 41
1.00000000E+00
 42
1.00000000E+00
 50
1.80000000E+02
  0
TEXT
  8
0
 62
2
 10
-2.55525120E+02
 20
-3.94832428E+01
 40
6.30000019E+00
  1
15.5
 41
1.00000000E+00
  7
MONOTXT
  0
POINT
  8
0
 62
2
 10
-2.26860184E+02
 20
-6.88659592E+01
  0
POINT
  8
0
 62
2
 10
-2.11360184E+02
 20
-6.88659592E+01
  0
POINT
  8
0
 62
2
 10
-2.11360184E+02
 20
-4.20582428E+01
  0
LINE
  8
0
 62
2
 10
-2.26860184E+02
 20
-4.20582428E+01
 11
-2.56214182E+02
 21
-4.20582428E+01
  0
ENDBLK
  8
0
  0
BLOCK
  8
0
  2
*D4
 70
1
 10
0.0
 20
0.0
  0
LINE
  8
0
 62
2
 10
-2.11360184E+02
 20
-4.20582428E+01
 11
-1.89360184E+02
 21
-4.20582428E+01
  0
LINE
  8
0
 62
2
 10
-2.11360184E+02
 20
-6.88659592E+01
 11
-2.11360184E+02
 21
-4.05582428E+01
  0
LINE
  8
0
 62
2
 10
-1.89360184E+02
 20
-7.88686981E+01
 11
-1.89360184E+02
 21
-4.05582428E+01
  0
INSERT
  8
0
  2
ARROW
  6
BYBLOCK
 62
2
 10
-2.11360184E+02
 20
-4.20582428E+01
 41
1.00000000E+00
 42
1.00000000E+00
 50
0.00000000E+00
  0
INSERT
  8
0
  2
ARROW
  6
BYBLOCK
 62
2
 10
-1.89360184E+02
 20
-4.20582428E+01
 41
1.00000000E+00
 42
1.00000000E+00
 50
1.80000000E+02
  0
TEXT
  8
0
 62
2
 10
-2.02821122E+02
 20
-3.94832428E+01
 40
6.30000019E+00
  1
L
 41
1.00000000E+00
  7
MONOTXT
  0
TEXT
  8
0
 62
2
 10
-1.96521121E+02
 20
-4.04676175E+01
 40
3.15000010E+00
  1
1
 41
1.00000000E+00
  7
MONOTXT
  0
POINT
  8
0
 62
2
 10
-2.11360184E+02
 20
-6.88659592E+01
  0
POINT
  8
0
 62
2
 10
-1.89360184E+02
 20
-7.88686981E+01
  0
POINT
  8
0
 62
2
 10
-1.89360184E+02
 20
-4.20582428E+01
  0
ENDBLK
  8
0
  0
BLOCK
  8
0
  2
*D5
 70
1
 10
0.0
 20
0.0
  0
LINE
  8
0
 62
2
 10
-1.89360184E+02
 20
-4.20582428E+01
 11
-1.57360184E+02
 21
-4.20582428E+01
  0
LINE
  8
0
 62
2
 10
-1.89360184E+02
 20
-7.88686981E+01
 11
-1.89360184E+02
 21
-4.05582428E+01
  0
LINE
  8
0
 62
2
 10
-1.57360184E+02
 20
-7.88686981E+01
 11
-1.57360184E+02
 21
-4.05582428E+01
  0
INSERT
  8
0
  2
ARROW
  6
BYBLOCK
 62
2
 10
-1.89360184E+02
 20
-4.20582428E+01
 41
1.00000000E+00
 42
1.00000000E+00
 50
0.00000000E+00
  0
INSERT
  8
0
  2
ARROW
  6
BYBLOCK
 62
2
 10
-1.57360184E+02
 20
-4.20582428E+01
 41
1.00000000E+00
 42
1.00000000E+00
 50
1.80000000E+02
  0
TEXT
  8
0
 62
2
 10
-1.75821122E+02
 20
-3.94832428E+01
 40
6.30000019E+00
  1
L
 41
1.00000000E+00
  7
MONOTXT
  0
TEXT
  8
0
 62
2
 10
-1.69521121E+02
 20
-4.04676175E+01
 40
3.15000010E+00
  1
2
 41
1.00000000E+00
  7
MONOTXT
  0
POINT
  8
0
 62
2
 10
-1.89360184E+02
 20
-7.88686981E+01
  0
POINT
  8
0
 62
2
 10
-1.57360184E+02
 20
-7.88686981E+01
  0
POINT
  8
0
 62
2
 10
-1.57360184E+02
 20
-4.20582428E+01
  0
ENDBLK
  8
0
  0
BLOCK
  8
0
  2
*D6
 70
1
 10
0.0
 20
0.0
  0
LINE
  8
0
 62
2
 10
-1.57360184E+02
 20
-4.20582428E+01
 11
-1.38360184E+02
 21
-4.20582428E+01
  0
LINE
  8
0
 62
2
 10
-1.57360184E+02
 20
-7.88686981E+01
 11
-1.57360184E+02
 21
-4.05582428E+01
  0
LINE
  8
0
 62
2
 10
-1.38360184E+02
 20
-6.88632202E+01
 11
-1.38360184E+02
 21
-4.05582428E+01
  0
INSERT
  8
0
  2
ARROW
  6
BYBLOCK
 62
2
 10
-1.57360184E+02
 20
-4.20582428E+01
 41
1.00000000E+00
 42
1.00000000E+00
 50
0.00000000E+00
  0
INSERT
  8
0
  2
ARROW
  6
BYBLOCK
 62
2
 10
-1.38360184E+02
 20
-4.20582428E+01
 41
1.00000000E+00
 42
1.00000000E+00
 50
1.80000000E+02
  0
TEXT
  8
0
 62
2
 10
-1.50321122E+02
 20
-3.94832428E+01
 40
6.30000019E+00
  1
L
 41
1.00000000E+00
  7
MONOTXT
  0
TEXT
  8
0
 62
2
 10
-1.44021121E+02
 20
-4.04676175E+01
 40
3.15000010E+00
  1
3
 41
1.00000000E+00
  7
MONOTXT
  0
POINT
  8
0
 62
2
 10
-1.57360184E+02
 20
-7.88686981E+01
  0
POINT
  8
0
 62
2
 10
-1.38360184E+02
 20
-6.88632202E+01
  0
POINT
  8
0
 62
2
 10
-1.38360184E+02
 20
-4.20582428E+01
  0
ENDBLK
  8
0
  0
BLOCK
  8
0
  2
*D7
 70
1
 10
0.0
 20
0.0
  0
LINE
  8
0
 62
2
 10
-1.38360184E+02
 20
-4.20582428E+01
 11
-1.22860184E+02
 21
-4.20582428E+01
  0
LINE
  8
0
 62
2
 10
-1.38360184E+02
 20
-6.88632202E+01
 11
-1.38360184E+02
 21
-4.05582428E+01
  0
LINE
  8
0
 62
2
 10
-1.22860184E+02
 20
-6.88632202E+01
 11
-1.22860184E+02
 21
-4.05582428E+01
  0
INSERT
  8
0
  2
ARROW
  6
BYBLOCK
 62
2
 10
-1.38360184E+02
 20
-4.20582428E+01
 41
1.00000000E+00
 42
1.00000000E+00
 50
0.00000000E+00
  0
INSERT
  8
0
  2
ARROW
  6
BYBLOCK
 62
2
 10
-1.22860184E+02
 20
-4.20582428E+01
 41
1.00000000E+00
 42
1.00000000E+00
 50
1.80000000E+02
  0
TEXT
  8
0
 62
2
 10
-1.21716350E+02
 20
-3.94832428E+01
 40
6.30000019E+00
  1
15.5
 41
1.00000000E+00
  7
MONOTXT
  0
POINT
  8
0
 62
2
 10
-1.38360184E+02
 20
-6.88632202E+01
  0
POINT
  8
0
 62
2
 10
-1.22860184E+02
 20
-6.88632202E+01
  0
POINT
  8
0
 62
2
 10
-1.22860184E+02
 20
-4.20582428E+01
  0
LINE
  8
0
 62
2
 10
-9.72054119E+01
 20
-4.20582428E+01
 11
-1.22860184E+02
 21
-4.20582428E+01
  0
ENDBLK
  8
0
  0
ENDSEC
  0
SECTION
  2
ENTITIES
  0
LINE
  8
0
 62
7
 10
2.41639816E+02
 20
-1.97368698E+02
 11
2.41639816E+02
 21
-7.03686981E+01
  0
LINE
  8
0
 62
7
 10
1.68639816E+02
 20
-1.37671436E+02
 11
1.68889816E+02
 21
-1.37671436E+02
  0
LINE
  8
0
 62
7
 10
1.68639816E+02
 20
-9.66714401E+01
 11
1.68889816E+02
 21
-9.66714401E+01
  0
LINE
  8
0
 62
7
 10
1.68639816E+02
 20
-9.13714371E+01
 11
1.68889816E+02
 21
-9.13714371E+01
  0
LINE
  8
0
 62
7
 10
1.68639816E+02
 20
-8.03714371E+01
 11
1.68889816E+02
 21
-8.03714371E+01
  0
LINE
  8
0
 62
7
 10
1.54139816E+02
 20
-9.44686966E+01
 11
1.54139816E+02
 21
-1.21268700E+02
  0
LINE
  8
0
 62
7
 10
1.54139816E+02
 20
-9.44686966E+01
 11
1.52139816E+02
 21
-9.44686966E+01
  0
LINE
  8
0
 62
7
 10
1.54139816E+02
 20
-1.21268700E+02
 11
1.52139816E+02
 21
-1.21268700E+02
  0
LINE
  8
0
 62
7
 10
1.44139816E+02
 20
-9.78686981E+01
 11
1.44139816E+02
 21
-1.17868698E+02
  0
LINE
  8
0
 62
7
 10
1.44139818E+02
 20
-9.78686979E+01
 11
1.52139816E+02
 21
-9.49569367E+01
  0
LINE
  8
0
 62
7
 10
1.44139822E+02
 20
-1.17868699E+02
 11
1.52139821E+02
 21
-1.20780461E+02
  0
LINE
  8
0
 62
7
 10
1.52139816E+02
 20
-1.21268700E+02
 11
1.52139816E+02
 21
-9.44686966E+01
  0
LINE
  8
0
 62
7
 10
1.62139816E+02
 20
-1.97365958E+02
 11
1.62139816E+02
 21
-1.88365958E+02
  0
LINE
  8
0
 62
7
 10
1.68639816E+02
 20
-7.03659592E+01
 11
1.68639816E+02
 21
-1.97365958E+02
  0
LINE
  8
0
 62
7
 10
1.53139816E+02
 20
-1.97365958E+02
 11
1.68639816E+02
 21
-1.97365958E+02
  0
LINE
  8
0
 62
7
 10
1.53139816E+02
 20
-1.88365958E+02
 11
1.62139816E+02
 21
-1.88365958E+02
  0
LINE
  8
0
 62
7
 10
1.53139816E+02
 20
-7.03659592E+01
 11
1.68639816E+02
 21
-7.03659592E+01
  0
LINE
  8
0
 62
7
 10
1.53139816E+02
 20
-7.03659592E+01
 11
1.53139816E+02
 21
-9.45659561E+01
  0
LINE
  8
0
 62
7
 10
1.53139816E+02
 20
-1.21268700E+02
 11
1.53139816E+02
 21
-1.97365958E+02
  0
LINE
  8
0
 62
7
 10
2.57139816E+02
 20
-7.03686981E+01
 11
2.57139816E+02
 21
-9.45686951E+01
  0
LINE
  8
0
 62
7
 10
2.57739816E+02
 20
-9.45686951E+01
 11
2.56139816E+02
 21
-9.45686951E+01
  0
LINE
  8
0
 62
7
 10
2.57139816E+02
 20
-7.03686981E+01
 11
2.41639816E+02
 21
-7.03686981E+01
  0
LINE
  8
0
  6
CENTER
 62
2
 10
1.52739372E+02
 20
-1.07868698E+02
 11
1.48499695E+02
 21
-1.07868698E+02
  0
LINE
  8
0
 62
7
 10
1.49139816E+02
 20
-1.05118698E+02
 11
1.49139816E+02
 21
-1.10618698E+02
  0
LINE
  8
0
 62
7
 10
1.52139816E+02
 20
-1.05118698E+02
 11
1.49139816E+02
 21
-1.05118698E+02
  0
LINE
  8
0
 62
7
 10
1.52139816E+02
 20
-1.10618698E+02
 11
1.49139816E+02
 21
-1.10618698E+02
  0
LINE
  8
0
 62
7
 10
2.41639816E+02
 20
-9.75714417E+01
 11
2.41389816E+02
 21
-9.75714417E+01
  0
LINE
  8
0
  6
CENTER
 62
2
 10
2.57140261E+02
 20
-9.88686981E+01
 11
2.61379937E+02
 21
-9.88686981E+01
  0
LINE
  8
0
 62
7
 10
2.60739817E+02
 20
-9.61186981E+01
 11
2.60739817E+02
 21
-1.01618698E+02
  0
LINE
  8
0
 62
7
 10
2.57739816E+02
 20
-9.61186981E+01
 11
2.60739817E+02
 21
-9.61186981E+01
  0
LINE
  8
0
 62
7
 10
2.60739817E+02
 20
-1.05118698E+02
 11
2.60739817E+02
 21
-1.10618698E+02
  0
LINE
  8
0
 62
7
 10
2.60739817E+02
 20
-1.14118698E+02
 11
2.60739817E+02
 21
-1.19618698E+02
  0
LINE
  8
0
 62
7
 10
2.48139816E+02
 20
-1.97368698E+02
 11
2.48139816E+02
 21
-1.88368698E+02
  0
LINE
  8
0
 62
7
 10
2.57739816E+02
 20
-1.20568695E+02
 11
2.56139816E+02
 21
-1.20568695E+02
  0
LINE
  8
0
 62
7
 10
2.57139816E+02
 20
-1.20568695E+02
 11
2.57139816E+02
 21
-1.97368698E+02
  0
LINE
  8
0
 62
7
 10
2.57139816E+02
 20
-1.88368698E+02
 11
2.48139816E+02
 21
-1.88368698E+02
  0
LINE
  8
0
 62
7
 10
2.57739816E+02
 20
-1.19618698E+02
 11
2.60739817E+02
 21
-1.19618698E+02
  0
LINE
  8
0
 62
7
 10
2.57739816E+02
 20
-1.14118698E+02
 11
2.60739817E+02
 21
-1.14118698E+02
  0
LINE
  8
0
  6
CENTER
 62
2
 10
2.57140261E+02
 20
-1.16868698E+02
 11
2.61379937E+02
 21
-1.16868698E+02
  0
LINE
  8
0
 62
7
 10
2.57739816E+02
 20
-1.10618698E+02
 11
2.60739817E+02
 21
-1.10618698E+02
  0
LINE
  8
0
 62
7
 10
2.57739816E+02
 20
-1.05118698E+02
 11
2.60739817E+02
 21
-1.05118698E+02
  0
LINE
  8
0
  6
CENTER
 62
2
 10
2.57140261E+02
 20
-1.07868698E+02
 11
2.61379937E+02
 21
-1.07868698E+02
  0
LINE
  8
0
 62
7
 10
2.57739816E+02
 20
-1.01618698E+02
 11
2.60739817E+02
 21
-1.01618698E+02
  0
LINE
  8
0
 62
7
 10
2.57139816E+02
 20
-1.97368698E+02
 11
2.41639816E+02
 21
-1.97368698E+02
  0
LINE
  8
0
 62
7
 10
2.57739816E+02
 20
-9.45686951E+01
 11
2.57739816E+02
 21
-1.20568695E+02
  0
LINE
  8
0
 62
7
 10
2.56139816E+02
 20
-9.45686951E+01
 11
2.56139816E+02
 21
-1.20568695E+02
  0
LINE
  8
0
 62
6
 10
1.74839813E+02
 20
-1.31476494E+02
 11
1.84839813E+02
 21
-1.31476494E+02
  0
LINE
  8
0
 62
6
 10
1.84839813E+02
 20
-1.30978416E+02
 11
1.74839813E+02
 21
-1.30978416E+02
  0
LINE
  8
0
 62
6
 10
1.84839813E+02
 20
-1.30878418E+02
 11
1.74839813E+02
 21
-1.30878418E+02
  0
LINE
  8
0
 62
6
 10
1.84839813E+02
 20
-1.32287598E+02
 11
1.74839813E+02
 21
-1.32287598E+02
  0
LINE
  8
0
 62
6
 10
1.82739815E+02
 20
-1.24678413E+02
 11
1.76939819E+02
 21
-1.24678413E+02
  0
LINE
  8
0
 62
6
 10
1.82739815E+02
 20
-1.28678413E+02
 11
1.76939819E+02
 21
-1.28678413E+02
  0
LINE
  8
0
 62
6
 10
1.71439819E+02
 20
-7.48784180E+01
 11
1.81439819E+02
 21
-7.48784180E+01
  0
LINE
  8
0
 62
6
 10
1.71439819E+02
 20
-7.47784119E+01
 11
1.81439819E+02
 21
-7.47784119E+01
  0
LINE
  8
0
 62
6
 10
1.71439819E+02
 20
-7.42803345E+01
 11
1.81439819E+02
 21
-7.42803345E+01
  0
LINE
  8
0
 62
6
 10
1.73539818E+02
 20
-8.10784149E+01
 11
1.79339813E+02
 21
-8.10784149E+01
  0
LINE
  8
0
 62
6
 10
1.73539818E+02
 20
-7.70784149E+01
 11
1.79339813E+02
 21
-7.70784149E+01
  0
LINE
  8
0
 62
7
 10
1.71439819E+02
 20
-7.38784180E+01
 11
1.69139816E+02
 21
-7.38784180E+01
  0
LINE
  8
0
 62
7
 10
1.87139816E+02
 20
-7.38784180E+01
 11
1.81439819E+02
 21
-7.38784180E+01
  0
LINE
  8
0
 62
7
 10
1.72738747E+02
 20
-1.44599041E+02
 11
1.72738747E+02
 21
-1.45378414E+02
  0
LINE
  8
0
 62
7
 10
1.69444817E+02
 20
-1.44378414E+02
 11
1.69444817E+02
 21
-1.44878414E+02
  0
LINE
  8
0
  6
CENTER
 62
2
 10
1.70939819E+02
 20
-1.42362427E+02
 11
1.70939819E+02
 21
-1.46664196E+02
  0
LINE
  8
0
 62
7
 10
1.72539818E+02
 20
-1.44378414E+02
 11
1.69139816E+02
 21
-1.44378414E+02
  0
LINE
  8
0
 62
7
 10
1.70579157E+02
 20
-9.13177558E+01
 11
1.72700477E+02
 21
-9.34390761E+01
  0
LINE
  8
0
 62
7
 10
1.70579157E+02
 20
-9.34390761E+01
 11
1.71639817E+02
 21
-9.23784160E+01
  0
LINE
  8
0
 62
6
 10
1.77939819E+02
 20
-8.73784180E+01
 11
1.77939819E+02
 21
-9.23784180E+01
  0
LINE
  8
0
 62
6
 10
1.74939819E+02
 20
-8.73784180E+01
 11
1.74939819E+02
 21
-9.23784180E+01
  0
LINE
  8
0
 62
6
 10
1.74939819E+02
 20
-8.73784180E+01
 11
1.77939819E+02
 21
-8.73784180E+01
  0
LINE
  8
0
 62
6
 10
1.78834185E+02
 20
-6.63376013E+01
 11
1.79089811E+02
 21
-6.67784122E+01
  0
LINE
  8
0
 62
6
 10
1.73789815E+02
 20
-6.67784118E+01
 11
1.74045445E+02
 21
-6.63375943E+01
  0
LINE
  8
0
 62
6
 10
1.77584185E+02
 20
-6.75876004E+01
 11
1.77839810E+02
 21
-6.80284113E+01
  0
LINE
  8
0
 62
6
 10
1.79089821E+02
 20
-6.67784179E+01
 11
1.77839819E+02
 21
-6.80284193E+01
  0
LINE
  8
0
 62
6
 10
1.77584190E+02
 20
-6.75876023E+01
 11
1.78834191E+02
 21
-6.63376010E+01
  0
LINE
  8
0
 62
6
 10
1.75295447E+02
 20
-6.75875945E+01
 11
1.75039818E+02
 21
-6.80284120E+01
  0
LINE
  8
0
 62
6
 10
1.71439819E+02
 20
-7.34692307E+01
 11
1.81439819E+02
 21
-7.34692307E+01
  0
LINE
  8
0
 62
6
 10
1.75295445E+02
 20
-6.75875942E+01
 11
1.74045449E+02
 21
-6.63375983E+01
  0
LINE
  8
0
 62
6
 10
1.71439819E+02
 20
-6.63376007E+01
 11
1.74045448E+02
 21
-6.63376007E+01
  0
LINE
  8
0
 62
6
 10
1.78834190E+02
 20
-6.63376007E+01
 11
1.81439819E+02
 21
-6.63376007E+01
  0
LINE
  8
0
 62
6
 10
1.77584190E+02
 20
-6.75876007E+01
 11
1.75295448E+02
 21
-6.75876007E+01
  0
LINE
  8
0
 62
6
 10
1.71439819E+02
 20
-6.67784119E+01
 11
1.73789818E+02
 21
-6.67784119E+01
  0
LINE
  8
0
 62
6
 10
1.73789822E+02
 20
-6.67784179E+01
 11
1.75039818E+02
 21
-6.80284139E+01
  0
LINE
  8
0
 62
6
 10
1.77839813E+02
 20
-6.80284119E+01
 11
1.75039818E+02
 21
-6.80284119E+01
  0
LINE
  8
0
 62
6
 10
1.79089813E+02
 20
-6.67784119E+01
 11
1.81439819E+02
 21
-6.67784119E+01
  0
LINE
  8
0
 62
6
 10
1.72939819E+02
 20
-7.04784164E+01
 11
1.71439819E+02
 21
-7.04784164E+01
  0
LINE
  8
0
 62
6
 10
1.71439819E+02
 20
-6.72784119E+01
 11
1.72939819E+02
 21
-6.72784119E+01
  0
LINE
  8
0
 62
6
 10
1.79939819E+02
 20
-6.72784119E+01
 11
1.81439819E+02
 21
-6.72784119E+01
  0
LINE
  8
0
 62
6
 10
1.81439819E+02
 20
-7.04784164E+01
 11
1.79939819E+02
 21
-7.04784164E+01
  0
LINE
  8
0
 62
6
 10
1.74614304E+02
 20
-7.03284149E+01
 11
1.78265327E+02
 21
-7.03284149E+01
  0
LINE
  8
0
 62
6
 10
1.74614304E+02
 20
-7.09284134E+01
 11
1.78265327E+02
 21
-7.09284134E+01
  0
LINE
  8
0
 62
6
 10
1.80646929E+02
 20
-6.81713139E+01
 11
1.79232715E+02
 21
-6.95855275E+01
  0
LINE
  8
0
 62
6
 10
1.80646929E+02
 20
-6.95855275E+01
 11
1.79232715E+02
 21
-6.81713139E+01
  0
LINE
  8
0
 62
6
 10
1.72232711E+02
 20
-6.95855248E+01
 11
1.73646924E+02
 21
-6.81713112E+01
  0
LINE
  8
0
 62
6
 10
1.72232711E+02
 20
-6.81713112E+01
 11
1.73646924E+02
 21
-6.95855248E+01
  0
LINE
  8
0
 62
6
 10
1.71739815E+02
 20
-9.23784180E+01
 11
1.81139816E+02
 21
-9.23784180E+01
  0
LINE
  8
0
 62
6
 10
1.71439819E+02
 20
-9.20784149E+01
 11
1.71439819E+02
 21
-6.03686981E+01
  0
LINE
  8
0
  6
CENTER
 62
6
 10
1.76439819E+02
 20
-5.85934143E+01
 11
1.76439819E+02
 21
-9.45144653E+01
  0
LINE
  8
0
 62
6
 10
1.81439819E+02
 20
-9.20784149E+01
 11
1.81439819E+02
 21
-6.03784180E+01
  0
LINE
  8
0
 62
7
 10
1.71639816E+02
 20
-9.50784149E+01
 11
1.69139816E+02
 21
-9.50784149E+01
  0
LINE
  8
0
 62
7
 10
1.71439819E+02
 20
-8.96784134E+01
 11
1.69139816E+02
 21
-8.96784134E+01
  0
LINE
  8
0
  6
CENTER
 62
2
 10
1.85339813E+02
 20
-6.33944092E+01
 11
1.85339813E+02
 21
-5.90926361E+01
  0
LINE
  8
0
 62
7
 10
1.86834816E+02
 20
-6.13784180E+01
 11
1.86834816E+02
 21
-6.08784180E+01
  0
LINE
  8
0
 62
7
 10
1.83834816E+02
 20
-6.13784180E+01
 11
1.83834816E+02
 21
-6.08784180E+01
  0
LINE
  8
0
 62
7
 10
1.84839820E+02
 20
-1.14678418E+02
 11
1.85700480E+02
 21
-1.13817758E+02
  0
LINE
  8
0
 62
7
 10
1.84839816E+02
 20
-1.15078414E+02
 11
1.85700480E+02
 21
-1.15939078E+02
  0
LINE
  8
0
  6
PHANTOM
 62
2
 10
1.71139816E+02
 20
-1.45575676E+02
 11
1.72389816E+02
 21
-1.45575676E+02
  0
LINE
  8
0
  6
PHANTOM
 62
2
 10
1.82739815E+02
 20
-1.70566376E+02
 11
1.82739815E+02
 21
-1.62828732E+02
  0
LINE
  8
0
  6
PHANTOM
 62
2
 10
1.79902878E+02
 20
-1.66475674E+02
 11
1.85704575E+02
 21
-1.66475674E+02
  0
LINE
  8
0
 62
7
 10
1.84839813E+02
 20
-1.17578415E+02
 11
1.87139816E+02
 21
-1.17578415E+02
  0
LINE
  8
0
 62
7
 10
1.84639816E+02
 20
-1.12178413E+02
 11
1.87139816E+02
 21
-1.12178413E+02
  0
LINE
  8
0
 62
7
 10
1.83539818E+02
 20
-6.11784210E+01
 11
1.83539818E+02
 21
-6.03784180E+01
  0
LINE
  8
0
 62
7
 10
1.83739815E+02
 20
-6.13784180E+01
 11
1.87139816E+02
 21
-6.13784180E+01
  0
LINE
  8
0
  6
CENTER
 62
2
 10
1.71736557E+02
 20
-1.82875674E+02
 11
1.84819519E+02
 21
-1.82875674E+02
  0
LINE
  8
0
 62
7
 10
1.87139816E+02
 20
-1.45378414E+02
 11
1.87139816E+02
 21
-6.03784180E+01
  0
LINE
  8
0
 62
7
 10
1.69139816E+02
 20
-1.45378414E+02
 11
1.69139816E+02
 21
-6.03784180E+01
  0
LINE
  8
0
 62
7
 10
1.87389816E+02
 20
-1.88385391E+02
 11
1.87389816E+02
 21
-6.03784180E+01
  0
LINE
  8
0
 62
7
 10
1.68889816E+02
 20
-1.88385391E+02
 11
1.68889816E+02
 21
-6.03784180E+01
  0
LINE
  8
0
 62
7
 10
1.87389816E+02
 20
-1.88385391E+02
 11
1.68889816E+02
 21
-1.88385391E+02
  0
LINE
  8
0
  6
PHANTOM
 62
2
 10
1.79939819E+02
 20
-1.69885391E+02
 11
1.79939819E+02
 21
-1.63285389E+02
  0
LINE
  8
0
  6
PHANTOM
 62
2
 10
1.80439819E+02
 20
-1.62785389E+02
 11
1.85039818E+02
 21
-1.62785389E+02
  0
LINE
  8
0
  6
PHANTOM
 62
2
 10
1.85539818E+02
 20
-1.69885391E+02
 11
1.85539818E+02
 21
-1.63285389E+02
  0
LINE
  8
0
  6
PHANTOM
 62
2
 10
1.71223976E+02
 20
-1.63688129E+02
 11
1.76156807E+02
 21
-1.63688129E+02
  0
LINE
  8
0
  6
PHANTOM
 62
2
 10
1.73639816E+02
 20
-1.66136292E+02
 11
1.73639816E+02
 21
-1.61203457E+02
  0
LINE
  8
0
  6
PHANTOM
 62
2
 10
1.73639816E+02
 20
-1.58069660E+02
 11
1.73639816E+02
 21
-1.53368961E+02
  0
LINE
  8
0
  6
PHANTOM
 62
2
 10
1.71340042E+02
 20
-1.55688129E+02
 11
1.75808609E+02
 21
-1.55688129E+02
  0
LINE
  8
0
  6
PHANTOM
 62
2
 10
1.83889816E+02
 20
-1.52875675E+02
 11
1.85139816E+02
 21
-1.52875675E+02
  0
LINE
  8
0
  6
PHANTOM
 62
2
 10
1.71139816E+02
 20
-1.52875675E+02
 11
1.72389816E+02
 21
-1.52875675E+02
  0
LINE
  8
0
  6
PHANTOM
 62
2
 10
1.72389816E+02
 20
-1.53575676E+02
 11
1.83889816E+02
 21
-1.53575676E+02
  0
LINE
  8
0
  6
PHANTOM
 62
2
 10
1.72889816E+02
 20
-1.50575676E+02
 11
1.83389816E+02
 21
-1.50575676E+02
  0
LINE
  8
0
  6
PHANTOM
 62
2
 10
1.83889816E+02
 20
-1.45575676E+02
 11
1.85139816E+02
 21
-1.45575676E+02
  0
LINE
  8
0
  6
PHANTOM
 62
2
 10
1.72889816E+02
 20
-1.44575676E+02
 11
1.83389816E+02
 21
-1.44575676E+02
  0
LINE
  8
0
  6
PHANTOM
 62
2
 10
1.83889816E+02
 20
-1.45015377E+02
 11
1.83889816E+02
 21
-1.53575676E+02
  0
LINE
  8
0
  6
PHANTOM
 62
2
 10
1.72389816E+02
 20
-1.53575676E+02
 11
1.72389816E+02
 21
-1.45075676E+02
  0
LINE
  8
0
 62
7
 10
1.71139816E+02
 20
-1.70375675E+02
 11
1.85139816E+02
 21
-1.70375675E+02
  0
LINE
  8
0
 62
7
 10
1.85639816E+02
 20
-1.87885391E+02
 11
1.85639816E+02
 21
-1.70688131E+02
  0
LINE
  8
0
 62
7
 10
1.70639816E+02
 20
-1.87885391E+02
 11
1.70639816E+02
 21
-1.70688131E+02
  0
LINE
  8
0
  6
PHANTOM
 62
2
 10
1.85639816E+02
 20
-1.69875675E+02
 11
1.85639816E+02
 21
-1.46075676E+02
  0
LINE
  8
0
  6
PHANTOM
 62
2
 10
1.70639816E+02
 20
-1.69875675E+02
 11
1.70639816E+02
 21
-1.46075676E+02
  0
LINE
  8
0
 62
7
 10
1.85139816E+02
 20
-1.70385391E+02
 11
1.71139816E+02
 21
-1.70385391E+02
  0
LINE
  8
0
 62
7
 10
1.87389816E+02
 20
-6.03784180E+01
 11
1.68889816E+02
 21
-6.03784180E+01
  0
LINE
  8
0
 62
6
 10
1.84539818E+02
 20
-1.13378418E+02
 11
1.75139816E+02
 21
-1.13378418E+02
  0
LINE
  8
0
 62
6
 10
1.78339813E+02
 20
-1.18378418E+02
 11
1.81339813E+02
 21
-1.18378418E+02
  0
LINE
  8
0
 62
6
 10
1.81339813E+02
 20
-1.18378418E+02
 11
1.81339813E+02
 21
-1.13378418E+02
  0
LINE
  8
0
 62
6
 10
1.78339813E+02
 20
-1.18378418E+02
 11
1.78339813E+02
 21
-1.13378418E+02
  0
LINE
  8
0
  6
CENTER
 62
6
 10
1.79839813E+02
 20
-1.47163422E+02
 11
1.79839813E+02
 21
-1.11242363E+02
  0
LINE
  8
0
 62
6
 10
1.77445442E+02
 20
-1.39419232E+02
 11
1.77189812E+02
 21
-1.38978415E+02
  0
LINE
  8
0
 62
6
 10
1.82489817E+02
 20
-1.38978413E+02
 11
1.82234187E+02
 21
-1.39419230E+02
  0
LINE
  8
0
 62
6
 10
1.78695444E+02
 20
-1.38169232E+02
 11
1.78439815E+02
 21
-1.37728415E+02
  0
LINE
  8
0
 62
6
 10
1.77189817E+02
 20
-1.38978415E+02
 11
1.78439817E+02
 21
-1.37728415E+02
  0
LINE
  8
0
 62
6
 10
1.78695446E+02
 20
-1.38169232E+02
 11
1.77445446E+02
 21
-1.39419232E+02
  0
LINE
  8
0
 62
6
 10
1.80984192E+02
 20
-1.38169232E+02
 11
1.81239822E+02
 21
-1.37728415E+02
  0
LINE
  8
0
 62
6
 10
1.80984188E+02
 20
-1.38169232E+02
 11
1.82234189E+02
 21
-1.39419234E+02
  0
LINE
  8
0
 62
6
 10
1.84839813E+02
 20
-1.39419231E+02
 11
1.82234184E+02
 21
-1.39419231E+02
  0
LINE
  8
0
 62
6
 10
1.77445442E+02
 20
-1.39419231E+02
 11
1.74839813E+02
 21
-1.39419231E+02
  0
LINE
  8
0
 62
6
 10
1.78695442E+02
 20
-1.38169231E+02
 11
1.80984184E+02
 21
-1.38169231E+02
  0
LINE
  8
0
 62
6
 10
1.84839813E+02
 20
-1.38978413E+02
 11
1.82489815E+02
 21
-1.38978413E+02
  0
LINE
  8
0
 62
6
 10
1.82489816E+02
 20
-1.38978414E+02
 11
1.81239815E+02
 21
-1.37728413E+02
  0
LINE
  8
0
 62
6
 10
1.78439819E+02
 20
-1.37728413E+02
 11
1.81239815E+02
 21
-1.37728413E+02
  0
LINE
  8
0
 62
6
 10
1.77189819E+02
 20
-1.38978413E+02
 11
1.74839813E+02
 21
-1.38978413E+02
  0
LINE
  8
0
 62
6
 10
1.83339813E+02
 20
-1.35278416E+02
 11
1.84839813E+02
 21
-1.35278416E+02
  0
LINE
  8
0
 62
6
 10
1.84839813E+02
 20
-1.38478413E+02
 11
1.83339813E+02
 21
-1.38478413E+02
  0
LINE
  8
0
 62
6
 10
1.76339813E+02
 20
-1.38478413E+02
 11
1.74839813E+02
 21
-1.38478413E+02
  0
LINE
  8
0
 62
6
 10
1.74839813E+02
 20
-1.35278416E+02
 11
1.76339813E+02
 21
-1.35278416E+02
  0
LINE
  8
0
 62
6
 10
1.74839813E+02
 20
-1.13678413E+02
 11
1.74839813E+02
 21
-1.45378414E+02
  0
LINE
  8
0
 62
6
 10
1.84839813E+02
 20
-1.13678413E+02
 11
1.84839813E+02
 21
-1.45388130E+02
  0
LINE
  8
0
 62
6
 10
1.81665329E+02
 20
-1.35428413E+02
 11
1.78014305E+02
 21
-1.35428413E+02
  0
LINE
  8
0
 62
6
 10
1.78014305E+02
 20
-1.34828415E+02
 11
1.81665329E+02
 21
-1.34828415E+02
  0
LINE
  8
0
 62
6
 10
1.75632713E+02
 20
-1.37585525E+02
 11
1.77046927E+02
 21
-1.36171311E+02
  0
LINE
  8
0
 62
6
 10
1.75632713E+02
 20
-1.36171311E+02
 11
1.77046927E+02
 21
-1.37585525E+02
  0
LINE
  8
0
 62
6
 10
1.84046925E+02
 20
-1.36171310E+02
 11
1.82632711E+02
 21
-1.37585523E+02
  0
LINE
  8
0
 62
6
 10
1.84046925E+02
 20
-1.37585523E+02
 11
1.82632711E+02
 21
-1.36171310E+02
  0
LINE
  8
0
 62
7
 10
1.68889816E+02
 20
-1.45378414E+02
 11
1.87389816E+02
 21
-1.45378414E+02
  0
LINE
  8
0
 62
7
 10
1.69139816E+02
 20
-1.31878418E+02
 11
1.74839813E+02
 21
-1.31878418E+02
  0
LINE
  8
0
 62
7
 10
1.84839813E+02
 20
-1.31878418E+02
 11
1.87139816E+02
 21
-1.31878418E+02
  0
LINE
  8
0
 62
7
 10
1.80139816E+02
 20
-4.86734161E+01
 11
1.76139816E+02
 21
-4.86734161E+01
  0
LINE
  8
0
 62
7
 10
1.76139816E+02
 20
-5.36734161E+01
 11
1.80139816E+02
 21
-5.36734161E+01
  0
LINE
  8
0
 62
7
 10
1.81139816E+02
 20
-5.63784180E+01
 11
1.75139816E+02
 21
-5.63784180E+01
  0
LINE
  8
0
 62
7
 10
1.81639816E+02
 20
-5.88784180E+01
 11
1.81639816E+02
 21
-5.68784180E+01
  0
LINE
  8
0
 62
7
 10
1.79389816E+02
 20
-5.36734161E+01
 11
1.79389816E+02
 21
-5.63784180E+01
  0
LINE
  8
0
 62
7
 10
1.81639820E+02
 20
-5.68784187E+01
 11
1.81139819E+02
 21
-5.63784182E+01
  0
LINE
  8
0
 62
7
 10
1.80639821E+02
 20
-5.31734209E+01
 11
1.80139821E+02
 21
-5.36734214E+01
  0
LINE
  8
0
 62
7
 10
1.80639819E+02
 20
-4.91734193E+01
 11
1.80139818E+02
 21
-4.86734188E+01
  0
LINE
  8
0
 62
7
 10
1.80639816E+02
 20
-4.91734161E+01
 11
1.80639816E+02
 21
-5.31734161E+01
  0
LINE
  8
0
 62
7
 10
1.74639818E+02
 20
-5.88784155E+01
 11
1.75139818E+02
 21
-5.93784160E+01
  0
LINE
  8
0
 62
7
 10
1.74639815E+02
 20
-5.68784160E+01
 11
1.75139815E+02
 21
-5.63784155E+01
  0
LINE
  8
0
 62
7
 10
1.75639816E+02
 20
-4.91734166E+01
 11
1.76139817E+02
 21
-4.86734161E+01
  0
LINE
  8
0
 62
7
 10
1.76139819E+02
 20
-5.36734187E+01
 11
1.75639819E+02
 21
-5.31734182E+01
  0
LINE
  8
0
 62
7
 10
1.75639816E+02
 20
-4.91734161E+01
 11
1.75639816E+02
 21
-5.31734161E+01
  0
LINE
  8
0
 62
7
 10
1.74639816E+02
 20
-5.88784180E+01
 11
1.74639816E+02
 21
-5.68784180E+01
  0
LINE
  8
0
 62
7
 10
1.76889816E+02
 20
-5.36734161E+01
 11
1.76889816E+02
 21
-5.63784180E+01
  0
LINE
  8
0
 62
7
 10
1.81639820E+02
 20
-5.88784209E+01
 11
1.81139822E+02
 21
-5.93784187E+01
  0
LINE
  8
0
 62
7
 10
1.74439819E+02
 20
-5.93784180E+01
 11
1.81839813E+02
 21
-5.93784180E+01
  0
LINE
  8
0
 62
7
 10
1.82139816E+02
 20
-6.03784180E+01
 11
1.82139816E+02
 21
-5.96784210E+01
  0
LINE
  8
0
 62
7
 10
1.74139816E+02
 20
-6.03784180E+01
 11
1.74139816E+02
 21
-5.96784210E+01
  0
LINE
  8
0
 62
7
 10
1.74139814E+02
 20
-5.96784125E+01
 11
1.74439814E+02
 21
-5.93784133E+01
  0
LINE
  8
0
 62
7
 10
1.81839813E+02
 20
-5.93784133E+01
 11
1.82139818E+02
 21
-5.96784179E+01
  0
LINE
  8
0
 62
7
 10
1.74139816E+02
 20
-5.96784210E+01
 11
1.82139816E+02
 21
-5.96784210E+01
  0
LINE
  8
0
  6
CENTER
 62
2
 10
1.78139816E+02
 20
-4.48921356E+01
 11
1.78139816E+02
 21
-1.92668713E+02
  0
LINE
  8
0
  6
CENTER
 62
6
 10
1.73839813E+02
 20
-1.36878414E+02
 11
1.78839813E+02
 21
-1.36878414E+02
  0
LINE
  8
0
  6
CENTER
 62
6
 10
1.80839813E+02
 20
-1.36878414E+02
 11
1.85839813E+02
 21
-1.36878414E+02
  0
LINE
  8
0
  6
CENTER
 62
6
 10
1.76339813E+02
 20
-1.39378414E+02
 11
1.76339813E+02
 21
-1.34378414E+02
  0
LINE
  8
0
  6
CENTER
 62
6
 10
1.83339813E+02
 20
-1.39378414E+02
 11
1.83339813E+02
 21
-1.34378414E+02
  0
LINE
  8
0
  6
CENTER
 62
6
 10
1.79939819E+02
 20
-7.13784180E+01
 11
1.79939819E+02
 21
-6.63784180E+01
  0
LINE
  8
0
  6
CENTER
 62
6
 10
1.72939819E+02
 20
-7.13784180E+01
 11
1.72939819E+02
 21
-6.63784180E+01
  0
LINE
  8
0
  6
CENTER
 62
6
 10
1.77439819E+02
 20
-6.88784180E+01
 11
1.82439819E+02
 21
-6.88784180E+01
  0
LINE
  8
0
  6
CENTER
 62
6
 10
1.70439819E+02
 20
-6.88784180E+01
 11
1.75439819E+02
 21
-6.88784180E+01
  0
LINE
  8
0
  6
CENTER
 62
6
 10
1.85304230E+02
 20
-1.26678413E+02
 11
1.74427933E+02
 21
-1.26678413E+02
  0
LINE
  8
0
  6
CENTER
 62
6
 10
1.82739815E+02
 20
-1.29386490E+02
 11
1.82739815E+02
 21
-1.23841713E+02
  0
LINE
  8
0
  6
CENTER
 62
6
 10
1.76939819E+02
 20
-1.29386490E+02
 11
1.76939819E+02
 21
-1.23841713E+02
  0
LINE
  8
0
  6
CENTER
 62
6
 10
1.81904228E+02
 20
-7.90784149E+01
 11
1.71027931E+02
 21
-7.90784149E+01
  0
LINE
  8
0
  6
CENTER
 62
6
 10
1.79339813E+02
 20
-8.17864914E+01
 11
1.79339813E+02
 21
-7.62417145E+01
  0
LINE
  8
0
  6
CENTER
 62
6
 10
1.73539818E+02
 20
-8.17864914E+01
 11
1.73539818E+02
 21
-7.62417145E+01
  0
LINE
  8
0
  6
CENTER
 62
2
 10
1.65639816E+02
 20
-1.41875675E+02
 11
1.90639816E+02
 21
-1.41875675E+02
  0
LINE
  8
0
 62
6
 10
2.08339817E+02
 20
-1.31473755E+02
 11
2.18339817E+02
 21
-1.31473755E+02
  0
LINE
  8
0
 62
6
 10
2.18339817E+02
 20
-1.30975677E+02
 11
2.08339817E+02
 21
-1.30975677E+02
  0
LINE
  8
0
 62
6
 10
2.18339817E+02
 20
-1.30875671E+02
 11
2.08339817E+02
 21
-1.30875671E+02
  0
LINE
  8
0
 62
7
 10
2.04139816E+02
 20
-1.45375675E+02
 11
2.04139816E+02
 21
-7.03756714E+01
  0
LINE
  8
0
 62
7
 10
2.19139816E+02
 20
-1.45375675E+02
 11
2.19139816E+02
 21
-7.03756714E+01
  0
LINE
  8
0
 62
6
 10
2.18339817E+02
 20
-1.13675674E+02
 11
2.18339817E+02
 21
-1.45385391E+02
  0
LINE
  8
0
  6
CENTER
 62
6
 10
2.16239815E+02
 20
-1.29383751E+02
 11
2.16239815E+02
 21
-1.23838974E+02
  0
LINE
  8
0
  6
CENTER
 62
6
 10
2.10439816E+02
 20
-1.29383751E+02
 11
2.10439816E+02
 21
-1.23838974E+02
  0
LINE
  8
0
 62
6
 10
2.16239815E+02
 20
-1.24675674E+02
 11
2.10439816E+02
 21
-1.24675674E+02
  0
LINE
  8
0
 62
6
 10
2.16239815E+02
 20
-1.28675674E+02
 11
2.10439816E+02
 21
-1.28675674E+02
  0
LINE
  8
0
  6
CENTER
 62
6
 10
2.18804230E+02
 20
-1.26675674E+02
 11
2.07927933E+02
 21
-1.26675674E+02
  0
LINE
  8
0
 62
6
 10
2.04939816E+02
 20
-8.48756714E+01
 11
2.14939816E+02
 21
-8.48756714E+01
  0
LINE
  8
0
 62
6
 10
2.04939816E+02
 20
-8.47756729E+01
 11
2.14939816E+02
 21
-8.47756729E+01
  0
LINE
  8
0
  6
CENTER
 62
6
 10
2.07039818E+02
 20
-8.63675995E+01
 11
2.07039818E+02
 21
-9.19123764E+01
  0
LINE
  8
0
  6
CENTER
 62
6
 10
2.12839817E+02
 20
-8.63675995E+01
 11
2.12839817E+02
 21
-9.19123764E+01
  0
LINE
  8
0
 62
6
 10
2.07039818E+02
 20
-9.10756760E+01
 11
2.12839817E+02
 21
-9.10756760E+01
  0
LINE
  8
0
 62
6
 10
2.07039818E+02
 20
-8.70756760E+01
 11
2.12839817E+02
 21
-8.70756760E+01
  0
LINE
  8
0
  6
CENTER
 62
6
 10
2.04475403E+02
 20
-8.90756760E+01
 11
2.15351700E+02
 21
-8.90756760E+01
  0
LINE
  8
0
 62
7
 10
2.04444817E+02
 20
-1.44875675E+02
 11
2.04444817E+02
 21
-1.44375675E+02
  0
LINE
  8
0
 62
7
 10
2.07739815E+02
 20
-1.45375675E+02
 11
2.07739815E+02
 21
-1.44575676E+02
  0
LINE
  8
0
 62
7
 10
2.07444817E+02
 20
-1.44375675E+02
 11
2.07444817E+02
 21
-1.44875675E+02
  0
LINE
  8
0
  6
CENTER
 62
2
 10
2.05939816E+02
 20
-1.46240658E+02
 11
2.05939816E+02
 21
-1.43534286E+02
  0
LINE
  8
0
 62
7
 10
2.07539818E+02
 20
-1.44375675E+02
 11
2.04139816E+02
 21
-1.44375675E+02
  0
LINE
  8
0
  6
CENTER
 62
2
 10
2.17339817E+02
 20
-6.95106888E+01
 11
2.17339817E+02
 21
-7.22170639E+01
  0
LINE
  8
0
  6
CENTER
 62
2
 10
2.04944752E+02
 20
-1.82672935E+02
 11
2.18206352E+02
 21
-1.82672935E+02
  0
LINE
  8
0
 62
7
 10
2.18834816E+02
 20
-7.13756714E+01
 11
2.18834816E+02
 21
-7.08756714E+01
  0
LINE
  8
0
 62
7
 10
2.15834816E+02
 20
-7.13756714E+01
 11
2.15834816E+02
 21
-7.08756714E+01
  0
LINE
  8
0
 62
7
 10
2.15539818E+02
 20
-7.03756714E+01
 11
2.15539818E+02
 21
-7.11756744E+01
  0
LINE
  8
0
 62
7
 10
2.15739815E+02
 20
-7.13756714E+01
 11
2.19139816E+02
 21
-7.13756714E+01
  0
LINE
  8
0
 62
7
 10
2.18339817E+02
 20
-1.17575676E+02
 11
2.19139816E+02
 21
-1.17575676E+02
  0
LINE
  8
0
 62
7
 10
2.16639816E+02
 20
-1.12175674E+02
 11
2.19139816E+02
 21
-1.12175674E+02
  0
LINE
  8
0
 62
7
 10
2.06639816E+02
 20
-1.03075676E+02
 11
2.04139816E+02
 21
-1.03075676E+02
  0
LINE
  8
0
 62
7
 10
2.04939816E+02
 20
-9.76756744E+01
 11
2.04139816E+02
 21
-9.76756744E+01
  0
LINE
  8
0
 62
7
 10
2.19389816E+02
 20
-1.88382651E+02
 11
2.03889816E+02
 21
-1.88382651E+02
  0
LINE
  8
0
  6
PHANTOM
 62
2
 10
2.13439816E+02
 20
-1.69585390E+02
 11
2.13439816E+02
 21
-1.62985390E+02
  0
LINE
  8
0
  6
PHANTOM
 62
2
 10
2.13939816E+02
 20
-1.62485390E+02
 11
2.18539818E+02
 21
-1.62485390E+02
  0
LINE
  8
0
  6
PHANTOM
 62
2
 10
2.19039818E+02
 20
-1.69585390E+02
 11
2.19039818E+02
 21
-1.62985390E+02
  0
LINE
  8
0
  6
PHANTOM
 62
2
 10
2.13939816E+02
 20
-1.70085390E+02
 11
2.18539818E+02
 21
-1.70085390E+02
  0
LINE
  8
0
  6
PHANTOM
 62
2
 10
2.06154022E+02
 20
-1.63985390E+02
 11
2.08141788E+02
 21
-1.63985390E+02
  0
LINE
  8
0
  6
PHANTOM
 62
2
 10
2.06154022E+02
 20
-1.63385391E+02
 11
2.08141788E+02
 21
-1.63385391E+02
  0
LINE
  8
0
  6
CENTER
 62
2
 10
2.04723976E+02
 20
-1.63685390E+02
 11
2.09656807E+02
 21
-1.63685390E+02
  0
LINE
  8
0
  6
CENTER
 62
2
 10
2.07139816E+02
 20
-1.66133551E+02
 11
2.07139816E+02
 21
-1.61200718E+02
  0
LINE
  8
0
  6
CENTER
 62
2
 10
2.07139816E+02
 20
-1.58066921E+02
 11
2.07139816E+02
 21
-1.53366222E+02
  0
LINE
  8
0
  6
CENTER
 62
2
 10
2.04840042E+02
 20
-1.55685390E+02
 11
2.09308609E+02
 21
-1.55685390E+02
  0
LINE
  8
0
  6
PHANTOM
 62
2
 10
2.17389816E+02
 20
-1.52685390E+02
 11
2.18639816E+02
 21
-1.52685390E+02
  0
LINE
  8
0
  6
PHANTOM
 62
2
 10
2.04639816E+02
 20
-1.52685390E+02
 11
2.05889816E+02
 21
-1.52685390E+02
  0
LINE
  8
0
  6
PHANTOM
 62
2
 10
2.05889816E+02
 20
-1.53385391E+02
 11
2.17389816E+02
 21
-1.53385391E+02
  0
LINE
  8
0
  6
PHANTOM
 62
2
 10
2.06389816E+02
 20
-1.50385391E+02
 11
2.16889816E+02
 21
-1.50385391E+02
  0
LINE
  8
0
 62
7
 10
2.17389816E+02
 20
-1.45385391E+02
 11
2.18639816E+02
 21
-1.45385391E+02
  0
LINE
  8
0
  6
PHANTOM
 62
2
 10
2.06389816E+02
 20
-1.44385391E+02
 11
2.16889816E+02
 21
-1.44385391E+02
  0
LINE
  8
0
  6
PHANTOM
 62
2
 10
2.17389816E+02
 20
-1.44825096E+02
 11
2.17389816E+02
 21
-1.53385391E+02
  0
LINE
  8
0
  6
PHANTOM
 62
2
 10
2.05889816E+02
 20
-1.53385391E+02
 11
2.05889816E+02
 21
-1.44885391E+02
  0
LINE
  8
0
 62
7
 10
2.04639816E+02
 20
-1.45385391E+02
 11
2.05889816E+02
 21
-1.45385391E+02
  0
LINE
  8
0
  6
PHANTOM
 62
2
 10
2.04639816E+02
 20
-1.70185390E+02
 11
2.18639816E+02
 21
-1.70185390E+02
  0
LINE
  8
0
 62
7
 10
2.19139816E+02
 20
-1.87882651E+02
 11
2.19139816E+02
 21
-1.70685390E+02
  0
LINE
  8
0
 62
7
 10
2.04139816E+02
 20
-1.87882651E+02
 11
2.04139816E+02
 21
-1.70685390E+02
  0
LINE
  8
0
  6
PHANTOM
 62
2
 10
2.19139816E+02
 20
-1.69685390E+02
 11
2.19139816E+02
 21
-1.45885391E+02
  0
LINE
  8
0
  6
PHANTOM
 62
2
 10
2.04139816E+02
 20
-1.69685390E+02
 11
2.04139816E+02
 21
-1.45885391E+02
  0
LINE
  8
0
 62
7
 10
2.18639816E+02
 20
-1.70382650E+02
 11
2.04639816E+02
 21
-1.70382650E+02
  0
LINE
  8
0
  6
CENTER
 62
2
 10
2.11639816E+02
 20
-1.91665973E+02
 11
2.11639816E+02
 21
-6.58907013E+01
  0
LINE
  8
0
 62
6
 10
2.14639816E+02
 20
-1.02375671E+02
 11
2.05239815E+02
 21
-1.02375671E+02
  0
LINE
  8
0
 62
6
 10
2.11439816E+02
 20
-9.73756714E+01
 11
2.11439816E+02
 21
-1.02375671E+02
  0
LINE
  8
0
 62
6
 10
2.08439816E+02
 20
-9.73756714E+01
 11
2.11439816E+02
 21
-9.73756714E+01
  0
LINE
  8
0
 62
6
 10
2.08439816E+02
 20
-9.73756714E+01
 11
2.08439816E+02
 21
-1.02375671E+02
  0
LINE
  8
0
 62
6
 10
2.07545447E+02
 20
-7.63348584E+01
 11
2.07289818E+02
 21
-7.67756758E+01
  0
LINE
  8
0
 62
6
 10
2.12589813E+02
 20
-7.67756738E+01
 11
2.12334183E+02
 21
-7.63348563E+01
  0
LINE
  8
0
 62
6
 10
2.08795450E+02
 20
-7.75848586E+01
 11
2.08539820E+02
 21
-7.80256761E+01
  0
LINE
  8
0
 62
6
 10
2.07289817E+02
 20
-7.67756745E+01
 11
2.08539818E+02
 21
-7.80256758E+01
  0
LINE
  8
0
 62
6
 10
2.08795445E+02
 20
-7.75848562E+01
 11
2.07545449E+02
 21
-7.63348603E+01
  0
LINE
  8
0
 62
6
 10
2.11084186E+02
 20
-7.75848622E+01
 11
2.11339816E+02
 21
-7.80256797E+01
  0
LINE
  8
0
 62
6
 10
2.14939816E+02
 20
-8.34664917E+01
 11
2.04939816E+02
 21
-8.34664917E+01
  0
LINE
  8
0
 62
6
 10
2.11084185E+02
 20
-7.75848589E+01
 11
2.12334186E+02
 21
-7.63348576E+01
  0
LINE
  8
0
 62
6
 10
2.14939816E+02
 20
-7.63348541E+01
 11
2.12334187E+02
 21
-7.63348541E+01
  0
LINE
  8
0
 62
6
 10
2.07545444E+02
 20
-7.63348541E+01
 11
2.04939816E+02
 21
-7.63348541E+01
  0
LINE
  8
0
 62
6
 10
2.08795444E+02
 20
-7.75848541E+01
 11
2.11084187E+02
 21
-7.75848541E+01
  0
LINE
  8
0
 62
6
 10
2.14939816E+02
 20
-7.67756729E+01
 11
2.12589817E+02
 21
-7.67756729E+01
  0
LINE
  8
0
 62
6
 10
2.12589816E+02
 20
-7.67756745E+01
 11
2.11339815E+02
 21
-7.80256758E+01
  0
LINE
  8
0
 62
6
 10
2.08539818E+02
 20
-7.80256729E+01
 11
2.11339817E+02
 21
-7.80256729E+01
  0
LINE
  8
0
 62
6
 10
2.07289818E+02
 20
-7.67756729E+01
 11
2.04939816E+02
 21
-7.67756729E+01
  0
LINE
  8
0
 62
6
 10
2.04939816E+02
 20
-8.42775955E+01
 11
2.14939816E+02
 21
-8.42775955E+01
  0
LINE
  8
0
 62
6
 10
2.13439816E+02
 20
-8.04756775E+01
 11
2.14939816E+02
 21
-8.04756775E+01
  0
LINE
  8
0
 62
6
 10
2.14939816E+02
 20
-7.72756729E+01
 11
2.13439816E+02
 21
-7.72756729E+01
  0
LINE
  8
0
 62
6
 10
2.06439816E+02
 20
-7.72756729E+01
 11
2.04939816E+02
 21
-7.72756729E+01
  0
LINE
  8
0
 62
6
 10
2.04939816E+02
 20
-8.04756775E+01
 11
2.06439816E+02
 21
-8.04756775E+01
  0
LINE
  8
0
 62
6
 10
2.04939816E+02
 20
-1.02075676E+02
 11
2.04939816E+02
 21
-7.03756714E+01
  0
LINE
  8
0
 62
6
 10
2.14939816E+02
 20
-1.02075676E+02
 11
2.14939816E+02
 21
-7.03756714E+01
  0
LINE
  8
0
 62
6
 10
2.11765331E+02
 20
-8.03256760E+01
 11
2.08114304E+02
 21
-8.03256760E+01
  0
LINE
  8
0
 62
6
 10
2.09939816E+02
 20
-8.09256744E+01
 11
2.08114304E+02
 21
-8.09256744E+01
  0
LINE
  8
0
 62
6
 10
2.11765331E+02
 20
-8.09256744E+01
 11
2.09939816E+02
 21
-8.09256744E+01
  0
LINE
  8
0
 62
6
 10
2.05732711E+02
 20
-7.81685732E+01
 11
2.07146925E+02
 21
-7.95827867E+01
  0
LINE
  8
0
 62
6
 10
2.05732711E+02
 20
-7.95827867E+01
 11
2.07146925E+02
 21
-7.81685732E+01
  0
LINE
  8
0
 62
6
 10
2.14146924E+02
 20
-7.95827840E+01
 11
2.12732711E+02
 21
-7.81685705E+01
  0
LINE
  8
0
 62
6
 10
2.14146924E+02
 20
-7.81685705E+01
 11
2.12732711E+02
 21
-7.95827840E+01
  0
LINE
  8
0
 62
7
 10
2.19389816E+02
 20
-7.03756714E+01
 11
2.03889816E+02
 21
-7.03756714E+01
  0
LINE
  8
0
 62
6
 10
2.18039818E+02
 20
-1.13375671E+02
 11
2.08639816E+02
 21
-1.13375671E+02
  0
LINE
  8
0
 62
6
 10
2.14839817E+02
 20
-1.18375671E+02
 11
2.14839817E+02
 21
-1.13375671E+02
  0
LINE
  8
0
 62
6
 10
2.11839817E+02
 20
-1.18375671E+02
 11
2.14839817E+02
 21
-1.18375671E+02
  0
LINE
  8
0
 62
6
 10
2.11839817E+02
 20
-1.18375671E+02
 11
2.11839817E+02
 21
-1.13375671E+02
  0
LINE
  8
0
 62
6
 10
2.10945446E+02
 20
-1.39416496E+02
 11
2.10689817E+02
 21
-1.38975678E+02
  0
LINE
  8
0
 62
6
 10
2.15989819E+02
 20
-1.38975673E+02
 11
2.15734189E+02
 21
-1.39416493E+02
  0
LINE
  8
0
 62
6
 10
2.12195443E+02
 20
-1.38166490E+02
 11
2.11939813E+02
 21
-1.37725673E+02
  0
LINE
  8
0
 62
6
 10
2.10689818E+02
 20
-1.38975676E+02
 11
2.11939818E+02
 21
-1.37725676E+02
  0
LINE
  8
0
 62
6
 10
2.12195447E+02
 20
-1.38166494E+02
 11
2.10945447E+02
 21
-1.39416494E+02
  0
LINE
  8
0
 62
6
 10
2.14484187E+02
 20
-1.38166491E+02
 11
2.14739817E+02
 21
-1.37725673E+02
  0
LINE
  8
0
 62
6
 10
2.18339817E+02
 20
-1.32284859E+02
 11
2.08339817E+02
 21
-1.32284859E+02
  0
LINE
  8
0
 62
6
 10
2.14484189E+02
 20
-1.38166494E+02
 11
2.15734190E+02
 21
-1.39416496E+02
  0
LINE
  8
0
 62
6
 10
2.18339817E+02
 20
-1.39416492E+02
 11
2.15734188E+02
 21
-1.39416492E+02
  0
LINE
  8
0
 62
6
 10
2.10945446E+02
 20
-1.39416492E+02
 11
2.08339817E+02
 21
-1.39416492E+02
  0
LINE
  8
0
 62
6
 10
2.12195446E+02
 20
-1.38166492E+02
 11
2.14484188E+02
 21
-1.38166492E+02
  0
LINE
  8
0
 62
6
 10
2.18339817E+02
 20
-1.38975674E+02
 11
2.15989815E+02
 21
-1.38975674E+02
  0
LINE
  8
0
 62
6
 10
2.15989818E+02
 20
-1.38975676E+02
 11
2.14739816E+02
 21
-1.37725674E+02
  0
LINE
  8
0
 62
6
 10
2.11939816E+02
 20
-1.37725674E+02
 11
2.14739815E+02
 21
-1.37725674E+02
  0
LINE
  8
0
 62
6
 10
2.10689816E+02
 20
-1.38975674E+02
 11
2.08339817E+02
 21
-1.38975674E+02
  0
LINE
  8
0
 62
6
 10
2.16839817E+02
 20
-1.35275673E+02
 11
2.18339817E+02
 21
-1.35275673E+02
  0
LINE
  8
0
 62
6
 10
2.18339817E+02
 20
-1.38475674E+02
 11
2.16839817E+02
 21
-1.38475674E+02
  0
LINE
  8
0
 62
6
 10
2.09839817E+02
 20
-1.38475674E+02
 11
2.08339817E+02
 21
-1.38475674E+02
  0
LINE
  8
0
 62
6
 10
2.08339817E+02
 20
-1.35275673E+02
 11
2.09839817E+02
 21
-1.35275673E+02
  0
LINE
  8
0
 62
6
 10
2.08339817E+02
 20
-1.13675674E+02
 11
2.08339817E+02
 21
-1.45375675E+02
  0
LINE
  8
0
 62
6
 10
2.15165329E+02
 20
-1.35425674E+02
 11
2.11514301E+02
 21
-1.35425674E+02
  0
LINE
  8
0
 62
6
 10
2.11514301E+02
 20
-1.34825676E+02
 11
2.15165329E+02
 21
-1.34825676E+02
  0
LINE
  8
0
 62
6
 10
2.09132709E+02
 20
-1.37582781E+02
 11
2.10546922E+02
 21
-1.36168567E+02
  0
LINE
  8
0
 62
6
 10
2.09132709E+02
 20
-1.36168567E+02
 11
2.10546922E+02
 21
-1.37582781E+02
  0
LINE
  8
0
 62
6
 10
2.17546926E+02
 20
-1.36168571E+02
 11
2.16132712E+02
 21
-1.37582785E+02
  0
LINE
  8
0
 62
6
 10
2.17546926E+02
 20
-1.37582785E+02
 11
2.16132712E+02
 21
-1.36168571E+02
  0
LINE
  8
0
 62
7
 10
2.03889816E+02
 20
-1.45375675E+02
 11
2.19389816E+02
 21
-1.45375675E+02
  0
LINE
  8
0
 62
7
 10
2.04139816E+02
 20
-8.38756714E+01
 11
2.04939816E+02
 21
-8.38756714E+01
  0
LINE
  8
0
 62
6
 10
2.04139816E+02
 20
-1.31875671E+02
 11
2.08339817E+02
 21
-1.31875671E+02
  0
LINE
  8
0
 62
7
 10
2.14939816E+02
 20
-8.38756714E+01
 11
2.19139816E+02
 21
-8.38756714E+01
  0
LINE
  8
0
 62
7
 10
2.18339817E+02
 20
-1.31875671E+02
 11
2.19139816E+02
 21
-1.31875671E+02
  0
LINE
  8
0
 62
7
 10
2.19389816E+02
 20
-1.88382651E+02
 11
2.19389816E+02
 21
-7.03756714E+01
  0
LINE
  8
0
 62
7
 10
2.03889816E+02
 20
-1.88382651E+02
 11
2.03889816E+02
 21
-7.03756714E+01
  0
LINE
  8
0
 62
7
 10
2.11689816E+02
 20
-5.86706696E+01
 11
2.07689816E+02
 21
-5.86706696E+01
  0
LINE
  8
0
 62
7
 10
2.07689816E+02
 20
-6.36706696E+01
 11
2.11689816E+02
 21
-6.36706696E+01
  0
LINE
  8
0
 62
7
 10
2.12689816E+02
 20
-6.63756714E+01
 11
2.06689816E+02
 21
-6.63756714E+01
  0
LINE
  8
0
 62
7
 10
2.13189816E+02
 20
-6.88756714E+01
 11
2.13189816E+02
 21
-6.68756714E+01
  0
LINE
  8
0
 62
7
 10
2.10939816E+02
 20
-6.36706696E+01
 11
2.10939816E+02
 21
-6.63756714E+01
  0
LINE
  8
0
 62
7
 10
2.13189817E+02
 20
-6.68756807E+01
 11
2.12689816E+02
 21
-6.63756802E+01
  0
LINE
  8
0
 62
7
 10
2.12189816E+02
 20
-6.31706747E+01
 11
2.11689815E+02
 21
-6.36706753E+01
  0
LINE
  8
0
 62
7
 10
2.12189821E+02
 20
-5.91706759E+01
 11
2.11689821E+02
 21
-5.86706753E+01
  0
LINE
  8
0
 62
7
 10
2.12189816E+02
 20
-5.91706696E+01
 11
2.12189816E+02
 21
-6.31706696E+01
  0
LINE
  8
0
 62
7
 10
2.06189818E+02
 20
-6.88756747E+01
 11
2.06689818E+02
 21
-6.93756753E+01
  0
LINE
  8
0
 62
7
 10
2.06189815E+02
 20
-6.68756753E+01
 11
2.06689816E+02
 21
-6.63756748E+01
  0
LINE
  8
0
 62
7
 10
2.07189821E+02
 20
-5.91706813E+01
 11
2.07689822E+02
 21
-5.86706807E+01
  0
LINE
  8
0
 62
7
 10
2.07689819E+02
 20
-6.36706780E+01
 11
2.07189819E+02
 21
-6.31706774E+01
  0
LINE
  8
0
 62
7
 10
2.07189816E+02
 20
-5.91706696E+01
 11
2.07189816E+02
 21
-6.31706696E+01
  0
LINE
  8
0
 62
7
 10
2.06189816E+02
 20
-6.88756714E+01
 11
2.06189816E+02
 21
-6.68756714E+01
  0
LINE
  8
0
 62
7
 10
2.08439816E+02
 20
-6.36706696E+01
 11
2.08439816E+02
 21
-6.63756714E+01
  0
LINE
  8
0
 62
7
 10
2.13189814E+02
 20
-6.88756747E+01
 11
2.12689814E+02
 21
-6.93756753E+01
  0
LINE
  8
0
 62
7
 10
2.05989815E+02
 20
-6.93756714E+01
 11
2.13389816E+02
 21
-6.93756714E+01
  0
LINE
  8
0
 62
7
 10
2.13689816E+02
 20
-7.03756714E+01
 11
2.13689816E+02
 21
-6.96756744E+01
  0
LINE
  8
0
 62
7
 10
2.05689816E+02
 20
-7.03756714E+01
 11
2.05689816E+02
 21
-6.96756744E+01
  0
LINE
  8
0
 62
7
 10
2.05689820E+02
 20
-6.96756772E+01
 11
2.05989819E+02
 21
-6.93756780E+01
  0
LINE
  8
0
 62
7
 10
2.13389818E+02
 20
-6.93756780E+01
 11
2.13689818E+02
 21
-6.96756772E+01
  0
LINE
  8
0
 62
7
 10
2.05689816E+02
 20
-6.96756744E+01
 11
2.13689816E+02
 21
-6.96756744E+01
  0
LINE
  8
0
  6
CENTER
 62
2
 10
2.09689816E+02
 20
-5.48893890E+01
 11
2.09689816E+02
 21
-7.18532257E+01
  0
LINE
  8
0
  6
CENTER
 62
6
 10
2.03939816E+02
 20
-7.88756714E+01
 11
2.08939816E+02
 21
-7.88756714E+01
  0
LINE
  8
0
  6
CENTER
 62
6
 10
2.10939816E+02
 20
-7.88756714E+01
 11
2.15939816E+02
 21
-7.88756714E+01
  0
LINE
  8
0
  6
CENTER
 62
6
 10
2.13439816E+02
 20
-8.13756714E+01
 11
2.13439816E+02
 21
-7.63756714E+01
  0
LINE
  8
0
  6
CENTER
 62
6
 10
2.06439816E+02
 20
-8.13756714E+01
 11
2.06439816E+02
 21
-7.63756714E+01
  0
LINE
  8
0
  6
CENTER
 62
6
 10
2.16839817E+02
 20
-1.39375675E+02
 11
2.16839817E+02
 21
-1.34375675E+02
  0
LINE
  8
0
  6
CENTER
 62
6
 10
2.09839817E+02
 20
-1.39375675E+02
 11
2.09839817E+02
 21
-1.34375675E+02
  0
LINE
  8
0
  6
CENTER
 62
6
 10
2.07339817E+02
 20
-1.36875675E+02
 11
2.12339817E+02
 21
-1.36875675E+02
  0
LINE
  8
0
 62
6
 10
2.04139816E+02
 20
-1.45872936E+02
 11
2.19139816E+02
 21
-1.45872936E+02
  0
LINE
  8
0
 62
6
 10
2.04139816E+02
 20
-1.69872934E+02
 11
2.19139816E+02
 21
-1.69872934E+02
  0
LINE
  8
0
 62
6
 10
2.04139816E+02
 20
-1.69872934E+02
 11
2.04139816E+02
 21
-1.45872936E+02
  0
LINE
  8
0
 62
6
 10
2.19139816E+02
 20
-1.69872934E+02
 11
2.19139816E+02
 21
-1.45872936E+02
  0
LINE
  8
0
 62
6
 10
1.92339817E+02
 20
-1.31473755E+02
 11
2.02339817E+02
 21
-1.31473755E+02
  0
LINE
  8
0
 62
6
 10
2.02339817E+02
 20
-1.30975677E+02
 11
1.92339817E+02
 21
-1.30975677E+02
  0
LINE
  8
0
 62
6
 10
2.02339817E+02
 20
-1.30875671E+02
 11
1.92339817E+02
 21
-1.30875671E+02
  0
LINE
  8
0
 62
7
 10
1.88139816E+02
 20
-1.45375675E+02
 11
1.88139816E+02
 21
-7.03756714E+01
  0
LINE
  8
0
 62
7
 10
2.03139816E+02
 20
-1.45375675E+02
 11
2.03139816E+02
 21
-7.03756714E+01
  0
LINE
  8
0
 62
6
 10
2.02339817E+02
 20
-1.13675674E+02
 11
2.02339817E+02
 21
-1.45385391E+02
  0
LINE
  8
0
  6
CENTER
 62
6
 10
2.00239815E+02
 20
-1.29383751E+02
 11
2.00239815E+02
 21
-1.23838974E+02
  0
LINE
  8
0
  6
CENTER
 62
6
 10
1.94439816E+02
 20
-1.29383751E+02
 11
1.94439816E+02
 21
-1.23838974E+02
  0
LINE
  8
0
 62
6
 10
2.00239815E+02
 20
-1.24675674E+02
 11
1.94439816E+02
 21
-1.24675674E+02
  0
LINE
  8
0
 62
6
 10
2.00239815E+02
 20
-1.28675674E+02
 11
1.94439816E+02
 21
-1.28675674E+02
  0
LINE
  8
0
  6
CENTER
 62
6
 10
2.02804230E+02
 20
-1.26675674E+02
 11
1.91927933E+02
 21
-1.26675674E+02
  0
LINE
  8
0
 62
6
 10
1.88939816E+02
 20
-8.48756714E+01
 11
1.98939816E+02
 21
-8.48756714E+01
  0
LINE
  8
0
 62
6
 10
1.88939816E+02
 20
-8.47756729E+01
 11
1.98939816E+02
 21
-8.47756729E+01
  0
LINE
  8
0
  6
CENTER
 62
6
 10
1.91039818E+02
 20
-8.63675995E+01
 11
1.91039818E+02
 21
-9.19123764E+01
  0
LINE
  8
0
  6
CENTER
 62
6
 10
1.96839817E+02
 20
-8.63675995E+01
 11
1.96839817E+02
 21
-9.19123764E+01
  0
LINE
  8
0
 62
6
 10
1.91039818E+02
 20
-9.10756760E+01
 11
1.96839817E+02
 21
-9.10756760E+01
  0
LINE
  8
0
 62
6
 10
1.91039818E+02
 20
-8.70756760E+01
 11
1.96839817E+02
 21
-8.70756760E+01
  0
LINE
  8
0
  6
CENTER
 62
6
 10
1.88475403E+02
 20
-8.90756760E+01
 11
1.99351700E+02
 21
-8.90756760E+01
  0
LINE
  8
0
 62
7
 10
1.88444817E+02
 20
-1.44875675E+02
 11
1.88444817E+02
 21
-1.44375675E+02
  0
LINE
  8
0
 62
7
 10
1.91739815E+02
 20
-1.45375675E+02
 11
1.91739815E+02
 21
-1.44575676E+02
  0
LINE
  8
0
 62
7
 10
1.91444817E+02
 20
-1.44375675E+02
 11
1.91444817E+02
 21
-1.44875675E+02
  0
LINE
  8
0
  6
CENTER
 62
2
 10
1.89939816E+02
 20
-1.46240658E+02
 11
1.89939816E+02
 21
-1.43534286E+02
  0
LINE
  8
0
 62
7
 10
1.91539818E+02
 20
-1.44375675E+02
 11
1.88139816E+02
 21
-1.44375675E+02
  0
LINE
  8
0
  6
CENTER
 62
2
 10
2.01339817E+02
 20
-6.95106888E+01
 11
2.01339817E+02
 21
-7.22170639E+01
  0
LINE
  8
0
  6
CENTER
 62
2
 10
1.88944752E+02
 20
-1.82672935E+02
 11
2.02206352E+02
 21
-1.82672935E+02
  0
LINE
  8
0
 62
7
 10
2.02834816E+02
 20
-7.13756714E+01
 11
2.02834816E+02
 21
-7.08756714E+01
  0
LINE
  8
0
 62
7
 10
1.99834816E+02
 20
-7.13756714E+01
 11
1.99834816E+02
 21
-7.08756714E+01
  0
LINE
  8
0
 62
7
 10
1.99539818E+02
 20
-7.03756714E+01
 11
1.99539818E+02
 21
-7.11756744E+01
  0
LINE
  8
0
 62
7
 10
1.99739815E+02
 20
-7.13756714E+01
 11
2.03139816E+02
 21
-7.13756714E+01
  0
LINE
  8
0
 62
7
 10
2.02339817E+02
 20
-1.17575676E+02
 11
2.03139816E+02
 21
-1.17575676E+02
  0
LINE
  8
0
 62
7
 10
2.00639816E+02
 20
-1.12175674E+02
 11
2.03139816E+02
 21
-1.12175674E+02
  0
LINE
  8
0
 62
7
 10
1.90639816E+02
 20
-1.03075676E+02
 11
1.88139816E+02
 21
-1.03075676E+02
  0
LINE
  8
0
 62
7
 10
1.88939816E+02
 20
-9.76756744E+01
 11
1.88139816E+02
 21
-9.76756744E+01
  0
LINE
  8
0
 62
7
 10
2.03389816E+02
 20
-1.88382651E+02
 11
1.87889816E+02
 21
-1.88382651E+02
  0
LINE
  8
0
  6
PHANTOM
 62
2
 10
1.97439816E+02
 20
-1.69585390E+02
 11
1.97439816E+02
 21
-1.62985390E+02
  0
LINE
  8
0
  6
PHANTOM
 62
2
 10
1.97939816E+02
 20
-1.62485390E+02
 11
2.02539818E+02
 21
-1.62485390E+02
  0
LINE
  8
0
  6
PHANTOM
 62
2
 10
2.03039818E+02
 20
-1.69585390E+02
 11
2.03039818E+02
 21
-1.62985390E+02
  0
LINE
  8
0
  6
PHANTOM
 62
2
 10
1.97939816E+02
 20
-1.70085390E+02
 11
2.02539818E+02
 21
-1.70085390E+02
  0
LINE
  8
0
  6
CENTER
 62
2
 10
1.88723976E+02
 20
-1.63685390E+02
 11
1.93656807E+02
 21
-1.63685390E+02
  0
LINE
  8
0
  6
CENTER
 62
2
 10
1.91139816E+02
 20
-1.66133551E+02
 11
1.91139816E+02
 21
-1.61200718E+02
  0
LINE
  8
0
  6
CENTER
 62
2
 10
1.91139816E+02
 20
-1.58066921E+02
 11
1.91139816E+02
 21
-1.53366222E+02
  0
LINE
  8
0
  6
CENTER
 62
2
 10
1.88840042E+02
 20
-1.55685390E+02
 11
1.93308609E+02
 21
-1.55685390E+02
  0
LINE
  8
0
  6
PHANTOM
 62
2
 10
2.01389816E+02
 20
-1.52685390E+02
 11
2.02639816E+02
 21
-1.52685390E+02
  0
LINE
  8
0
  6
PHANTOM
 62
2
 10
1.88639816E+02
 20
-1.52685390E+02
 11
1.89889816E+02
 21
-1.52685390E+02
  0
LINE
  8
0
  6
PHANTOM
 62
2
 10
1.89889816E+02
 20
-1.53385391E+02
 11
2.01389816E+02
 21
-1.53385391E+02
  0
LINE
  8
0
  6
PHANTOM
 62
2
 10
1.90389816E+02
 20
-1.50385391E+02
 11
2.00889816E+02
 21
-1.50385391E+02
  0
LINE
  8
0
 62
7
 10
2.01389816E+02
 20
-1.45385391E+02
 11
2.02639816E+02
 21
-1.45385391E+02
  0
LINE
  8
0
  6
PHANTOM
 62
2
 10
1.90389816E+02
 20
-1.44385391E+02
 11
2.00889816E+02
 21
-1.44385391E+02
  0
LINE
  8
0
  6
PHANTOM
 62
2
 10
2.01389816E+02
 20
-1.44825096E+02
 11
2.01389816E+02
 21
-1.53385391E+02
  0
LINE
  8
0
  6
PHANTOM
 62
2
 10
1.89889816E+02
 20
-1.53385391E+02
 11
1.89889816E+02
 21
-1.44885391E+02
  0
LINE
  8
0
 62
7
 10
1.88639816E+02
 20
-1.45385391E+02
 11
1.89889816E+02
 21
-1.45385391E+02
  0
LINE
  8
0
  6
PHANTOM
 62
2
 10
1.88639816E+02
 20
-1.70185390E+02
 11
2.02639816E+02
 21
-1.70185390E+02
  0
LINE
  8
0
 62
7
 10
2.03139816E+02
 20
-1.87882651E+02
 11
2.03139816E+02
 21
-1.70685390E+02
  0
LINE
  8
0
 62
7
 10
1.88139816E+02
 20
-1.87882651E+02
 11
1.88139816E+02
 21
-1.70685390E+02
  0
LINE
  8
0
  6
PHANTOM
 62
2
 10
2.03139816E+02
 20
-1.69685390E+02
 11
2.03139816E+02
 21
-1.45885391E+02
  0
LINE
  8
0
  6
PHANTOM
 62
2
 10
1.88139816E+02
 20
-1.69685390E+02
 11
1.88139816E+02
 21
-1.45885391E+02
  0
LINE
  8
0
 62
7
 10
2.02639816E+02
 20
-1.70382650E+02
 11
1.88639816E+02
 21
-1.70382650E+02
  0
LINE
  8
0
  6
CENTER
 62
2
 10
1.95639816E+02
 20
-1.91665973E+02
 11
1.95639816E+02
 21
-6.58907013E+01
  0
LINE
  8
0
 62
6
 10
1.98639816E+02
 20
-1.02375671E+02
 11
1.89239815E+02
 21
-1.02375671E+02
  0
LINE
  8
0
 62
6
 10
1.95439816E+02
 20
-9.73756714E+01
 11
1.95439816E+02
 21
-1.02375671E+02
  0
LINE
  8
0
 62
6
 10
1.92439816E+02
 20
-9.73756714E+01
 11
1.95439816E+02
 21
-9.73756714E+01
  0
LINE
  8
0
 62
6
 10
1.92439816E+02
 20
-9.73756714E+01
 11
1.92439816E+02
 21
-1.02375671E+02
  0
LINE
  8
0
 62
6
 10
1.91545450E+02
 20
-7.63348598E+01
 11
1.91289821E+02
 21
-7.67756773E+01
  0
LINE
  8
0
 62
6
 10
1.96589812E+02
 20
-7.67756743E+01
 11
1.96334187E+02
 21
-7.63348634E+01
  0
LINE
  8
0
 62
6
 10
1.92795446E+02
 20
-7.75848562E+01
 11
1.92539816E+02
 21
-7.80256737E+01
  0
LINE
  8
0
 62
6
 10
1.91289819E+02
 20
-7.67756772E+01
 11
1.92539820E+02
 21
-7.80256785E+01
  0
LINE
  8
0
 62
6
 10
1.92795447E+02
 20
-7.75848589E+01
 11
1.91545446E+02
 21
-7.63348576E+01
  0
LINE
  8
0
 62
6
 10
1.95084186E+02
 20
-7.75848627E+01
 11
1.95339812E+02
 21
-7.80256735E+01
  0
LINE
  8
0
 62
6
 10
1.98939816E+02
 20
-8.34664917E+01
 11
1.88939816E+02
 21
-8.34664917E+01
  0
LINE
  8
0
 62
6
 10
1.95084189E+02
 20
-7.75848589E+01
 11
1.96334188E+02
 21
-7.63348603E+01
  0
LINE
  8
0
 62
6
 10
1.98939816E+02
 20
-7.63348541E+01
 11
1.96334187E+02
 21
-7.63348541E+01
  0
LINE
  8
0
 62
6
 10
1.91545444E+02
 20
-7.63348541E+01
 11
1.88939816E+02
 21
-7.63348541E+01
  0
LINE
  8
0
 62
6
 10
1.92795444E+02
 20
-7.75848541E+01
 11
1.95084187E+02
 21
-7.75848541E+01
  0
LINE
  8
0
 62
6
 10
1.98939816E+02
 20
-7.67756729E+01
 11
1.96589817E+02
 21
-7.67756729E+01
  0
LINE
  8
0
 62
6
 10
1.96589818E+02
 20
-7.67756772E+01
 11
1.95339819E+02
 21
-7.80256758E+01
  0
LINE
  8
0
 62
6
 10
1.92539818E+02
 20
-7.80256729E+01
 11
1.95339817E+02
 21
-7.80256729E+01
  0
LINE
  8
0
 62
6
 10
1.91289818E+02
 20
-7.67756729E+01
 11
1.88939816E+02
 21
-7.67756729E+01
  0
LINE
  8
0
 62
6
 10
1.88939816E+02
 20
-8.42775955E+01
 11
1.98939816E+02
 21
-8.42775955E+01
  0
LINE
  8
0
 62
6
 10
1.97439816E+02
 20
-8.04756775E+01
 11
1.98939816E+02
 21
-8.04756775E+01
  0
LINE
  8
0
 62
6
 10
1.98939816E+02
 20
-7.72756729E+01
 11
1.97439816E+02
 21
-7.72756729E+01
  0
LINE
  8
0
 62
6
 10
1.90439816E+02
 20
-7.72756729E+01
 11
1.88939816E+02
 21
-7.72756729E+01
  0
LINE
  8
0
 62
6
 10
1.88939816E+02
 20
-8.04756775E+01
 11
1.90439816E+02
 21
-8.04756775E+01
  0
LINE
  8
0
 62
6
 10
1.88939816E+02
 20
-1.02075676E+02
 11
1.88939816E+02
 21
-7.03756714E+01
  0
LINE
  8
0
 62
6
 10
1.98939816E+02
 20
-1.02075676E+02
 11
1.98939816E+02
 21
-7.03756714E+01
  0
LINE
  8
0
 62
6
 10
1.95765331E+02
 20
-8.03256760E+01
 11
1.92114304E+02
 21
-8.03256760E+01
  0
LINE
  8
0
 62
6
 10
1.93939816E+02
 20
-8.09256744E+01
 11
1.92114304E+02
 21
-8.09256744E+01
  0
LINE
  8
0
 62
6
 10
1.95765331E+02
 20
-8.09256744E+01
 11
1.93939816E+02
 21
-8.09256744E+01
  0
LINE
  8
0
 62
6
 10
1.89732710E+02
 20
-7.81685678E+01
 11
1.91146924E+02
 21
-7.95827813E+01
  0
LINE
  8
0
 62
6
 10
1.89732710E+02
 20
-7.95827813E+01
 11
1.91146924E+02
 21
-7.81685678E+01
  0
LINE
  8
0
 62
6
 10
1.98146926E+02
 20
-7.95827867E+01
 11
1.96732712E+02
 21
-7.81685732E+01
  0
LINE
  8
0
 62
6
 10
1.98146926E+02
 20
-7.81685732E+01
 11
1.96732712E+02
 21
-7.95827867E+01
  0
LINE
  8
0
 62
7
 10
2.03389816E+02
 20
-7.03756714E+01
 11
1.87889816E+02
 21
-7.03756714E+01
  0
LINE
  8
0
 62
6
 10
2.02039818E+02
 20
-1.13375671E+02
 11
1.92639816E+02
 21
-1.13375671E+02
  0
LINE
  8
0
 62
6
 10
1.98839817E+02
 20
-1.18375671E+02
 11
1.98839817E+02
 21
-1.13375671E+02
  0
LINE
  8
0
 62
6
 10
1.95839817E+02
 20
-1.18375671E+02
 11
1.98839817E+02
 21
-1.18375671E+02
  0
LINE
  8
0
 62
6
 10
1.95839817E+02
 20
-1.18375671E+02
 11
1.95839817E+02
 21
-1.13375671E+02
  0
LINE
  8
0
 62
6
 10
1.94945446E+02
 20
-1.39416496E+02
 11
1.94689816E+02
 21
-1.38975679E+02
  0
LINE
  8
0
 62
6
 10
1.99989818E+02
 20
-1.38975675E+02
 11
1.99734188E+02
 21
-1.39416492E+02
  0
LINE
  8
0
 62
6
 10
1.96195447E+02
 20
-1.38166497E+02
 11
1.95939817E+02
 21
-1.37725680E+02
  0
LINE
  8
0
 62
6
 10
1.94689815E+02
 20
-1.38975673E+02
 11
1.95939815E+02
 21
-1.37725673E+02
  0
LINE
  8
0
 62
6
 10
1.96195450E+02
 20
-1.38166496E+02
 11
1.94945450E+02
 21
-1.39416496E+02
  0
LINE
  8
0
 62
6
 10
1.98484187E+02
 20
-1.38166490E+02
 11
1.98739816E+02
 21
-1.37725673E+02
  0
LINE
  8
0
 62
6
 10
2.02339817E+02
 20
-1.32284859E+02
 11
1.92339817E+02
 21
-1.32284859E+02
  0
LINE
  8
0
 62
6
 10
1.98484186E+02
 20
-1.38166491E+02
 11
1.99734187E+02
 21
-1.39416492E+02
  0
LINE
  8
0
 62
6
 10
2.02339817E+02
 20
-1.39416492E+02
 11
1.99734188E+02
 21
-1.39416492E+02
  0
LINE
  8
0
 62
6
 10
1.94945446E+02
 20
-1.39416492E+02
 11
1.92339817E+02
 21
-1.39416492E+02
  0
LINE
  8
0
 62
6
 10
1.96195446E+02
 20
-1.38166492E+02
 11
1.98484188E+02
 21
-1.38166492E+02
  0
LINE
  8
0
 62
6
 10
2.02339817E+02
 20
-1.38975674E+02
 11
1.99989815E+02
 21
-1.38975674E+02
  0
LINE
  8
0
 62
6
 10
1.99989820E+02
 20
-1.38975678E+02
 11
1.98739818E+02
 21
-1.37725677E+02
  0
LINE
  8
0
 62
6
 10
1.95939816E+02
 20
-1.37725674E+02
 11
1.98739815E+02
 21
-1.37725674E+02
  0
LINE
  8
0
 62
6
 10
1.94689816E+02
 20
-1.38975674E+02
 11
1.92339817E+02
 21
-1.38975674E+02
  0
LINE
  8
0
 62
6
 10
2.00839817E+02
 20
-1.35275673E+02
 11
2.02339817E+02
 21
-1.35275673E+02
  0
LINE
  8
0
 62
6
 10
2.02339817E+02
 20
-1.38475674E+02
 11
2.00839817E+02
 21
-1.38475674E+02
  0
LINE
  8
0
 62
6
 10
1.93839817E+02
 20
-1.38475674E+02
 11
1.92339817E+02
 21
-1.38475674E+02
  0
LINE
  8
0
 62
6
 10
1.92339817E+02
 20
-1.35275673E+02
 11
1.93839817E+02
 21
-1.35275673E+02
  0
LINE
  8
0
 62
6
 10
1.92339817E+02
 20
-1.13675674E+02
 11
1.92339817E+02
 21
-1.45375675E+02
  0
LINE
  8
0
 62
6
 10
1.99165329E+02
 20
-1.35425674E+02
 11
1.95514301E+02
 21
-1.35425674E+02
  0
LINE
  8
0
 62
6
 10
1.95514301E+02
 20
-1.34825676E+02
 11
1.99165329E+02
 21
-1.34825676E+02
  0
LINE
  8
0
 62
6
 10
1.93132711E+02
 20
-1.37582783E+02
 11
1.94546925E+02
 21
-1.36168570E+02
  0
LINE
  8
0
 62
6
 10
1.93132711E+02
 20
-1.36168570E+02
 11
1.94546925E+02
 21
-1.37582783E+02
  0
LINE
  8
0
 62
6
 10
2.01546923E+02
 20
-1.36168568E+02
 11
2.00132709E+02
 21
-1.37582782E+02
  0
LINE
  8
0
 62
6
 10
2.01546923E+02
 20
-1.37582782E+02
 11
2.00132709E+02
 21
-1.36168568E+02
  0
LINE
  8
0
 62
7
 10
1.87889816E+02
 20
-1.45375675E+02
 11
2.03389816E+02
 21
-1.45375675E+02
  0
LINE
  8
0
 62
7
 10
1.88139816E+02
 20
-8.38756714E+01
 11
1.88939816E+02
 21
-8.38756714E+01
  0
LINE
  8
0
 62
6
 10
1.88139816E+02
 20
-1.31875671E+02
 11
1.92339817E+02
 21
-1.31875671E+02
  0
LINE
  8
0
 62
7
 10
1.98939816E+02
 20
-8.38756714E+01
 11
2.03139816E+02
 21
-8.38756714E+01
  0
LINE
  8
0
 62
7
 10
2.02339817E+02
 20
-1.31875671E+02
 11
2.03139816E+02
 21
-1.31875671E+02
  0
LINE
  8
0
 62
7
 10
2.03389816E+02
 20
-1.88382651E+02
 11
2.03389816E+02
 21
-7.03756714E+01
  0
LINE
  8
0
 62
7
 10
1.87889816E+02
 20
-1.88382651E+02
 11
1.87889816E+02
 21
-7.03756714E+01
  0
LINE
  8
0
 62
7
 10
1.95689816E+02
 20
-5.86706696E+01
 11
1.91689816E+02
 21
-5.86706696E+01
  0
LINE
  8
0
 62
7
 10
1.91689816E+02
 20
-6.36706696E+01
 11
1.95689816E+02
 21
-6.36706696E+01
  0
LINE
  8
0
 62
7
 10
1.96689816E+02
 20
-6.63756714E+01
 11
1.90689816E+02
 21
-6.63756714E+01
  0
LINE
  8
0
 62
7
 10
1.97189816E+02
 20
-6.88756714E+01
 11
1.97189816E+02
 21
-6.68756714E+01
  0
LINE
  8
0
 62
7
 10
1.94939816E+02
 20
-6.36706696E+01
 11
1.94939816E+02
 21
-6.63756714E+01
  0
LINE
  8
0
 62
7
 10
1.97189816E+02
 20
-6.68756753E+01
 11
1.96689816E+02
 21
-6.63756748E+01
  0
LINE
  8
0
 62
7
 10
1.96189818E+02
 20
-6.31706774E+01
 11
1.95689817E+02
 21
-6.36706780E+01
  0
LINE
  8
0
 62
7
 10
1.96189815E+02
 20
-5.91706759E+01
 11
1.95689815E+02
 21
-5.86706753E+01
  0
LINE
  8
0
 62
7
 10
1.96189816E+02
 20
-5.91706696E+01
 11
1.96189816E+02
 21
-6.31706696E+01
  0
LINE
  8
0
 62
7
 10
1.90189814E+02
 20
-6.88756720E+01
 11
1.90689815E+02
 21
-6.93756726E+01
  0
LINE
  8
0
 62
7
 10
1.90189811E+02
 20
-6.68756726E+01
 11
1.90689812E+02
 21
-6.63756721E+01
  0
LINE
  8
0
 62
7
 10
1.91189813E+02
 20
-5.91706732E+01
 11
1.91689813E+02
 21
-5.86706727E+01
  0
LINE
  8
0
 62
7
 10
1.91689816E+02
 20
-6.36706753E+01
 11
1.91189815E+02
 21
-6.31706747E+01
  0
LINE
  8
0
 62
7
 10
1.91189816E+02
 20
-5.91706696E+01
 11
1.91189816E+02
 21
-6.31706696E+01
  0
LINE
  8
0
 62
7
 10
1.90189816E+02
 20
-6.88756714E+01
 11
1.90189816E+02
 21
-6.68756714E+01
  0
LINE
  8
0
 62
7
 10
1.92439816E+02
 20
-6.36706696E+01
 11
1.92439816E+02
 21
-6.63756714E+01
  0
LINE
  8
0
 62
7
 10
1.97189816E+02
 20
-6.88756774E+01
 11
1.96689818E+02
 21
-6.93756753E+01
  0
LINE
  8
0
 62
7
 10
1.89989815E+02
 20
-6.93756714E+01
 11
1.97389816E+02
 21
-6.93756714E+01
  0
LINE
  8
0
 62
7
 10
1.97689816E+02
 20
-7.03756714E+01
 11
1.97689816E+02
 21
-6.96756744E+01
  0
LINE
  8
0
 62
7
 10
1.89689816E+02
 20
-7.03756714E+01
 11
1.89689816E+02
 21
-6.96756744E+01
  0
LINE
  8
0
 62
7
 10
1.89689822E+02
 20
-6.96756799E+01
 11
1.89989821E+02
 21
-6.93756807E+01
  0
LINE
  8
0
 62
7
 10
1.97389820E+02
 20
-6.93756807E+01
 11
1.97689814E+02
 21
-6.96756745E+01
  0
LINE
  8
0
 62
7
 10
1.89689816E+02
 20
-6.96756744E+01
 11
1.97689816E+02
 21
-6.96756744E+01
  0
LINE
  8
0
  6
CENTER
 62
2
 10
1.93689816E+02
 20
-5.48893890E+01
 11
1.93689816E+02
 21
-7.18532257E+01
  0
LINE
  8
0
  6
CENTER
 62
6
 10
1.87939819E+02
 20
-7.88756714E+01
 11
1.92939816E+02
 21
-7.88756714E+01
  0
LINE
  8
0
  6
CENTER
 62
6
 10
1.94939816E+02
 20
-7.88756714E+01
 11
1.99939816E+02
 21
-7.88756714E+01
  0
LINE
  8
0
  6
CENTER
 62
6
 10
1.97439816E+02
 20
-8.13756714E+01
 11
1.97439816E+02
 21
-7.63756714E+01
  0
LINE
  8
0
  6
CENTER
 62
6
 10
1.90439816E+02
 20
-8.13756714E+01
 11
1.90439816E+02
 21
-7.63756714E+01
  0
LINE
  8
0
  6
CENTER
 62
6
 10
2.00839817E+02
 20
-1.39375675E+02
 11
2.00839817E+02
 21
-1.34375675E+02
  0
LINE
  8
0
  6
CENTER
 62
6
 10
1.93839817E+02
 20
-1.39375675E+02
 11
1.93839817E+02
 21
-1.34375675E+02
  0
LINE
  8
0
  6
CENTER
 62
6
 10
1.98339817E+02
 20
-1.36875675E+02
 11
2.03339817E+02
 21
-1.36875675E+02
  0
LINE
  8
0
  6
CENTER
 62
6
 10
1.91339817E+02
 20
-1.36875675E+02
 11
1.96339817E+02
 21
-1.36875675E+02
  0
LINE
  8
0
 62
6
 10
1.88139816E+02
 20
-1.45872936E+02
 11
2.03139816E+02
 21
-1.45872936E+02
  0
LINE
  8
0
 62
6
 10
1.88139816E+02
 20
-1.69872934E+02
 11
2.03139816E+02
 21
-1.69872934E+02
  0
LINE
  8
0
 62
6
 10
1.88139816E+02
 20
-1.69872934E+02
 11
1.88139816E+02
 21
-1.45872936E+02
  0
LINE
  8
0
 62
6
 10
2.03139816E+02
 20
-1.69872934E+02
 11
2.03139816E+02
 21
-1.45872936E+02
  0
LINE
  8
0
 62
2
 10
2.36139816E+02
 20
-6.88659515E+01
 11
2.36139816E+02
 21
-6.68659515E+01
  0
LINE
  8
0
 62
6
 10
2.41139816E+02
 20
-8.48659592E+01
 11
2.31139816E+02
 21
-8.48659592E+01
  0
LINE
  8
0
 62
6
 10
2.41139816E+02
 20
-8.47659607E+01
 11
2.31139816E+02
 21
-8.47659607E+01
  0
LINE
  8
0
 62
6
 10
2.31139816E+02
 20
-8.42678833E+01
 11
2.41139816E+02
 21
-8.42678833E+01
  0
LINE
  8
0
  6
CENTER
 62
6
 10
2.39039816E+02
 20
-8.63578796E+01
 11
2.39039816E+02
 21
-9.19026642E+01
  0
LINE
  8
0
  6
CENTER
 62
6
 10
2.33239817E+02
 20
-8.63578796E+01
 11
2.33239817E+02
 21
-9.19026642E+01
  0
LINE
  8
0
 62
6
 10
2.39039816E+02
 20
-9.10659561E+01
 11
2.33239817E+02
 21
-9.10659561E+01
  0
LINE
  8
0
 62
6
 10
2.39039816E+02
 20
-8.70659561E+01
 11
2.33239817E+02
 21
-8.70659561E+01
  0
LINE
  8
0
  6
CENTER
 62
6
 10
2.41550306E+02
 20
-8.90659561E+01
 11
2.30727934E+02
 21
-8.90659561E+01
  0
LINE
  8
0
 62
6
 10
2.41139816E+02
 20
-1.30875671E+02
 11
2.31139816E+02
 21
-1.30875671E+02
  0
LINE
  8
0
 62
6
 10
2.41139816E+02
 20
-1.30975677E+02
 11
2.31139816E+02
 21
-1.30975677E+02
  0
LINE
  8
0
  6
CENTER
 62
6
 10
2.39039816E+02
 20
-1.29383751E+02
 11
2.39039816E+02
 21
-1.23838974E+02
  0
LINE
  8
0
  6
CENTER
 62
6
 10
2.33239817E+02
 20
-1.29383751E+02
 11
2.33239817E+02
 21
-1.23838974E+02
  0
LINE
  8
0
 62
6
 10
2.39039816E+02
 20
-1.24675674E+02
 11
2.33239817E+02
 21
-1.24675674E+02
  0
LINE
  8
0
 62
6
 10
2.39039816E+02
 20
-1.28675674E+02
 11
2.33239817E+02
 21
-1.28675674E+02
  0
LINE
  8
0
  6
CENTER
 62
6
 10
2.41550306E+02
 20
-1.26675674E+02
 11
2.30727934E+02
 21
-1.26675674E+02
  0
LINE
  8
0
 62
6
 10
2.40839816E+02
 20
-1.13375671E+02
 11
2.31439816E+02
 21
-1.13375671E+02
  0
LINE
  8
0
 62
6
 10
2.37639816E+02
 20
-1.18375671E+02
 11
2.37639816E+02
 21
-1.13375671E+02
  0
LINE
  8
0
 62
6
 10
2.34639816E+02
 20
-1.18375671E+02
 11
2.37639816E+02
 21
-1.18375671E+02
  0
LINE
  8
0
 62
6
 10
2.34639816E+02
 20
-1.18375671E+02
 11
2.34639816E+02
 21
-1.13375671E+02
  0
LINE
  8
0
 62
6
 10
2.33745445E+02
 20
-1.39416493E+02
 11
2.33489815E+02
 21
-1.38975676E+02
  0
LINE
  8
0
 62
6
 10
2.38789818E+02
 20
-1.38975676E+02
 11
2.38534188E+02
 21
-1.39416493E+02
  0
LINE
  8
0
 62
6
 10
2.34995446E+02
 20
-1.38166494E+02
 11
2.34739816E+02
 21
-1.37725677E+02
  0
LINE
  8
0
 62
6
 10
2.33489816E+02
 20
-1.38975674E+02
 11
2.34739816E+02
 21
-1.37725674E+02
  0
LINE
  8
0
 62
6
 10
2.34995446E+02
 20
-1.38166491E+02
 11
2.33745446E+02
 21
-1.39416491E+02
  0
LINE
  8
0
 62
6
 10
2.37284188E+02
 20
-1.38166490E+02
 11
2.37539817E+02
 21
-1.37725672E+02
  0
LINE
  8
0
 62
6
 10
2.41139816E+02
 20
-1.32284859E+02
 11
2.31139816E+02
 21
-1.32284859E+02
  0
LINE
  8
0
 62
6
 10
2.37284187E+02
 20
-1.38166492E+02
 11
2.38534188E+02
 21
-1.39416494E+02
  0
LINE
  8
0
 62
6
 10
2.41139816E+02
 20
-1.39416492E+02
 11
2.38534186E+02
 21
-1.39416492E+02
  0
LINE
  8
0
 62
6
 10
2.33745445E+02
 20
-1.39416492E+02
 11
2.31139816E+02
 21
-1.39416492E+02
  0
LINE
  8
0
 62
6
 10
2.34995445E+02
 20
-1.38166492E+02
 11
2.37284186E+02
 21
-1.38166492E+02
  0
LINE
  8
0
 62
6
 10
2.41139816E+02
 20
-1.38975674E+02
 11
2.38789816E+02
 21
-1.38975674E+02
  0
LINE
  8
0
 62
6
 10
2.38789818E+02
 20
-1.38975677E+02
 11
2.37539816E+02
 21
-1.37725676E+02
  0
LINE
  8
0
 62
6
 10
2.34739817E+02
 20
-1.37725674E+02
 11
2.37539816E+02
 21
-1.37725674E+02
  0
LINE
  8
0
 62
6
 10
2.33489817E+02
 20
-1.38975674E+02
 11
2.31139816E+02
 21
-1.38975674E+02
  0
LINE
  8
0
 62
6
 10
2.31139816E+02
 20
-1.31473755E+02
 11
2.41139816E+02
 21
-1.31473755E+02
  0
LINE
  8
0
 62
6
 10
2.39639816E+02
 20
-1.35275673E+02
 11
2.41139816E+02
 21
-1.35275673E+02
  0
LINE
  8
0
 62
6
 10
2.41139816E+02
 20
-1.38475674E+02
 11
2.39639816E+02
 21
-1.38475674E+02
  0
LINE
  8
0
 62
6
 10
2.32639816E+02
 20
-1.38475674E+02
 11
2.31139816E+02
 21
-1.38475674E+02
  0
LINE
  8
0
 62
6
 10
2.31139816E+02
 20
-1.35275673E+02
 11
2.32639816E+02
 21
-1.35275673E+02
  0
LINE
  8
0
 62
6
 10
2.37965330E+02
 20
-1.35425674E+02
 11
2.34314302E+02
 21
-1.35425674E+02
  0
LINE
  8
0
 62
6
 10
2.36139816E+02
 20
-1.34825676E+02
 11
2.34314302E+02
 21
-1.34825676E+02
  0
LINE
  8
0
 62
6
 10
2.37965330E+02
 20
-1.34825676E+02
 11
2.36139816E+02
 21
-1.34825676E+02
  0
LINE
  8
0
 62
6
 10
2.31932709E+02
 20
-1.37582782E+02
 11
2.33346923E+02
 21
-1.36168569E+02
  0
LINE
  8
0
 62
6
 10
2.31932709E+02
 20
-1.36168569E+02
 11
2.33346923E+02
 21
-1.37582782E+02
  0
LINE
  8
0
 62
6
 10
2.40346923E+02
 20
-1.36168570E+02
 11
2.38932710E+02
 21
-1.37582784E+02
  0
LINE
  8
0
 62
6
 10
2.40346923E+02
 20
-1.37582784E+02
 11
2.38932710E+02
 21
-1.36168570E+02
  0
LINE
  8
0
 62
6
 10
2.40839816E+02
 20
-1.02365959E+02
 11
2.31439816E+02
 21
-1.02365959E+02
  0
LINE
  8
0
 62
6
 10
2.37639816E+02
 20
-9.73659592E+01
 11
2.37639816E+02
 21
-1.02365959E+02
  0
LINE
  8
0
 62
6
 10
2.34639816E+02
 20
-9.73659592E+01
 11
2.37639816E+02
 21
-9.73659592E+01
  0
LINE
  8
0
 62
6
 10
2.34639816E+02
 20
-9.73659592E+01
 11
2.34639816E+02
 21
-1.02365959E+02
  0
LINE
  8
0
 62
6
 10
2.33745448E+02
 20
-7.63251381E+01
 11
2.33489819E+02
 21
-7.67659556E+01
  0
LINE
  8
0
 62
6
 10
2.38789813E+02
 20
-7.67659565E+01
 11
2.38534183E+02
 21
-7.63251390E+01
  0
LINE
  8
0
 62
6
 10
2.34995451E+02
 20
-7.75751383E+01
 11
2.34739821E+02
 21
-7.80159558E+01
  0
LINE
  8
0
 62
6
 10
2.33489816E+02
 20
-7.67659558E+01
 11
2.34739817E+02
 21
-7.80159571E+01
  0
LINE
  8
0
 62
6
 10
2.34995450E+02
 20
-7.75751429E+01
 11
2.33745448E+02
 21
-7.63251416E+01
  0
LINE
  8
0
 62
6
 10
2.37284185E+02
 20
-7.75751458E+01
 11
2.37539814E+02
 21
-7.80159633E+01
  0
LINE
  8
0
 62
6
 10
2.41139816E+02
 20
-8.34567795E+01
 11
2.31139816E+02
 21
-8.34567795E+01
  0
LINE
  8
0
 62
6
 10
2.37284192E+02
 20
-7.75751429E+01
 11
2.38534188E+02
 21
-7.63251470E+01
  0
LINE
  8
0
 62
6
 10
2.41139816E+02
 20
-7.63251419E+01
 11
2.38534186E+02
 21
-7.63251419E+01
  0
LINE
  8
0
 62
6
 10
2.33745445E+02
 20
-7.63251419E+01
 11
2.31139816E+02
 21
-7.63251419E+01
  0
LINE
  8
0
 62
6
 10
2.34995445E+02
 20
-7.75751419E+01
 11
2.37284186E+02
 21
-7.75751419E+01
  0
LINE
  8
0
 62
6
 10
2.41139816E+02
 20
-7.67659607E+01
 11
2.38789816E+02
 21
-7.67659607E+01
  0
LINE
  8
0
 62
6
 10
2.38789820E+02
 20
-7.67659612E+01
 11
2.37539819E+02
 21
-7.80159625E+01
  0
LINE
  8
0
 62
6
 10
2.34739817E+02
 20
-7.80159607E+01
 11
2.37539816E+02
 21
-7.80159607E+01
  0
LINE
  8
0
 62
6
 10
2.33489817E+02
 20
-7.67659607E+01
 11
2.31139816E+02
 21
-7.67659607E+01
  0
LINE
  8
0
 62
6
 10
2.39639816E+02
 20
-8.04659576E+01
 11
2.41139816E+02
 21
-8.04659576E+01
  0
LINE
  8
0
 62
6
 10
2.41139816E+02
 20
-7.72659607E+01
 11
2.39639816E+02
 21
-7.72659607E+01
  0
LINE
  8
0
 62
6
 10
2.32639816E+02
 20
-7.72659607E+01
 11
2.31139816E+02
 21
-7.72659607E+01
  0
LINE
  8
0
 62
6
 10
2.31139816E+02
 20
-8.04659576E+01
 11
2.32639816E+02
 21
-8.04659576E+01
  0
LINE
  8
0
 62
6
 10
2.31139816E+02
 20
-1.02065956E+02
 11
2.31139816E+02
 21
-7.03659592E+01
  0
LINE
  8
0
 62
6
 10
2.41139816E+02
 20
-1.02065956E+02
 11
2.41139816E+02
 21
-7.03659592E+01
  0
LINE
  8
0
 62
6
 10
2.37965330E+02
 20
-8.03159561E+01
 11
2.34314302E+02
 21
-8.03159561E+01
  0
LINE
  8
0
 62
6
 10
2.36139816E+02
 20
-8.09159546E+01
 11
2.34314302E+02
 21
-8.09159546E+01
  0
LINE
  8
0
 62
6
 10
2.37965330E+02
 20
-8.09159546E+01
 11
2.36139816E+02
 21
-8.09159546E+01
  0
LINE
  8
0
 62
6
 10
2.31932710E+02
 20
-7.81588545E+01
 11
2.33346924E+02
 21
-7.95730680E+01
  0
LINE
  8
0
 62
6
 10
2.31932710E+02
 20
-7.95730680E+01
 11
2.33346924E+02
 21
-7.81588545E+01
  0
LINE
  8
0
 62
6
 10
2.40346921E+02
 20
-7.95730680E+01
 11
2.38932707E+02
 21
-7.81588545E+01
  0
LINE
  8
0
 62
6
 10
2.40346921E+02
 20
-7.81588545E+01
 11
2.38932707E+02
 21
-7.95730680E+01
  0
LINE
  8
0
 62
6
 10
2.31139816E+02
 20
-7.03659592E+01
 11
2.41139816E+02
 21
-7.03659592E+01
  0
LINE
  8
0
  6
PHANTOM
 62
2
 10
2.41239817E+02
 20
-1.65372934E+02
 11
2.31039816E+02
 21
-1.65372934E+02
  0
LINE
  8
0
  6
PHANTOM
 62
2
 10
2.41239817E+02
 20
-1.65372934E+02
 11
2.41239817E+02
 21
-1.45375675E+02
  0
LINE
  8
0
  6
PHANTOM
 62
2
 10
2.31039816E+02
 20
-1.65372934E+02
 11
2.31039816E+02
 21
-1.45375675E+02
  0
LINE
  8
0
  6
PHANTOM
 62
2
 10
2.34039816E+02
 20
-1.45375675E+02
 11
2.34039816E+02
 21
-1.64127453E+02
  0
LINE
  8
0
  6
PHANTOM
 62
2
 10
2.31383610E+02
 20
-1.61274303E+02
 11
2.36695438E+02
 21
-1.61274303E+02
  0
LINE
  8
0
  6
PHANTOM
 62
2
 10
2.31383610E+02
 20
-1.53474304E+02
 11
2.36660261E+02
 21
-1.53474304E+02
  0
LINE
  8
0
  6
PHANTOM
 62
2
 10
2.30398636E+02
 20
-1.48124306E+02
 11
2.37815729E+02
 21
-1.48124306E+02
  0
LINE
  8
0
 62
6
 10
2.41139816E+02
 20
-1.45375675E+02
 11
2.31139816E+02
 21
-1.45375675E+02
  0
LINE
  8
0
 62
7
 10
2.31639816E+02
 20
-1.65372934E+02
 11
2.40639816E+02
 21
-1.65372934E+02
  0
LINE
  8
0
 62
7
 10
2.41389816E+02
 20
-1.88372934E+02
 11
2.30889816E+02
 21
-1.88372934E+02
  0
LINE
  8
0
 62
7
 10
2.41139816E+02
 20
-1.65872934E+02
 11
2.41139816E+02
 21
-1.87872934E+02
  0
LINE
  8
0
 62
7
 10
2.31139816E+02
 20
-1.65872934E+02
 11
2.31139816E+02
 21
-1.87872934E+02
  0
LINE
  8
0
 62
7
 10
2.41389816E+02
 20
-7.03659592E+01
 11
2.41389816E+02
 21
-1.88372934E+02
  0
LINE
  8
0
 62
7
 10
2.30889816E+02
 20
-7.03659592E+01
 11
2.30889816E+02
 21
-1.88372934E+02
  0
LINE
  8
0
  6
CENTER
 62
2
 10
2.36139816E+02
 20
-6.87943573E+01
 11
2.36139816E+02
 21
-1.89432271E+02
  0
LINE
  8
0
 62
7
 10
2.41139816E+02
 20
-1.13675674E+02
 11
2.41139816E+02
 21
-1.02065956E+02
  0
LINE
  8
0
 62
7
 10
2.31139816E+02
 20
-1.02065956E+02
 11
2.31139816E+02
 21
-1.13675674E+02
  0
LINE
  8
0
  6
CENTER
 62
6
 10
2.32639816E+02
 20
-8.13659592E+01
 11
2.32639816E+02
 21
-7.63659592E+01
  0
LINE
  8
0
  6
CENTER
 62
6
 10
2.39639816E+02
 20
-8.13659592E+01
 11
2.39639816E+02
 21
-7.63659592E+01
  0
LINE
  8
0
  6
CENTER
 62
6
 10
2.37139816E+02
 20
-7.88659592E+01
 11
2.42139816E+02
 21
-7.88659592E+01
  0
LINE
  8
0
  6
CENTER
 62
6
 10
2.32639816E+02
 20
-1.39375675E+02
 11
2.32639816E+02
 21
-1.34375675E+02
  0
LINE
  8
0
  6
CENTER
 62
6
 10
2.39639816E+02
 20
-1.39375675E+02
 11
2.39639816E+02
 21
-1.34375675E+02
  0
LINE
  8
0
  6
CENTER
 62
6
 10
2.37139816E+02
 20
-1.36875675E+02
 11
2.42139816E+02
 21
-1.36875675E+02
  0
LINE
  8
0
  6
CENTER
 62
2
 10
2.35189816E+02
 20
-5.48796844E+01
 11
2.35189816E+02
 21
-7.18435059E+01
  0
LINE
  8
0
 62
7
 10
2.31189816E+02
 20
-6.96659546E+01
 11
2.39189816E+02
 21
-6.96659546E+01
  0
LINE
  8
0
 62
7
 10
2.38889818E+02
 20
-6.93659619E+01
 11
2.39189818E+02
 21
-6.96659612E+01
  0
LINE
  8
0
 62
7
 10
2.31189820E+02
 20
-6.96659612E+01
 11
2.31489819E+02
 21
-6.93659619E+01
  0
LINE
  8
0
 62
7
 10
2.31189816E+02
 20
-7.03659592E+01
 11
2.31189816E+02
 21
-6.96659546E+01
  0
LINE
  8
0
 62
7
 10
2.39189816E+02
 20
-7.03659592E+01
 11
2.39189816E+02
 21
-6.96659546E+01
  0
LINE
  8
0
 62
7
 10
2.31489817E+02
 20
-6.93659515E+01
 11
2.38889816E+02
 21
-6.93659515E+01
  0
LINE
  8
0
 62
7
 10
2.38689817E+02
 20
-6.88659560E+01
 11
2.38189817E+02
 21
-6.93659565E+01
  0
LINE
  8
0
 62
7
 10
2.33939816E+02
 20
-6.36609650E+01
 11
2.33939816E+02
 21
-6.63659515E+01
  0
LINE
  8
0
 62
7
 10
2.31689816E+02
 20
-6.88659515E+01
 11
2.31689816E+02
 21
-6.68659515E+01
  0
LINE
  8
0
 62
7
 10
2.32689816E+02
 20
-5.91609650E+01
 11
2.32689816E+02
 21
-6.31609650E+01
  0
LINE
  8
0
 62
7
 10
2.33189817E+02
 20
-6.36609646E+01
 11
2.32689816E+02
 21
-6.31609641E+01
  0
LINE
  8
0
 62
7
 10
2.32689816E+02
 20
-5.91609599E+01
 11
2.33189817E+02
 21
-5.86609593E+01
  0
LINE
  8
0
 62
7
 10
2.31689815E+02
 20
-6.68659593E+01
 11
2.32189816E+02
 21
-6.63659588E+01
  0
LINE
  8
0
 62
7
 10
2.31689815E+02
 20
-6.88659614E+01
 11
2.32189816E+02
 21
-6.93659619E+01
  0
LINE
  8
0
 62
7
 10
2.37689816E+02
 20
-5.91609650E+01
 11
2.37689816E+02
 21
-6.31609650E+01
  0
LINE
  8
0
 62
7
 10
2.37689816E+02
 20
-5.91609652E+01
 11
2.37189816E+02
 21
-5.86609647E+01
  0
LINE
  8
0
 62
7
 10
2.37689816E+02
 20
-6.31609587E+01
 11
2.37189816E+02
 21
-6.36609592E+01
  0
LINE
  8
0
 62
7
 10
2.38689817E+02
 20
-6.68659647E+01
 11
2.38189817E+02
 21
-6.63659642E+01
  0
LINE
  8
0
 62
7
 10
2.36439816E+02
 20
-6.36609650E+01
 11
2.36439816E+02
 21
-6.63659515E+01
  0
LINE
  8
0
 62
7
 10
2.38689816E+02
 20
-6.88659515E+01
 11
2.38689816E+02
 21
-6.68659515E+01
  0
LINE
  8
0
 62
7
 10
2.38189816E+02
 20
-6.63659515E+01
 11
2.32189816E+02
 21
-6.63659515E+01
  0
LINE
  8
0
 62
7
 10
2.33189816E+02
 20
-6.36609650E+01
 11
2.37189816E+02
 21
-6.36609650E+01
  0
LINE
  8
0
 62
7
 10
2.37189816E+02
 20
-5.86609650E+01
 11
2.33189816E+02
 21
-5.86609650E+01
  0
LINE
  8
0
 62
7
 10
2.41139816E+02
 20
-7.03659592E+01
 11
2.41389816E+02
 21
-7.03659592E+01
  0
LINE
  8
0
 62
7
 10
2.31139816E+02
 20
-7.03659592E+01
 11
2.30889816E+02
 21
-7.03659592E+01
  0
LINE
  8
0
 62
7
 10
2.41139816E+02
 20
-1.45375675E+02
 11
2.41389816E+02
 21
-1.45375675E+02
  0
LINE
  8
0
 62
7
 10
2.31139816E+02
 20
-1.45375675E+02
 11
2.30889816E+02
 21
-1.45375675E+02
  0
LINE
  8
0
 62
6
 10
2.31139816E+02
 20
-1.65372934E+02
 11
2.41139816E+02
 21
-1.65372934E+02
  0
LINE
  8
0
 62
6
 10
2.31139816E+02
 20
-1.45372936E+02
 11
2.41139816E+02
 21
-1.45372936E+02
  0
LINE
  8
0
  6
PHANTOM
 62
2
 10
2.31039816E+02
 20
-1.45375675E+02
 11
2.41239817E+02
 21
-1.45375675E+02
  0
LINE
  8
0
 62
2
 10
2.25139816E+02
 20
-6.88659515E+01
 11
2.25139816E+02
 21
-6.68659515E+01
  0
LINE
  8
0
 62
6
 10
2.30139816E+02
 20
-8.48659592E+01
 11
2.20139816E+02
 21
-8.48659592E+01
  0
LINE
  8
0
 62
6
 10
2.30139816E+02
 20
-8.47659607E+01
 11
2.20139816E+02
 21
-8.47659607E+01
  0
LINE
  8
0
 62
6
 10
2.20139816E+02
 20
-8.42678833E+01
 11
2.30139816E+02
 21
-8.42678833E+01
  0
LINE
  8
0
  6
CENTER
 62
6
 10
2.28039816E+02
 20
-8.63578796E+01
 11
2.28039816E+02
 21
-9.19026642E+01
  0
LINE
  8
0
  6
CENTER
 62
6
 10
2.22239817E+02
 20
-8.63578796E+01
 11
2.22239817E+02
 21
-9.19026642E+01
  0
LINE
  8
0
 62
6
 10
2.28039816E+02
 20
-9.10659561E+01
 11
2.22239817E+02
 21
-9.10659561E+01
  0
LINE
  8
0
 62
6
 10
2.28039816E+02
 20
-8.70659561E+01
 11
2.22239817E+02
 21
-8.70659561E+01
  0
LINE
  8
0
  6
CENTER
 62
6
 10
2.30550306E+02
 20
-8.90659561E+01
 11
2.19727932E+02
 21
-8.90659561E+01
  0
LINE
  8
0
 62
6
 10
2.30139816E+02
 20
-1.30875671E+02
 11
2.20139816E+02
 21
-1.30875671E+02
  0
LINE
  8
0
 62
6
 10
2.30139816E+02
 20
-1.30975677E+02
 11
2.20139816E+02
 21
-1.30975677E+02
  0
LINE
  8
0
  6
CENTER
 62
6
 10
2.28039816E+02
 20
-1.29383751E+02
 11
2.28039816E+02
 21
-1.23838974E+02
  0
LINE
  8
0
  6
CENTER
 62
6
 10
2.22239817E+02
 20
-1.29383751E+02
 11
2.22239817E+02
 21
-1.23838974E+02
  0
LINE
  8
0
 62
6
 10
2.28039816E+02
 20
-1.24675674E+02
 11
2.22239817E+02
 21
-1.24675674E+02
  0
LINE
  8
0
 62
6
 10
2.28039816E+02
 20
-1.28675674E+02
 11
2.22239817E+02
 21
-1.28675674E+02
  0
LINE
  8
0
  6
CENTER
 62
6
 10
2.30550306E+02
 20
-1.26675674E+02
 11
2.19727932E+02
 21
-1.26675674E+02
  0
LINE
  8
0
 62
6
 10
2.29839817E+02
 20
-1.13375671E+02
 11
2.20439816E+02
 21
-1.13375671E+02
  0
LINE
  8
0
 62
6
 10
2.26639816E+02
 20
-1.18375671E+02
 11
2.26639816E+02
 21
-1.13375671E+02
  0
LINE
  8
0
 62
6
 10
2.23639816E+02
 20
-1.18375671E+02
 11
2.26639816E+02
 21
-1.18375671E+02
  0
LINE
  8
0
 62
6
 10
2.23639816E+02
 20
-1.18375671E+02
 11
2.23639816E+02
 21
-1.13375671E+02
  0
LINE
  8
0
 62
6
 10
2.22745446E+02
 20
-1.39416496E+02
 11
2.22489817E+02
 21
-1.38975678E+02
  0
LINE
  8
0
 62
6
 10
2.27789817E+02
 20
-1.38975672E+02
 11
2.27534188E+02
 21
-1.39416490E+02
  0
LINE
  8
0
 62
6
 10
2.23995443E+02
 20
-1.38166490E+02
 11
2.23739814E+02
 21
-1.37725673E+02
  0
LINE
  8
0
 62
6
 10
2.22489818E+02
 20
-1.38975677E+02
 11
2.23739818E+02
 21
-1.37725677E+02
  0
LINE
  8
0
 62
6
 10
2.23995447E+02
 20
-1.38166494E+02
 11
2.22745447E+02
 21
-1.39416494E+02
  0
LINE
  8
0
 62
6
 10
2.26284189E+02
 20
-1.38166491E+02
 11
2.26539818E+02
 21
-1.37725674E+02
  0
LINE
  8
0
 62
6
 10
2.30139816E+02
 20
-1.32284859E+02
 11
2.20139816E+02
 21
-1.32284859E+02
  0
LINE
  8
0
 62
6
 10
2.26284186E+02
 20
-1.38166492E+02
 11
2.27534187E+02
 21
-1.39416494E+02
  0
LINE
  8
0
 62
6
 10
2.30139816E+02
 20
-1.39416492E+02
 11
2.27534187E+02
 21
-1.39416492E+02
  0
LINE
  8
0
 62
6
 10
2.22745445E+02
 20
-1.39416492E+02
 11
2.20139816E+02
 21
-1.39416492E+02
  0
LINE
  8
0
 62
6
 10
2.23995445E+02
 20
-1.38166492E+02
 11
2.26284187E+02
 21
-1.38166492E+02
  0
LINE
  8
0
 62
6
 10
2.30139816E+02
 20
-1.38975674E+02
 11
2.27789816E+02
 21
-1.38975674E+02
  0
LINE
  8
0
 62
6
 10
2.27789817E+02
 20
-1.38975677E+02
 11
2.26539816E+02
 21
-1.37725676E+02
  0
LINE
  8
0
 62
6
 10
2.23739817E+02
 20
-1.37725674E+02
 11
2.26539816E+02
 21
-1.37725674E+02
  0
LINE
  8
0
 62
6
 10
2.22489817E+02
 20
-1.38975674E+02
 11
2.20139816E+02
 21
-1.38975674E+02
  0
LINE
  8
0
 62
6
 10
2.20139816E+02
 20
-1.31473755E+02
 11
2.30139816E+02
 21
-1.31473755E+02
  0
LINE
  8
0
 62
6
 10
2.28639816E+02
 20
-1.35275673E+02
 11
2.30139816E+02
 21
-1.35275673E+02
  0
LINE
  8
0
 62
6
 10
2.30139816E+02
 20
-1.38475674E+02
 11
2.28639816E+02
 21
-1.38475674E+02
  0
LINE
  8
0
 62
6
 10
2.21639816E+02
 20
-1.38475674E+02
 11
2.20139816E+02
 21
-1.38475674E+02
  0
LINE
  8
0
 62
6
 10
2.20139816E+02
 20
-1.35275673E+02
 11
2.21639816E+02
 21
-1.35275673E+02
  0
LINE
  8
0
 62
6
 10
2.26965330E+02
 20
-1.35425674E+02
 11
2.23314302E+02
 21
-1.35425674E+02
  0
LINE
  8
0
 62
6
 10
2.25139816E+02
 20
-1.34825676E+02
 11
2.23314302E+02
 21
-1.34825676E+02
  0
LINE
  8
0
 62
6
 10
2.26965330E+02
 20
-1.34825676E+02
 11
2.25139816E+02
 21
-1.34825676E+02
  0
LINE
  8
0
 62
6
 10
2.20932712E+02
 20
-1.37582784E+02
 11
2.22346926E+02
 21
-1.36168570E+02
  0
LINE
  8
0
 62
6
 10
2.20932712E+02
 20
-1.36168570E+02
 11
2.22346923E+02
 21
-1.37582781E+02
  0
LINE
  8
0
 62
6
 10
2.29346924E+02
 20
-1.36168569E+02
 11
2.27932710E+02
 21
-1.37582782E+02
  0
LINE
  8
0
 62
6
 10
2.29346924E+02
 20
-1.37582782E+02
 11
2.27932710E+02
 21
-1.36168569E+02
  0
LINE
  8
0
 62
6
 10
2.29839817E+02
 20
-1.02365959E+02
 11
2.20439816E+02
 21
-1.02365959E+02
  0
LINE
  8
0
 62
6
 10
2.26639816E+02
 20
-9.73659592E+01
 11
2.26639816E+02
 21
-1.02365959E+02
  0
LINE
  8
0
 62
6
 10
2.23639816E+02
 20
-9.73659592E+01
 11
2.26639816E+02
 21
-9.73659592E+01
  0
LINE
  8
0
 62
6
 10
2.23639816E+02
 20
-9.73659592E+01
 11
2.23639816E+02
 21
-1.02365959E+02
  0
LINE
  8
0
 62
6
 10
2.22745452E+02
 20
-7.63251416E+01
 11
2.22489823E+02
 21
-7.67659590E+01
  0
LINE
  8
0
 62
6
 10
2.27789815E+02
 20
-7.67659635E+01
 11
2.27534185E+02
 21
-7.63251460E+01
  0
LINE
  8
0
 62
6
 10
2.23995448E+02
 20
-7.75751379E+01
 11
2.23739819E+02
 21
-7.80159554E+01
  0
LINE
  8
0
 62
6
 10
2.22489820E+02
 20
-7.67659612E+01
 11
2.23739816E+02
 21
-7.80159571E+01
  0
LINE
  8
0
 62
6
 10
2.23995449E+02
 20
-7.75751429E+01
 11
2.22745447E+02
 21
-7.63251416E+01
  0
LINE
  8
0
 62
6
 10
2.26284186E+02
 20
-7.75751443E+01
 11
2.26539815E+02
 21
-7.80159617E+01
  0
LINE
  8
0
 62
6
 10
2.30139816E+02
 20
-8.34567795E+01
 11
2.20139816E+02
 21
-8.34567795E+01
  0
LINE
  8
0
 62
6
 10
2.26284191E+02
 20
-7.75751429E+01
 11
2.27534187E+02
 21
-7.63251470E+01
  0
LINE
  8
0
 62
6
 10
2.30139816E+02
 20
-7.63251419E+01
 11
2.27534187E+02
 21
-7.63251419E+01
  0
LINE
  8
0
 62
6
 10
2.22745445E+02
 20
-7.63251419E+01
 11
2.20139816E+02
 21
-7.63251419E+01
  0
LINE
  8
0
 62
6
 10
2.23995445E+02
 20
-7.75751419E+01
 11
2.26284187E+02
 21
-7.75751419E+01
  0
LINE
  8
0
 62
6
 10
2.30139816E+02
 20
-7.67659607E+01
 11
2.27789816E+02
 21
-7.67659607E+01
  0
LINE
  8
0
 62
6
 10
2.27789820E+02
 20
-7.67659612E+01
 11
2.26539818E+02
 21
-7.80159625E+01
  0
LINE
  8
0
 62
6
 10
2.23739817E+02
 20
-7.80159607E+01
 11
2.26539816E+02
 21
-7.80159607E+01
  0
LINE
  8
0
 62
6
 10
2.22489817E+02
 20
-7.67659607E+01
 11
2.20139816E+02
 21
-7.67659607E+01
  0
LINE
  8
0
 62
6
 10
2.28639816E+02
 20
-8.04659576E+01
 11
2.30139816E+02
 21
-8.04659576E+01
  0
LINE
  8
0
 62
6
 10
2.30139816E+02
 20
-7.72659607E+01
 11
2.28639816E+02
 21
-7.72659607E+01
  0
LINE
  8
0
 62
6
 10
2.21639816E+02
 20
-7.72659607E+01
 11
2.20139816E+02
 21
-7.72659607E+01
  0
LINE
  8
0
 62
6
 10
2.20139816E+02
 20
-8.04659576E+01
 11
2.21639816E+02
 21
-8.04659576E+01
  0
LINE
  8
0
 62
6
 10
2.20139816E+02
 20
-1.02065956E+02
 11
2.20139816E+02
 21
-7.03659592E+01
  0
LINE
  8
0
 62
6
 10
2.30139816E+02
 20
-1.02065956E+02
 11
2.30139816E+02
 21
-7.03659592E+01
  0
LINE
  8
0
 62
6
 10
2.26965330E+02
 20
-8.03159561E+01
 11
2.23314302E+02
 21
-8.03159561E+01
  0
LINE
  8
0
 62
6
 10
2.25139816E+02
 20
-8.09159546E+01
 11
2.23314302E+02
 21
-8.09159546E+01
  0
LINE
  8
0
 62
6
 10
2.26965330E+02
 20
-8.09159546E+01
 11
2.25139816E+02
 21
-8.09159546E+01
  0
LINE
  8
0
 62
6
 10
2.20932710E+02
 20
-7.81588545E+01
 11
2.22346923E+02
 21
-7.95730680E+01
  0
LINE
  8
0
 62
6
 10
2.20932710E+02
 20
-7.95730680E+01
 11
2.22346923E+02
 21
-7.81588545E+01
  0
LINE
  8
0
 62
6
 10
2.29346920E+02
 20
-7.95730680E+01
 11
2.27932706E+02
 21
-7.81588545E+01
  0
LINE
  8
0
 62
6
 10
2.29346920E+02
 20
-7.81588545E+01
 11
2.27932706E+02
 21
-7.95730680E+01
  0
LINE
  8
0
 62
6
 10
2.20139816E+02
 20
-7.03659592E+01
 11
2.30139816E+02
 21
-7.03659592E+01
  0
LINE
  8
0
  6
PHANTOM
 62
2
 10
2.30239817E+02
 20
-1.65372934E+02
 11
2.20039818E+02
 21
-1.65372934E+02
  0
LINE
  8
0
  6
PHANTOM
 62
2
 10
2.30239817E+02
 20
-1.65372934E+02
 11
2.30239817E+02
 21
-1.45375675E+02
  0
LINE
  8
0
  6
PHANTOM
 62
2
 10
2.20039818E+02
 20
-1.65372934E+02
 11
2.20039818E+02
 21
-1.45375675E+02
  0
LINE
  8
0
  6
PHANTOM
 62
2
 10
2.23039816E+02
 20
-1.45375675E+02
 11
2.23039816E+02
 21
-1.64127453E+02
  0
LINE
  8
0
  6
PHANTOM
 62
2
 10
2.20383610E+02
 20
-1.61274303E+02
 11
2.25695438E+02
 21
-1.61274303E+02
  0
LINE
  8
0
  6
PHANTOM
 62
2
 10
2.20383610E+02
 20
-1.53474304E+02
 11
2.25660261E+02
 21
-1.53474304E+02
  0
LINE
  8
0
  6
PHANTOM
 62
2
 10
2.19398636E+02
 20
-1.48124306E+02
 11
2.26815729E+02
 21
-1.48124306E+02
  0
LINE
  8
0
 62
6
 10
2.30139816E+02
 20
-1.45375675E+02
 11
2.20139816E+02
 21
-1.45375675E+02
  0
LINE
  8
0
 62
7
 10
2.20639816E+02
 20
-1.65372934E+02
 11
2.29639816E+02
 21
-1.65372934E+02
  0
LINE
  8
0
 62
7
 10
2.30389816E+02
 20
-1.88372934E+02
 11
2.19889816E+02
 21
-1.88372934E+02
  0
LINE
  8
0
 62
7
 10
2.30139816E+02
 20
-1.65872934E+02
 11
2.30139816E+02
 21
-1.87872934E+02
  0
LINE
  8
0
 62
7
 10
2.20139816E+02
 20
-1.65872934E+02
 11
2.20139816E+02
 21
-1.87872934E+02
  0
LINE
  8
0
 62
7
 10
2.30389816E+02
 20
-7.03659592E+01
 11
2.30389816E+02
 21
-1.88372934E+02
  0
LINE
  8
0
 62
7
 10
2.19889816E+02
 20
-7.03659592E+01
 11
2.19889816E+02
 21
-1.88372934E+02
  0
LINE
  8
0
  6
CENTER
 62
2
 10
2.25139816E+02
 20
-6.87943573E+01
 11
2.25139816E+02
 21
-1.89432271E+02
  0
LINE
  8
0
 62
7
 10
2.30139816E+02
 20
-1.13675674E+02
 11
2.30139816E+02
 21
-1.02065956E+02
  0
LINE
  8
0
 62
7
 10
2.20139816E+02
 20
-1.02065956E+02
 11
2.20139816E+02
 21
-1.13675674E+02
  0
LINE
  8
0
  6
CENTER
 62
6
 10
2.21639816E+02
 20
-8.13659592E+01
 11
2.21639816E+02
 21
-7.63659592E+01
  0
LINE
  8
0
  6
CENTER
 62
6
 10
2.19139816E+02
 20
-7.88659592E+01
 11
2.24139816E+02
 21
-7.88659592E+01
  0
LINE
  8
0
  6
CENTER
 62
6
 10
2.28639816E+02
 20
-8.13659592E+01
 11
2.28639816E+02
 21
-7.63659592E+01
  0
LINE
  8
0
  6
CENTER
 62
6
 10
2.21639816E+02
 20
-1.39375675E+02
 11
2.21639816E+02
 21
-1.34375675E+02
  0
LINE
  8
0
  6
CENTER
 62
6
 10
2.28639816E+02
 20
-1.39375675E+02
 11
2.28639816E+02
 21
-1.34375675E+02
  0
LINE
  8
0
  6
CENTER
 62
2
 10
2.24189816E+02
 20
-5.48796844E+01
 11
2.24189816E+02
 21
-7.18435059E+01
  0
LINE
  8
0
 62
7
 10
2.20189816E+02
 20
-6.96659546E+01
 11
2.28189816E+02
 21
-6.96659546E+01
  0
LINE
  8
0
 62
7
 10
2.27889818E+02
 20
-6.93659619E+01
 11
2.28189817E+02
 21
-6.96659612E+01
  0
LINE
  8
0
 62
7
 10
2.20189819E+02
 20
-6.96659612E+01
 11
2.20489818E+02
 21
-6.93659619E+01
  0
LINE
  8
0
 62
7
 10
2.20189816E+02
 20
-7.03659592E+01
 11
2.20189816E+02
 21
-6.96659546E+01
  0
LINE
  8
0
 62
7
 10
2.28189816E+02
 20
-7.03659592E+01
 11
2.28189816E+02
 21
-6.96659546E+01
  0
LINE
  8
0
 62
7
 10
2.20489817E+02
 20
-6.93659515E+01
 11
2.27889816E+02
 21
-6.93659515E+01
  0
LINE
  8
0
 62
7
 10
2.27689816E+02
 20
-6.88659560E+01
 11
2.27189816E+02
 21
-6.93659565E+01
  0
LINE
  8
0
 62
7
 10
2.22939816E+02
 20
-6.36609650E+01
 11
2.22939816E+02
 21
-6.63659515E+01
  0
LINE
  8
0
 62
7
 10
2.20689816E+02
 20
-6.88659515E+01
 11
2.20689816E+02
 21
-6.68659515E+01
  0
LINE
  8
0
 62
7
 10
2.21689816E+02
 20
-5.91609650E+01
 11
2.21689816E+02
 21
-6.31609650E+01
  0
LINE
  8
0
 62
7
 10
2.22189816E+02
 20
-6.36609646E+01
 11
2.21689815E+02
 21
-6.31609641E+01
  0
LINE
  8
0
 62
7
 10
2.21689815E+02
 20
-5.91609599E+01
 11
2.22189816E+02
 21
-5.86609593E+01
  0
LINE
  8
0
 62
7
 10
2.20689814E+02
 20
-6.68659593E+01
 11
2.21189815E+02
 21
-6.63659588E+01
  0
LINE
  8
0
 62
7
 10
2.20689814E+02
 20
-6.88659614E+01
 11
2.21189815E+02
 21
-6.93659619E+01
  0
LINE
  8
0
 62
7
 10
2.26689816E+02
 20
-5.91609650E+01
 11
2.26689816E+02
 21
-6.31609650E+01
  0
LINE
  8
0
 62
7
 10
2.26689821E+02
 20
-5.91609599E+01
 11
2.26189820E+02
 21
-5.86609593E+01
  0
LINE
  8
0
 62
7
 10
2.26689815E+02
 20
-6.31609587E+01
 11
2.26189815E+02
 21
-6.36609592E+01
  0
LINE
  8
0
 62
7
 10
2.27689816E+02
 20
-6.68659647E+01
 11
2.27189816E+02
 21
-6.63659642E+01
  0
LINE
  8
0
 62
7
 10
2.25439816E+02
 20
-6.36609650E+01
 11
2.25439816E+02
 21
-6.63659515E+01
  0
LINE
  8
0
 62
7
 10
2.27689816E+02
 20
-6.88659515E+01
 11
2.27689816E+02
 21
-6.68659515E+01
  0
LINE
  8
0
 62
7
 10
2.27189816E+02
 20
-6.63659515E+01
 11
2.21189816E+02
 21
-6.63659515E+01
  0
LINE
  8
0
 62
7
 10
2.22189816E+02
 20
-6.36609650E+01
 11
2.26189816E+02
 21
-6.36609650E+01
  0
LINE
  8
0
 62
7
 10
2.26189816E+02
 20
-5.86609650E+01
 11
2.22189816E+02
 21
-5.86609650E+01
  0
LINE
  8
0
 62
7
 10
2.30139816E+02
 20
-7.03659592E+01
 11
2.30389816E+02
 21
-7.03659592E+01
  0
LINE
  8
0
 62
7
 10
2.20139816E+02
 20
-7.03659592E+01
 11
2.19889816E+02
 21
-7.03659592E+01
  0
LINE
  8
0
 62
7
 10
2.30139816E+02
 20
-1.45375675E+02
 11
2.30389816E+02
 21
-1.45375675E+02
  0
LINE
  8
0
 62
7
 10
2.20139816E+02
 20
-1.45375675E+02
 11
2.19889816E+02
 21
-1.45375675E+02
  0
LINE
  8
0
 62
6
 10
2.20139816E+02
 20
-1.65372934E+02
 11
2.30139816E+02
 21
-1.65372934E+02
  0
LINE
  8
0
 62
6
 10
2.20139816E+02
 20
-1.45372936E+02
 11
2.30139816E+02
 21
-1.45372936E+02
  0
LINE
  8
0
  6
PHANTOM
 62
2
 10
2.20039818E+02
 20
-1.45375675E+02
 11
2.30239817E+02
 21
-1.45375675E+02
  0
LINE
  8
0
 62
6
 10
2.20139816E+02
 20
-1.65372934E+02
 11
2.20139816E+02
 21
-1.13675674E+02
  0
LINE
  8
0
 62
6
 10
2.30139816E+02
 20
-1.65372934E+02
 11
2.30139816E+02
 21
-1.13675674E+02
  0
LINE
  8
0
  6
CENTER
 62
6
 10
2.26139816E+02
 20
-1.36875675E+02
 11
2.35139816E+02
 21
-1.36875675E+02
  0
LINE
  8
0
  6
CENTER
 62
6
 10
2.14339817E+02
 20
-1.36875675E+02
 11
2.24139816E+02
 21
-1.36875675E+02
  0
LINE
  8
0
  6
CENTER
 62
6
 10
2.26139816E+02
 20
-7.88659592E+01
 11
2.35139816E+02
 21
-7.88659592E+01
  0
LINE
  8
0
  6
CENTER
 62
2
 10
2.18390953E+02
 20
-1.81372934E+02
 11
2.42720656E+02
 21
-1.81372934E+02
  0
LINE
  8
0
 62
6
 10
2.31139816E+02
 20
-1.65372934E+02
 11
2.31139816E+02
 21
-1.13675674E+02
  0
LINE
  8
0
 62
6
 10
2.41139816E+02
 20
-1.65372934E+02
 11
2.41139816E+02
 21
-1.13675674E+02
  0
LINE
  8
0
  6
CENTER
 62
2
 10
1.85639816E+02
 20
-1.41872936E+02
 11
2.43639816E+02
 21
-1.41872936E+02
  0
LINE
  8
0
  6
CENTER
 62
2
 10
1.65639816E+02
 20
-7.43756714E+01
 11
2.43639816E+02
 21
-7.43756714E+01
  0
LINE
  8
0
 62
7
 10
1.87389816E+02
 20
-8.03714371E+01
 11
1.87639816E+02
 21
-8.03714371E+01
  0
LINE
  8
0
 62
7
 10
1.87389816E+02
 20
-9.13714371E+01
 11
1.87639816E+02
 21
-9.13714371E+01
  0
LINE
  8
0
 62
7
 10
1.87389816E+02
 20
-9.66714401E+01
 11
1.87639816E+02
 21
-9.66714401E+01
  0
LINE
  8
0
 62
7
 10
1.87389816E+02
 20
-1.37671436E+02
 11
1.87639816E+02
 21
-1.37671436E+02
  0
LINE
  8
0
 62
7
 10
1.87639816E+02
 20
-8.03714371E+01
 11
1.87889816E+02
 21
-8.03714371E+01
  0
LINE
  8
0
 62
7
 10
1.87639816E+02
 20
-9.13714371E+01
 11
1.87889816E+02
 21
-9.13714371E+01
  0
LINE
  8
0
 62
7
 10
1.87639816E+02
 20
-9.66714401E+01
 11
1.87889816E+02
 21
-9.66714401E+01
  0
LINE
  8
0
 62
7
 10
1.87639816E+02
 20
-1.37671436E+02
 11
1.87889816E+02
 21
-1.37671436E+02
  0
LINE
  8
0
 62
7
 10
2.03389816E+02
 20
-8.03714371E+01
 11
2.03639816E+02
 21
-8.03714371E+01
  0
LINE
  8
0
 62
7
 10
2.03389816E+02
 20
-9.13714371E+01
 11
2.03639816E+02
 21
-9.13714371E+01
  0
LINE
  8
0
 62
7
 10
2.03389816E+02
 20
-9.66714401E+01
 11
2.03639816E+02
 21
-9.66714401E+01
  0
LINE
  8
0
 62
7
 10
2.03389816E+02
 20
-1.37671436E+02
 11
2.03639816E+02
 21
-1.37671436E+02
  0
LINE
  8
0
 62
7
 10
2.03639816E+02
 20
-8.03714371E+01
 11
2.03889816E+02
 21
-8.03714371E+01
  0
LINE
  8
0
 62
7
 10
2.03639816E+02
 20
-9.13714371E+01
 11
2.03889816E+02
 21
-9.13714371E+01
  0
LINE
  8
0
 62
7
 10
2.03639816E+02
 20
-9.66714401E+01
 11
2.03889816E+02
 21
-9.66714401E+01
  0
LINE
  8
0
 62
7
 10
2.03639816E+02
 20
-1.37671436E+02
 11
2.03889816E+02
 21
-1.37671436E+02
  0
LINE
  8
0
 62
7
 10
2.19389816E+02
 20
-8.03714371E+01
 11
2.19639816E+02
 21
-8.03714371E+01
  0
LINE
  8
0
 62
7
 10
2.19389816E+02
 20
-9.13714371E+01
 11
2.19639816E+02
 21
-9.13714371E+01
  0
LINE
  8
0
 62
7
 10
2.19389816E+02
 20
-9.66714401E+01
 11
2.19639816E+02
 21
-9.66714401E+01
  0
LINE
  8
0
 62
7
 10
2.19389816E+02
 20
-1.37671436E+02
 11
2.19639816E+02
 21
-1.37671436E+02
  0
LINE
  8
0
 62
7
 10
2.19639816E+02
 20
-8.03714371E+01
 11
2.19889816E+02
 21
-8.03714371E+01
  0
LINE
  8
0
 62
7
 10
2.19639816E+02
 20
-9.13714371E+01
 11
2.19889816E+02
 21
-9.13714371E+01
  0
LINE
  8
0
 62
7
 10
2.19639816E+02
 20
-9.66714401E+01
 11
2.19889816E+02
 21
-9.66714401E+01
  0
LINE
  8
0
 62
7
 10
2.19639816E+02
 20
-1.37671436E+02
 11
2.19889816E+02
 21
-1.37671436E+02
  0
LINE
  8
0
 62
7
 10
2.30389816E+02
 20
-8.03714371E+01
 11
2.30639816E+02
 21
-8.03714371E+01
  0
LINE
  8
0
 62
7
 10
2.30389816E+02
 20
-9.13714371E+01
 11
2.30639816E+02
 21
-9.13714371E+01
  0
LINE
  8
0
 62
7
 10
2.30389816E+02
 20
-9.66714401E+01
 11
2.30639816E+02
 21
-9.66714401E+01
  0
LINE
  8
0
 62
7
 10
2.30389816E+02
 20
-1.37671436E+02
 11
2.30639816E+02
 21
-1.37671436E+02
  0
LINE
  8
0
 62
7
 10
2.30639816E+02
 20
-8.03714371E+01
 11
2.30889816E+02
 21
-8.03714371E+01
  0
LINE
  8
0
 62
7
 10
2.30639816E+02
 20
-9.13714371E+01
 11
2.30889816E+02
 21
-9.13714371E+01
  0
LINE
  8
0
 62
7
 10
2.30639816E+02
 20
-9.66714401E+01
 11
2.30889816E+02
 21
-9.66714401E+01
  0
LINE
  8
0
 62
7
 10
2.30639816E+02
 20
-1.37671436E+02
 11
2.30889816E+02
 21
-1.37671436E+02
  0
LINE
  8
0
 62
7
 10
2.41389816E+02
 20
-8.03714371E+01
 11
2.41639816E+02
 21
-8.03714371E+01
  0
LINE
  8
0
 62
7
 10
2.41389816E+02
 20
-9.13714371E+01
 11
2.41639816E+02
 21
-9.13714371E+01
  0
LINE
  8
0
 62
7
 10
2.41389816E+02
 20
-9.66714401E+01
 11
2.41639816E+02
 21
-9.66714401E+01
  0
LINE
  8
0
 62
7
 10
2.41389816E+02
 20
-1.37671436E+02
 11
2.41639816E+02
 21
-1.37671436E+02
  0
LINE
  8
0
  6
CENTER
 62
2
 10
2.52139816E+02
 20
-1.82334168E+02
 11
2.52139816E+02
 21
-2.02707075E+02
  0
LINE
  8
0
  6
CENTER
 62
2
 10
1.58139816E+02
 20
-1.82334168E+02
 11
1.58139816E+02
 21
-2.02707075E+02
  0
LINE
  8
0
 62
6
 10
1.70639816E+02
 20
-1.46075676E+02
 11
1.85639816E+02
 21
-1.46075676E+02
  0
LINE
  8
0
 62
6
 10
1.70639816E+02
 20
-1.70075674E+02
 11
1.70639816E+02
 21
-1.46075676E+02
  0
LINE
  8
0
 62
6
 10
1.85639816E+02
 20
-1.70075674E+02
 11
1.85639816E+02
 21
-1.46075676E+02
  0
LINE
  8
0
  6
PHANTOM
 62
2
 10
2.00239815E+02
 20
-1.70376093E+02
 11
2.00239815E+02
 21
-1.62638451E+02
  0
LINE
  8
0
  6
PHANTOM
 62
2
 10
1.97402878E+02
 20
-1.66285391E+02
 11
2.03204578E+02
 21
-1.66285391E+02
  0
LINE
  8
0
  6
PHANTOM
 62
2
 10
2.16239815E+02
 20
-1.70376093E+02
 11
2.16239815E+02
 21
-1.62638451E+02
  0
LINE
  8
0
  6
PHANTOM
 62
2
 10
2.13402878E+02
 20
-1.66285391E+02
 11
2.19204578E+02
 21
-1.66285391E+02
  0
CIRCLE
  8
0
 62
6
 10
1.82739815E+02
 20
-1.26678413E+02
 40
8.75000000E-01
  0
ARC
  8
0
 62
6
 10
1.82739815E+02
 20
-1.26678413E+02
 40
2.00000000E+00
 50
2.70000000E+02
 51
9.00000002E+01
  0
CIRCLE
  8
0
 62
6
 10
1.76939819E+02
 20
-1.26678413E+02
 40
8.75000000E-01
  0
ARC
  8
0
 62
6
 10
1.76939819E+02
 20
-1.26678413E+02
 40
2.00000000E+00
 50
9.00000002E+01
 51
2.70000000E+02
  0
CIRCLE
  8
0
 62
6
 10
1.79339813E+02
 20
-7.90784149E+01
 40
8.75000000E-01
  0
ARC
  8
0
 62
6
 10
1.79339813E+02
 20
-7.90784149E+01
 40
2.00000000E+00
 50
2.70000000E+02
 51
9.00000002E+01
  0
ARC
  8
0
 62
6
 10
1.73539818E+02
 20
-7.90784149E+01
 40
2.00000000E+00
 50
9.00000002E+01
 51
2.70000000E+02
  0
CIRCLE
  8
0
 62
6
 10
1.73539818E+02
 20
-7.90784149E+01
 40
8.75000000E-01
  0
ARC
  8
0
 62
7
 10
1.70944817E+02
 20
-1.42878414E+02
 40
2.50000000E+00
 50
2.33130097E+02
 51
3.06869898E+02
  0
ARC
  8
0
 62
7
 10
1.71639816E+02
 20
-9.23784180E+01
 40
2.70000005E+00
 50
2.70000000E+02
 51
6.03127398E-13
  0
CIRCLE
  8
0
 62
6
 10
1.76439819E+02
 20
-7.06284180E+01
 40
2.04999995E+00
  0
ARC
  8
0
 62
6
 10
1.79939819E+02
 20
-6.88784180E+01
 40
1.60000002E+00
 50
9.00000002E+01
 51
2.70000000E+02
  0
ARC
  8
0
 62
6
 10
1.72939819E+02
 20
-6.88784180E+01
 40
1.60000002E+00
 50
2.70000000E+02
 51
9.00000002E+01
  0
CIRCLE
  8
0
 62
6
 10
1.76439819E+02
 20
-7.06284180E+01
 40
1.85000002E+00
  0
ARC
  8
0
 62
6
 10
1.76439819E+02
 20
-7.06284180E+01
 40
8.00000012E-01
 50
2.02024309E+02
 51
3.37975688E+02
  0
ARC
  8
0
 62
6
 10
1.76439819E+02
 20
-7.06284180E+01
 40
8.00000012E-01
 50
2.20243121E+01
 51
1.57975691E+02
  0
CIRCLE
  8
0
 62
6
 10
1.79939819E+02
 20
-6.88784180E+01
 40
1.50000000E+00
  0
CIRCLE
  8
0
 62
6
 10
1.72939819E+02
 20
-6.88784180E+01
 40
1.50000000E+00
  0
ARC
  8
0
 62
6
 10
1.81139816E+02
 20
-9.20784149E+01
 40
3.00000012E-01
 50
2.70000000E+02
 51
0.00000000E+00
  0
ARC
  8
0
 62
6
 10
1.71739815E+02
 20
-9.20784149E+01
 40
3.00000012E-01
 50
1.79999995E+02
 51
2.70000000E+02
  0
ARC
  8
0
 62
7
 10
1.71639816E+02
 20
-9.23784180E+01
 40
2.50000000E+00
 50
9.45885648E+01
 51
1.00179126E-05
  0
ARC
  8
0
 62
7
 10
1.85334816E+02
 20
-6.28784180E+01
 40
2.50000000E+00
 50
5.31301018E+01
 51
1.26869903E+02
  0
ARC
  8
0
 62
7
 10
1.84639816E+02
 20
-1.14878418E+02
 40
2.50000000E+00
 50
2.74588566E+02
 51
1.43130097E+02
  0
CIRCLE
  8
0
  6
PHANTOM
 62
2
 10
1.82239815E+02
 20
-1.65975674E+02
 40
3.00000012E-01
  0
CIRCLE
  8
0
  6
PHANTOM
 62
2
 10
1.82239815E+02
 20
-1.66975674E+02
 40
3.00000012E-01
  0
CIRCLE
  8
0
  6
PHANTOM
 62
2
 10
1.83239815E+02
 20
-1.66975674E+02
 40
3.00000012E-01
  0
CIRCLE
  8
0
  6
PHANTOM
 62
2
 10
1.83239815E+02
 20
-1.65975674E+02
 40
3.00000012E-01
  0
CIRCLE
  8
0
  6
PHANTOM
 62
2
 10
1.82739815E+02
 20
-1.66475674E+02
 40
1.20000005E+00
  0
ARC
  8
0
 62
7
 10
1.84639816E+02
 20
-1.14878418E+02
 40
2.70000005E+00
 50
9.00000002E+01
 51
1.46251016E+02
  0
ARC
  8
0
 62
7
 10
1.83739815E+02
 20
-6.11784210E+01
 40
2.00000003E-01
 50
1.79999995E+02
 51
2.70000000E+02
  0
ARC
  8
0
 62
7
 10
1.72539818E+02
 20
-1.44578415E+02
 40
2.00000003E-01
 50
3.54080197E+02
 51
9.00000002E+01
  0
CIRCLE
  8
0
 62
7
 10
1.78139816E+02
 20
-1.82875674E+02
 40
4.94999981E+00
  0
CIRCLE
  8
0
  6
PHANTOM
 62
2
 10
1.82739815E+02
 20
-1.66475674E+02
 40
1.89999998E+00
  0
ARC
  8
0
  6
PHANTOM
 62
2
 10
1.85039818E+02
 20
-1.69885391E+02
 40
5.00000000E-01
 50
2.70000000E+02
 51
0.00000000E+00
  0
ARC
  8
0
  6
PHANTOM
 62
2
 10
1.80439819E+02
 20
-1.69885391E+02
 40
5.00000000E-01
 50
1.79999995E+02
 51
2.70000000E+02
  0
ARC
  8
0
  6
PHANTOM
 62
2
 10
1.85039818E+02
 20
-1.63285389E+02
 40
5.00000000E-01
 50
0.00000000E+00
 51
9.00000002E+01
  0
ARC
  8
0
  6
PHANTOM
 62
2
 10
1.80439819E+02
 20
-1.63285389E+02
 40
5.00000000E-01
 50
9.00000002E+01
 51
1.80000005E+02
  0
CIRCLE
  8
0
  6
PHANTOM
 62
2
 10
1.73639816E+02
 20
-1.63688129E+02
 40
1.75000000E+00
  0
CIRCLE
  8
0
  6
PHANTOM
 62
2
 10
1.73639816E+02
 20
-1.55688129E+02
 40
1.75000000E+00
  0
ARC
  8
0
  6
PHANTOM
 62
2
 10
1.71139816E+02
 20
-1.52375675E+02
 40
5.00000000E-01
 50
1.79999995E+02
 51
2.70000000E+02
  0
ARC
  8
0
  6
PHANTOM
 62
2
 10
1.85139816E+02
 20
-1.52375675E+02
 40
5.00000000E-01
 50
2.70000000E+02
 51
0.00000000E+00
  0
ARC
  8
0
  6
PHANTOM
 62
2
 10
1.72889816E+02
 20
-1.50075676E+02
 40
5.00000000E-01
 50
1.79999995E+02
 51
2.70000000E+02
  0
ARC
  8
0
  6
PHANTOM
 62
2
 10
1.83389816E+02
 20
-1.50075676E+02
 40
5.00000000E-01
 50
2.70000000E+02
 51
0.00000000E+00
  0
ARC
  8
0
  6
PHANTOM
 62
2
 10
1.72889816E+02
 20
-1.45075676E+02
 40
5.00000000E-01
 50
9.00000002E+01
 51
1.80000005E+02
  0
ARC
  8
0
  6
PHANTOM
 62
2
 10
1.83389816E+02
 20
-1.45075676E+02
 40
5.00000000E-01
 50
0.00000000E+00
 51
9.00000002E+01
  0
ARC
  8
0
  6
PHANTOM
 62
2
 10
1.71139816E+02
 20
-1.46075676E+02
 40
5.00000000E-01
 50
9.00000002E+01
 51
1.80000005E+02
  0
ARC
  8
0
  6
PHANTOM
 62
2
 10
1.71139816E+02
 20
-1.69875675E+02
 40
5.00000000E-01
 50
1.79999995E+02
 51
2.70000000E+02
  0
ARC
  8
0
  6
PHANTOM
 62
2
 10
1.85139816E+02
 20
-1.69875675E+02
 40
5.00000000E-01
 50
2.70000000E+02
 51
0.00000000E+00
  0
ARC
  8
0
  6
PHANTOM
 62
2
 10
1.85139816E+02
 20
-1.46075676E+02
 40
5.00000000E-01
 50
0.00000000E+00
 51
9.00000002E+01
  0
ARC
  8
0
 62
7
 10
1.71139816E+02
 20
-1.87885391E+02
 40
5.00000000E-01
 50
1.79999995E+02
 51
2.70000000E+02
  0
ARC
  8
0
 62
7
 10
1.85139816E+02
 20
-1.87885391E+02
 40
5.00000000E-01
 50
2.70000000E+02
 51
0.00000000E+00
  0
ARC
  8
0
 62
7
 10
1.85139816E+02
 20
-1.70885391E+02
 40
5.00000000E-01
 50
0.00000000E+00
 51
9.00000002E+01
  0
ARC
  8
0
 62
7
 10
1.71139816E+02
 20
-1.70885391E+02
 40
5.00000000E-01
 50
9.00000002E+01
 51
1.80000005E+02
  0
ARC
  8
0
 62
6
 10
1.75139816E+02
 20
-1.13678413E+02
 40
3.00000012E-01
 50
9.00000002E+01
 51
1.80000005E+02
  0
ARC
  8
0
 62
6
 10
1.84539818E+02
 20
-1.13678413E+02
 40
3.00000012E-01
 50
0.00000000E+00
 51
9.00000002E+01
  0
CIRCLE
  8
0
 62
6
 10
1.79839813E+02
 20
-1.35128414E+02
 40
2.04999995E+00
  0
ARC
  8
0
 62
6
 10
1.76339813E+02
 20
-1.36878414E+02
 40
1.60000002E+00
 50
2.70000000E+02
 51
9.00000002E+01
  0
ARC
  8
0
 62
6
 10
1.83339813E+02
 20
-1.36878414E+02
 40
1.60000002E+00
 50
9.00000002E+01
 51
2.70000000E+02
  0
CIRCLE
  8
0
 62
6
 10
1.79839813E+02
 20
-1.35128414E+02
 40
1.85000002E+00
  0
ARC
  8
0
 62
6
 10
1.79839813E+02
 20
-1.35128414E+02
 40
8.00000012E-01
 50
2.20243121E+01
 51
1.57975691E+02
  0
ARC
  8
0
 62
6
 10
1.79839813E+02
 20
-1.35128414E+02
 40
8.00000012E-01
 50
2.02024309E+02
 51
3.37975688E+02
  0
CIRCLE
  8
0
 62
6
 10
1.76339813E+02
 20
-1.36878414E+02
 40
1.50000000E+00
  0
CIRCLE
  8
0
 62
6
 10
1.83339813E+02
 20
-1.36878414E+02
 40
1.50000000E+00
  0
CIRCLE
  8
0
 62
6
 10
2.16239815E+02
 20
-1.26675674E+02
 40
8.75000000E-01
  0
ARC
  8
0
 62
6
 10
2.16239815E+02
 20
-1.26675674E+02
 40
2.00000000E+00
 50
2.70000000E+02
 51
9.00000002E+01
  0
CIRCLE
  8
0
 62
6
 10
2.10439816E+02
 20
-1.26675674E+02
 40
8.75000000E-01
  0
ARC
  8
0
 62
6
 10
2.10439816E+02
 20
-1.26675674E+02
 40
2.00000000E+00
 50
9.00000002E+01
 51
2.70000000E+02
  0
CIRCLE
  8
0
 62
6
 10
2.07039818E+02
 20
-8.90756760E+01
 40
8.75000000E-01
  0
ARC
  8
0
 62
6
 10
2.07039818E+02
 20
-8.90756760E+01
 40
2.00000000E+00
 50
9.00000002E+01
 51
2.70000000E+02
  0
CIRCLE
  8
0
 62
6
 10
2.12839817E+02
 20
-8.90756760E+01
 40
8.75000000E-01
  0
ARC
  8
0
 62
6
 10
2.12839817E+02
 20
-8.90756760E+01
 40
2.00000000E+00
 50
2.70000000E+02
 51
9.00000002E+01
  0
ARC
  8
0
 62
7
 10
2.05944817E+02
 20
-1.42875675E+02
 40
2.50000000E+00
 50
2.33130097E+02
 51
3.06869898E+02
  0
ARC
  8
0
 62
7
 10
2.07539818E+02
 20
-1.44575676E+02
 40
2.00000003E-01
 50
0.00000000E+00
 51
9.00000002E+01
  0
ARC
  8
0
 62
7
 10
2.17334816E+02
 20
-7.28756714E+01
 40
2.50000000E+00
 50
5.31301018E+01
 51
1.26869903E+02
  0
ARC
  8
0
 62
7
 10
2.15739815E+02
 20
-7.11756744E+01
 40
2.00000003E-01
 50
1.79999995E+02
 51
2.70000000E+02
  0
ARC
  8
0
 62
7
 10
2.06639816E+02
 20
-1.00375671E+02
 40
2.70000005E+00
 50
2.70000000E+02
 51
3.12205447E+02
  0
ARC
  8
0
 62
7
 10
2.16639816E+02
 20
-1.14875671E+02
 40
2.70000005E+00
 50
9.00000002E+01
 51
1.46251016E+02
  0
ARC
  8
0
 62
7
 10
2.16639816E+02
 20
-1.14875671E+02
 40
2.50000000E+00
 50
3.12843643E+02
 51
1.43130097E+02
  0
ARC
  8
0
 62
7
 10
2.06639816E+02
 20
-1.00375671E+02
 40
2.50000000E+00
 50
1.32843641E+02
 51
3.06869908E+02
  0
CIRCLE
  8
0
  6
PHANTOM
 62
2
 10
2.16239815E+02
 20
-1.66285391E+02
 40
1.89999998E+00
  0
ARC
  8
0
  6
PHANTOM
 62
2
 10
2.18539818E+02
 20
-1.69585390E+02
 40
5.00000000E-01
 50
2.70000000E+02
 51
0.00000000E+00
  0
ARC
  8
0
  6
PHANTOM
 62
2
 10
2.13939816E+02
 20
-1.69585390E+02
 40
5.00000000E-01
 50
1.79999995E+02
 51
2.70000000E+02
  0
ARC
  8
0
  6
PHANTOM
 62
2
 10
2.18539818E+02
 20
-1.62985390E+02
 40
5.00000000E-01
 50
0.00000000E+00
 51
9.00000002E+01
  0
ARC
  8
0
  6
PHANTOM
 62
2
 10
2.13939816E+02
 20
-1.62985390E+02
 40
5.00000000E-01
 50
9.00000002E+01
 51
1.80000005E+02
  0
CIRCLE
  8
0
  6
PHANTOM
 62
2
 10
2.07139816E+02
 20
-1.63685390E+02
 40
1.00000000E+00
  0
CIRCLE
  8
0
  6
PHANTOM
 62
2
 10
2.07139816E+02
 20
-1.63685390E+02
 40
1.75000000E+00
  0
CIRCLE
  8
0
  6
PHANTOM
 62
2
 10
2.07139816E+02
 20
-1.55685390E+02
 40
1.75000000E+00
  0
ARC
  8
0
  6
PHANTOM
 62
2
 10
2.04639816E+02
 20
-1.52185390E+02
 40
5.00000000E-01
 50
1.79999995E+02
 51
2.70000000E+02
  0
ARC
  8
0
  6
PHANTOM
 62
2
 10
2.18639816E+02
 20
-1.52185390E+02
 40
5.00000000E-01
 50
2.70000000E+02
 51
0.00000000E+00
  0
ARC
  8
0
  6
PHANTOM
 62
2
 10
2.06389816E+02
 20
-1.49885391E+02
 40
5.00000000E-01
 50
1.79999995E+02
 51
2.70000000E+02
  0
ARC
  8
0
  6
PHANTOM
 62
2
 10
2.16889816E+02
 20
-1.49885391E+02
 40
5.00000000E-01
 50
2.70000000E+02
 51
0.00000000E+00
  0
ARC
  8
0
  6
PHANTOM
 62
2
 10
2.06389816E+02
 20
-1.44885391E+02
 40
5.00000000E-01
 50
9.00000002E+01
 51
1.80000005E+02
  0
ARC
  8
0
  6
PHANTOM
 62
2
 10
2.16889816E+02
 20
-1.44885391E+02
 40
5.00000000E-01
 50
0.00000000E+00
 51
9.00000002E+01
  0
ARC
  8
0
  6
PHANTOM
 62
2
 10
2.04639816E+02
 20
-1.45885391E+02
 40
5.00000000E-01
 50
9.00000002E+01
 51
1.80000005E+02
  0
ARC
  8
0
  6
PHANTOM
 62
2
 10
2.04639816E+02
 20
-1.69685390E+02
 40
5.00000000E-01
 50
1.79999995E+02
 51
2.70000000E+02
  0
ARC
  8
0
  6
PHANTOM
 62
2
 10
2.18639816E+02
 20
-1.69685390E+02
 40
5.00000000E-01
 50
2.70000000E+02
 51
0.00000000E+00
  0
ARC
  8
0
  6
PHANTOM
 62
2
 10
2.18639816E+02
 20
-1.45885391E+02
 40
5.00000000E-01
 50
0.00000000E+00
 51
9.00000002E+01
  0
CIRCLE
  8
0
 62
7
 10
2.11639816E+02
 20
-1.82672935E+02
 40
4.94999981E+00
  0
ARC
  8
0
 62
7
 10
2.04639816E+02
 20
-1.87882651E+02
 40
5.00000000E-01
 50
1.79999995E+02
 51
2.70000000E+02
  0
ARC
  8
0
 62
7
 10
2.18639816E+02
 20
-1.87882651E+02
 40
5.00000000E-01
 50
2.70000000E+02
 51
0.00000000E+00
  0
ARC
  8
0
 62
7
 10
2.18639816E+02
 20
-1.70882650E+02
 40
5.00000000E-01
 50
0.00000000E+00
 51
9.00000002E+01
  0
ARC
  8
0
 62
7
 10
2.04639816E+02
 20
-1.70882650E+02
 40
5.00000000E-01
 50
9.00000002E+01
 51
1.80000005E+02
  0
ARC
  8
0
 62
7
 10
2.05239815E+02
 20
-1.02075676E+02
 40
3.00000012E-01
 50
1.79999995E+02
 51
2.70000000E+02
  0
ARC
  8
0
 62
6
 10
2.14639816E+02
 20
-1.02075676E+02
 40
3.00000012E-01
 50
2.70000000E+02
 51
0.00000000E+00
  0
CIRCLE
  8
0
 62
6
 10
2.09939816E+02
 20
-8.06256714E+01
 40
2.04999995E+00
  0
ARC
  8
0
 62
6
 10
2.06439816E+02
 20
-7.88756714E+01
 40
1.60000002E+00
 50
2.70000000E+02
 51
9.00000002E+01
  0
ARC
  8
0
 62
6
 10
2.13439816E+02
 20
-7.88756714E+01
 40
1.60000002E+00
 50
9.00000002E+01
 51
2.70000000E+02
  0
CIRCLE
  8
0
 62
6
 10
2.09939816E+02
 20
-8.06256714E+01
 40
1.85000002E+00
  0
ARC
  8
0
 62
6
 10
2.09939816E+02
 20
-8.06256714E+01
 40
8.00000012E-01
 50
2.02024309E+02
 51
3.37975688E+02
  0
ARC
  8
0
 62
6
 10
2.09939816E+02
 20
-8.06256714E+01
 40
8.00000012E-01
 50
2.20243121E+01
 51
1.57975691E+02
  0
CIRCLE
  8
0
 62
6
 10
2.06439816E+02
 20
-7.88756714E+01
 40
1.50000000E+00
  0
CIRCLE
  8
0
 62
6
 10
2.13439816E+02
 20
-7.88756714E+01
 40
1.50000000E+00
  0
ARC
  8
0
 62
6
 10
2.08639816E+02
 20
-1.13675674E+02
 40
3.00000012E-01
 50
9.00000002E+01
 51
1.80000005E+02
  0
ARC
  8
0
 62
6
 10
2.18039818E+02
 20
-1.13675674E+02
 40
3.00000012E-01
 50
0.00000000E+00
 51
9.00000002E+01
  0
CIRCLE
  8
0
 62
6
 10
2.13339817E+02
 20
-1.35125675E+02
 40
2.04999995E+00
  0
ARC
  8
0
 62
6
 10
2.09839817E+02
 20
-1.36875675E+02
 40
1.60000002E+00
 50
2.70000000E+02
 51
9.00000002E+01
  0
ARC
  8
0
 62
6
 10
2.16839817E+02
 20
-1.36875675E+02
 40
1.60000002E+00
 50
9.00000002E+01
 51
2.70000000E+02
  0
CIRCLE
  8
0
 62
6
 10
2.13339817E+02
 20
-1.35125675E+02
 40
1.85000002E+00
  0
ARC
  8
0
 62
6
 10
2.13339817E+02
 20
-1.35125675E+02
 40
8.00000012E-01
 50
2.20243121E+01
 51
1.57975691E+02
  0
ARC
  8
0
 62
6
 10
2.13339817E+02
 20
-1.35125675E+02
 40
8.00000012E-01
 50
2.02024309E+02
 51
3.37975688E+02
  0
CIRCLE
  8
0
 62
6
 10
2.09839817E+02
 20
-1.36875675E+02
 40
1.50000000E+00
  0
CIRCLE
  8
0
 62
6
 10
2.16839817E+02
 20
-1.36875675E+02
 40
1.50000000E+00
  0
CIRCLE
  8
0
 62
6
 10
2.00239815E+02
 20
-1.26675674E+02
 40
8.75000000E-01
  0
ARC
  8
0
 62
6
 10
2.00239815E+02
 20
-1.26675674E+02
 40
2.00000000E+00
 50
2.70000000E+02
 51
9.00000002E+01
  0
CIRCLE
  8
0
 62
6
 10
1.94439816E+02
 20
-1.26675674E+02
 40
8.75000000E-01
  0
ARC
  8
0
 62
6
 10
1.94439816E+02
 20
-1.26675674E+02
 40
2.00000000E+00
 50
9.00000002E+01
 51
2.70000000E+02
  0
CIRCLE
  8
0
 62
6
 10
1.91039818E+02
 20
-8.90756760E+01
 40
8.75000000E-01
  0
ARC
  8
0
 62
6
 10
1.91039818E+02
 20
-8.90756760E+01
 40
2.00000000E+00
 50
9.00000002E+01
 51
2.70000000E+02
  0
CIRCLE
  8
0
 62
6
 10
1.96839817E+02
 20
-8.90756760E+01
 40
8.75000000E-01
  0
ARC
  8
0
 62
6
 10
1.96839817E+02
 20
-8.90756760E+01
 40
2.00000000E+00
 50
2.70000000E+02
 51
9.00000002E+01
  0
ARC
  8
0
 62
7
 10
1.89944817E+02
 20
-1.42875675E+02
 40
2.50000000E+00
 50
2.33130097E+02
 51
3.06869898E+02
  0
ARC
  8
0
 62
7
 10
1.91539818E+02
 20
-1.44575676E+02
 40
2.00000003E-01
 50
0.00000000E+00
 51
9.00000002E+01
  0
ARC
  8
0
 62
7
 10
2.01334816E+02
 20
-7.28756714E+01
 40
2.50000000E+00
 50
5.31301018E+01
 51
1.26869903E+02
  0
ARC
  8
0
 62
7
 10
1.99739815E+02
 20
-7.11756744E+01
 40
2.00000003E-01
 50
1.79999995E+02
 51
2.70000000E+02
  0
ARC
  8
0
 62
7
 10
1.90639816E+02
 20
-1.00375671E+02
 40
2.70000005E+00
 50
2.70000000E+02
 51
3.12205447E+02
  0
ARC
  8
0
 62
7
 10
2.00639816E+02
 20
-1.14875671E+02
 40
2.70000005E+00
 50
9.00000002E+01
 51
1.46251016E+02
  0
ARC
  8
0
 62
7
 10
2.00639816E+02
 20
-1.14875671E+02
 40
2.50000000E+00
 50
3.12843643E+02
 51
1.43130097E+02
  0
ARC
  8
0
 62
7
 10
1.90639816E+02
 20
-1.00375671E+02
 40
2.50000000E+00
 50
1.32843641E+02
 51
3.06869908E+02
  0
CIRCLE
  8
0
  6
PHANTOM
 62
2
 10
2.00239815E+02
 20
-1.66285391E+02
 40
1.89999998E+00
  0
ARC
  8
0
  6
PHANTOM
 62
2
 10
2.02539818E+02
 20
-1.69585390E+02
 40
5.00000000E-01
 50
2.70000000E+02
 51
0.00000000E+00
  0
ARC
  8
0
  6
PHANTOM
 62
2
 10
1.97939816E+02
 20
-1.69585390E+02
 40
5.00000000E-01
 50
1.79999995E+02
 51
2.70000000E+02
  0
ARC
  8
0
  6
PHANTOM
 62
2
 10
2.02539818E+02
 20
-1.62985390E+02
 40
5.00000000E-01
 50
0.00000000E+00
 51
9.00000002E+01
  0
ARC
  8
0
  6
PHANTOM
 62
2
 10
1.97939816E+02
 20
-1.62985390E+02
 40
5.00000000E-01
 50
9.00000002E+01
 51
1.80000005E+02
  0
CIRCLE
  8
0
  6
PHANTOM
 62
2
 10
1.91139816E+02
 20
-1.63685390E+02
 40
1.75000000E+00
  0
CIRCLE
  8
0
  6
PHANTOM
 62
2
 10
1.91139816E+02
 20
-1.55685390E+02
 40
1.75000000E+00
  0
ARC
  8
0
  6
PHANTOM
 62
2
 10
1.88639816E+02
 20
-1.52185390E+02
 40
5.00000000E-01
 50
1.79999995E+02
 51
2.70000000E+02
  0
ARC
  8
0
  6
PHANTOM
 62
2
 10
2.02639816E+02
 20
-1.52185390E+02
 40
5.00000000E-01
 50
2.70000000E+02
 51
0.00000000E+00
  0
ARC
  8
0
  6
PHANTOM
 62
2
 10
1.90389816E+02
 20
-1.49885391E+02
 40
5.00000000E-01
 50
1.79999995E+02
 51
2.70000000E+02
  0
ARC
  8
0
  6
PHANTOM
 62
2
 10
2.00889816E+02
 20
-1.49885391E+02
 40
5.00000000E-01
 50
2.70000000E+02
 51
0.00000000E+00
  0
ARC
  8
0
  6
PHANTOM
 62
2
 10
1.90389816E+02
 20
-1.44885391E+02
 40
5.00000000E-01
 50
9.00000002E+01
 51
1.80000005E+02
  0
ARC
  8
0
  6
PHANTOM
 62
2
 10
2.00889816E+02
 20
-1.44885391E+02
 40
5.00000000E-01
 50
0.00000000E+00
 51
9.00000002E+01
  0
ARC
  8
0
  6
PHANTOM
 62
2
 10
1.88639816E+02
 20
-1.45885391E+02
 40
5.00000000E-01
 50
9.00000002E+01
 51
1.80000005E+02
  0
ARC
  8
0
  6
PHANTOM
 62
2
 10
1.88639816E+02
 20
-1.69685390E+02
 40
5.00000000E-01
 50
1.79999995E+02
 51
2.70000000E+02
  0
ARC
  8
0
  6
PHANTOM
 62
2
 10
2.02639816E+02
 20
-1.69685390E+02
 40
5.00000000E-01
 50
2.70000000E+02
 51
0.00000000E+00
  0
ARC
  8
0
  6
PHANTOM
 62
2
 10
2.02639816E+02
 20
-1.45885391E+02
 40
5.00000000E-01
 50
0.00000000E+00
 51
9.00000002E+01
  0
CIRCLE
  8
0
 62
7
 10
1.95639816E+02
 20
-1.82672935E+02
 40
4.94999981E+00
  0
ARC
  8
0
 62
7
 10
1.88639816E+02
 20
-1.87882651E+02
 40
5.00000000E-01
 50
1.79999995E+02
 51
2.70000000E+02
  0
ARC
  8
0
 62
7
 10
2.02639816E+02
 20
-1.87882651E+02
 40
5.00000000E-01
 50
2.70000000E+02
 51
0.00000000E+00
  0
ARC
  8
0
 62
7
 10
2.02639816E+02
 20
-1.70882650E+02
 40
5.00000000E-01
 50
0.00000000E+00
 51
9.00000002E+01
  0
ARC
  8
0
 62
7
 10
1.88639816E+02
 20
-1.70882650E+02
 40
5.00000000E-01
 50
9.00000002E+01
 51
1.80000005E+02
  0
ARC
  8
0
 62
7
 10
1.89239815E+02
 20
-1.02075676E+02
 40
3.00000012E-01
 50
1.79999995E+02
 51
2.70000000E+02
  0
ARC
  8
0
 62
6
 10
1.98639816E+02
 20
-1.02075676E+02
 40
3.00000012E-01
 50
2.70000000E+02
 51
0.00000000E+00
  0
CIRCLE
  8
0
 62
6
 10
1.93939816E+02
 20
-8.06256714E+01
 40
2.04999995E+00
  0
ARC
  8
0
 62
6
 10
1.90439816E+02
 20
-7.88756714E+01
 40
1.60000002E+00
 50
2.70000000E+02
 51
9.00000002E+01
  0
ARC
  8
0
 62
6
 10
1.97439816E+02
 20
-7.88756714E+01
 40
1.60000002E+00
 50
9.00000002E+01
 51
2.70000000E+02
  0
CIRCLE
  8
0
 62
6
 10
1.93939816E+02
 20
-8.06256714E+01
 40
1.85000002E+00
  0
ARC
  8
0
 62
6
 10
1.93939816E+02
 20
-8.06256714E+01
 40
8.00000012E-01
 50
2.02024309E+02
 51
3.37975688E+02
  0
ARC
  8
0
 62
6
 10
1.93939816E+02
 20
-8.06256714E+01
 40
8.00000012E-01
 50
2.20243121E+01
 51
1.57975691E+02
  0
CIRCLE
  8
0
 62
6
 10
1.90439816E+02
 20
-7.88756714E+01
 40
1.50000000E+00
  0
CIRCLE
  8
0
 62
6
 10
1.97439816E+02
 20
-7.88756714E+01
 40
1.50000000E+00
  0
ARC
  8
0
 62
6
 10
1.92639816E+02
 20
-1.13675674E+02
 40
3.00000012E-01
 50
9.00000002E+01
 51
1.80000005E+02
  0
ARC
  8
0
 62
6
 10
2.02039818E+02
 20
-1.13675674E+02
 40
3.00000012E-01
 50
0.00000000E+00
 51
9.00000002E+01
  0
CIRCLE
  8
0
 62
6
 10
1.97339817E+02
 20
-1.35125675E+02
 40
2.04999995E+00
  0
ARC
  8
0
 62
6
 10
1.93839817E+02
 20
-1.36875675E+02
 40
1.60000002E+00
 50
2.70000000E+02
 51
9.00000002E+01
  0
ARC
  8
0
 62
6
 10
2.00839817E+02
 20
-1.36875675E+02
 40
1.60000002E+00
 50
9.00000002E+01
 51
2.70000000E+02
  0
CIRCLE
  8
0
 62
6
 10
1.97339817E+02
 20
-1.35125675E+02
 40
1.85000002E+00
  0
ARC
  8
0
 62
6
 10
1.97339817E+02
 20
-1.35125675E+02
 40
8.00000012E-01
 50
2.20243121E+01
 51
1.57975691E+02
  0
ARC
  8
0
 62
6
 10
1.97339817E+02
 20
-1.35125675E+02
 40
8.00000012E-01
 50
2.02024309E+02
 51
3.37975688E+02
  0
CIRCLE
  8
0
 62
6
 10
1.93839817E+02
 20
-1.36875675E+02
 40
1.50000000E+00
  0
CIRCLE
  8
0
 62
6
 10
2.00839817E+02
 20
-1.36875675E+02
 40
1.50000000E+00
  0
CIRCLE
  8
0
 62
6
 10
2.39039816E+02
 20
-8.90659561E+01
 40
8.75000000E-01
  0
ARC
  8
0
 62
6
 10
2.39039816E+02
 20
-8.90659561E+01
 40
2.00000000E+00
 50
2.70000000E+02
 51
9.00000002E+01
  0
CIRCLE
  8
0
 62
6
 10
2.33239817E+02
 20
-8.90659561E+01
 40
8.75000000E-01
  0
ARC
  8
0
 62
6
 10
2.33239817E+02
 20
-8.90659561E+01
 40
2.00000000E+00
 50
9.00000002E+01
 51
2.70000000E+02
  0
CIRCLE
  8
0
 62
6
 10
2.39039816E+02
 20
-1.26675674E+02
 40
8.75000000E-01
  0
ARC
  8
0
 62
6
 10
2.39039816E+02
 20
-1.26675674E+02
 40
2.00000000E+00
 50
2.70000000E+02
 51
9.00000002E+01
  0
CIRCLE
  8
0
 62
6
 10
2.33239817E+02
 20
-1.26675674E+02
 40
8.75000000E-01
  0
ARC
  8
0
 62
6
 10
2.33239817E+02
 20
-1.26675674E+02
 40
2.00000000E+00
 50
9.00000002E+01
 51
2.70000000E+02
  0
ARC
  8
0
 62
6
 10
2.31439816E+02
 20
-1.13675674E+02
 40
3.00000012E-01
 50
9.00000002E+01
 51
1.80000005E+02
  0
ARC
  8
0
 62
6
 10
2.40839816E+02
 20
-1.13675674E+02
 40
3.00000012E-01
 50
0.00000000E+00
 51
9.00000002E+01
  0
CIRCLE
  8
0
 62
6
 10
2.36139816E+02
 20
-1.35125675E+02
 40
2.04999995E+00
  0
ARC
  8
0
 62
6
 10
2.32639816E+02
 20
-1.36875675E+02
 40
1.60000002E+00
 50
2.70000000E+02
 51
9.00000002E+01
  0
ARC
  8
0
 62
6
 10
2.39639816E+02
 20
-1.36875675E+02
 40
1.60000002E+00
 50
9.00000002E+01
 51
2.70000000E+02
  0
CIRCLE
  8
0
 62
6
 10
2.36139816E+02
 20
-1.35125675E+02
 40
1.85000002E+00
  0
ARC
  8
0
 62
6
 10
2.36139816E+02
 20
-1.35125675E+02
 40
8.00000012E-01
 50
2.20243121E+01
 51
1.57975691E+02
  0
ARC
  8
0
 62
6
 10
2.36139816E+02
 20
-1.35125675E+02
 40
8.00000012E-01
 50
2.02024309E+02
 51
3.37975688E+02
  0
CIRCLE
  8
0
 62
6
 10
2.32639816E+02
 20
-1.36875675E+02
 40
1.50000000E+00
  0
CIRCLE
  8
0
 62
6
 10
2.39639816E+02
 20
-1.36875675E+02
 40
1.50000000E+00
  0
ARC
  8
0
 62
6
 10
2.31439816E+02
 20
-1.02065956E+02
 40
3.00000012E-01
 50
1.79999995E+02
 51
2.70000000E+02
  0
ARC
  8
0
 62
6
 10
2.40839816E+02
 20
-1.02065956E+02
 40
3.00000012E-01
 50
2.70000000E+02
 51
0.00000000E+00
  0
CIRCLE
  8
0
 62
6
 10
2.36139816E+02
 20
-8.06159592E+01
 40
2.04999995E+00
  0
ARC
  8
0
 62
6
 10
2.32639816E+02
 20
-7.88659592E+01
 40
1.60000002E+00
 50
2.70000000E+02
 51
9.00000002E+01
  0
ARC
  8
0
 62
6
 10
2.39639816E+02
 20
-7.88659592E+01
 40
1.60000002E+00
 50
9.00000002E+01
 51
2.70000000E+02
  0
CIRCLE
  8
0
 62
6
 10
2.36139816E+02
 20
-8.06159592E+01
 40
1.89999998E+00
  0
CIRCLE
  8
0
 62
6
 10
2.36139816E+02
 20
-8.06159592E+01
 40
1.85000002E+00
  0
ARC
  8
0
 62
6
 10
2.36139816E+02
 20
-8.06159592E+01
 40
8.00000012E-01
 50
2.02024309E+02
 51
3.37975688E+02
  0
ARC
  8
0
 62
6
 10
2.36139816E+02
 20
-8.06159592E+01
 40
8.00000012E-01
 50
2.20243121E+01
 51
1.57975691E+02
  0
CIRCLE
  8
0
 62
6
 10
2.32639816E+02
 20
-7.88659592E+01
 40
1.50000000E+00
  0
CIRCLE
  8
0
 62
6
 10
2.39639816E+02
 20
-7.88659592E+01
 40
1.50000000E+00
  0
CIRCLE
  8
0
  6
PHANTOM
 62
2
 10
2.34539816E+02
 20
-1.48624306E+02
 40
3.00000012E-01
  0
CIRCLE
  8
0
  6
PHANTOM
 62
2
 10
2.34039816E+02
 20
-1.48124306E+02
 40
1.89999998E+00
  0
CIRCLE
  8
0
  6
PHANTOM
 62
2
 10
2.34039816E+02
 20
-1.53474304E+02
 40
1.89999998E+00
  0
CIRCLE
  8
0
  6
PHANTOM
 62
2
 10
2.34039816E+02
 20
-1.61274303E+02
 40
1.89999998E+00
  0
CIRCLE
  8
0
  6
PHANTOM
 62
2
 10
2.34039816E+02
 20
-1.48124306E+02
 40
2.40000010E+00
  0
CIRCLE
  8
0
  6
PHANTOM
 62
2
 10
2.34039816E+02
 20
-1.48124306E+02
 40
1.20000005E+00
  0
CIRCLE
  8
0
  6
PHANTOM
 62
2
 10
2.34539816E+02
 20
-1.47624306E+02
 40
3.00000012E-01
  0
CIRCLE
  8
0
  6
PHANTOM
 62
2
 10
2.33539816E+02
 20
-1.47624306E+02
 40
3.00000012E-01
  0
CIRCLE
  8
0
  6
PHANTOM
 62
2
 10
2.33539816E+02
 20
-1.48624306E+02
 40
3.00000012E-01
  0
CIRCLE
  8
0
 62
7
 10
2.36139816E+02
 20
-1.81372934E+02
 40
4.94999981E+00
  0
CIRCLE
  8
0
 62
2
 10
2.36139816E+02
 20
-1.69772934E+02
 40
1.00000000E+00
  0
ARC
  8
0
 62
7
 10
2.40639816E+02
 20
-1.65872934E+02
 40
5.00000000E-01
 50
0.00000000E+00
 51
9.00000002E+01
  0
ARC
  8
0
 62
7
 10
2.31639816E+02
 20
-1.65872934E+02
 40
5.00000000E-01
 50
9.00000002E+01
 51
1.80000005E+02
  0
ARC
  8
0
 62
7
 10
2.31639816E+02
 20
-1.87872934E+02
 40
5.00000000E-01
 50
1.79999995E+02
 51
2.70000000E+02
  0
ARC
  8
0
 62
7
 10
2.40639816E+02
 20
-1.87872934E+02
 40
5.00000000E-01
 50
2.70000000E+02
 51
0.00000000E+00
  0
ARC
  8
0
 62
7
 10
2.39639816E+02
 20
-7.88659592E+01
 40
1.70000005E+00
 50
3.31927512E+02
 51
2.80724873E+01
  0
ARC
  8
0
 62
7
 10
2.32639816E+02
 20
-7.88659592E+01
 40
1.70000005E+00
 50
1.51927518E+02
 51
2.08072492E+02
  0
CIRCLE
  8
0
 62
6
 10
2.28039816E+02
 20
-8.90659561E+01
 40
8.75000000E-01
  0
ARC
  8
0
 62
6
 10
2.28039816E+02
 20
-8.90659561E+01
 40
2.00000000E+00
 50
2.70000000E+02
 51
9.00000002E+01
  0
CIRCLE
  8
0
 62
6
 10
2.22239817E+02
 20
-8.90659561E+01
 40
8.75000000E-01
  0
ARC
  8
0
 62
6
 10
2.22239817E+02
 20
-8.90659561E+01
 40
2.00000000E+00
 50
9.00000002E+01
 51
2.70000000E+02
  0
CIRCLE
  8
0
 62
6
 10
2.28039816E+02
 20
-1.26675674E+02
 40
8.75000000E-01
  0
ARC
  8
0
 62
6
 10
2.28039816E+02
 20
-1.26675674E+02
 40
2.00000000E+00
 50
2.70000000E+02
 51
9.00000002E+01
  0
CIRCLE
  8
0
 62
6
 10
2.22239817E+02
 20
-1.26675674E+02
 40
8.75000000E-01
  0
ARC
  8
0
 62
6
 10
2.22239817E+02
 20
-1.26675674E+02
 40
2.00000000E+00
 50
9.00000002E+01
 51
2.70000000E+02
  0
ARC
  8
0
 62
6
 10
2.20439816E+02
 20
-1.13675674E+02
 40
3.00000012E-01
 50
9.00000002E+01
 51
1.80000005E+02
  0
ARC
  8
0
 62
6
 10
2.29839817E+02
 20
-1.13675674E+02
 40
3.00000012E-01
 50
0.00000000E+00
 51
9.00000002E+01
  0
CIRCLE
  8
0
 62
6
 10
2.25139816E+02
 20
-1.35125675E+02
 40
2.04999995E+00
  0
ARC
  8
0
 62
6
 10
2.21639816E+02
 20
-1.36875675E+02
 40
1.60000002E+00
 50
2.70000000E+02
 51
9.00000002E+01
  0
ARC
  8
0
 62
6
 10
2.28639816E+02
 20
-1.36875675E+02
 40
1.60000002E+00
 50
9.00000002E+01
 51
2.70000000E+02
  0
CIRCLE
  8
0
 62
6
 10
2.25139816E+02
 20
-1.35125675E+02
 40
1.85000002E+00
  0
ARC
  8
0
 62
6
 10
2.25139816E+02
 20
-1.35125675E+02
 40
8.00000012E-01
 50
2.20243121E+01
 51
1.57975691E+02
  0
ARC
  8
0
 62
6
 10
2.25139816E+02
 20
-1.35125675E+02
 40
8.00000012E-01
 50
2.02024309E+02
 51
3.37975688E+02
  0
CIRCLE
  8
0
 62
6
 10
2.21639816E+02
 20
-1.36875675E+02
 40
1.50000000E+00
  0
CIRCLE
  8
0
 62
6
 10
2.28639816E+02
 20
-1.36875675E+02
 40
1.50000000E+00
  0
ARC
  8
0
 62
6
 10
2.20439816E+02
 20
-1.02065956E+02
 40
3.00000012E-01
 50
1.79999995E+02
 51
2.70000000E+02
  0
ARC
  8
0
 62
6
 10
2.29839817E+02
 20
-1.02065956E+02
 40
3.00000012E-01
 50
2.70000000E+02
 51
0.00000000E+00
  0
CIRCLE
  8
0
 62
6
 10
2.25139816E+02
 20
-8.06159592E+01
 40
2.04999995E+00
  0
ARC
  8
0
 62
6
 10
2.21639816E+02
 20
-7.88659592E+01
 40
1.60000002E+00
 50
2.70000000E+02
 51
9.00000002E+01
  0
ARC
  8
0
 62
6
 10
2.28639816E+02
 20
-7.88659592E+01
 40
1.60000002E+00
 50
9.00000002E+01
 51
2.70000000E+02
  0
CIRCLE
  8
0
 62
6
 10
2.25139816E+02
 20
-8.06159592E+01
 40
1.89999998E+00
  0
CIRCLE
  8
0
 62
6
 10
2.25139816E+02
 20
-8.06159592E+01
 40
1.85000002E+00
  0
ARC
  8
0
 62
6
 10
2.25139816E+02
 20
-8.06159592E+01
 40
8.00000012E-01
 50
2.02024309E+02
 51
3.37975688E+02
  0
ARC
  8
0
 62
6
 10
2.25139816E+02
 20
-8.06159592E+01
 40
8.00000012E-01
 50
2.20243121E+01
 51
1.57975691E+02
  0
CIRCLE
  8
0
 62
6
 10
2.21639816E+02
 20
-7.88659592E+01
 40
1.50000000E+00
  0
CIRCLE
  8
0
 62
6
 10
2.28639816E+02
 20
-7.88659592E+01
 40
1.50000000E+00
  0
CIRCLE
  8
0
  6
PHANTOM
 62
2
 10
2.23539816E+02
 20
-1.48624306E+02
 40
3.00000012E-01
  0
CIRCLE
  8
0
  6
PHANTOM
 62
2
 10
2.23039816E+02
 20
-1.48124306E+02
 40
1.89999998E+00
  0
CIRCLE
  8
0
  6
PHANTOM
 62
2
 10
2.23039816E+02
 20
-1.53474304E+02
 40
1.89999998E+00
  0
CIRCLE
  8
0
  6
PHANTOM
 62
2
 10
2.23039816E+02
 20
-1.61274303E+02
 40
1.89999998E+00
  0
CIRCLE
  8
0
  6
PHANTOM
 62
2
 10
2.23039816E+02
 20
-1.48124306E+02
 40
2.40000010E+00
  0
CIRCLE
  8
0
  6
PHANTOM
 62
2
 10
2.23039816E+02
 20
-1.48124306E+02
 40
1.20000005E+00
  0
CIRCLE
  8
0
  6
PHANTOM
 62
2
 10
2.23539816E+02
 20
-1.47624306E+02
 40
3.00000012E-01
  0
CIRCLE
  8
0
  6
PHANTOM
 62
2
 10
2.22539816E+02
 20
-1.47624306E+02
 40
3.00000012E-01
  0
CIRCLE
  8
0
  6
PHANTOM
 62
2
 10
2.22539816E+02
 20
-1.48624306E+02
 40
3.00000012E-01
  0
CIRCLE
  8
0
 62
7
 10
2.25139816E+02
 20
-1.81372934E+02
 40
4.94999981E+00
  0
CIRCLE
  8
0
 62
2
 10
2.25139816E+02
 20
-1.69772934E+02
 40
1.00000000E+00
  0
ARC
  8
0
 62
7
 10
2.29639816E+02
 20
-1.65872934E+02
 40
5.00000000E-01
 50
0.00000000E+00
 51
9.00000002E+01
  0
ARC
  8
0
 62
7
 10
2.20639816E+02
 20
-1.65872934E+02
 40
5.00000000E-01
 50
9.00000002E+01
 51
1.80000005E+02
  0
ARC
  8
0
 62
7
 10
2.20639816E+02
 20
-1.87872934E+02
 40
5.00000000E-01
 50
1.79999995E+02
 51
2.70000000E+02
  0
ARC
  8
0
 62
7
 10
2.29639816E+02
 20
-1.87872934E+02
 40
5.00000000E-01
 50
2.70000000E+02
 51
0.00000000E+00
  0
ARC
  8
0
 62
7
 10
2.28639816E+02
 20
-7.88659592E+01
 40
1.70000005E+00
 50
3.31927512E+02
 51
2.80724873E+01
  0
ARC
  8
0
 62
7
 10
2.21639816E+02
 20
-7.88659592E+01
 40
1.70000005E+00
 50
1.51927518E+02
 51
2.08072492E+02
  0
CIRCLE
  8
0
  6
PHANTOM
 62
2
 10
2.00239815E+02
 20
-1.66285391E+02
 40
1.20000005E+00
  0
CIRCLE
  8
0
  6
PHANTOM
 62
2
 10
2.00739815E+02
 20
-1.65785391E+02
 40
3.00000012E-01
  0
CIRCLE
  8
0
  6
PHANTOM
 62
2
 10
2.00739815E+02
 20
-1.66785391E+02
 40
3.00000012E-01
  0
CIRCLE
  8
0
  6
PHANTOM
 62
2
 10
1.99739815E+02
 20
-1.66785391E+02
 40
3.00000012E-01
  0
CIRCLE
  8
0
  6
PHANTOM
 62
2
 10
1.99739815E+02
 20
-1.65785391E+02
 40
3.00000012E-01
  0
CIRCLE
  8
0
  6
PHANTOM
 62
2
 10
2.16239815E+02
 20
-1.66285391E+02
 40
1.20000005E+00
  0
CIRCLE
  8
0
  6
PHANTOM
 62
2
 10
2.16739815E+02
 20
-1.65785391E+02
 40
3.00000012E-01
  0
CIRCLE
  8
0
  6
PHANTOM
 62
2
 10
2.16739815E+02
 20
-1.66785391E+02
 40
3.00000012E-01
  0
CIRCLE
  8
0
  6
PHANTOM
 62
2
 10
2.15739815E+02
 20
-1.66785391E+02
 40
3.00000012E-01
  0
CIRCLE
  8
0
  6
PHANTOM
 62
2
 10
2.15739815E+02
 20
-1.65785391E+02
 40
3.00000012E-01
  0
LINE
  8
0
  6
CENTER
 62
2
 10
-2.27070343E+02
 20
9.60340409E+01
 11
-2.30865652E+02
 21
9.60340409E+01
  0
LINE
  8
0
 62
7
 10
-2.27460184E+02
 20
9.87840409E+01
 11
-2.30460184E+02
 21
9.87840409E+01
  0
LINE
  8
0
 62
7
 10
-2.27460184E+02
 20
9.32840405E+01
 11
-2.30460184E+02
 21
9.32840405E+01
  0
LINE
  8
0
 62
7
 10
-2.30460184E+02
 20
9.32840405E+01
 11
-2.30460184E+02
 21
9.87840409E+01
  0
LINE
  8
0
  6
CENTER
 62
2
 10
-2.27070343E+02
 20
6.72340393E+01
 11
-2.30865652E+02
 21
6.72340393E+01
  0
LINE
  8
0
 62
7
 10
-2.27460184E+02
 20
6.99840393E+01
 11
-2.30460184E+02
 21
6.99840393E+01
  0
LINE
  8
0
 62
7
 10
-2.27460184E+02
 20
6.44840393E+01
 11
-2.30460184E+02
 21
6.44840393E+01
  0
LINE
  8
0
 62
7
 10
-2.30460184E+02
 20
6.44840393E+01
 11
-2.30460184E+02
 21
6.99840393E+01
  0
LINE
  8
0
 62
7
 10
-2.11360184E+02
 20
7.40340405E+01
 11
-2.11110184E+02
 21
7.40340405E+01
  0
LINE
  8
0
 62
7
 10
-2.11360184E+02
 20
8.50340405E+01
 11
-2.11110184E+02
 21
8.50340405E+01
  0
LINE
  8
0
  6
CENTER
 62
2
 10
-1.22250023E+02
 20
6.72340393E+01
 11
-1.18454712E+02
 21
6.72340393E+01
  0
LINE
  8
0
 62
7
 10
-1.21860184E+02
 20
6.99840393E+01
 11
-1.18860184E+02
 21
6.99840393E+01
  0
LINE
  8
0
 62
7
 10
-1.21860184E+02
 20
6.44840393E+01
 11
-1.18860184E+02
 21
6.44840393E+01
  0
LINE
  8
0
 62
7
 10
-1.18860184E+02
 20
6.44840393E+01
 11
-1.18860184E+02
 21
6.99840393E+01
  0
LINE
  8
0
 62
7
 10
-1.22860184E+02
 20
1.09134041E+02
 11
-1.22860184E+02
 21
5.31340408E+01
  0
LINE
  8
0
 62
7
 10
-1.22860184E+02
 20
5.31340408E+01
 11
-1.31860184E+02
 21
5.31340408E+01
  0
LINE
  8
0
 62
7
 10
-1.21860184E+02
 20
6.41340408E+01
 11
-1.38360184E+02
 21
6.41340408E+01
  0
LINE
  8
0
 62
7
 10
-1.21860184E+02
 20
9.81340408E+01
 11
-1.38360184E+02
 21
9.81340408E+01
  0
LINE
  8
0
 62
7
 10
-1.21860184E+02
 20
9.86840410E+01
 11
-1.21860184E+02
 21
6.41340408E+01
  0
LINE
  8
0
  6
CENTER
 62
2
 10
-1.27860184E+02
 20
5.44579468E+01
 11
-1.27860184E+02
 21
6.35498962E+01
  0
LINE
  8
0
  6
CENTER
 62
2
 10
-1.23254478E+02
 20
5.91340408E+01
 11
-1.32713364E+02
 21
5.91340408E+01
  0
LINE
  8
0
 62
7
 10
-1.31860184E+02
 20
6.41340408E+01
 11
-1.31860184E+02
 21
6.10340424E+01
  0
LINE
  8
0
 62
7
 10
-2.11360184E+02
 20
6.41340408E+01
 11
-2.11360184E+02
 21
9.81340408E+01
  0
LINE
  8
0
 62
7
 10
-2.27460184E+02
 20
6.41340408E+01
 11
-2.11360184E+02
 21
6.41340408E+01
  0
LINE
  8
0
 62
7
 10
-2.27460184E+02
 20
9.81340408E+01
 11
-2.11360184E+02
 21
9.81340408E+01
  0
LINE
  8
0
 62
7
 10
-2.27460184E+02
 20
9.87840409E+01
 11
-2.27460184E+02
 21
6.41340408E+01
  0
LINE
  8
0
 62
7
 10
-1.38360184E+02
 20
6.41340408E+01
 11
-1.38360184E+02
 21
9.81340408E+01
  0
LINE
  8
0
 62
7
 10
-1.13860183E+02
 20
7.23340436E+01
 11
-1.20316756E+02
 21
6.99840433E+01
  0
LINE
  8
0
 62
7
 10
-1.13860186E+02
 20
9.23340407E+01
 11
-1.21860184E+02
 21
9.52458019E+01
  0
LINE
  8
0
 62
7
 10
-1.13860184E+02
 20
9.23340406E+01
 11
-1.13860184E+02
 21
7.23340416E+01
  0
LINE
  8
0
 62
7
 10
-1.21860184E+02
 20
9.86840410E+01
 11
-1.18860184E+02
 21
9.86840410E+01
  0
LINE
  8
0
 62
7
 10
-1.18860184E+02
 20
9.86840410E+01
 11
-1.18860184E+02
 21
9.41538916E+01
  0
LINE
  8
0
  6
CENTER
 62
2
 10
-1.18657997E+02
 20
9.59340410E+01
 11
-1.22073776E+02
 21
9.59340410E+01
  0
LINE
  8
0
 62
7
 10
-1.27860184E+02
 20
6.31340408E+01
 11
-1.31860184E+02
 21
6.31340408E+01
  0
LINE
  8
0
 62
7
 10
-1.27860184E+02
 20
5.51340408E+01
 11
-1.31860184E+02
 21
5.51340408E+01
  0
LINE
  8
0
  6
CENTER
 62
2
 10
-1.23254478E+02
 20
1.03134041E+02
 11
-1.32713364E+02
 21
1.03134041E+02
  0
LINE
  8
0
 62
7
 10
-1.31860184E+02
 20
9.81340408E+01
 11
-1.31860184E+02
 21
1.01234041E+02
  0
LINE
  8
0
 62
7
 10
-1.27860184E+02
 20
1.07134041E+02
 11
-1.31860184E+02
 21
1.07134041E+02
  0
LINE
  8
0
 62
7
 10
-1.27860184E+02
 20
9.91340408E+01
 11
-1.31860184E+02
 21
9.91340408E+01
  0
LINE
  8
0
  6
CENTER
 62
2
 10
-1.27860184E+02
 20
1.07810137E+02
 11
-1.27860184E+02
 21
9.87181854E+01
  0
LINE
  8
0
 62
7
 10
-1.22860184E+02
 20
1.09134041E+02
 11
-1.31860184E+02
 21
1.09134041E+02
  0
LINE
  8
0
  6
CENTER
 62
2
 10
-2.26465891E+02
 20
1.03134041E+02
 11
-2.17007000E+02
 21
1.03134041E+02
  0
LINE
  8
0
 62
7
 10
-2.17860184E+02
 20
9.81340408E+01
 11
-2.17860184E+02
 21
1.01234041E+02
  0
LINE
  8
0
  6
CENTER
 62
2
 10
-2.21860184E+02
 20
1.07810137E+02
 11
-2.21860184E+02
 21
9.87181854E+01
  0
LINE
  8
0
 62
7
 10
-2.26860184E+02
 20
1.09134041E+02
 11
-2.17860184E+02
 21
1.09134041E+02
  0
LINE
  8
0
 62
7
 10
-2.21860184E+02
 20
9.91340408E+01
 11
-2.17860184E+02
 21
9.91340408E+01
  0
LINE
  8
0
 62
7
 10
-2.21860184E+02
 20
1.07134041E+02
 11
-2.17860184E+02
 21
1.07134041E+02
  0
LINE
  8
0
 62
7
 10
-2.26860184E+02
 20
1.09134041E+02
 11
-2.26860184E+02
 21
5.31340408E+01
  0
LINE
  8
0
  6
CENTER
 62
2
 10
-2.21860184E+02
 20
5.44579468E+01
 11
-2.21860184E+02
 21
6.35498962E+01
  0
LINE
  8
0
 62
7
 10
-2.17860184E+02
 20
6.41340408E+01
 11
-2.17860184E+02
 21
6.13840408E+01
  0
LINE
  8
0
 62
7
 10
-2.21860184E+02
 20
5.51340408E+01
 11
-2.17860184E+02
 21
5.51340408E+01
  0
LINE
  8
0
  6
CENTER
 62
2
 10
-2.26465891E+02
 20
5.91340408E+01
 11
-2.17007000E+02
 21
5.91340408E+01
  0
LINE
  8
0
 62
7
 10
-2.26860184E+02
 20
5.31340408E+01
 11
-2.17860184E+02
 21
5.31340408E+01
  0
LINE
  8
0
 62
7
 10
-2.21860184E+02
 20
6.31340408E+01
 11
-2.17860184E+02
 21
6.31340408E+01
  0
LINE
  8
0
 62
7
 10
-1.38360184E+02
 20
8.50340405E+01
 11
-1.38610184E+02
 21
8.50340405E+01
  0
LINE
  8
0
 62
7
 10
-1.38360184E+02
 20
7.40340405E+01
 11
-1.38610184E+02
 21
7.40340405E+01
  0
LINE
  8
0
  6
CENTER
 62
2
 10
-2.05860184E+02
 20
6.94734650E+01
 11
-2.05860184E+02
 21
1.52901474E+02
  0
LINE
  8
0
  6
CENTER
 62
2
 10
-2.09285184E+02
 20
8.96340408E+01
 11
-2.00535183E+02
 21
8.96340408E+01
  0
LINE
  8
0
 62
7
 10
-2.11060184E+02
 20
1.16634041E+02
 11
-2.00660183E+02
 21
1.16634041E+02
  0
LINE
  8
0
 62
7
 10
-2.00860184E+02
 20
9.81340408E+01
 11
-2.00860184E+02
 21
1.16634041E+02
  0
LINE
  8
0
 62
7
 10
-2.10860184E+02
 20
1.16634041E+02
 11
-2.10860184E+02
 21
9.81340408E+01
  0
LINE
  8
0
 62
7
 10
-2.08860184E+02
 20
1.02634041E+02
 11
-2.10860184E+02
 21
1.02634041E+02
  0
LINE
  8
0
 62
7
 10
-2.02560184E+02
 20
1.08334041E+02
 11
-2.00860184E+02
 21
1.08334041E+02
  0
LINE
  8
0
 62
7
 10
-2.02560184E+02
 20
1.11534040E+02
 11
-2.00860184E+02
 21
1.11534040E+02
  0
LINE
  8
0
 62
7
 10
-2.00660183E+02
 20
1.09934041E+02
 11
-2.00660183E+02
 21
1.16634041E+02
  0
LINE
  8
0
 62
7
 10
-2.11060184E+02
 20
1.16634041E+02
 11
-2.11060184E+02
 21
1.09934041E+02
  0
LINE
  8
0
 62
7
 10
-2.00660183E+02
 20
1.09934041E+02
 11
-2.00860184E+02
 21
1.09934041E+02
  0
LINE
  8
0
 62
7
 10
-2.10860184E+02
 20
1.09934041E+02
 11
-2.11060184E+02
 21
1.09934041E+02
  0
LINE
  8
0
 62
7
 10
-2.08860184E+02
 20
9.94340408E+01
 11
-2.10860184E+02
 21
9.94340408E+01
  0
LINE
  8
0
  6
CENTER
 62
2
 10
-2.04910183E+02
 20
8.52590408E+01
 11
-2.04910183E+02
 21
9.40090408E+01
  0
LINE
  8
0
 62
7
 10
-2.11110184E+02
 20
7.21340408E+01
 11
-2.00610184E+02
 21
7.21340408E+01
  0
LINE
  8
0
 62
7
 10
-2.00610184E+02
 20
7.21340408E+01
 11
-2.00610184E+02
 21
9.81340408E+01
  0
LINE
  8
0
 62
7
 10
-2.11110184E+02
 20
7.21340408E+01
 11
-2.11110184E+02
 21
9.81340408E+01
  0
LINE
  8
0
 62
7
 10
-2.01059076E+02
 20
1.43134041E+02
 11
-2.02310184E+02
 21
1.43134041E+02
  0
LINE
  8
0
 62
7
 10
-2.10810184E+02
 20
1.43434040E+02
 11
-2.10810184E+02
 21
1.49634041E+02
  0
LINE
  8
0
 62
7
 10
-2.02410183E+02
 20
1.51134041E+02
 11
-2.09310184E+02
 21
1.51134041E+02
  0
LINE
  8
0
 62
7
 10
-2.10810184E+02
 20
1.43434039E+02
 11
-2.10510185E+02
 21
1.43134040E+02
  0
LINE
  8
0
 62
7
 10
-2.00859078E+02
 20
1.42935152E+02
 11
-2.00712961E+02
 21
1.16634041E+02
  0
LINE
  8
0
 62
7
 10
-2.11044628E+02
 20
1.09934041E+02
 11
-2.11110184E+02
 21
9.81340406E+01
  0
LINE
  8
0
 62
7
 10
-2.11110184E+02
 20
9.81340408E+01
 11
-2.00610184E+02
 21
9.81340408E+01
  0
LINE
  8
0
 62
7
 10
-2.08082366E+02
 20
1.01811858E+02
 11
-2.09638001E+02
 21
1.00256223E+02
  0
LINE
  8
0
 62
7
 10
-2.09638001E+02
 20
1.01811858E+02
 11
-2.08082367E+02
 21
1.00256223E+02
  0
LINE
  8
0
 62
7
 10
-2.01782367E+02
 20
1.10711858E+02
 11
-2.03338001E+02
 21
1.09156224E+02
  0
LINE
  8
0
 62
7
 10
-2.03338002E+02
 20
1.10711858E+02
 11
-2.01782367E+02
 21
1.09156223E+02
  0
LINE
  8
0
  6
PHANTOM
 62
2
 10
-2.05008373E+02
 20
1.49243105E+02
 11
-2.12384001E+02
 21
1.51225305E+02
  0
LINE
  8
0
  6
PHANTOM
 62
2
 10
-2.05008373E+02
 20
1.48213104E+02
 11
-2.12384001E+02
 21
1.50195304E+02
  0
LINE
  8
0
  6
CENTER
 62
2
 10
-2.08360736E+02
 20
1.40440895E+02
 11
-2.08360736E+02
 21
1.60295181E+02
  0
LINE
  8
0
  6
PHANTOM
 62
2
 10
-2.10060737E+02
 20
1.56589107E+02
 11
-2.09860737E+02
 21
1.56725053E+02
  0
LINE
  8
0
  6
PHANTOM
 62
2
 10
-2.10060737E+02
 20
1.55715168E+02
 11
-2.10060737E+02
 21
1.56589111E+02
  0
LINE
  8
0
  6
PHANTOM
 62
2
 10
-2.09860736E+02
 20
1.55715168E+02
 11
-2.09860736E+02
 21
1.56725056E+02
  0
LINE
  8
0
  6
PHANTOM
 62
2
 10
-2.09060735E+02
 20
1.56589107E+02
 11
-2.08860736E+02
 21
1.56725054E+02
  0
LINE
  8
0
  6
PHANTOM
 62
2
 10
-2.09060737E+02
 20
1.55715168E+02
 11
-2.09060737E+02
 21
1.56589111E+02
  0
LINE
  8
0
  6
PHANTOM
 62
2
 10
-2.08860736E+02
 20
1.55715168E+02
 11
-2.08860736E+02
 21
1.56725056E+02
  0
LINE
  8
0
  6
PHANTOM
 62
2
 10
-2.08060736E+02
 20
1.56589110E+02
 11
-2.07860736E+02
 21
1.56725057E+02
  0
LINE
  8
0
  6
PHANTOM
 62
2
 10
-2.08060737E+02
 20
1.55715168E+02
 11
-2.08060737E+02
 21
1.56589111E+02
  0
LINE
  8
0
  6
PHANTOM
 62
2
 10
-2.07860736E+02
 20
1.55715168E+02
 11
-2.07860736E+02
 21
1.56725056E+02
  0
LINE
  8
0
  6
PHANTOM
 62
2
 10
-2.07060737E+02
 20
1.56589108E+02
 11
-2.06860738E+02
 21
1.56725055E+02
  0
LINE
  8
0
  6
PHANTOM
 62
2
 10
-2.07060737E+02
 20
1.55715168E+02
 11
-2.07060737E+02
 21
1.56589111E+02
  0
LINE
  8
0
  6
PHANTOM
 62
2
 10
-2.06860736E+02
 20
1.55715168E+02
 11
-2.06860736E+02
 21
1.56725056E+02
  0
LINE
  8
0
  6
PHANTOM
 62
2
 10
-2.09710736E+02
 20
1.55715168E+02
 11
-2.10210736E+02
 21
1.55715168E+02
  0
LINE
  8
0
  6
PHANTOM
 62
2
 10
-2.08710736E+02
 20
1.55715168E+02
 11
-2.09210736E+02
 21
1.55715168E+02
  0
LINE
  8
0
  6
PHANTOM
 62
2
 10
-2.07710736E+02
 20
1.55715168E+02
 11
-2.08210736E+02
 21
1.55715168E+02
  0
LINE
  8
0
  6
PHANTOM
 62
2
 10
-2.06710736E+02
 20
1.55715168E+02
 11
-2.07210736E+02
 21
1.55715168E+02
  0
LINE
  8
0
  6
PHANTOM
 62
2
 10
-2.10210736E+02
 20
1.53834595E+02
 11
-2.10210736E+02
 21
1.55715168E+02
  0
LINE
  8
0
  6
PHANTOM
 62
2
 10
-2.09710736E+02
 20
1.53834595E+02
 11
-2.09710736E+02
 21
1.55715168E+02
  0
LINE
  8
0
  6
PHANTOM
 62
2
 10
-2.09210736E+02
 20
1.53834595E+02
 11
-2.09210736E+02
 21
1.55715168E+02
  0
LINE
  8
0
  6
PHANTOM
 62
2
 10
-2.08710736E+02
 20
1.53834595E+02
 11
-2.08710736E+02
 21
1.55715168E+02
  0
LINE
  8
0
  6
PHANTOM
 62
2
 10
-2.08210736E+02
 20
1.53834595E+02
 11
-2.08210736E+02
 21
1.55715168E+02
  0
LINE
  8
0
  6
PHANTOM
 62
2
 10
-2.07710736E+02
 20
1.53834595E+02
 11
-2.07710736E+02
 21
1.55715168E+02
  0
LINE
  8
0
  6
PHANTOM
 62
2
 10
-2.07210736E+02
 20
1.53834595E+02
 11
-2.07210736E+02
 21
1.55715168E+02
  0
LINE
  8
0
  6
PHANTOM
 62
2
 10
-2.06710736E+02
 20
1.53834595E+02
 11
-2.06710736E+02
 21
1.55715168E+02
  0
LINE
  8
0
  6
PHANTOM
 62
2
 10
-2.06360736E+02
 20
1.53834595E+02
 11
-2.10360736E+02
 21
1.53834595E+02
  0
LINE
  8
0
  6
PHANTOM
 62
2
 10
-2.10360736E+02
 20
1.44034595E+02
 11
-2.10360736E+02
 21
1.53834595E+02
  0
LINE
  8
0
  6
PHANTOM
 62
2
 10
-2.06360736E+02
 20
1.44034595E+02
 11
-2.06360736E+02
 21
1.53834595E+02
  0
LINE
  8
0
  6
PHANTOM
 62
2
 10
-2.05960736E+02
 20
1.44034595E+02
 11
-2.07311289E+02
 21
1.44034595E+02
  0
LINE
  8
0
  6
PHANTOM
 62
2
 10
-2.10760736E+02
 20
1.44034595E+02
 11
-2.10760736E+02
 21
1.43134041E+02
  0
LINE
  8
0
  6
PHANTOM
 62
2
 10
-2.05960736E+02
 20
1.44034595E+02
 11
-2.05960736E+02
 21
1.43107567E+02
  0
LINE
  8
0
 62
7
 10
-2.00910183E+02
 20
1.43434040E+02
 11
-2.00910183E+02
 21
1.49634041E+02
  0
LINE
  8
0
 62
7
 10
-2.00675738E+02
 20
1.09933821E+02
 11
-2.00610183E+02
 21
9.81340408E+01
  0
LINE
  8
0
 62
7
 10
-2.10861288E+02
 20
1.42935154E+02
 11
-2.11007406E+02
 21
1.16634041E+02
  0
LINE
  8
0
 62
6
 10
-2.10860184E+02
 20
1.37234039E+02
 11
-2.00860184E+02
 21
1.37234039E+02
  0
LINE
  8
0
 62
6
 10
-2.09410184E+02
 20
1.37234039E+02
 11
-2.09410184E+02
 21
1.45434040E+02
  0
LINE
  8
0
 62
6
 10
-2.08110184E+02
 20
1.37234039E+02
 11
-2.08110184E+02
 21
1.45434040E+02
  0
LINE
  8
0
 62
6
 10
-2.08110184E+02
 20
1.45434040E+02
 11
-2.09410184E+02
 21
1.45434040E+02
  0
LINE
  8
0
 62
6
 10
-2.08510183E+02
 20
1.49434040E+02
 11
-2.09010183E+02
 21
1.49434040E+02
  0
LINE
  8
0
 62
6
 10
-2.08510183E+02
 20
1.45434040E+02
 11
-2.08510183E+02
 21
1.49434040E+02
  0
LINE
  8
0
 62
6
 10
-2.09010183E+02
 20
1.45434040E+02
 11
-2.09010183E+02
 21
1.49434040E+02
  0
LINE
  8
0
 62
6
 10
-2.03210184E+02
 20
1.45434040E+02
 11
-2.03210184E+02
 21
1.49434040E+02
  0
LINE
  8
0
 62
6
 10
-2.02710184E+02
 20
1.45434040E+02
 11
-2.02710184E+02
 21
1.49434040E+02
  0
LINE
  8
0
 62
6
 10
-2.02710184E+02
 20
1.49434040E+02
 11
-2.03210184E+02
 21
1.49434040E+02
  0
LINE
  8
0
 62
6
 10
-2.02310184E+02
 20
1.45434040E+02
 11
-2.03610184E+02
 21
1.45434040E+02
  0
LINE
  8
0
 62
6
 10
-2.02310184E+02
 20
1.37234039E+02
 11
-2.02310184E+02
 21
1.45434040E+02
  0
LINE
  8
0
 62
6
 10
-2.03610184E+02
 20
1.37234039E+02
 11
-2.03610184E+02
 21
1.45434040E+02
  0
LINE
  8
0
 62
6
 10
-2.10860184E+02
 20
1.16634041E+02
 11
-2.10860184E+02
 21
1.36234039E+02
  0
LINE
  8
0
 62
6
 10
-2.10860184E+02
 20
1.36234039E+02
 11
-2.10860184E+02
 21
1.37234039E+02
  0
LINE
  8
0
 62
6
 10
-2.00860184E+02
 20
1.36234039E+02
 11
-2.00860184E+02
 21
1.37234039E+02
  0
LINE
  8
0
 62
6
 10
-2.00860184E+02
 20
1.16634041E+02
 11
-2.00860184E+02
 21
1.36234039E+02
  0
LINE
  8
0
 62
6
 10
-2.00860184E+02
 20
1.20634041E+02
 11
-2.10860184E+02
 21
1.20634041E+02
  0
LINE
  8
0
 62
7
 10
-2.09410184E+02
 20
1.43134041E+02
 11
-2.10661292E+02
 21
1.43134041E+02
  0
LINE
  8
0
 62
7
 10
-2.03610184E+02
 20
1.43134041E+02
 11
-2.08110184E+02
 21
1.43134041E+02
  0
LINE
  8
0
  6
PHANTOM
 62
2
 10
-2.08611289E+02
 20
1.44034595E+02
 11
-2.10760736E+02
 21
1.44034595E+02
  0
LINE
  8
0
 62
6
 10
-2.10860184E+02
 20
1.36234039E+02
 11
-2.00860184E+02
 21
1.36234039E+02
  0
LINE
  8
0
 62
6
 10
-2.10860184E+02
 20
1.28134041E+02
 11
-2.00860184E+02
 21
1.28134041E+02
  0
LINE
  8
0
 62
6
 10
-2.10860184E+02
 20
1.31634041E+02
 11
-2.00860184E+02
 21
1.31634041E+02
  0
LINE
  8
0
 62
7
 10
-2.00910183E+02
 20
1.43434041E+02
 11
-2.01210185E+02
 21
1.43134039E+02
  0
LINE
  8
0
 62
7
 10
-1.66810184E+02
 20
1.51134041E+02
 11
-1.68810184E+02
 21
1.51134041E+02
  0
LINE
  8
0
 62
7
 10
-1.61410183E+02
 20
1.44134041E+02
 11
-1.63510185E+02
 21
1.44134041E+02
  0
LINE
  8
0
 62
7
 10
-1.61410183E+02
 20
1.42134041E+02
 11
-1.63510185E+02
 21
1.42134041E+02
  0
LINE
  8
0
 62
7
 10
-1.67210182E+02
 20
1.42134041E+02
 11
-1.69310184E+02
 21
1.42134041E+02
  0
LINE
  8
0
 62
7
 10
-1.67210182E+02
 20
1.44134041E+02
 11
-1.69310184E+02
 21
1.44134041E+02
  0
LINE
  8
0
  6
PHANTOM
 62
2
 10
-1.69760185E+02
 20
1.94035263E+02
 11
-1.69160183E+02
 21
1.94035263E+02
  0
LINE
  8
0
  6
PHANTOM
 62
2
 10
-1.70160183E+02
 20
1.94035263E+02
 11
-1.70760185E+02
 21
1.94035263E+02
  0
LINE
  8
0
  6
PHANTOM
 62
2
 10
-1.68760185E+02
 20
1.73868042E+02
 11
-1.71160183E+02
 21
1.73868042E+02
  0
LINE
  8
0
  6
PHANTOM
 62
2
 10
-1.69160183E+02
 20
1.73868042E+02
 11
-1.69160183E+02
 21
1.94035263E+02
  0
LINE
  8
0
  6
PHANTOM
 62
2
 10
-1.69760185E+02
 20
1.73868042E+02
 11
-1.69760185E+02
 21
1.94035263E+02
  0
LINE
  8
0
  6
PHANTOM
 62
2
 10
-1.70160183E+02
 20
1.73868042E+02
 11
-1.70160183E+02
 21
1.94035263E+02
  0
LINE
  8
0
  6
PHANTOM
 62
2
 10
-1.70760185E+02
 20
1.73868042E+02
 11
-1.70760185E+02
 21
1.94035263E+02
  0
LINE
  8
0
  6
PHANTOM
 62
2
 10
-1.68760185E+02
 20
1.68334038E+02
 11
-1.68760185E+02
 21
1.73868042E+02
  0
LINE
  8
0
  6
PHANTOM
 62
2
 10
-1.71160183E+02
 20
1.68334038E+02
 11
-1.71160183E+02
 21
1.73868042E+02
  0
LINE
  8
0
  6
PHANTOM
 62
2
 10
-1.72060184E+02
 20
1.39634041E+02
 11
-1.72860184E+02
 21
1.39634041E+02
  0
LINE
  8
0
  6
PHANTOM
 62
2
 10
-1.59610184E+02
 20
1.41257328E+02
 11
-1.60110184E+02
 21
1.41257328E+02
  0
LINE
  8
0
  6
PHANTOM
 62
2
 10
-1.59610184E+02
 20
1.39734039E+02
 11
-1.59610184E+02
 21
1.44138962E+02
  0
LINE
  8
0
  6
PHANTOM
 62
2
 10
-1.71110184E+02
 20
1.39734039E+02
 11
-1.71110184E+02
 21
1.44134041E+02
  0
LINE
  8
0
  6
PHANTOM
 62
2
 10
-1.57860184E+02
 20
1.39634041E+02
 11
-1.58660183E+02
 21
1.39634041E+02
  0
LINE
  8
0
  6
PHANTOM
 62
2
 10
-1.57860184E+02
 20
1.43134041E+02
 11
-1.60110184E+02
 21
1.43134041E+02
  0
LINE
  8
0
  6
PHANTOM
 62
2
 10
-1.57860184E+02
 20
1.19134041E+02
 11
-1.57860184E+02
 21
1.43134041E+02
  0
LINE
  8
0
  6
PHANTOM
 62
2
 10
-1.72860184E+02
 20
1.19134041E+02
 11
-1.72860184E+02
 21
1.43134041E+02
  0
LINE
  8
0
  6
PHANTOM
 62
2
 10
-1.68060184E+02
 20
1.55939144E+02
 11
-1.68060184E+02
 21
1.68334038E+02
  0
LINE
  8
0
  6
PHANTOM
 62
2
 10
-1.71860184E+02
 20
1.58133076E+02
 11
-1.71860184E+02
 21
1.68334038E+02
  0
LINE
  8
0
  6
PHANTOM
 62
2
 10
-1.66021036E+02
 20
1.54761841E+02
 11
-1.74377920E+02
 21
1.59586691E+02
  0
LINE
  8
0
  6
PHANTOM
 62
2
 10
-1.66229471E+02
 20
1.51995430E+02
 11
-1.74564498E+02
 21
1.56807660E+02
  0
LINE
  8
0
  6
PHANTOM
 62
2
 10
-1.68060184E+02
 20
1.68334038E+02
 11
-1.71860184E+02
 21
1.68334038E+02
  0
LINE
  8
0
  6
PHANTOM
 62
2
 10
-1.68060184E+02
 20
1.44134041E+02
 11
-1.68060184E+02
 21
1.53052391E+02
  0
LINE
  8
0
  6
PHANTOM
 62
2
 10
-1.71860184E+02
 20
1.44134041E+02
 11
-1.71860184E+02
 21
1.55246323E+02
  0
LINE
  8
0
  6
PHANTOM
 62
2
 10
-1.72760185E+02
 20
1.43134041E+02
 11
-1.72760185E+02
 21
1.44134041E+02
  0
LINE
  8
0
  6
PHANTOM
 62
2
 10
-1.71110184E+02
 20
1.44134041E+02
 11
-1.72760185E+02
 21
1.44134041E+02
  0
LINE
  8
0
  6
PHANTOM
 62
2
 10
-1.71110184E+02
 20
1.44138962E+02
 11
-1.70610184E+02
 21
1.44138962E+02
  0
LINE
  8
0
  6
CENTER
 62
6
 10
-1.63660183E+02
 20
1.16738373E+02
 11
-1.63660183E+02
 21
1.40957352E+02
  0
LINE
  8
0
  6
CENTER
 62
6
 10
-1.67060184E+02
 20
1.16738373E+02
 11
-1.67060184E+02
 21
1.40957352E+02
  0
LINE
  8
0
 62
7
 10
-1.57953518E+02
 20
1.19134041E+02
 11
-1.58059300E+02
 21
1.42934927E+02
  0
LINE
  8
0
 62
7
 10
-1.72766849E+02
 20
1.19134041E+02
 11
-1.72661068E+02
 21
1.42934930E+02
  0
LINE
  8
0
 62
7
 10
-1.61910183E+02
 20
1.51134041E+02
 11
-1.63910183E+02
 21
1.51134041E+02
  0
LINE
  8
0
 62
7
 10
-1.70310184E+02
 20
1.47934040E+02
 11
-1.70310184E+02
 21
1.49634041E+02
  0
LINE
  8
0
 62
7
 10
-1.60410183E+02
 20
1.47934040E+02
 11
-1.60410183E+02
 21
1.49634041E+02
  0
LINE
  8
0
 62
7
 10
-1.58259296E+02
 20
1.43134041E+02
 11
-1.59610184E+02
 21
1.43134041E+02
  0
LINE
  8
0
  6
CENTER
 62
2
 10
-1.65360184E+02
 20
6.86930389E+01
 11
-1.65360184E+02
 21
1.56109509E+02
  0
LINE
  8
0
 62
7
 10
-1.60638002E+02
 20
1.00911857E+02
 11
-1.59082369E+02
 21
9.93562240E+01
  0
LINE
  8
0
 62
7
 10
-1.59082366E+02
 20
1.00911859E+02
 11
-1.60638002E+02
 21
9.93562240E+01
  0
LINE
  8
0
 62
7
 10
-1.70082369E+02
 20
1.17911857E+02
 11
-1.71638001E+02
 21
1.16356224E+02
  0
LINE
  8
0
 62
7
 10
-1.71638003E+02
 20
1.17911859E+02
 11
-1.70082367E+02
 21
1.16356223E+02
  0
LINE
  8
0
 62
7
 10
-1.72860184E+02
 20
1.19134041E+02
 11
-1.72860184E+02
 21
9.81340408E+01
  0
LINE
  8
0
 62
7
 10
-1.57860184E+02
 20
1.19134041E+02
 11
-1.57860184E+02
 21
9.81340408E+01
  0
LINE
  8
0
 62
7
 10
-1.72860184E+02
 20
1.19134041E+02
 11
-1.57860184E+02
 21
1.19134041E+02
  0
LINE
  8
0
 62
7
 10
-1.63060184E+02
 20
1.18134041E+02
 11
-1.64260185E+02
 21
1.18134041E+02
  0
LINE
  8
0
 62
7
 10
-1.64260185E+02
 20
1.18134041E+02
 11
-1.64260185E+02
 21
1.19134041E+02
  0
LINE
  8
0
 62
7
 10
-1.63060184E+02
 20
1.18134041E+02
 11
-1.63060184E+02
 21
1.19134041E+02
  0
LINE
  8
0
 62
7
 10
-1.59860184E+02
 20
1.01734041E+02
 11
-1.57860184E+02
 21
1.01734041E+02
  0
LINE
  8
0
 62
7
 10
-1.61460182E+02
 20
1.00134041E+02
 11
-1.61460182E+02
 21
9.81340408E+01
  0
LINE
  8
0
 62
7
 10
-1.69260185E+02
 20
1.17134041E+02
 11
-1.69260185E+02
 21
1.19134041E+02
  0
LINE
  8
0
 62
7
 10
-1.70860184E+02
 20
1.15534040E+02
 11
-1.72860184E+02
 21
1.15534040E+02
  0
LINE
  8
0
 62
7
 10
-1.73110184E+02
 20
7.21340408E+01
 11
-1.57610184E+02
 21
7.21340408E+01
  0
LINE
  8
0
 62
7
 10
-1.57610184E+02
 20
9.81340408E+01
 11
-1.73110184E+02
 21
9.81340408E+01
  0
LINE
  8
0
 62
7
 10
-1.57610184E+02
 20
7.21340408E+01
 11
-1.57610184E+02
 21
9.81340408E+01
  0
LINE
  8
0
 62
7
 10
-1.73110184E+02
 20
7.21340408E+01
 11
-1.73110184E+02
 21
9.81340408E+01
  0
LINE
  8
0
 62
7
 10
-1.59610184E+02
 20
1.44134041E+02
 11
-1.60110184E+02
 21
1.44134041E+02
  0
LINE
  8
0
 62
7
 10
-1.59610184E+02
 20
1.42134041E+02
 11
-1.60110184E+02
 21
1.42134041E+02
  0
LINE
  8
0
 62
7
 10
-1.59610184E+02
 20
1.44134041E+02
 11
-1.59610184E+02
 21
1.42134041E+02
  0
LINE
  8
0
 62
7
 10
-1.71110184E+02
 20
1.44134041E+02
 11
-1.71110184E+02
 21
1.42134041E+02
  0
LINE
  8
0
 62
7
 10
-1.71110184E+02
 20
1.43134041E+02
 11
-1.72461071E+02
 21
1.43134041E+02
  0
LINE
  8
0
 62
7
 10
-1.70610184E+02
 20
1.44134041E+02
 11
-1.71110184E+02
 21
1.44134041E+02
  0
LINE
  8
0
 62
7
 10
-1.70610184E+02
 20
1.42134041E+02
 11
-1.71110184E+02
 21
1.42134041E+02
  0
LINE
  8
0
 62
7
 10
-1.64810184E+02
 20
1.44134041E+02
 11
-1.65910183E+02
 21
1.44134041E+02
  0
LINE
  8
0
 62
7
 10
-1.64810184E+02
 20
1.42134041E+02
 11
-1.65910183E+02
 21
1.42134041E+02
  0
LINE
  8
0
 62
7
 10
-1.64410183E+02
 20
1.51134041E+02
 11
-1.66310184E+02
 21
1.51134041E+02
  0
LINE
  8
0
 62
6
 10
-1.72060184E+02
 20
1.38734039E+02
 11
-1.72060184E+02
 21
1.39734039E+02
  0
LINE
  8
0
 62
6
 10
-1.70610184E+02
 20
1.39734039E+02
 11
-1.70610184E+02
 21
1.47934040E+02
  0
LINE
  8
0
 62
6
 10
-1.69310184E+02
 20
1.39734039E+02
 11
-1.69310184E+02
 21
1.47934040E+02
  0
LINE
  8
0
 62
6
 10
-1.69310184E+02
 20
1.47934040E+02
 11
-1.70610184E+02
 21
1.47934040E+02
  0
LINE
  8
0
 62
6
 10
-1.69710182E+02
 20
1.51934040E+02
 11
-1.70210182E+02
 21
1.51934040E+02
  0
LINE
  8
0
 62
6
 10
-1.69710182E+02
 20
1.47934040E+02
 11
-1.69710182E+02
 21
1.51934040E+02
  0
LINE
  8
0
 62
6
 10
-1.70210182E+02
 20
1.47934040E+02
 11
-1.70210182E+02
 21
1.51934040E+02
  0
LINE
  8
0
 62
6
 10
-1.64410183E+02
 20
1.47934040E+02
 11
-1.64410183E+02
 21
1.51934040E+02
  0
LINE
  8
0
 62
6
 10
-1.63910183E+02
 20
1.47934040E+02
 11
-1.63910183E+02
 21
1.51934040E+02
  0
LINE
  8
0
 62
6
 10
-1.63910183E+02
 20
1.51934040E+02
 11
-1.64410183E+02
 21
1.51934040E+02
  0
LINE
  8
0
 62
6
 10
-1.63510185E+02
 20
1.47934040E+02
 11
-1.64810184E+02
 21
1.47934040E+02
  0
LINE
  8
0
 62
6
 10
-1.63510185E+02
 20
1.39734039E+02
 11
-1.63510185E+02
 21
1.47934040E+02
  0
LINE
  8
0
 62
6
 10
-1.64810184E+02
 20
1.39734039E+02
 11
-1.64810184E+02
 21
1.47934040E+02
  0
LINE
  8
0
 62
6
 10
-1.72060184E+02
 20
1.39734039E+02
 11
-1.68660183E+02
 21
1.39734039E+02
  0
LINE
  8
0
 62
6
 10
-1.58660183E+02
 20
1.23134041E+02
 11
-1.68660183E+02
 21
1.23134041E+02
  0
LINE
  8
0
 62
6
 10
-1.72060184E+02
 20
1.19134041E+02
 11
-1.72060184E+02
 21
1.38734039E+02
  0
LINE
  8
0
 62
6
 10
-1.58660183E+02
 20
1.19134041E+02
 11
-1.58660183E+02
 21
1.38734039E+02
  0
LINE
  8
0
 62
6
 10
-1.58660183E+02
 20
1.38734039E+02
 11
-1.58660183E+02
 21
1.39734039E+02
  0
LINE
  8
0
 62
6
 10
-1.68660183E+02
 20
1.38734039E+02
 11
-1.68660183E+02
 21
1.39734039E+02
  0
LINE
  8
0
 62
6
 10
-1.68660183E+02
 20
1.19134041E+02
 11
-1.68660183E+02
 21
1.38734039E+02
  0
LINE
  8
0
 62
6
 10
-1.61410183E+02
 20
1.39734039E+02
 11
-1.61410183E+02
 21
1.47934040E+02
  0
LINE
  8
0
 62
6
 10
-1.60110184E+02
 20
1.39734039E+02
 11
-1.60110184E+02
 21
1.47934040E+02
  0
LINE
  8
0
 62
6
 10
-1.60110184E+02
 20
1.47934040E+02
 11
-1.61410183E+02
 21
1.47934040E+02
  0
LINE
  8
0
 62
6
 10
-1.60510185E+02
 20
1.51934040E+02
 11
-1.61010185E+02
 21
1.51934040E+02
  0
LINE
  8
0
 62
6
 10
-1.60510185E+02
 20
1.47934040E+02
 11
-1.60510185E+02
 21
1.51934040E+02
  0
LINE
  8
0
 62
6
 10
-1.61010185E+02
 20
1.47934040E+02
 11
-1.61010185E+02
 21
1.51934040E+02
  0
LINE
  8
0
 62
6
 10
-1.66810184E+02
 20
1.47934040E+02
 11
-1.66810184E+02
 21
1.51934040E+02
  0
LINE
  8
0
 62
6
 10
-1.66310184E+02
 20
1.47934040E+02
 11
-1.66310184E+02
 21
1.51934040E+02
  0
LINE
  8
0
 62
6
 10
-1.66310184E+02
 20
1.51934040E+02
 11
-1.66810184E+02
 21
1.51934040E+02
  0
LINE
  8
0
 62
6
 10
-1.65910183E+02
 20
1.47934040E+02
 11
-1.67210182E+02
 21
1.47934040E+02
  0
LINE
  8
0
 62
6
 10
-1.65910183E+02
 20
1.39734039E+02
 11
-1.65910183E+02
 21
1.47934040E+02
  0
LINE
  8
0
 62
6
 10
-1.67210182E+02
 20
1.39734039E+02
 11
-1.67210182E+02
 21
1.47934040E+02
  0
LINE
  8
0
 62
6
 10
-1.68660183E+02
 20
1.34134041E+02
 11
-1.58660183E+02
 21
1.34134041E+02
  0
LINE
  8
0
 62
6
 10
-1.68660183E+02
 20
1.30634041E+02
 11
-1.58660183E+02
 21
1.30634041E+02
  0
LINE
  8
0
 62
6
 10
-1.68660183E+02
 20
1.38734039E+02
 11
-1.58660183E+02
 21
1.38734039E+02
  0
LINE
  8
0
 62
6
 10
-1.68660183E+02
 20
1.39734039E+02
 11
-1.58660183E+02
 21
1.39734039E+02
  0
LINE
  8
0
 62
6
 10
-1.68660183E+02
 20
1.38734039E+02
 11
-1.72060184E+02
 21
1.38734039E+02
  0
LINE
  8
0
 62
6
 10
-1.68660183E+02
 20
1.20334042E+02
 11
-1.72060184E+02
 21
1.20334042E+02
  0
LINE
  8
0
  6
PHANTOM
 62
2
 10
-1.70610184E+02
 20
1.44134041E+02
 11
-1.71110184E+02
 21
1.44134041E+02
  0
LINE
  8
0
  6
PHANTOM
 62
2
 10
-1.70610184E+02
 20
1.43134041E+02
 11
-1.72860184E+02
 21
1.43134041E+02
  0
LINE
  8
0
  6
PHANTOM
 62
2
 10
-1.70610184E+02
 20
1.41257328E+02
 11
-1.71110184E+02
 21
1.41257328E+02
  0
LINE
  8
0
  6
PHANTOM
 62
2
 10
-1.67210182E+02
 20
1.41257328E+02
 11
-1.69310184E+02
 21
1.41257328E+02
  0
LINE
  8
0
  6
PHANTOM
 62
2
 10
-1.67210182E+02
 20
1.44134041E+02
 11
-1.69310184E+02
 21
1.44134041E+02
  0
LINE
  8
0
  6
PHANTOM
 62
2
 10
-1.67210182E+02
 20
1.43134041E+02
 11
-1.69310184E+02
 21
1.43134041E+02
  0
LINE
  8
0
  6
PHANTOM
 62
2
 10
-1.64810184E+02
 20
1.44134041E+02
 11
-1.65910183E+02
 21
1.44134041E+02
  0
LINE
  8
0
  6
PHANTOM
 62
2
 10
-1.64810184E+02
 20
1.43134041E+02
 11
-1.65910183E+02
 21
1.43134041E+02
  0
LINE
  8
0
  6
PHANTOM
 62
2
 10
-1.64810184E+02
 20
1.41257328E+02
 11
-1.65910183E+02
 21
1.41257328E+02
  0
LINE
  8
0
  6
PHANTOM
 62
2
 10
-1.61410183E+02
 20
1.41257328E+02
 11
-1.63510185E+02
 21
1.41257328E+02
  0
LINE
  8
0
  6
PHANTOM
 62
2
 10
-1.61410183E+02
 20
1.43134041E+02
 11
-1.63510185E+02
 21
1.43134041E+02
  0
LINE
  8
0
  6
PHANTOM
 62
2
 10
-1.60110184E+02
 20
1.44138962E+02
 11
-1.59610184E+02
 21
1.44138962E+02
  0
LINE
  8
0
  6
PHANTOM
 62
2
 10
-1.63510185E+02
 20
1.44138962E+02
 11
-1.61410183E+02
 21
1.44138962E+02
  0
LINE
  8
0
 62
7
 10
-1.46410187E+02
 20
1.51134041E+02
 11
-1.44410187E+02
 21
1.51134041E+02
  0
LINE
  8
0
 62
7
 10
-1.46010185E+02
 20
1.44138962E+02
 11
-1.43910187E+02
 21
1.44138962E+02
  0
LINE
  8
0
 62
7
 10
-1.47310181E+02
 20
1.42138962E+02
 11
-1.48410187E+02
 21
1.42138962E+02
  0
LINE
  8
0
 62
7
 10
-1.53110184E+02
 20
1.42138962E+02
 11
-1.53610184E+02
 21
1.42138962E+02
  0
LINE
  8
0
 62
7
 10
-1.51810181E+02
 20
1.44138962E+02
 11
-1.49710182E+02
 21
1.44138962E+02
  0
LINE
  8
0
 62
6
 10
-1.54560181E+02
 20
1.38734039E+02
 11
-1.54560181E+02
 21
1.39734039E+02
  0
LINE
  8
0
 62
6
 10
-1.53110184E+02
 20
1.39734039E+02
 11
-1.53110184E+02
 21
1.47934040E+02
  0
LINE
  8
0
 62
6
 10
-1.51810181E+02
 20
1.39734039E+02
 11
-1.51810181E+02
 21
1.47934040E+02
  0
LINE
  8
0
 62
6
 10
-1.51810181E+02
 20
1.47934040E+02
 11
-1.53110184E+02
 21
1.47934040E+02
  0
LINE
  8
0
 62
6
 10
-1.52210182E+02
 20
1.51934040E+02
 11
-1.52710182E+02
 21
1.51934040E+02
  0
LINE
  8
0
 62
6
 10
-1.52210182E+02
 20
1.47934040E+02
 11
-1.52210182E+02
 21
1.51934040E+02
  0
LINE
  8
0
 62
6
 10
-1.52710182E+02
 20
1.47934040E+02
 11
-1.52710182E+02
 21
1.51934040E+02
  0
LINE
  8
0
 62
6
 10
-1.46910187E+02
 20
1.47934040E+02
 11
-1.46910187E+02
 21
1.51934040E+02
  0
LINE
  8
0
 62
6
 10
-1.46410187E+02
 20
1.47934040E+02
 11
-1.46410187E+02
 21
1.51934040E+02
  0
LINE
  8
0
 62
6
 10
-1.46410187E+02
 20
1.51934040E+02
 11
-1.46910187E+02
 21
1.51934040E+02
  0
LINE
  8
0
 62
6
 10
-1.46010185E+02
 20
1.47934040E+02
 11
-1.47310181E+02
 21
1.47934040E+02
  0
LINE
  8
0
 62
6
 10
-1.46010185E+02
 20
1.39734039E+02
 11
-1.46010185E+02
 21
1.47934040E+02
  0
LINE
  8
0
 62
6
 10
-1.47310181E+02
 20
1.39734039E+02
 11
-1.47310181E+02
 21
1.47934040E+02
  0
LINE
  8
0
 62
6
 10
-1.54560181E+02
 20
1.39734039E+02
 11
-1.51160187E+02
 21
1.39734039E+02
  0
LINE
  8
0
  6
CENTER
 62
6
 10
-1.49560181E+02
 20
1.16738373E+02
 11
-1.49560181E+02
 21
1.40957352E+02
  0
LINE
  8
0
 62
6
 10
-1.41160187E+02
 20
1.23134041E+02
 11
-1.51160187E+02
 21
1.23134041E+02
  0
LINE
  8
0
  6
CENTER
 62
6
 10
-1.46160187E+02
 20
1.16738373E+02
 11
-1.46160187E+02
 21
1.40957352E+02
  0
LINE
  8
0
 62
7
 10
-1.42110184E+02
 20
1.43138962E+02
 11
-1.39258858E+02
 21
1.43138962E+02
  0
LINE
  8
0
 62
7
 10
-1.55360184E+02
 20
1.43138962E+02
 11
-1.55360184E+02
 21
1.19134041E+02
  0
LINE
  8
0
 62
7
 10
-1.40360184E+02
 20
1.43138962E+02
 11
-1.40360184E+02
 21
1.19134041E+02
  0
LINE
  8
0
 62
7
 10
-1.42110184E+02
 20
1.44138962E+02
 11
-1.42110184E+02
 21
1.42138962E+02
  0
LINE
  8
0
 62
7
 10
-1.53610184E+02
 20
1.44138962E+02
 11
-1.53610184E+02
 21
1.42138962E+02
  0
LINE
  8
0
 62
7
 10
-1.53610184E+02
 20
1.44138962E+02
 11
-1.53110184E+02
 21
1.44138962E+02
  0
LINE
  8
0
 62
7
 10
-1.42110184E+02
 20
1.42138962E+02
 11
-1.42610184E+02
 21
1.42138962E+02
  0
LINE
  8
0
 62
7
 10
-1.40082368E+02
 20
1.00911859E+02
 11
-1.41638003E+02
 21
9.93562240E+01
  0
LINE
  8
0
 62
7
 10
-1.41638003E+02
 20
1.00911857E+02
 11
-1.40082368E+02
 21
9.93562213E+01
  0
LINE
  8
0
 62
7
 10
-1.55638002E+02
 20
1.17911859E+02
 11
-1.54082366E+02
 21
1.16356223E+02
  0
LINE
  8
0
 62
7
 10
-1.54082369E+02
 20
1.17911859E+02
 11
-1.55638004E+02
 21
1.16356223E+02
  0
LINE
  8
0
 62
7
 10
-1.56860184E+02
 20
9.81340408E+01
 11
-1.56860184E+02
 21
1.19134041E+02
  0
LINE
  8
0
 62
7
 10
-1.38860184E+02
 20
1.19134041E+02
 11
-1.38860184E+02
 21
9.81340408E+01
  0
LINE
  8
0
 62
7
 10
-1.40860184E+02
 20
1.01734041E+02
 11
-1.38860184E+02
 21
1.01734041E+02
  0
LINE
  8
0
 62
7
 10
-1.54860184E+02
 20
1.15534040E+02
 11
-1.56860184E+02
 21
1.15534040E+02
  0
LINE
  8
0
 62
7
 10
-1.53260185E+02
 20
1.17134041E+02
 11
-1.53260185E+02
 21
1.19134041E+02
  0
LINE
  8
0
 62
7
 10
-1.42460182E+02
 20
1.00134041E+02
 11
-1.42460182E+02
 21
9.81340408E+01
  0
LINE
  8
0
 62
7
 10
-1.57110184E+02
 20
7.21340408E+01
 11
-1.57110184E+02
 21
9.81340408E+01
  0
LINE
  8
0
 62
7
 10
-1.38610184E+02
 20
9.81340408E+01
 11
-1.38610184E+02
 21
7.21340408E+01
  0
LINE
  8
0
 62
7
 10
-1.57110184E+02
 20
9.81340408E+01
 11
-1.38610184E+02
 21
9.81340408E+01
  0
LINE
  8
0
 62
7
 10
-1.57110184E+02
 20
7.21340408E+01
 11
-1.38610184E+02
 21
7.21340408E+01
  0
LINE
  8
0
 62
7
 10
-1.52810181E+02
 20
1.47934040E+02
 11
-1.52810181E+02
 21
1.49634041E+02
  0
LINE
  8
0
 62
7
 10
-1.42910187E+02
 20
1.47934040E+02
 11
-1.42910187E+02
 21
1.49634041E+02
  0
LINE
  8
0
 62
7
 10
-1.51310181E+02
 20
1.51134041E+02
 11
-1.49310181E+02
 21
1.51134041E+02
  0
LINE
  8
0
 62
7
 10
-1.39058864E+02
 20
1.42940298E+02
 11
-1.38860188E+02
 21
1.13138963E+02
  0
LINE
  8
0
 62
7
 10
-1.56661512E+02
 20
1.42940298E+02
 11
-1.56860188E+02
 21
1.13138963E+02
  0
LINE
  8
0
 62
7
 10
-1.38860184E+02
 20
1.19134041E+02
 11
-1.56860184E+02
 21
1.19134041E+02
  0
LINE
  8
0
 62
6
 10
-1.54560181E+02
 20
1.19134041E+02
 11
-1.54560181E+02
 21
1.38734039E+02
  0
LINE
  8
0
 62
7
 10
-1.56461510E+02
 20
1.43138962E+02
 11
-1.53610184E+02
 21
1.43138962E+02
  0
LINE
  8
0
  6
CENTER
 62
2
 10
-1.47860184E+02
 20
6.89593124E+01
 11
-1.47860184E+02
 21
1.53689785E+02
  0
LINE
  8
0
 62
6
 10
-1.41160187E+02
 20
1.19134041E+02
 11
-1.41160187E+02
 21
1.38734039E+02
  0
LINE
  8
0
 62
6
 10
-1.41160187E+02
 20
1.38734039E+02
 11
-1.41160187E+02
 21
1.39734039E+02
  0
LINE
  8
0
 62
6
 10
-1.51160187E+02
 20
1.38734039E+02
 11
-1.51160187E+02
 21
1.39734039E+02
  0
LINE
  8
0
 62
6
 10
-1.51160187E+02
 20
1.19134041E+02
 11
-1.51160187E+02
 21
1.38734039E+02
  0
LINE
  8
0
 62
6
 10
-1.43910187E+02
 20
1.39734039E+02
 11
-1.43910187E+02
 21
1.47934040E+02
  0
LINE
  8
0
 62
6
 10
-1.42610184E+02
 20
1.39734039E+02
 11
-1.42610184E+02
 21
1.47934040E+02
  0
LINE
  8
0
 62
6
 10
-1.42610184E+02
 20
1.47934040E+02
 11
-1.43910187E+02
 21
1.47934040E+02
  0
LINE
  8
0
 62
6
 10
-1.43010185E+02
 20
1.51934040E+02
 11
-1.43510185E+02
 21
1.51934040E+02
  0
LINE
  8
0
 62
6
 10
-1.43010185E+02
 20
1.47934040E+02
 11
-1.43010185E+02
 21
1.51934040E+02
  0
LINE
  8
0
 62
6
 10
-1.43510185E+02
 20
1.47934040E+02
 11
-1.43510185E+02
 21
1.51934040E+02
  0
LINE
  8
0
 62
6
 10
-1.49310181E+02
 20
1.47934040E+02
 11
-1.49310181E+02
 21
1.51934040E+02
  0
LINE
  8
0
 62
6
 10
-1.48810181E+02
 20
1.47934040E+02
 11
-1.48810181E+02
 21
1.51934040E+02
  0
LINE
  8
0
 62
6
 10
-1.48810181E+02
 20
1.51934040E+02
 11
-1.49310181E+02
 21
1.51934040E+02
  0
LINE
  8
0
 62
6
 10
-1.48410187E+02
 20
1.47934040E+02
 11
-1.49710182E+02
 21
1.47934040E+02
  0
LINE
  8
0
 62
6
 10
-1.48410187E+02
 20
1.39734039E+02
 11
-1.48410187E+02
 21
1.47934040E+02
  0
LINE
  8
0
 62
6
 10
-1.49710182E+02
 20
1.39734039E+02
 11
-1.49710182E+02
 21
1.47934040E+02
  0
LINE
  8
0
 62
6
 10
-1.51160187E+02
 20
1.34134041E+02
 11
-1.41160187E+02
 21
1.34134041E+02
  0
LINE
  8
0
 62
6
 10
-1.51160187E+02
 20
1.30634041E+02
 11
-1.41160187E+02
 21
1.30634041E+02
  0
LINE
  8
0
 62
7
 10
-1.48410187E+02
 20
1.44138962E+02
 11
-1.47310181E+02
 21
1.44138962E+02
  0
LINE
  8
0
 62
7
 10
-1.49710182E+02
 20
1.42138962E+02
 11
-1.51810181E+02
 21
1.42138962E+02
  0
LINE
  8
0
 62
7
 10
-1.43910187E+02
 20
1.42138962E+02
 11
-1.46010185E+02
 21
1.42138962E+02
  0
LINE
  8
0
 62
7
 10
-1.42610184E+02
 20
1.44138962E+02
 11
-1.42110184E+02
 21
1.44138962E+02
  0
LINE
  8
0
 62
7
 10
-1.48810181E+02
 20
1.51134041E+02
 11
-1.46910187E+02
 21
1.51134041E+02
  0
LINE
  8
0
 62
6
 10
-1.51160187E+02
 20
1.38734039E+02
 11
-1.41160187E+02
 21
1.38734039E+02
  0
LINE
  8
0
 62
6
 10
-1.51160187E+02
 20
1.39734039E+02
 11
-1.41160187E+02
 21
1.39734039E+02
  0
LINE
  8
0
 62
6
 10
-1.51160187E+02
 20
1.38734039E+02
 11
-1.54560181E+02
 21
1.38734039E+02
  0
LINE
  8
0
 62
6
 10
-1.51160187E+02
 20
1.20334042E+02
 11
-1.54560181E+02
 21
1.20334042E+02
  0
LINE
  8
0
  6
PHANTOM
 62
2
 10
-1.52260185E+02
 20
1.94035263E+02
 11
-1.51660187E+02
 21
1.94035263E+02
  0
LINE
  8
0
  6
PHANTOM
 62
2
 10
-1.52660187E+02
 20
1.94035263E+02
 11
-1.53260185E+02
 21
1.94035263E+02
  0
LINE
  8
0
  6
PHANTOM
 62
2
 10
-1.51260185E+02
 20
1.73868042E+02
 11
-1.53660187E+02
 21
1.73868042E+02
  0
LINE
  8
0
  6
PHANTOM
 62
2
 10
-1.51660187E+02
 20
1.73868042E+02
 11
-1.51660187E+02
 21
1.94035263E+02
  0
LINE
  8
0
  6
PHANTOM
 62
2
 10
-1.52260185E+02
 20
1.73868042E+02
 11
-1.52260185E+02
 21
1.94035263E+02
  0
LINE
  8
0
  6
PHANTOM
 62
2
 10
-1.52660187E+02
 20
1.73868042E+02
 11
-1.52660187E+02
 21
1.94035263E+02
  0
LINE
  8
0
  6
PHANTOM
 62
2
 10
-1.53260185E+02
 20
1.73868042E+02
 11
-1.53260185E+02
 21
1.94035263E+02
  0
LINE
  8
0
  6
PHANTOM
 62
2
 10
-1.51260185E+02
 20
1.68334038E+02
 11
-1.51260185E+02
 21
1.73868042E+02
  0
LINE
  8
0
  6
PHANTOM
 62
2
 10
-1.53660187E+02
 20
1.68334038E+02
 11
-1.53660187E+02
 21
1.73868042E+02
  0
LINE
  8
0
  6
PHANTOM
 62
2
 10
-1.54560181E+02
 20
1.39634041E+02
 11
-1.55360184E+02
 21
1.39634041E+02
  0
LINE
  8
0
  6
PHANTOM
 62
2
 10
-1.42110184E+02
 20
1.41257328E+02
 11
-1.42610184E+02
 21
1.41257328E+02
  0
LINE
  8
0
  6
PHANTOM
 62
2
 10
-1.42110184E+02
 20
1.44134041E+02
 11
-1.42610184E+02
 21
1.44134041E+02
  0
LINE
  8
0
  6
PHANTOM
 62
2
 10
-1.42110184E+02
 20
1.39734039E+02
 11
-1.42110184E+02
 21
1.44138962E+02
  0
LINE
  8
0
  6
PHANTOM
 62
2
 10
-1.53610184E+02
 20
1.39734039E+02
 11
-1.53610184E+02
 21
1.44134041E+02
  0
LINE
  8
0
  6
PHANTOM
 62
2
 10
-1.40360184E+02
 20
1.39634041E+02
 11
-1.41160187E+02
 21
1.39634041E+02
  0
LINE
  8
0
  6
PHANTOM
 62
2
 10
-1.40360184E+02
 20
1.43134041E+02
 11
-1.42610184E+02
 21
1.43134041E+02
  0
LINE
  8
0
  6
PHANTOM
 62
2
 10
-1.40360184E+02
 20
1.19134041E+02
 11
-1.40360184E+02
 21
1.43134041E+02
  0
LINE
  8
0
  6
PHANTOM
 62
2
 10
-1.55360184E+02
 20
1.19134041E+02
 11
-1.55360184E+02
 21
1.43134041E+02
  0
LINE
  8
0
  6
PHANTOM
 62
2
 10
-1.50560181E+02
 20
1.55939144E+02
 11
-1.50560181E+02
 21
1.68334038E+02
  0
LINE
  8
0
  6
PHANTOM
 62
2
 10
-1.54360184E+02
 20
1.58133076E+02
 11
-1.54360184E+02
 21
1.68334038E+02
  0
LINE
  8
0
  6
PHANTOM
 62
2
 10
-1.48521036E+02
 20
1.54761841E+02
 11
-1.56877921E+02
 21
1.59586691E+02
  0
LINE
  8
0
  6
PHANTOM
 62
2
 10
-1.48729472E+02
 20
1.51995431E+02
 11
-1.57064497E+02
 21
1.56807660E+02
  0
LINE
  8
0
  6
PHANTOM
 62
2
 10
-1.50560181E+02
 20
1.68334038E+02
 11
-1.54360184E+02
 21
1.68334038E+02
  0
LINE
  8
0
  6
PHANTOM
 62
2
 10
-1.50560181E+02
 20
1.44134041E+02
 11
-1.50560181E+02
 21
1.53052391E+02
  0
LINE
  8
0
  6
PHANTOM
 62
2
 10
-1.54360184E+02
 20
1.44134041E+02
 11
-1.54360184E+02
 21
1.55246323E+02
  0
LINE
  8
0
  6
PHANTOM
 62
2
 10
-1.55260185E+02
 20
1.43134041E+02
 11
-1.55260185E+02
 21
1.44134041E+02
  0
LINE
  8
0
  6
PHANTOM
 62
2
 10
-1.53610184E+02
 20
1.44134041E+02
 11
-1.55260185E+02
 21
1.44134041E+02
  0
LINE
  8
0
  6
PHANTOM
 62
2
 10
-1.53610184E+02
 20
1.44138962E+02
 11
-1.53110184E+02
 21
1.44138962E+02
  0
LINE
  8
0
  6
PHANTOM
 62
2
 10
-1.46010185E+02
 20
1.44138962E+02
 11
-1.43910187E+02
 21
1.44138962E+02
  0
LINE
  8
0
  6
PHANTOM
 62
2
 10
-1.53110184E+02
 20
1.44134041E+02
 11
-1.53610184E+02
 21
1.44134041E+02
  0
LINE
  8
0
  6
PHANTOM
 62
2
 10
-1.53110184E+02
 20
1.43134041E+02
 11
-1.55360184E+02
 21
1.43134041E+02
  0
LINE
  8
0
  6
PHANTOM
 62
2
 10
-1.53110184E+02
 20
1.41257328E+02
 11
-1.53610184E+02
 21
1.41257328E+02
  0
LINE
  8
0
  6
PHANTOM
 62
2
 10
-1.49710182E+02
 20
1.41257328E+02
 11
-1.51810181E+02
 21
1.41257328E+02
  0
LINE
  8
0
  6
PHANTOM
 62
2
 10
-1.49710182E+02
 20
1.43134041E+02
 11
-1.51810181E+02
 21
1.43134041E+02
  0
LINE
  8
0
  6
PHANTOM
 62
2
 10
-1.49710182E+02
 20
1.44134041E+02
 11
-1.51810181E+02
 21
1.44134041E+02
  0
LINE
  8
0
  6
PHANTOM
 62
2
 10
-1.47310181E+02
 20
1.44134041E+02
 11
-1.48410187E+02
 21
1.44134041E+02
  0
LINE
  8
0
  6
PHANTOM
 62
2
 10
-1.47310181E+02
 20
1.43134041E+02
 11
-1.48410187E+02
 21
1.43134041E+02
  0
LINE
  8
0
  6
PHANTOM
 62
2
 10
-1.47310181E+02
 20
1.41257328E+02
 11
-1.48410187E+02
 21
1.41257328E+02
  0
LINE
  8
0
  6
PHANTOM
 62
2
 10
-1.43910187E+02
 20
1.41257328E+02
 11
-1.46010185E+02
 21
1.41257328E+02
  0
LINE
  8
0
  6
PHANTOM
 62
2
 10
-1.43910187E+02
 20
1.43134041E+02
 11
-1.46010185E+02
 21
1.43134041E+02
  0
LINE
  8
0
  6
PHANTOM
 62
2
 10
-1.43910187E+02
 20
1.44134041E+02
 11
-1.46010185E+02
 21
1.44134041E+02
  0
LINE
  8
0
 62
7
 10
-1.82810184E+02
 20
1.51134041E+02
 11
-1.84810184E+02
 21
1.51134041E+02
  0
LINE
  8
0
 62
7
 10
-1.77410183E+02
 20
1.44134041E+02
 11
-1.79510185E+02
 21
1.44134041E+02
  0
LINE
  8
0
 62
7
 10
-1.77410183E+02
 20
1.42134041E+02
 11
-1.79510185E+02
 21
1.42134041E+02
  0
LINE
  8
0
 62
7
 10
-1.83210182E+02
 20
1.42134041E+02
 11
-1.85310184E+02
 21
1.42134041E+02
  0
LINE
  8
0
 62
7
 10
-1.83210182E+02
 20
1.44134041E+02
 11
-1.85310184E+02
 21
1.44134041E+02
  0
LINE
  8
0
  6
PHANTOM
 62
2
 10
-1.85760185E+02
 20
1.94035263E+02
 11
-1.85160183E+02
 21
1.94035263E+02
  0
LINE
  8
0
  6
PHANTOM
 62
2
 10
-1.86160183E+02
 20
1.94035263E+02
 11
-1.86760185E+02
 21
1.94035263E+02
  0
LINE
  8
0
  6
PHANTOM
 62
2
 10
-1.84760185E+02
 20
1.73868042E+02
 11
-1.87160183E+02
 21
1.73868042E+02
  0
LINE
  8
0
  6
PHANTOM
 62
2
 10
-1.85160183E+02
 20
1.73868042E+02
 11
-1.85160183E+02
 21
1.94035263E+02
  0
LINE
  8
0
  6
PHANTOM
 62
2
 10
-1.85760185E+02
 20
1.73868042E+02
 11
-1.85760185E+02
 21
1.94035263E+02
  0
LINE
  8
0
  6
PHANTOM
 62
2
 10
-1.86160183E+02
 20
1.73868042E+02
 11
-1.86160183E+02
 21
1.94035263E+02
  0
LINE
  8
0
  6
PHANTOM
 62
2
 10
-1.86760185E+02
 20
1.73868042E+02
 11
-1.86760185E+02
 21
1.94035263E+02
  0
LINE
  8
0
  6
PHANTOM
 62
2
 10
-1.84760185E+02
 20
1.68334038E+02
 11
-1.84760185E+02
 21
1.73868042E+02
  0
LINE
  8
0
  6
PHANTOM
 62
2
 10
-1.87160183E+02
 20
1.68334038E+02
 11
-1.87160183E+02
 21
1.73868042E+02
  0
LINE
  8
0
  6
PHANTOM
 62
2
 10
-1.88060184E+02
 20
1.39634041E+02
 11
-1.88860184E+02
 21
1.39634041E+02
  0
LINE
  8
0
  6
PHANTOM
 62
2
 10
-1.75610184E+02
 20
1.41257328E+02
 11
-1.76110184E+02
 21
1.41257328E+02
  0
LINE
  8
0
  6
PHANTOM
 62
2
 10
-1.75610184E+02
 20
1.39734039E+02
 11
-1.75610184E+02
 21
1.44138962E+02
  0
LINE
  8
0
  6
PHANTOM
 62
2
 10
-1.87110184E+02
 20
1.39734039E+02
 11
-1.87110184E+02
 21
1.44134041E+02
  0
LINE
  8
0
  6
PHANTOM
 62
2
 10
-1.73860184E+02
 20
1.39634041E+02
 11
-1.74660183E+02
 21
1.39634041E+02
  0
LINE
  8
0
  6
PHANTOM
 62
2
 10
-1.73860184E+02
 20
1.43134041E+02
 11
-1.76110184E+02
 21
1.43134041E+02
  0
LINE
  8
0
  6
PHANTOM
 62
2
 10
-1.73860184E+02
 20
1.19134041E+02
 11
-1.73860184E+02
 21
1.43134041E+02
  0
LINE
  8
0
  6
PHANTOM
 62
2
 10
-1.88860184E+02
 20
1.19134041E+02
 11
-1.88860184E+02
 21
1.43134041E+02
  0
LINE
  8
0
  6
PHANTOM
 62
2
 10
-1.84060184E+02
 20
1.55939144E+02
 11
-1.84060184E+02
 21
1.68334038E+02
  0
LINE
  8
0
  6
PHANTOM
 62
2
 10
-1.87860184E+02
 20
1.58133076E+02
 11
-1.87860184E+02
 21
1.68334038E+02
  0
LINE
  8
0
  6
PHANTOM
 62
2
 10
-1.82021036E+02
 20
1.54761842E+02
 11
-1.90377920E+02
 21
1.59586691E+02
  0
LINE
  8
0
  6
PHANTOM
 62
2
 10
-1.82229473E+02
 20
1.51995427E+02
 11
-1.90564499E+02
 21
1.56807657E+02
  0
LINE
  8
0
  6
PHANTOM
 62
2
 10
-1.84060184E+02
 20
1.68334038E+02
 11
-1.87860184E+02
 21
1.68334038E+02
  0
LINE
  8
0
  6
PHANTOM
 62
2
 10
-1.84060184E+02
 20
1.44134041E+02
 11
-1.84060184E+02
 21
1.53052391E+02
  0
LINE
  8
0
  6
PHANTOM
 62
2
 10
-1.87860184E+02
 20
1.44134041E+02
 11
-1.87860184E+02
 21
1.55246323E+02
  0
LINE
  8
0
  6
PHANTOM
 62
2
 10
-1.88760185E+02
 20
1.43134041E+02
 11
-1.88760185E+02
 21
1.44134041E+02
  0
LINE
  8
0
  6
PHANTOM
 62
2
 10
-1.87110184E+02
 20
1.44134041E+02
 11
-1.88760185E+02
 21
1.44134041E+02
  0
LINE
  8
0
  6
PHANTOM
 62
2
 10
-1.87110184E+02
 20
1.44138962E+02
 11
-1.86610184E+02
 21
1.44138962E+02
  0
LINE
  8
0
  6
CENTER
 62
6
 10
-1.79660183E+02
 20
1.16738373E+02
 11
-1.79660183E+02
 21
1.40957352E+02
  0
LINE
  8
0
  6
CENTER
 62
6
 10
-1.83060184E+02
 20
1.16738373E+02
 11
-1.83060184E+02
 21
1.40957352E+02
  0
LINE
  8
0
 62
7
 10
-1.73953519E+02
 20
1.19134040E+02
 11
-1.74059301E+02
 21
1.42934930E+02
  0
LINE
  8
0
 62
7
 10
-1.88766851E+02
 20
1.19134040E+02
 11
-1.88661069E+02
 21
1.42934931E+02
  0
LINE
  8
0
 62
7
 10
-1.77910183E+02
 20
1.51134041E+02
 11
-1.79910183E+02
 21
1.51134041E+02
  0
LINE
  8
0
 62
7
 10
-1.86310184E+02
 20
1.47934040E+02
 11
-1.86310184E+02
 21
1.49634041E+02
  0
LINE
  8
0
 62
7
 10
-1.76410183E+02
 20
1.47934040E+02
 11
-1.76410183E+02
 21
1.49634041E+02
  0
LINE
  8
0
 62
7
 10
-1.74259296E+02
 20
1.43134041E+02
 11
-1.75610184E+02
 21
1.43134041E+02
  0
LINE
  8
0
  6
CENTER
 62
2
 10
-1.81360184E+02
 20
6.86930389E+01
 11
-1.81360184E+02
 21
1.56109509E+02
  0
LINE
  8
0
 62
7
 10
-1.76638001E+02
 20
1.00911858E+02
 11
-1.75082366E+02
 21
9.93562226E+01
  0
LINE
  8
0
 62
7
 10
-1.75082367E+02
 20
1.00911859E+02
 11
-1.76638003E+02
 21
9.93562240E+01
  0
LINE
  8
0
 62
7
 10
-1.86082366E+02
 20
1.17911859E+02
 11
-1.87638001E+02
 21
1.16356224E+02
  0
LINE
  8
0
 62
7
 10
-1.87638002E+02
 20
1.17911857E+02
 11
-1.86082367E+02
 21
1.16356222E+02
  0
LINE
  8
0
 62
7
 10
-1.88860184E+02
 20
1.19134041E+02
 11
-1.88860184E+02
 21
9.81340408E+01
  0
LINE
  8
0
 62
7
 10
-1.73860184E+02
 20
1.19134041E+02
 11
-1.73860184E+02
 21
9.81340408E+01
  0
LINE
  8
0
 62
7
 10
-1.88860184E+02
 20
1.19134041E+02
 11
-1.73860184E+02
 21
1.19134041E+02
  0
LINE
  8
0
 62
7
 10
-1.79060184E+02
 20
1.18134041E+02
 11
-1.80260185E+02
 21
1.18134041E+02
  0
LINE
  8
0
 62
7
 10
-1.80260185E+02
 20
1.18134041E+02
 11
-1.80260185E+02
 21
1.19134041E+02
  0
LINE
  8
0
 62
7
 10
-1.79060184E+02
 20
1.18134041E+02
 11
-1.79060184E+02
 21
1.19134041E+02
  0
LINE
  8
0
 62
7
 10
-1.75860184E+02
 20
1.01734041E+02
 11
-1.73860184E+02
 21
1.01734041E+02
  0
LINE
  8
0
 62
7
 10
-1.77460182E+02
 20
1.00134041E+02
 11
-1.77460182E+02
 21
9.81340408E+01
  0
LINE
  8
0
 62
7
 10
-1.85260185E+02
 20
1.17134041E+02
 11
-1.85260185E+02
 21
1.19134041E+02
  0
LINE
  8
0
 62
7
 10
-1.86860184E+02
 20
1.15534040E+02
 11
-1.88860184E+02
 21
1.15534040E+02
  0
LINE
  8
0
 62
7
 10
-1.89110184E+02
 20
7.21340408E+01
 11
-1.73610184E+02
 21
7.21340408E+01
  0
LINE
  8
0
 62
7
 10
-1.73610184E+02
 20
9.81340408E+01
 11
-1.89110184E+02
 21
9.81340408E+01
  0
LINE
  8
0
 62
7
 10
-1.73610184E+02
 20
7.21340408E+01
 11
-1.73610184E+02
 21
9.81340408E+01
  0
LINE
  8
0
 62
7
 10
-1.89110184E+02
 20
7.21340408E+01
 11
-1.89110184E+02
 21
9.81340408E+01
  0
LINE
  8
0
 62
7
 10
-1.75610184E+02
 20
1.44134041E+02
 11
-1.76110184E+02
 21
1.44134041E+02
  0
LINE
  8
0
 62
7
 10
-1.75610184E+02
 20
1.42134041E+02
 11
-1.76110184E+02
 21
1.42134041E+02
  0
LINE
  8
0
 62
7
 10
-1.75610184E+02
 20
1.44134041E+02
 11
-1.75610184E+02
 21
1.42134041E+02
  0
LINE
  8
0
 62
7
 10
-1.87110184E+02
 20
1.44134041E+02
 11
-1.87110184E+02
 21
1.42134041E+02
  0
LINE
  8
0
 62
7
 10
-1.87110184E+02
 20
1.43134041E+02
 11
-1.88461071E+02
 21
1.43134041E+02
  0
LINE
  8
0
 62
7
 10
-1.86610184E+02
 20
1.44134041E+02
 11
-1.87110184E+02
 21
1.44134041E+02
  0
LINE
  8
0
 62
7
 10
-1.86610184E+02
 20
1.42134041E+02
 11
-1.87110184E+02
 21
1.42134041E+02
  0
LINE
  8
0
 62
7
 10
-1.80810184E+02
 20
1.44134041E+02
 11
-1.81910183E+02
 21
1.44134041E+02
  0
LINE
  8
0
 62
7
 10
-1.80810184E+02
 20
1.42134041E+02
 11
-1.81910183E+02
 21
1.42134041E+02
  0
LINE
  8
0
 62
7
 10
-1.80410183E+02
 20
1.51134041E+02
 11
-1.82310184E+02
 21
1.51134041E+02
  0
LINE
  8
0
 62
6
 10
-1.88060184E+02
 20
1.38734039E+02
 11
-1.88060184E+02
 21
1.39734039E+02
  0
LINE
  8
0
 62
6
 10
-1.86610184E+02
 20
1.39734039E+02
 11
-1.86610184E+02
 21
1.47934040E+02
  0
LINE
  8
0
 62
6
 10
-1.85310184E+02
 20
1.39734039E+02
 11
-1.85310184E+02
 21
1.47934040E+02
  0
LINE
  8
0
 62
6
 10
-1.85310184E+02
 20
1.47934040E+02
 11
-1.86610184E+02
 21
1.47934040E+02
  0
LINE
  8
0
 62
6
 10
-1.85710182E+02
 20
1.51934040E+02
 11
-1.86210182E+02
 21
1.51934040E+02
  0
LINE
  8
0
 62
6
 10
-1.85710182E+02
 20
1.47934040E+02
 11
-1.85710182E+02
 21
1.51934040E+02
  0
LINE
  8
0
 62
6
 10
-1.86210182E+02
 20
1.47934040E+02
 11
-1.86210182E+02
 21
1.51934040E+02
  0
LINE
  8
0
 62
6
 10
-1.80410183E+02
 20
1.47934040E+02
 11
-1.80410183E+02
 21
1.51934040E+02
  0
LINE
  8
0
 62
6
 10
-1.79910183E+02
 20
1.47934040E+02
 11
-1.79910183E+02
 21
1.51934040E+02
  0
LINE
  8
0
 62
6
 10
-1.79910183E+02
 20
1.51934040E+02
 11
-1.80410183E+02
 21
1.51934040E+02
  0
LINE
  8
0
 62
6
 10
-1.79510185E+02
 20
1.47934040E+02
 11
-1.80810184E+02
 21
1.47934040E+02
  0
LINE
  8
0
 62
6
 10
-1.79510185E+02
 20
1.39734039E+02
 11
-1.79510185E+02
 21
1.47934040E+02
  0
LINE
  8
0
 62
6
 10
-1.80810184E+02
 20
1.39734039E+02
 11
-1.80810184E+02
 21
1.47934040E+02
  0
LINE
  8
0
 62
6
 10
-1.88060184E+02
 20
1.39734039E+02
 11
-1.84660183E+02
 21
1.39734039E+02
  0
LINE
  8
0
 62
6
 10
-1.74660183E+02
 20
1.23134041E+02
 11
-1.84660183E+02
 21
1.23134041E+02
  0
LINE
  8
0
 62
6
 10
-1.88060184E+02
 20
1.19134041E+02
 11
-1.88060184E+02
 21
1.38734039E+02
  0
LINE
  8
0
 62
6
 10
-1.74660183E+02
 20
1.19134041E+02
 11
-1.74660183E+02
 21
1.38734039E+02
  0
LINE
  8
0
 62
6
 10
-1.74660183E+02
 20
1.38734039E+02
 11
-1.74660183E+02
 21
1.39734039E+02
  0
LINE
  8
0
 62
6
 10
-1.84660183E+02
 20
1.38734039E+02
 11
-1.84660183E+02
 21
1.39734039E+02
  0
LINE
  8
0
 62
6
 10
-1.84660183E+02
 20
1.19134041E+02
 11
-1.84660183E+02
 21
1.38734039E+02
  0
LINE
  8
0
 62
6
 10
-1.77410183E+02
 20
1.39734039E+02
 11
-1.77410183E+02
 21
1.47934040E+02
  0
LINE
  8
0
 62
6
 10
-1.76110184E+02
 20
1.39734039E+02
 11
-1.76110184E+02
 21
1.47934040E+02
  0
LINE
  8
0
 62
6
 10
-1.76110184E+02
 20
1.47934040E+02
 11
-1.77410183E+02
 21
1.47934040E+02
  0
LINE
  8
0
 62
6
 10
-1.76510185E+02
 20
1.51934040E+02
 11
-1.77010185E+02
 21
1.51934040E+02
  0
LINE
  8
0
 62
6
 10
-1.76510185E+02
 20
1.47934040E+02
 11
-1.76510185E+02
 21
1.51934040E+02
  0
LINE
  8
0
 62
6
 10
-1.77010185E+02
 20
1.47934040E+02
 11
-1.77010185E+02
 21
1.51934040E+02
  0
LINE
  8
0
 62
6
 10
-1.82810184E+02
 20
1.47934040E+02
 11
-1.82810184E+02
 21
1.51934040E+02
  0
LINE
  8
0
 62
6
 10
-1.82310184E+02
 20
1.47934040E+02
 11
-1.82310184E+02
 21
1.51934040E+02
  0
LINE
  8
0
 62
6
 10
-1.82310184E+02
 20
1.51934040E+02
 11
-1.82810184E+02
 21
1.51934040E+02
  0
LINE
  8
0
 62
6
 10
-1.81910183E+02
 20
1.47934040E+02
 11
-1.83210182E+02
 21
1.47934040E+02
  0
LINE
  8
0
 62
6
 10
-1.81910183E+02
 20
1.39734039E+02
 11
-1.81910183E+02
 21
1.47934040E+02
  0
LINE
  8
0
 62
6
 10
-1.83210182E+02
 20
1.39734039E+02
 11
-1.83210182E+02
 21
1.47934040E+02
  0
LINE
  8
0
 62
6
 10
-1.84660183E+02
 20
1.34134041E+02
 11
-1.74660183E+02
 21
1.34134041E+02
  0
LINE
  8
0
 62
6
 10
-1.84660183E+02
 20
1.30634041E+02
 11
-1.74660183E+02
 21
1.30634041E+02
  0
LINE
  8
0
 62
6
 10
-1.84660183E+02
 20
1.38734039E+02
 11
-1.74660183E+02
 21
1.38734039E+02
  0
LINE
  8
0
 62
6
 10
-1.84660183E+02
 20
1.39734039E+02
 11
-1.74660183E+02
 21
1.39734039E+02
  0
LINE
  8
0
 62
6
 10
-1.84660183E+02
 20
1.38734039E+02
 11
-1.88060184E+02
 21
1.38734039E+02
  0
LINE
  8
0
 62
6
 10
-1.84660183E+02
 20
1.20334042E+02
 11
-1.88060184E+02
 21
1.20334042E+02
  0
LINE
  8
0
  6
PHANTOM
 62
2
 10
-1.86610184E+02
 20
1.44134041E+02
 11
-1.87110184E+02
 21
1.44134041E+02
  0
LINE
  8
0
  6
PHANTOM
 62
2
 10
-1.86610184E+02
 20
1.43134041E+02
 11
-1.88860184E+02
 21
1.43134041E+02
  0
LINE
  8
0
  6
PHANTOM
 62
2
 10
-1.86610184E+02
 20
1.41257328E+02
 11
-1.87110184E+02
 21
1.41257328E+02
  0
LINE
  8
0
  6
PHANTOM
 62
2
 10
-1.83210182E+02
 20
1.41257328E+02
 11
-1.85310184E+02
 21
1.41257328E+02
  0
LINE
  8
0
  6
PHANTOM
 62
2
 10
-1.83210182E+02
 20
1.44134041E+02
 11
-1.85310184E+02
 21
1.44134041E+02
  0
LINE
  8
0
  6
PHANTOM
 62
2
 10
-1.83210182E+02
 20
1.43134041E+02
 11
-1.85310184E+02
 21
1.43134041E+02
  0
LINE
  8
0
  6
PHANTOM
 62
2
 10
-1.80810184E+02
 20
1.44134041E+02
 11
-1.81910183E+02
 21
1.44134041E+02
  0
LINE
  8
0
  6
PHANTOM
 62
2
 10
-1.80810184E+02
 20
1.43134041E+02
 11
-1.81910183E+02
 21
1.43134041E+02
  0
LINE
  8
0
  6
PHANTOM
 62
2
 10
-1.80810184E+02
 20
1.41257328E+02
 11
-1.81910183E+02
 21
1.41257328E+02
  0
LINE
  8
0
  6
PHANTOM
 62
2
 10
-1.77410183E+02
 20
1.41257328E+02
 11
-1.79510185E+02
 21
1.41257328E+02
  0
LINE
  8
0
  6
PHANTOM
 62
2
 10
-1.77410183E+02
 20
1.43134041E+02
 11
-1.79510185E+02
 21
1.43134041E+02
  0
LINE
  8
0
  6
PHANTOM
 62
2
 10
-1.76110184E+02
 20
1.44138962E+02
 11
-1.75610184E+02
 21
1.44138962E+02
  0
LINE
  8
0
  6
PHANTOM
 62
2
 10
-1.79510185E+02
 20
1.44138962E+02
 11
-1.77410183E+02
 21
1.44138962E+02
  0
LINE
  8
0
  6
CENTER
 62
2
 10
-1.94860184E+02
 20
6.94734650E+01
 11
-1.94860184E+02
 21
1.52901474E+02
  0
LINE
  8
0
 62
7
 10
-2.00060184E+02
 20
1.16634041E+02
 11
-1.89660183E+02
 21
1.16634041E+02
  0
LINE
  8
0
 62
7
 10
-1.89860184E+02
 20
9.81340408E+01
 11
-1.89860184E+02
 21
1.16634041E+02
  0
LINE
  8
0
 62
7
 10
-1.99860184E+02
 20
1.16634041E+02
 11
-1.99860184E+02
 21
9.81340408E+01
  0
LINE
  8
0
 62
7
 10
-1.97860184E+02
 20
1.02634041E+02
 11
-1.99860184E+02
 21
1.02634041E+02
  0
LINE
  8
0
 62
7
 10
-1.91560184E+02
 20
1.08334041E+02
 11
-1.89860184E+02
 21
1.08334041E+02
  0
LINE
  8
0
 62
7
 10
-1.91560184E+02
 20
1.11534040E+02
 11
-1.89860184E+02
 21
1.11534040E+02
  0
LINE
  8
0
 62
7
 10
-1.89660183E+02
 20
1.09934041E+02
 11
-1.89660183E+02
 21
1.16634041E+02
  0
LINE
  8
0
 62
7
 10
-2.00060184E+02
 20
1.16634041E+02
 11
-2.00060184E+02
 21
1.09934041E+02
  0
LINE
  8
0
 62
7
 10
-1.89660183E+02
 20
1.09934041E+02
 11
-1.89860184E+02
 21
1.09934041E+02
  0
LINE
  8
0
 62
7
 10
-1.99860184E+02
 20
1.09934041E+02
 11
-2.00060184E+02
 21
1.09934041E+02
  0
LINE
  8
0
 62
7
 10
-1.97860184E+02
 20
9.94340408E+01
 11
-1.99860184E+02
 21
9.94340408E+01
  0
LINE
  8
0
  6
CENTER
 62
2
 10
-1.93910183E+02
 20
8.59173050E+01
 11
-1.93910183E+02
 21
9.33199692E+01
  0
LINE
  8
0
 62
7
 10
-2.00110184E+02
 20
7.21340408E+01
 11
-1.89610184E+02
 21
7.21340408E+01
  0
LINE
  8
0
 62
7
 10
-1.89610184E+02
 20
7.21340408E+01
 11
-1.89610184E+02
 21
9.81340408E+01
  0
LINE
  8
0
 62
7
 10
-2.00110184E+02
 20
7.21340408E+01
 11
-2.00110184E+02
 21
9.81340408E+01
  0
LINE
  8
0
 62
7
 10
-1.90059076E+02
 20
1.43134041E+02
 11
-1.91310184E+02
 21
1.43134041E+02
  0
LINE
  8
0
 62
7
 10
-1.99810184E+02
 20
1.43434040E+02
 11
-1.99810184E+02
 21
1.49634041E+02
  0
LINE
  8
0
 62
7
 10
-1.91410183E+02
 20
1.51134041E+02
 11
-1.98310184E+02
 21
1.51134041E+02
  0
LINE
  8
0
 62
7
 10
-1.99810184E+02
 20
1.43434040E+02
 11
-1.99510184E+02
 21
1.43134040E+02
  0
LINE
  8
0
 62
7
 10
-1.89859078E+02
 20
1.42935151E+02
 11
-1.89712961E+02
 21
1.16634040E+02
  0
LINE
  8
0
 62
7
 10
-2.00044629E+02
 20
1.09934041E+02
 11
-2.00110185E+02
 21
9.81340410E+01
  0
LINE
  8
0
 62
7
 10
-2.00110184E+02
 20
9.81340408E+01
 11
-1.89610184E+02
 21
9.81340408E+01
  0
LINE
  8
0
 62
7
 10
-1.97082367E+02
 20
1.01811858E+02
 11
-1.98638002E+02
 21
1.00256224E+02
  0
LINE
  8
0
 62
7
 10
-1.98638001E+02
 20
1.01811858E+02
 11
-1.97082367E+02
 21
1.00256224E+02
  0
LINE
  8
0
 62
7
 10
-1.90782366E+02
 20
1.10711858E+02
 11
-1.92338001E+02
 21
1.09156223E+02
  0
LINE
  8
0
 62
7
 10
-1.92338001E+02
 20
1.10711858E+02
 11
-1.90782367E+02
 21
1.09156224E+02
  0
LINE
  8
0
  6
PHANTOM
 62
2
 10
-1.94008373E+02
 20
1.49243102E+02
 11
-2.01384001E+02
 21
1.51225302E+02
  0
LINE
  8
0
  6
PHANTOM
 62
2
 10
-1.94008373E+02
 20
1.48213104E+02
 11
-2.01384001E+02
 21
1.50195304E+02
  0
LINE
  8
0
  6
CENTER
 62
2
 10
-1.97360737E+02
 20
1.40440895E+02
 11
-1.97360737E+02
 21
1.60295181E+02
  0
LINE
  8
0
  6
PHANTOM
 62
2
 10
-1.99060737E+02
 20
1.56589108E+02
 11
-1.98860737E+02
 21
1.56725054E+02
  0
LINE
  8
0
  6
PHANTOM
 62
2
 10
-1.99060736E+02
 20
1.55715168E+02
 11
-1.99060736E+02
 21
1.56589111E+02
  0
LINE
  8
0
  6
PHANTOM
 62
2
 10
-1.98860737E+02
 20
1.55715168E+02
 11
-1.98860737E+02
 21
1.56725056E+02
  0
LINE
  8
0
  6
PHANTOM
 62
2
 10
-1.98060736E+02
 20
1.56589110E+02
 11
-1.97860737E+02
 21
1.56725056E+02
  0
LINE
  8
0
  6
PHANTOM
 62
2
 10
-1.98060736E+02
 20
1.55715168E+02
 11
-1.98060736E+02
 21
1.56589111E+02
  0
LINE
  8
0
  6
PHANTOM
 62
2
 10
-1.97860737E+02
 20
1.55715168E+02
 11
-1.97860737E+02
 21
1.56725056E+02
  0
LINE
  8
0
  6
PHANTOM
 62
2
 10
-1.97060738E+02
 20
1.56589108E+02
 11
-1.96860738E+02
 21
1.56725054E+02
  0
LINE
  8
0
  6
PHANTOM
 62
2
 10
-1.97060736E+02
 20
1.55715168E+02
 11
-1.97060736E+02
 21
1.56589111E+02
  0
LINE
  8
0
  6
PHANTOM
 62
2
 10
-1.96860737E+02
 20
1.55715168E+02
 11
-1.96860737E+02
 21
1.56725056E+02
  0
LINE
  8
0
  6
PHANTOM
 62
2
 10
-1.96060736E+02
 20
1.56589108E+02
 11
-1.95860736E+02
 21
1.56725054E+02
  0
LINE
  8
0
  6
PHANTOM
 62
2
 10
-1.96060736E+02
 20
1.55715168E+02
 11
-1.96060736E+02
 21
1.56589111E+02
  0
LINE
  8
0
  6
PHANTOM
 62
2
 10
-1.95860737E+02
 20
1.55715168E+02
 11
-1.95860737E+02
 21
1.56725056E+02
  0
LINE
  8
0
  6
PHANTOM
 62
2
 10
-1.98710735E+02
 20
1.55715168E+02
 11
-1.99210735E+02
 21
1.55715168E+02
  0
LINE
  8
0
  6
PHANTOM
 62
2
 10
-1.97710735E+02
 20
1.55715168E+02
 11
-1.98210735E+02
 21
1.55715168E+02
  0
LINE
  8
0
  6
PHANTOM
 62
2
 10
-1.96710735E+02
 20
1.55715168E+02
 11
-1.97210735E+02
 21
1.55715168E+02
  0
LINE
  8
0
  6
PHANTOM
 62
2
 10
-1.95710735E+02
 20
1.55715168E+02
 11
-1.96210735E+02
 21
1.55715168E+02
  0
LINE
  8
0
  6
PHANTOM
 62
2
 10
-1.99210735E+02
 20
1.53834595E+02
 11
-1.99210735E+02
 21
1.55715168E+02
  0
LINE
  8
0
  6
PHANTOM
 62
2
 10
-1.98710735E+02
 20
1.53834595E+02
 11
-1.98710735E+02
 21
1.55715168E+02
  0
LINE
  8
0
  6
PHANTOM
 62
2
 10
-1.98210735E+02
 20
1.53834595E+02
 11
-1.98210735E+02
 21
1.55715168E+02
  0
LINE
  8
0
  6
PHANTOM
 62
2
 10
-1.97710735E+02
 20
1.53834595E+02
 11
-1.97710735E+02
 21
1.55715168E+02
  0
LINE
  8
0
  6
PHANTOM
 62
2
 10
-1.97210735E+02
 20
1.53834595E+02
 11
-1.97210735E+02
 21
1.55715168E+02
  0
LINE
  8
0
  6
PHANTOM
 62
2
 10
-1.96710735E+02
 20
1.53834595E+02
 11
-1.96710735E+02
 21
1.55715168E+02
  0
LINE
  8
0
  6
PHANTOM
 62
2
 10
-1.96210735E+02
 20
1.53834595E+02
 11
-1.96210735E+02
 21
1.55715168E+02
  0
LINE
  8
0
  6
PHANTOM
 62
2
 10
-1.95710735E+02
 20
1.53834595E+02
 11
-1.95710735E+02
 21
1.55715168E+02
  0
LINE
  8
0
  6
PHANTOM
 62
2
 10
-1.95360737E+02
 20
1.53834595E+02
 11
-1.99360737E+02
 21
1.53834595E+02
  0
LINE
  8
0
  6
PHANTOM
 62
2
 10
-1.99360737E+02
 20
1.44034595E+02
 11
-1.99360737E+02
 21
1.53834595E+02
  0
LINE
  8
0
  6
PHANTOM
 62
2
 10
-1.95360737E+02
 20
1.44034595E+02
 11
-1.95360737E+02
 21
1.53834595E+02
  0
LINE
  8
0
  6
PHANTOM
 62
2
 10
-1.94960735E+02
 20
1.44034595E+02
 11
-1.96311289E+02
 21
1.44034595E+02
  0
LINE
  8
0
  6
PHANTOM
 62
2
 10
-1.99760736E+02
 20
1.44034595E+02
 11
-1.99760736E+02
 21
1.43134041E+02
  0
LINE
  8
0
  6
PHANTOM
 62
2
 10
-1.94960735E+02
 20
1.44034595E+02
 11
-1.94960735E+02
 21
1.43107567E+02
  0
LINE
  8
0
 62
7
 10
-1.89910183E+02
 20
1.43434040E+02
 11
-1.89910183E+02
 21
1.49634041E+02
  0
LINE
  8
0
 62
7
 10
-1.89675738E+02
 20
1.09933820E+02
 11
-1.89610183E+02
 21
9.81340409E+01
  0
LINE
  8
0
 62
7
 10
-1.99861289E+02
 20
1.42935151E+02
 11
-2.00007407E+02
 21
1.16634041E+02
  0
LINE
  8
0
 62
6
 10
-1.99860184E+02
 20
1.37234039E+02
 11
-1.89860184E+02
 21
1.37234039E+02
  0
LINE
  8
0
 62
6
 10
-1.98410183E+02
 20
1.37234039E+02
 11
-1.98410183E+02
 21
1.45434040E+02
  0
LINE
  8
0
 62
6
 10
-1.97110184E+02
 20
1.37234039E+02
 11
-1.97110184E+02
 21
1.45434040E+02
  0
LINE
  8
0
 62
6
 10
-1.97110184E+02
 20
1.45434040E+02
 11
-1.98410183E+02
 21
1.45434040E+02
  0
LINE
  8
0
 62
6
 10
-1.97510183E+02
 20
1.49434040E+02
 11
-1.98010183E+02
 21
1.49434040E+02
  0
LINE
  8
0
 62
6
 10
-1.97510183E+02
 20
1.45434040E+02
 11
-1.97510183E+02
 21
1.49434040E+02
  0
LINE
  8
0
 62
6
 10
-1.98010183E+02
 20
1.45434040E+02
 11
-1.98010183E+02
 21
1.49434040E+02
  0
LINE
  8
0
 62
6
 10
-1.92210184E+02
 20
1.45434040E+02
 11
-1.92210184E+02
 21
1.49434040E+02
  0
LINE
  8
0
 62
6
 10
-1.91710184E+02
 20
1.45434040E+02
 11
-1.91710184E+02
 21
1.49434040E+02
  0
LINE
  8
0
 62
6
 10
-1.91710184E+02
 20
1.49434040E+02
 11
-1.92210184E+02
 21
1.49434040E+02
  0
LINE
  8
0
 62
6
 10
-1.91310184E+02
 20
1.45434040E+02
 11
-1.92610184E+02
 21
1.45434040E+02
  0
LINE
  8
0
 62
6
 10
-1.91310184E+02
 20
1.37234039E+02
 11
-1.91310184E+02
 21
1.45434040E+02
  0
LINE
  8
0
 62
6
 10
-1.92610184E+02
 20
1.37234039E+02
 11
-1.92610184E+02
 21
1.45434040E+02
  0
LINE
  8
0
 62
6
 10
-1.99860184E+02
 20
1.16634041E+02
 11
-1.99860184E+02
 21
1.36234039E+02
  0
LINE
  8
0
 62
6
 10
-1.99860184E+02
 20
1.36234039E+02
 11
-1.99860184E+02
 21
1.37234039E+02
  0
LINE
  8
0
 62
6
 10
-1.89860184E+02
 20
1.36234039E+02
 11
-1.89860184E+02
 21
1.37234039E+02
  0
LINE
  8
0
 62
6
 10
-1.89860184E+02
 20
1.16634041E+02
 11
-1.89860184E+02
 21
1.36234039E+02
  0
LINE
  8
0
 62
6
 10
-1.89860184E+02
 20
1.20634041E+02
 11
-1.99860184E+02
 21
1.20634041E+02
  0
LINE
  8
0
 62
7
 10
-1.98410183E+02
 20
1.43134041E+02
 11
-1.99661291E+02
 21
1.43134041E+02
  0
LINE
  8
0
 62
7
 10
-1.92610184E+02
 20
1.43134041E+02
 11
-1.97110184E+02
 21
1.43134041E+02
  0
LINE
  8
0
  6
PHANTOM
 62
2
 10
-1.97611288E+02
 20
1.44034595E+02
 11
-1.99760736E+02
 21
1.44034595E+02
  0
LINE
  8
0
 62
6
 10
-1.99860184E+02
 20
1.36234039E+02
 11
-1.89860184E+02
 21
1.36234039E+02
  0
LINE
  8
0
 62
6
 10
-1.99860184E+02
 20
1.28134041E+02
 11
-1.89860184E+02
 21
1.28134041E+02
  0
LINE
  8
0
 62
6
 10
-1.99860184E+02
 20
1.31634041E+02
 11
-1.89860184E+02
 21
1.31634041E+02
  0
LINE
  8
0
 62
7
 10
-1.89910183E+02
 20
1.43434041E+02
 11
-1.90210185E+02
 21
1.43134039E+02
  0
LINE
  8
0
  6
CENTER
 62
2
 10
-1.35360184E+02
 20
8.00340405E+01
 11
-2.13360184E+02
 21
8.00340405E+01
  0
LINE
  8
0
  6
CENTER
 62
2
 10
-1.35360184E+02
 20
8.20340405E+01
 11
-2.13360184E+02
 21
8.20340405E+01
  0
LINE
  8
0
 62
7
 10
-2.00610184E+02
 20
8.50340405E+01
 11
-2.00110184E+02
 21
8.50340405E+01
  0
LINE
  8
0
  6
CENTER
 62
2
 10
-1.98285183E+02
 20
8.96340408E+01
 11
-1.89535183E+02
 21
8.96340408E+01
  0
LINE
  8
0
  6
CENTER
 62
2
 10
-1.83735184E+02
 20
9.06340408E+01
 11
-1.74985184E+02
 21
9.06340408E+01
  0
LINE
  8
0
  6
CENTER
 62
2
 10
-1.79360184E+02
 20
8.62590408E+01
 11
-1.79360184E+02
 21
9.50090408E+01
  0
LINE
  8
0
  6
CENTER
 62
2
 10
-1.67735184E+02
 20
9.06340408E+01
 11
-1.58985184E+02
 21
9.06340408E+01
  0
LINE
  8
0
  6
CENTER
 62
2
 10
-1.63360184E+02
 20
8.62590408E+01
 11
-1.63360184E+02
 21
9.50090408E+01
  0
LINE
  8
0
  6
CENTER
 62
2
 10
-1.52235184E+02
 20
9.06340408E+01
 11
-1.43485184E+02
 21
9.06340408E+01
  0
LINE
  8
0
 62
7
 10
-2.21860184E+02
 20
1.05034041E+02
 11
-2.17860184E+02
 21
1.05034041E+02
  0
LINE
  8
0
 62
7
 10
-2.21860184E+02
 20
1.01234041E+02
 11
-2.17860184E+02
 21
1.01234041E+02
  0
LINE
  8
0
 62
7
 10
-2.17860184E+02
 20
1.05034041E+02
 11
-2.17860184E+02
 21
1.09134041E+02
  0
LINE
  8
0
 62
7
 10
-2.21860184E+02
 20
6.13840408E+01
 11
-2.17860184E+02
 21
6.13840408E+01
  0
LINE
  8
0
 62
7
 10
-2.21860184E+02
 20
5.68840408E+01
 11
-2.17860184E+02
 21
5.68840408E+01
  0
LINE
  8
0
 62
7
 10
-2.17860184E+02
 20
5.68840408E+01
 11
-2.17860184E+02
 21
5.31340408E+01
  0
LINE
  8
0
 62
7
 10
-1.27860184E+02
 20
1.05034041E+02
 11
-1.31860184E+02
 21
1.05034041E+02
  0
LINE
  8
0
 62
7
 10
-1.27860184E+02
 20
1.01234041E+02
 11
-1.31860184E+02
 21
1.01234041E+02
  0
LINE
  8
0
 62
7
 10
-1.27860184E+02
 20
6.10340424E+01
 11
-1.31860184E+02
 21
6.10340424E+01
  0
LINE
  8
0
 62
7
 10
-1.27860184E+02
 20
5.72340393E+01
 11
-1.31860184E+02
 21
5.72340393E+01
  0
LINE
  8
0
 62
7
 10
-1.31860184E+02
 20
1.05034041E+02
 11
-1.31860184E+02
 21
1.09134041E+02
  0
LINE
  8
0
 62
7
 10
-1.31860184E+02
 20
5.72340393E+01
 11
-1.31860184E+02
 21
5.31340408E+01
  0
ARC
  8
0
 62
7
 10
-1.27860184E+02
 20
5.91340408E+01
 40
4.00000000E+00
 50
2.70000000E+02
 51
9.00000002E+01
  0
ARC
  8
0
 62
7
 10
-1.27860184E+02
 20
1.03134041E+02
 40
4.00000000E+00
 50
2.70000000E+02
 51
9.00000002E+01
  0
ARC
  8
0
 62
7
 10
-2.21860184E+02
 20
1.03134041E+02
 40
4.00000000E+00
 50
9.00000002E+01
 51
2.70000000E+02
  0
ARC
  8
0
 62
7
 10
-2.21860184E+02
 20
5.91340408E+01
 40
4.00000000E+00
 50
9.00000002E+01
 51
2.70000000E+02
  0
ARC
  8
0
 62
7
 10
-2.21860184E+02
 20
5.91340408E+01
 40
2.25000000E+00
 50
9.00000002E+01
 51
2.70000000E+02
  0
ARC
  8
0
 62
7
 10
-2.08860184E+02
 20
1.01034041E+02
 40
1.60000002E+00
 50
2.70000000E+02
 51
9.00000002E+01
  0
ARC
  8
0
 62
7
 10
-2.02560184E+02
 20
1.09934041E+02
 40
1.60000002E+00
 50
9.00000002E+01
 51
2.70000000E+02
  0
CIRCLE
  8
0
 62
7
 10
-2.04910183E+02
 20
8.96340408E+01
 40
2.50000000E+00
  0
ARC
  8
0
 62
7
 10
-2.09310184E+02
 20
1.49634041E+02
 40
1.50000000E+00
 50
9.00000002E+01
 51
1.80000005E+02
  0
ARC
  8
0
 62
7
 10
-2.01059076E+02
 20
1.42934040E+02
 40
2.00000003E-01
 50
3.18306612E-01
 51
9.00000002E+01
  0
ARC
  8
0
 62
7
 10
-2.10661292E+02
 20
1.42934040E+02
 40
2.00000003E-01
 50
9.00000002E+01
 51
1.79681691E+02
  0
CIRCLE
  8
0
 62
7
 10
-2.08860184E+02
 20
1.01034041E+02
 40
1.50000000E+00
  0
CIRCLE
  8
0
 62
7
 10
-2.02560184E+02
 20
1.09934041E+02
 40
1.50000000E+00
  0
ARC
  8
0
 62
7
 10
-2.02410183E+02
 20
1.49634041E+02
 40
1.50000000E+00
 50
0.00000000E+00
 51
9.00000002E+01
  0
ARC
  8
0
 62
7
 10
-1.61910183E+02
 20
1.49634041E+02
 40
1.50000000E+00
 50
0.00000000E+00
 51
2.10394706E+01
  0
ARC
  8
0
 62
7
 10
-1.72461071E+02
 20
1.42934040E+02
 40
2.00000003E-01
 50
9.00000002E+01
 51
1.79745348E+02
  0
ARC
  8
0
 62
7
 10
-1.58259296E+02
 20
1.42934040E+02
 40
2.00000003E-01
 50
2.54646235E-01
 51
9.00000002E+01
  0
ARC
  8
0
 62
7
 10
-1.68810184E+02
 20
1.49634041E+02
 40
1.50000000E+00
 50
9.00000002E+01
 51
1.26869903E+02
  0
ARC
  8
0
 62
7
 10
-1.61910183E+02
 20
1.49634041E+02
 40
1.50000000E+00
 50
5.31301018E+01
 51
9.00000002E+01
  0
CIRCLE
  8
0
 62
7
 10
-1.59860184E+02
 20
1.00134041E+02
 40
1.50000000E+00
  0
CIRCLE
  8
0
 62
7
 10
-1.70860184E+02
 20
1.17134041E+02
 40
1.50000000E+00
  0
ARC
  8
0
 62
7
 10
-1.59860184E+02
 20
1.00134041E+02
 40
1.60000002E+00
 50
9.00000002E+01
 51
1.80000005E+02
  0
ARC
  8
0
 62
7
 10
-1.70860184E+02
 20
1.17134041E+02
 40
1.60000002E+00
 50
2.70000000E+02
 51
0.00000000E+00
  0
ARC
  8
0
 62
7
 10
-1.68810184E+02
 20
1.49634041E+02
 40
1.50000000E+00
 50
1.58960536E+02
 51
1.80000005E+02
  0
ARC
  8
0
 62
7
 10
-1.51310181E+02
 20
1.49634041E+02
 40
1.50000000E+00
 50
1.58960536E+02
 51
1.80000005E+02
  0
CIRCLE
  8
0
 62
7
 10
-1.40860184E+02
 20
1.00134041E+02
 40
1.50000000E+00
  0
CIRCLE
  8
0
 62
7
 10
-1.54860184E+02
 20
1.17134041E+02
 40
1.50000000E+00
  0
ARC
  8
0
 62
7
 10
-1.54860184E+02
 20
1.17134041E+02
 40
1.60000002E+00
 50
2.70000000E+02
 51
0.00000000E+00
  0
ARC
  8
0
 62
7
 10
-1.40860184E+02
 20
1.00134041E+02
 40
1.60000002E+00
 50
9.00000002E+01
 51
1.80000005E+02
  0
ARC
  8
0
 62
7
 10
-1.51310181E+02
 20
1.49634041E+02
 40
1.50000000E+00
 50
9.00000002E+01
 51
1.26869903E+02
  0
ARC
  8
0
 62
7
 10
-1.44410187E+02
 20
1.49634041E+02
 40
1.50000000E+00
 50
5.31301018E+01
 51
9.00000002E+01
  0
ARC
  8
0
 62
7
 10
-1.39258858E+02
 20
1.42938965E+02
 40
2.00000003E-01
 50
3.81966217E-01
 51
9.00000002E+01
  0
ARC
  8
0
 62
7
 10
-1.56461510E+02
 20
1.42938965E+02
 40
2.00000003E-01
 50
9.00000002E+01
 51
1.79618033E+02
  0
ARC
  8
0
 62
7
 10
-1.44410187E+02
 20
1.49634041E+02
 40
1.50000000E+00
 50
0.00000000E+00
 51
2.10394706E+01
  0
ARC
  8
0
 62
7
 10
-1.77910183E+02
 20
1.49634041E+02
 40
1.50000000E+00
 50
0.00000000E+00
 51
2.10394706E+01
  0
ARC
  8
0
 62
7
 10
-1.88461071E+02
 20
1.42934040E+02
 40
2.00000003E-01
 50
9.00000002E+01
 51
1.79745348E+02
  0
ARC
  8
0
 62
7
 10
-1.74259296E+02
 20
1.42934040E+02
 40
2.00000003E-01
 50
2.54646235E-01
 51
9.00000002E+01
  0
ARC
  8
0
 62
7
 10
-1.84810184E+02
 20
1.49634041E+02
 40
1.50000000E+00
 50
9.00000002E+01
 51
1.26869903E+02
  0
ARC
  8
0
 62
7
 10
-1.77910183E+02
 20
1.49634041E+02
 40
1.50000000E+00
 50
5.31301018E+01
 51
9.00000002E+01
  0
CIRCLE
  8
0
 62
7
 10
-1.75860184E+02
 20
1.00134041E+02
 40
1.50000000E+00
  0
CIRCLE
  8
0
 62
7
 10
-1.86860184E+02
 20
1.17134041E+02
 40
1.50000000E+00
  0
ARC
  8
0
 62
7
 10
-1.75860184E+02
 20
1.00134041E+02
 40
1.60000002E+00
 50
9.00000002E+01
 51
1.80000005E+02
  0
ARC
  8
0
 62
7
 10
-1.86860184E+02
 20
1.17134041E+02
 40
1.60000002E+00
 50
2.70000000E+02
 51
0.00000000E+00
  0
ARC
  8
0
 62
7
 10
-1.84810184E+02
 20
1.49634041E+02
 40
1.50000000E+00
 50
1.58960536E+02
 51
1.80000005E+02
  0
ARC
  8
0
 62
7
 10
-1.97860184E+02
 20
1.01034041E+02
 40
1.60000002E+00
 50
2.70000000E+02
 51
9.00000002E+01
  0
ARC
  8
0
 62
7
 10
-1.91560184E+02
 20
1.09934041E+02
 40
1.60000002E+00
 50
9.00000002E+01
 51
2.70000000E+02
  0
ARC
  8
0
 62
7
 10
-1.98310184E+02
 20
1.49634041E+02
 40
1.50000000E+00
 50
9.00000002E+01
 51
1.80000005E+02
  0
ARC
  8
0
 62
7
 10
-1.90059076E+02
 20
1.42934040E+02
 40
2.00000003E-01
 50
3.18306612E-01
 51
9.00000002E+01
  0
ARC
  8
0
 62
7
 10
-1.99661291E+02
 20
1.42934040E+02
 40
2.00000003E-01
 50
9.00000002E+01
 51
1.79681691E+02
  0
CIRCLE
  8
0
 62
7
 10
-1.97860184E+02
 20
1.01034041E+02
 40
1.50000000E+00
  0
CIRCLE
  8
0
 62
7
 10
-1.91560184E+02
 20
1.09934041E+02
 40
1.50000000E+00
  0
ARC
  8
0
 62
7
 10
-1.91410183E+02
 20
1.49634041E+02
 40
1.50000000E+00
 50
0.00000000E+00
 51
9.00000002E+01
  0
CIRCLE
  8
0
 62
7
 10
-2.04910183E+02
 20
8.96340408E+01
 40
3.50000000E+00
  0
CIRCLE
  8
0
 62
7
 10
-2.04910183E+02
 20
8.96340408E+01
 40
4.00000000E+00
  0
CIRCLE
  8
0
 62
7
 10
-1.93910183E+02
 20
8.96340408E+01
 40
2.50000000E+00
  0
CIRCLE
  8
0
 62
7
 10
-1.93910183E+02
 20
8.96340408E+01
 40
3.50000000E+00
  0
CIRCLE
  8
0
 62
7
 10
-1.93910183E+02
 20
8.96340408E+01
 40
4.00000000E+00
  0
CIRCLE
  8
0
 62
7
 10
-1.79360184E+02
 20
9.06340408E+01
 40
2.50000000E+00
  0
CIRCLE
  8
0
 62
7
 10
-1.79360184E+02
 20
9.06340408E+01
 40
3.50000000E+00
  0
CIRCLE
  8
0
 62
7
 10
-1.79360184E+02
 20
9.06340408E+01
 40
4.00000000E+00
  0
CIRCLE
  8
0
 62
7
 10
-1.63360184E+02
 20
9.06340408E+01
 40
2.50000000E+00
  0
CIRCLE
  8
0
 62
7
 10
-1.63360184E+02
 20
9.06340408E+01
 40
3.50000000E+00
  0
CIRCLE
  8
0
 62
7
 10
-1.63360184E+02
 20
9.06340408E+01
 40
4.00000000E+00
  0
CIRCLE
  8
0
 62
7
 10
-1.47860184E+02
 20
9.06340408E+01
 40
2.50000000E+00
  0
CIRCLE
  8
0
 62
7
 10
-1.47860184E+02
 20
9.06340408E+01
 40
3.50000000E+00
  0
CIRCLE
  8
0
 62
7
 10
-1.47860184E+02
 20
9.06340408E+01
 40
4.00000000E+00
  0
ARC
  8
0
 62
7
 10
-2.21860184E+02
 20
1.03134041E+02
 40
1.89999998E+00
 50
9.00000002E+01
 51
2.70000000E+02
  0
ARC
  8
0
 62
7
 10
-1.27860184E+02
 20
1.03134041E+02
 40
1.89999998E+00
 50
2.70000000E+02
 51
9.00000002E+01
  0
ARC
  8
0
 62
7
 10
-1.27860184E+02
 20
5.91340408E+01
 40
1.89999998E+00
 50
2.70000000E+02
 51
9.00000002E+01
  0
LINE
  8
0
  6
PHANTOM
 62
2
 10
5.36403751E+01
 20
-1.50124313E+02
 11
5.81823292E+01
 21
-1.50124313E+02
  0
LINE
  8
0
  6
PHANTOM
 62
2
 10
5.92123280E+01
 20
-1.50124313E+02
 11
6.34403706E+01
 21
-1.50124313E+02
  0
LINE
  8
0
  6
PHANTOM
 62
2
 10
5.12466679E+01
 20
-1.45365967E+02
 11
5.27398167E+01
 21
-1.45365967E+02
  0
LINE
  8
0
 62
7
 10
1.91398182E+01
 20
-1.88365967E+02
 11
5.27348957E+01
 21
-1.88365967E+02
  0
LINE
  8
0
 62
7
 10
6.07348957E+01
 20
-1.79415966E+02
 11
6.07348957E+01
 21
-1.86315967E+02
  0
LINE
  8
0
 62
7
 10
1.12398167E+01
 20
-6.08687134E+01
 11
1.12398167E+01
 21
-6.13687134E+01
  0
LINE
  8
0
 62
7
 10
8.23981667E+00
 20
-6.08687134E+01
 11
8.23981667E+00
 21
-6.13687134E+01
  0
LINE
  8
0
  6
CENTER
 62
2
 10
9.73981667E+00
 20
-5.89209747E+01
 11
9.73981667E+00
 21
-6.34943848E+01
  0
LINE
  8
0
 62
7
 10
1.13398190E+01
 20
-6.13687134E+01
 11
7.73981667E+00
 21
-6.13687134E+01
  0
LINE
  8
0
 62
7
 10
1.13398190E+01
 20
-6.03687134E+01
 11
1.13398190E+01
 21
-6.13687134E+01
  0
LINE
  8
0
 62
7
 10
2.70948200E+01
 20
-9.46187057E+01
 11
2.57398167E+01
 21
-9.46187057E+01
  0
LINE
  8
0
 62
7
 10
2.63998203E+01
 20
-9.46187057E+01
 11
2.63998203E+01
 21
-9.01187057E+01
  0
LINE
  8
0
 62
7
 10
2.70948200E+01
 20
-9.01187057E+01
 11
2.57398167E+01
 21
-9.01187057E+01
  0
LINE
  8
0
 62
7
 10
2.51398182E+01
 20
-1.44367062E+02
 11
2.87398167E+01
 21
-1.44367062E+02
  0
LINE
  8
0
 62
7
 10
2.82398167E+01
 20
-1.44867062E+02
 11
2.82398167E+01
 21
-1.44367062E+02
  0
LINE
  8
0
 62
7
 10
2.52398167E+01
 20
-1.44867062E+02
 11
2.52398167E+01
 21
-1.44367062E+02
  0
LINE
  8
0
  6
CENTER
 62
2
 10
2.67398167E+01
 20
-1.46670471E+02
 11
2.67398167E+01
 21
-1.42660992E+02
  0
LINE
  8
0
 62
7
 10
2.51398182E+01
 20
-1.45367062E+02
 11
2.51398182E+01
 21
-1.44367062E+02
  0
LINE
  8
0
 62
7
 10
2.57398167E+01
 20
-9.50687103E+01
 11
2.87398167E+01
 21
-9.50687103E+01
  0
LINE
  8
0
 62
7
 10
2.87398167E+01
 20
-8.96687088E+01
 11
2.57398167E+01
 21
-8.96687088E+01
  0
LINE
  8
0
 62
7
 10
2.57398167E+01
 20
-8.96687088E+01
 11
2.57398167E+01
 21
-9.50687103E+01
  0
LINE
  8
0
  6
CENTER
 62
2
 10
2.15610943E+01
 20
-9.23687057E+01
 11
3.28903561E+01
 21
-9.23687057E+01
  0
LINE
  8
0
 62
7
 10
2.87398167E+01
 20
-6.03687134E+01
 11
2.87398167E+01
 21
-1.45368706E+02
  0
LINE
  8
0
 62
6
 10
2.87398167E+01
 20
-1.45368706E+02
 11
4.02398167E+01
 21
-1.45368706E+02
  0
LINE
  8
0
 62
6
 10
3.95398197E+01
 20
-1.44668705E+02
 11
3.19398174E+01
 21
-1.44668705E+02
  0
LINE
  8
0
 62
6
 10
4.28398151E+01
 20
-1.38368706E+02
 11
4.27398167E+01
 21
-1.38368706E+02
  0
LINE
  8
0
 62
6
 10
4.37398167E+01
 20
-1.38468708E+02
 11
4.27398167E+01
 21
-1.38468708E+02
  0
LINE
  8
0
 62
6
 10
4.02398189E+01
 20
-1.39585852E+02
 11
4.37398189E+01
 21
-1.38968708E+02
  0
LINE
  8
0
 62
6
 10
3.95398197E+01
 20
-1.43868706E+02
 11
3.19398174E+01
 21
-1.43868706E+02
  0
LINE
  8
0
 62
6
 10
3.95398197E+01
 20
-1.43868706E+02
 11
3.95398197E+01
 21
-1.44668705E+02
  0
LINE
  8
0
 62
6
 10
3.19398174E+01
 20
-1.44668705E+02
 11
3.19398174E+01
 21
-1.43868706E+02
  0
LINE
  8
0
 62
6
 10
4.02398167E+01
 20
-1.45368706E+02
 11
4.02398167E+01
 21
-1.39585850E+02
  0
LINE
  8
0
 62
6
 10
4.24398212E+01
 20
-1.14868706E+02
 11
4.24398212E+01
 21
-1.30968704E+02
  0
LINE
  8
0
 62
6
 10
4.83398151E+01
 20
-1.30868706E+02
 11
4.83398151E+01
 21
-1.13368706E+02
  0
LINE
  8
0
 62
6
 10
2.87398167E+01
 20
-1.13368706E+02
 11
4.83398151E+01
 21
-1.13368706E+02
  0
LINE
  8
0
 62
6
 10
2.99398174E+01
 20
-1.13368706E+02
 11
2.99398174E+01
 21
-1.14868706E+02
  0
LINE
  8
0
 62
6
 10
4.24398212E+01
 20
-1.14868706E+02
 11
2.99398174E+01
 21
-1.14868706E+02
  0
LINE
  8
0
 62
6
 10
5.42298145E+01
 20
-1.26018707E+02
 11
5.75398197E+01
 21
-1.26018707E+02
  0
LINE
  8
0
 62
6
 10
5.38798161E+01
 20
-1.27318710E+02
 11
5.75398197E+01
 21
-1.27318710E+02
  0
LINE
  8
0
 62
6
 10
5.75398197E+01
 20
-1.26918709E+02
 11
6.15398197E+01
 21
-1.26918709E+02
  0
LINE
  8
0
 62
6
 10
5.75398197E+01
 20
-1.26418709E+02
 11
6.15398197E+01
 21
-1.26418709E+02
  0
LINE
  8
0
 62
6
 10
5.75398197E+01
 20
-1.26018707E+02
 11
5.75398197E+01
 21
-1.27318710E+02
  0
LINE
  8
0
 62
6
 10
6.15398197E+01
 20
-1.26418709E+02
 11
6.15398197E+01
 21
-1.26918709E+02
  0
LINE
  8
0
 62
6
 10
5.25898187E+01
 20
-1.28268707E+02
 11
5.34498180E+01
 21
-1.25068709E+02
  0
LINE
  8
0
 62
6
 10
5.36198159E+01
 20
-1.28268706E+02
 11
5.44798151E+01
 21
-1.25068709E+02
  0
LINE
  8
0
 62
6
 10
4.93398151E+01
 20
-1.26018707E+02
 11
5.31898212E+01
 21
-1.26018707E+02
  0
LINE
  8
0
 62
6
 10
4.93398151E+01
 20
-1.27318710E+02
 11
5.28398151E+01
 21
-1.27318710E+02
  0
LINE
  8
0
 62
6
 10
4.24398212E+01
 20
-1.30868706E+02
 11
4.83398151E+01
 21
-1.30868706E+02
  0
LINE
  8
0
 62
6
 10
4.91398182E+01
 20
-1.24668709E+02
 11
4.83398151E+01
 21
-1.24668709E+02
  0
LINE
  8
0
 62
6
 10
4.93398151E+01
 20
-1.28468704E+02
 11
4.93398151E+01
 21
-1.24868706E+02
  0
LINE
  8
0
 62
6
 10
4.91398182E+01
 20
-1.28668709E+02
 11
4.83398151E+01
 21
-1.28668709E+02
  0
LINE
  8
0
 62
6
 10
4.24398212E+01
 20
-1.30968704E+02
 11
4.83398151E+01
 21
-1.30968704E+02
  0
LINE
  8
0
 62
6
 10
4.37398131E+01
 20
-1.32277892E+02
 11
4.83398176E+01
 21
-1.31466787E+02
  0
LINE
  8
0
 62
6
 10
4.83398151E+01
 20
-1.31466782E+02
 11
4.83398151E+01
 21
-1.30968704E+02
  0
LINE
  8
0
 62
6
 10
4.77398167E+01
 20
-1.30868706E+02
 11
4.77398167E+01
 21
-1.30968704E+02
  0
LINE
  8
0
  6
CENTER
 62
6
 10
6.29563084E+01
 20
-1.26668709E+02
 11
4.72278156E+01
 21
-1.26668709E+02
  0
LINE
  8
0
 62
6
 10
4.33398151E+01
 20
-1.37868706E+02
 11
4.33398151E+01
 21
-1.35868706E+02
  0
LINE
  8
0
 62
6
 10
4.28398151E+01
 20
-1.35368706E+02
 11
4.27398167E+01
 21
-1.35368706E+02
  0
LINE
  8
0
 62
6
 10
4.37398167E+01
 20
-1.35268707E+02
 11
4.27398167E+01
 21
-1.35268707E+02
  0
LINE
  8
0
 62
6
 10
4.27398167E+01
 20
-1.38468708E+02
 11
4.27398167E+01
 21
-1.35268707E+02
  0
LINE
  8
0
 62
6
 10
4.37398167E+01
 20
-1.38968708E+02
 11
4.37398167E+01
 21
-1.32277885E+02
  0
LINE
  8
0
 62
6
 10
2.99398174E+01
 20
-9.23687057E+01
 11
2.99398174E+01
 21
-9.08687057E+01
  0
LINE
  8
0
 62
6
 10
4.24398212E+01
 20
-9.08687057E+01
 11
4.24398212E+01
 21
-7.47687073E+01
  0
LINE
  8
0
 62
6
 10
4.83398151E+01
 20
-7.48687057E+01
 11
4.83398151E+01
 21
-9.23687057E+01
  0
LINE
  8
0
  6
CENTER
 62
6
 10
6.29563084E+01
 20
-7.90687103E+01
 11
4.72278156E+01
 21
-7.90687103E+01
  0
LINE
  8
0
 62
6
 10
3.95398197E+01
 20
-6.10687103E+01
 11
3.19398174E+01
 21
-6.10687103E+01
  0
LINE
  8
0
 62
6
 10
3.95398197E+01
 20
-6.18687134E+01
 11
3.19398174E+01
 21
-6.18687134E+01
  0
LINE
  8
0
 62
6
 10
3.95398197E+01
 20
-6.18687134E+01
 11
3.95398197E+01
 21
-6.10687103E+01
  0
LINE
  8
0
 62
6
 10
3.19398174E+01
 20
-6.10687103E+01
 11
3.19398174E+01
 21
-6.18687134E+01
  0
LINE
  8
0
 62
6
 10
4.02398167E+01
 20
-6.03687134E+01
 11
4.02398167E+01
 21
-6.61515656E+01
  0
LINE
  8
0
 62
6
 10
4.93398151E+01
 20
-7.84187088E+01
 11
5.31898212E+01
 21
-7.84187088E+01
  0
LINE
  8
0
 62
6
 10
4.93398151E+01
 20
-7.97187042E+01
 11
5.28398151E+01
 21
-7.97187042E+01
  0
LINE
  8
0
 62
6
 10
4.77398167E+01
 20
-7.48687057E+01
 11
4.77398167E+01
 21
-7.47687073E+01
  0
LINE
  8
0
 62
6
 10
4.83398151E+01
 20
-7.42706299E+01
 11
4.83398151E+01
 21
-7.47687073E+01
  0
LINE
  8
0
 62
6
 10
4.37398178E+01
 20
-7.34595269E+01
 11
4.83398185E+01
 21
-7.42706312E+01
  0
LINE
  8
0
 62
6
 10
4.24398212E+01
 20
-7.47687073E+01
 11
4.83398151E+01
 21
-7.47687073E+01
  0
LINE
  8
0
 62
6
 10
4.37398167E+01
 20
-6.67687073E+01
 11
4.37398167E+01
 21
-7.34595261E+01
  0
LINE
  8
0
 62
6
 10
4.91398182E+01
 20
-7.70687103E+01
 11
4.83398151E+01
 21
-7.70687103E+01
  0
LINE
  8
0
 62
6
 10
4.93398151E+01
 20
-7.72687073E+01
 11
4.93398151E+01
 21
-8.08687057E+01
  0
LINE
  8
0
 62
6
 10
4.91398182E+01
 20
-8.10687103E+01
 11
4.83398151E+01
 21
-8.10687103E+01
  0
LINE
  8
0
 62
6
 10
4.24398212E+01
 20
-7.48687057E+01
 11
4.83398151E+01
 21
-7.48687057E+01
  0
LINE
  8
0
 62
6
 10
4.27398167E+01
 20
-6.72687073E+01
 11
4.27398167E+01
 21
-7.04687042E+01
  0
LINE
  8
0
 62
6
 10
4.37398167E+01
 20
-7.04687042E+01
 11
4.27398167E+01
 21
-7.04687042E+01
  0
LINE
  8
0
 62
6
 10
4.37398167E+01
 20
-6.72687073E+01
 11
4.27398167E+01
 21
-6.72687073E+01
  0
LINE
  8
0
 62
6
 10
4.28398151E+01
 20
-6.73687134E+01
 11
4.27398167E+01
 21
-6.73687134E+01
  0
LINE
  8
0
 62
6
 10
4.28398151E+01
 20
-7.03687057E+01
 11
4.27398167E+01
 21
-7.03687057E+01
  0
LINE
  8
0
 62
6
 10
4.33398151E+01
 20
-6.78687134E+01
 11
4.33398151E+01
 21
-6.98687057E+01
  0
LINE
  8
0
 62
6
 10
5.36198178E+01
 20
-8.06687114E+01
 11
5.44798191E+01
 21
-7.74687066E+01
  0
LINE
  8
0
 62
6
 10
5.25898189E+01
 20
-8.06687034E+01
 11
5.34498162E+01
 21
-7.74687134E+01
  0
LINE
  8
0
 62
6
 10
6.15398197E+01
 20
-7.93187103E+01
 11
6.15398197E+01
 21
-7.88187103E+01
  0
LINE
  8
0
 62
6
 10
5.75398197E+01
 20
-7.84187088E+01
 11
5.75398197E+01
 21
-7.97187042E+01
  0
LINE
  8
0
 62
6
 10
5.75398197E+01
 20
-7.88187103E+01
 11
6.15398197E+01
 21
-7.88187103E+01
  0
LINE
  8
0
 62
6
 10
5.75398197E+01
 20
-7.93187103E+01
 11
6.15398197E+01
 21
-7.93187103E+01
  0
LINE
  8
0
 62
6
 10
5.38798161E+01
 20
-7.97187042E+01
 11
5.75398197E+01
 21
-7.97187042E+01
  0
LINE
  8
0
 62
6
 10
5.42298145E+01
 20
-7.84187088E+01
 11
5.75398197E+01
 21
-7.84187088E+01
  0
LINE
  8
0
 62
6
 10
4.02398167E+01
 20
-6.61515615E+01
 11
4.37398167E+01
 21
-6.67687059E+01
  0
LINE
  8
0
 62
6
 10
4.24398212E+01
 20
-9.08687057E+01
 11
2.99398174E+01
 21
-9.08687057E+01
  0
LINE
  8
0
 62
6
 10
2.87398167E+01
 20
-9.23687057E+01
 11
4.83398151E+01
 21
-9.23687057E+01
  0
LINE
  8
0
 62
7
 10
2.87398167E+01
 20
-1.45368706E+02
 11
8.13981819E+00
 21
-1.45368706E+02
  0
LINE
  8
0
 62
7
 10
7.73981667E+00
 20
-7.03659668E+01
 11
7.73981667E+00
 21
-6.03687134E+01
  0
LINE
  8
0
 62
7
 10
2.87398167E+01
 20
-1.31868706E+02
 11
8.13981819E+00
 21
-1.31868706E+02
  0
LINE
  8
0
 62
7
 10
2.87398167E+01
 20
-7.38687057E+01
 11
8.13981819E+00
 21
-7.38687057E+01
  0
LINE
  8
0
 62
6
 10
4.02398167E+01
 20
-6.03687134E+01
 11
2.87398167E+01
 21
-6.03687134E+01
  0
LINE
  8
0
 62
7
 10
5.27348957E+01
 20
-1.88365967E+02
 11
5.27348957E+01
 21
-1.70365967E+02
  0
LINE
  8
0
 62
7
 10
7.73981667E+00
 20
-6.03687134E+01
 11
-1.82601814E+01
 21
-6.03687134E+01
  0
LINE
  8
0
  6
PHANTOM
 62
2
 10
5.27398167E+01
 20
-1.70365967E+02
 11
5.33398151E+01
 21
-1.70365967E+02
  0
LINE
  8
0
  6
PHANTOM
 62
2
 10
5.35398197E+01
 20
-1.64565968E+02
 11
6.46521015E+01
 21
-1.64565968E+02
  0
LINE
  8
0
 62
7
 10
8.13981819E+00
 20
-1.70365967E+02
 11
5.27398167E+01
 21
-1.70365967E+02
  0
LINE
  8
0
  6
PHANTOM
 62
2
 10
5.35398197E+01
 20
-1.70165966E+02
 11
5.35398197E+01
 21
-1.62965965E+02
  0
LINE
  8
0
  6
PHANTOM
 62
2
 10
4.48631081E+01
 20
-1.45565965E+02
 11
4.53631049E+01
 21
-1.44565971E+02
  0
LINE
  8
0
  6
PHANTOM
 62
2
 10
5.08631010E+01
 20
-1.44565970E+02
 11
5.37398132E+01
 21
-1.50565969E+02
  0
LINE
  8
0
  6
PHANTOM
 62
2
 10
5.37398167E+01
 20
-1.50565968E+02
 11
5.37398167E+01
 21
-1.53565968E+02
  0
LINE
  8
0
  6
PHANTOM
 62
2
 10
5.37398167E+01
 20
-1.53565968E+02
 11
5.27398167E+01
 21
-1.53565968E+02
  0
LINE
  8
0
  6
PHANTOM
 62
2
 10
4.53631077E+01
 20
-1.44565968E+02
 11
5.08631077E+01
 21
-1.44565968E+02
  0
LINE
  8
0
  6
PHANTOM
 62
2
 10
4.92398144E+01
 20
-1.45565969E+02
 11
5.27398142E+01
 21
-1.52865969E+02
  0
LINE
  8
0
  6
PHANTOM
 62
2
 10
8.13981819E+00
 20
-1.45565968E+02
 11
4.92398167E+01
 21
-1.45565968E+02
  0
LINE
  8
0
  6
PHANTOM
 62
2
 10
5.27398167E+01
 20
-1.62765968E+02
 11
5.33398151E+01
 21
-1.62765968E+02
  0
LINE
  8
0
  6
PHANTOM
 62
2
 10
5.27398167E+01
 20
-1.70365967E+02
 11
5.27398167E+01
 21
-1.52865967E+02
  0
LINE
  8
0
  6
PHANTOM
 62
2
 10
8.57646075E+01
 20
-1.67147573E+02
 11
1.03641030E+02
 21
-1.68084437E+02
  0
LINE
  8
0
  6
PHANTOM
 62
2
 10
8.37646092E+01
 20
-1.65147576E+02
 11
1.03641033E+02
 21
-1.64105896E+02
  0
LINE
  8
0
  6
PHANTOM
 62
2
 10
1.03641039E+02
 20
-1.65147575E+02
 11
1.03641039E+02
 21
-1.64105896E+02
  0
LINE
  8
0
  6
PHANTOM
 62
2
 10
1.03641039E+02
 20
-1.67147573E+02
 11
1.03641039E+02
 21
-1.65147575E+02
  0
LINE
  8
0
  6
PHANTOM
 62
2
 10
9.66410389E+01
 20
-1.67717583E+02
 11
9.66410389E+01
 21
-1.64472748E+02
  0
LINE
  8
0
  6
PHANTOM
 62
2
 10
1.03641039E+02
 20
-1.68084438E+02
 11
1.03641039E+02
 21
-1.67147573E+02
  0
LINE
  8
0
  6
PHANTOM
 62
2
 10
8.37646122E+01
 20
-1.65147575E+02
 11
1.03641039E+02
 21
-1.65147575E+02
  0
LINE
  8
0
  6
PHANTOM
 62
2
 10
8.47646122E+01
 20
-1.66147573E+02
 11
1.03641039E+02
 21
-1.66147573E+02
  0
LINE
  8
0
  6
PHANTOM
 62
2
 10
8.57646122E+01
 20
-1.67147573E+02
 11
1.03641039E+02
 21
-1.67147573E+02
  0
LINE
  8
0
  6
PHANTOM
 62
2
 10
1.03365954E+02
 20
-1.71656581E+02
 11
1.03713250E+02
 21
-1.70702392E+02
  0
LINE
  8
0
  6
PHANTOM
 62
2
 10
8.34830051E+01
 20
-1.64865965E+02
 11
8.62380899E+01
 21
-1.67621049E+02
  0
LINE
  8
0
  6
PHANTOM
 62
2
 10
8.62380888E+01
 20
-1.67621051E+02
 11
1.03713249E+02
 21
-1.70702394E+02
  0
LINE
  8
0
  6
PHANTOM
 62
2
 10
8.60644406E+01
 20
-1.68605859E+02
 11
1.03365949E+02
 21
-1.71656582E+02
  0
LINE
  8
0
  6
PHANTOM
 62
2
 10
7.77398194E+01
 20
-1.67878983E+02
 11
8.62171042E+01
 21
-1.68620650E+02
  0
LINE
  8
0
  6
PHANTOM
 62
2
 10
8.34738178E+01
 20
-1.64865967E+02
 11
7.77398167E+01
 21
-1.64865967E+02
  0
LINE
  8
0
  6
PHANTOM
 62
2
 10
6.53449192E+01
 20
-1.68365967E+02
 11
7.77398167E+01
 21
-1.68365967E+02
  0
LINE
  8
0
  6
PHANTOM
 62
2
 10
6.75388508E+01
 20
-1.64565968E+02
 11
7.77398167E+01
 21
-1.64565968E+02
  0
LINE
  8
0
  6
PHANTOM
 62
2
 10
6.41676189E+01
 20
-1.70405113E+02
 11
6.89924671E+01
 21
-1.62048231E+02
  0
LINE
  8
0
  6
PHANTOM
 62
2
 10
6.14012065E+01
 20
-1.70196680E+02
 11
6.62134357E+01
 21
-1.61861655E+02
  0
LINE
  8
0
  6
PHANTOM
 62
2
 10
7.77398167E+01
 20
-1.68365967E+02
 11
7.77398167E+01
 21
-1.64565968E+02
  0
LINE
  8
0
  6
PHANTOM
 62
2
 10
5.35398197E+01
 20
-1.68365967E+02
 11
6.24581699E+01
 21
-1.68365967E+02
  0
LINE
  8
0
 62
7
 10
5.30348923E+01
 20
-1.87815969E+02
 11
5.27348930E+01
 21
-1.87515969E+02
  0
LINE
  8
0
 62
7
 10
5.30348950E+01
 20
-1.77915969E+02
 11
5.27348957E+01
 21
-1.78215969E+02
  0
LINE
  8
0
 62
7
 10
5.30348988E+01
 20
-1.87815967E+02
 11
5.92348957E+01
 21
-1.87815967E+02
  0
LINE
  8
0
 62
7
 10
5.30348988E+01
 20
-1.77915966E+02
 11
5.92348957E+01
 21
-1.77915966E+02
  0
LINE
  8
0
 62
7
 10
-1.82601814E+01
 20
-6.03687134E+01
 11
-1.82601814E+01
 21
-7.03659668E+01
  0
LINE
  8
0
 62
7
 10
2.23981667E+00
 20
-4.86637115E+01
 11
-1.76018143E+00
 21
-4.86637115E+01
  0
LINE
  8
0
 62
7
 10
-1.76018143E+00
 20
-5.36637115E+01
 11
2.23981667E+00
 21
-5.36637115E+01
  0
LINE
  8
0
 62
7
 10
3.23981667E+00
 20
-5.63687134E+01
 11
-2.76018143E+00
 21
-5.63687134E+01
  0
LINE
  8
0
 62
7
 10
3.73981667E+00
 20
-5.88687134E+01
 11
3.73981667E+00
 21
-5.68687134E+01
  0
LINE
  8
0
 62
7
 10
1.48981667E+00
 20
-5.36637115E+01
 11
1.48981667E+00
 21
-5.63687134E+01
  0
LINE
  8
0
 62
7
 10
3.73982040E+00
 20
-5.68687093E+01
 11
3.23981987E+00
 21
-5.63687087E+01
  0
LINE
  8
0
 62
7
 10
2.73981394E+00
 20
-5.31637087E+01
 11
2.23981341E+00
 21
-5.36637092E+01
  0
LINE
  8
0
 62
7
 10
2.73981394E+00
 20
-4.91637152E+01
 11
2.23981341E+00
 21
-4.86637147E+01
  0
LINE
  8
0
 62
7
 10
2.73981667E+00
 20
-4.91637115E+01
 11
2.73981667E+00
 21
-5.31637115E+01
  0
LINE
  8
0
 62
7
 10
-3.26018164E+00
 20
-5.88687060E+01
 11
-2.76018111E+00
 21
-5.93687065E+01
  0
LINE
  8
0
 62
7
 10
-3.26018704E+00
 20
-5.68687093E+01
 11
-2.76018650E+00
 21
-5.63687087E+01
  0
LINE
  8
0
 62
7
 10
-2.26018597E+00
 20
-4.91637098E+01
 11
-1.76018544E+00
 21
-4.86637093E+01
  0
LINE
  8
0
 62
7
 10
-1.76018005E+00
 20
-5.36637092E+01
 11
-2.26018058E+00
 21
-5.31637087E+01
  0
LINE
  8
0
 62
7
 10
-2.26018143E+00
 20
-4.91637115E+01
 11
-2.26018143E+00
 21
-5.31637115E+01
  0
LINE
  8
0
 62
7
 10
-3.26018143E+00
 20
-5.88687134E+01
 11
-3.26018143E+00
 21
-5.68687134E+01
  0
LINE
  8
0
 62
7
 10
-1.01018143E+00
 20
-5.36637115E+01
 11
-1.01018143E+00
 21
-5.63687134E+01
  0
LINE
  8
0
 62
7
 10
3.73982040E+00
 20
-5.88687114E+01
 11
3.23981987E+00
 21
-5.93687119E+01
  0
LINE
  8
0
 62
7
 10
-3.46018219E+00
 20
-5.93687134E+01
 11
3.93981743E+00
 21
-5.93687134E+01
  0
LINE
  8
0
 62
7
 10
4.23981667E+00
 20
-6.03687134E+01
 11
4.23981667E+00
 21
-5.96687012E+01
  0
LINE
  8
0
 62
7
 10
-3.76018143E+00
 20
-6.03687134E+01
 11
-3.76018143E+00
 21
-5.96687012E+01
  0
LINE
  8
0
 62
7
 10
-3.76018217E+00
 20
-5.96687111E+01
 11
-3.46018293E+00
 21
-5.93687119E+01
  0
LINE
  8
0
 62
7
 10
3.93981629E+00
 20
-5.93687119E+01
 11
4.23981553E+00
 21
-5.96687111E+01
  0
LINE
  8
0
 62
7
 10
-3.76018143E+00
 20
-5.96687012E+01
 11
4.23981667E+00
 21
-5.96687012E+01
  0
LINE
  8
0
  6
CENTER
 62
2
 10
2.39818573E-01
 20
-4.48824310E+01
 11
2.39818573E-01
 21
-6.18462524E+01
  0
LINE
  8
0
 62
7
 10
2.87398167E+01
 20
-6.03687134E+01
 11
7.73981667E+00
 21
-6.03687134E+01
  0
LINE
  8
0
  6
CENTER
 62
6
 10
4.60476017E+01
 20
-6.88687134E+01
 11
2.68565884E+01
 21
-6.88687134E+01
  0
LINE
  8
0
  6
CENTER
 62
6
 10
2.75400410E+01
 20
-1.36868706E+02
 11
4.59150105E+01
 21
-1.36868706E+02
  0
LINE
  8
0
 62
6
 10
8.13981819E+00
 20
-1.69865967E+02
 11
1.62398167E+01
 21
-1.69865967E+02
  0
LINE
  8
0
 62
6
 10
8.13981819E+00
 20
-1.45865967E+02
 11
1.62398167E+01
 21
-1.45865967E+02
  0
LINE
  8
0
 62
6
 10
1.62398167E+01
 20
-1.69865967E+02
 11
1.62398167E+01
 21
-1.45865967E+02
  0
LINE
  8
0
 62
6
 10
4.24398212E+01
 20
-1.00865967E+02
 11
2.99398174E+01
 21
-1.00865967E+02
  0
LINE
  8
0
 62
6
 10
2.99398174E+01
 20
-1.02365967E+02
 11
2.99398174E+01
 21
-1.00865967E+02
  0
LINE
  8
0
 62
6
 10
2.87398167E+01
 20
-1.02365967E+02
 11
4.83398151E+01
 21
-1.02365967E+02
  0
LINE
  8
0
 62
6
 10
5.42298145E+01
 20
-8.84159698E+01
 11
5.75398197E+01
 21
-8.84159698E+01
  0
LINE
  8
0
 62
6
 10
5.38798161E+01
 20
-8.97159653E+01
 11
5.75398197E+01
 21
-8.97159653E+01
  0
LINE
  8
0
 62
6
 10
5.75398197E+01
 20
-8.93159637E+01
 11
6.15398197E+01
 21
-8.93159637E+01
  0
LINE
  8
0
 62
6
 10
5.75398197E+01
 20
-8.88159637E+01
 11
6.15398197E+01
 21
-8.88159637E+01
  0
LINE
  8
0
 62
6
 10
5.75398197E+01
 20
-8.84159698E+01
 11
5.75398197E+01
 21
-8.97159653E+01
  0
LINE
  8
0
 62
6
 10
6.15398197E+01
 20
-8.93159637E+01
 11
6.15398197E+01
 21
-8.88159637E+01
  0
LINE
  8
0
 62
6
 10
5.25898165E+01
 20
-9.06659651E+01
 11
5.34498177E+01
 21
-8.74659603E+01
  0
LINE
  8
0
 62
6
 10
5.36198173E+01
 20
-9.06659657E+01
 11
5.44798166E+01
 21
-8.74659683E+01
  0
LINE
  8
0
 62
6
 10
4.91398182E+01
 20
-9.10659637E+01
 11
4.83398151E+01
 21
-9.10659637E+01
  0
LINE
  8
0
 62
6
 10
4.93398151E+01
 20
-8.72659683E+01
 11
4.93398151E+01
 21
-9.08659668E+01
  0
LINE
  8
0
 62
6
 10
4.91398182E+01
 20
-8.70659637E+01
 11
4.83398151E+01
 21
-8.70659637E+01
  0
LINE
  8
0
 62
4
 10
4.83398151E+01
 20
-8.42678909E+01
 11
4.83398151E+01
 21
-8.47659683E+01
  0
LINE
  8
0
 62
6
 10
4.93398151E+01
 20
-8.97159653E+01
 11
5.28398151E+01
 21
-8.97159653E+01
  0
LINE
  8
0
 62
6
 10
4.93398151E+01
 20
-8.84159698E+01
 11
5.31898212E+01
 21
-8.84159698E+01
  0
LINE
  8
0
  6
CENTER
 62
6
 10
6.29563084E+01
 20
-8.90659637E+01
 11
4.72278156E+01
 21
-8.90659637E+01
  0
LINE
  8
0
 62
6
 10
4.83398151E+01
 20
-9.23687057E+01
 11
4.83398151E+01
 21
-1.02365967E+02
  0
LINE
  8
0
 62
6
 10
4.24398212E+01
 20
-1.00865967E+02
 11
4.24398212E+01
 21
-9.23687057E+01
  0
LINE
  8
0
  6
PHANTOM
 62
2
 10
4.02398167E+01
 20
-1.45365967E+02
 11
4.49631062E+01
 21
-1.45365967E+02
  0
LINE
  8
0
 62
7
 10
5.30398197E+01
 20
-1.76413227E+02
 11
5.92398167E+01
 21
-1.76413227E+02
  0
LINE
  8
0
 62
7
 10
6.07398167E+01
 20
-1.77913227E+02
 11
6.07398167E+01
 21
-1.79415966E+02
  0
LINE
  8
0
 62
7
 10
5.30398150E+01
 20
-1.76413227E+02
 11
5.27398158E+01
 21
-1.76713226E+02
  0
LINE
  8
0
  6
PHANTOM
 62
2
 10
5.27398167E+01
 20
-1.45365967E+02
 11
5.27398167E+01
 21
-1.48480251E+02
  0
LINE
  8
0
  6
PHANTOM
 62
2
 10
5.36403751E+01
 20
-1.45724312E+02
 11
5.27398167E+01
 21
-1.45724312E+02
  0
LINE
  8
0
  6
PHANTOM
 62
2
 10
5.36403751E+01
 20
-1.45724312E+02
 11
5.36403751E+01
 21
-1.50358555E+02
  0
LINE
  8
0
  6
PHANTOM
 62
2
 10
5.36403751E+01
 20
-1.46124313E+02
 11
5.92573261E+01
 21
-1.46124313E+02
  0
LINE
  8
0
  6
PHANTOM
 62
2
 10
6.34403706E+01
 20
-1.46124313E+02
 11
6.34403706E+01
 21
-1.50124313E+02
  0
LINE
  8
0
  6
PHANTOM
 62
2
 10
5.96207748E+01
 20
-1.44771946E+02
 11
5.76385744E+01
 21
-1.52147576E+02
  0
LINE
  8
0
  6
PHANTOM
 62
2
 10
6.06507756E+01
 20
-1.44771947E+02
 11
5.86685753E+01
 21
-1.52147577E+02
  0
LINE
  8
0
  6
PHANTOM
 62
2
 10
6.34403706E+01
 20
-1.46474312E+02
 11
6.53209400E+01
 21
-1.46474312E+02
  0
LINE
  8
0
  6
PHANTOM
 62
2
 10
6.34403706E+01
 20
-1.46974312E+02
 11
6.53209400E+01
 21
-1.46974312E+02
  0
LINE
  8
0
  6
PHANTOM
 62
2
 10
6.34403706E+01
 20
-1.47474312E+02
 11
6.53209400E+01
 21
-1.47474312E+02
  0
LINE
  8
0
  6
PHANTOM
 62
2
 10
6.34403706E+01
 20
-1.47974312E+02
 11
6.53209400E+01
 21
-1.47974312E+02
  0
LINE
  8
0
  6
PHANTOM
 62
2
 10
6.34403706E+01
 20
-1.48474312E+02
 11
6.53209400E+01
 21
-1.48474312E+02
  0
LINE
  8
0
  6
PHANTOM
 62
2
 10
6.34403706E+01
 20
-1.48974312E+02
 11
6.53209400E+01
 21
-1.48974312E+02
  0
LINE
  8
0
  6
PHANTOM
 62
2
 10
6.34403706E+01
 20
-1.49474312E+02
 11
6.53209400E+01
 21
-1.49474312E+02
  0
LINE
  8
0
  6
PHANTOM
 62
2
 10
6.34403706E+01
 20
-1.49974312E+02
 11
6.53209400E+01
 21
-1.49974312E+02
  0
LINE
  8
0
  6
PHANTOM
 62
2
 10
6.53209400E+01
 20
-1.46474312E+02
 11
6.53209400E+01
 21
-1.46974312E+02
  0
LINE
  8
0
  6
PHANTOM
 62
2
 10
6.53209400E+01
 20
-1.47474312E+02
 11
6.53209400E+01
 21
-1.47974312E+02
  0
LINE
  8
0
  6
PHANTOM
 62
2
 10
6.53209400E+01
 20
-1.48474312E+02
 11
6.53209400E+01
 21
-1.48974312E+02
  0
LINE
  8
0
  6
PHANTOM
 62
2
 10
6.53209400E+01
 20
-1.49474312E+02
 11
6.53209400E+01
 21
-1.49927052E+02
  0
LINE
  8
0
  6
PHANTOM
 62
2
 10
6.53209400E+01
 20
-1.46624313E+02
 11
6.63308353E+01
 21
-1.46624313E+02
  0
LINE
  8
0
  6
PHANTOM
 62
2
 10
6.53209400E+01
 20
-1.46824314E+02
 11
6.61948872E+01
 21
-1.46824314E+02
  0
LINE
  8
0
  6
PHANTOM
 62
2
 10
6.61948867E+01
 20
-1.46824313E+02
 11
6.63308332E+01
 21
-1.46624313E+02
  0
LINE
  8
0
  6
PHANTOM
 62
2
 10
6.53209400E+01
 20
-1.47624313E+02
 11
6.63308353E+01
 21
-1.47624313E+02
  0
LINE
  8
0
  6
PHANTOM
 62
2
 10
6.53209400E+01
 20
-1.47824314E+02
 11
6.61948872E+01
 21
-1.47824314E+02
  0
LINE
  8
0
  6
PHANTOM
 62
2
 10
6.61948813E+01
 20
-1.47824316E+02
 11
6.63308278E+01
 21
-1.47624316E+02
  0
LINE
  8
0
  6
PHANTOM
 62
2
 10
6.53209400E+01
 20
-1.48624313E+02
 11
6.63308353E+01
 21
-1.48624313E+02
  0
LINE
  8
0
  6
PHANTOM
 62
2
 10
6.53209400E+01
 20
-1.48824314E+02
 11
6.61948872E+01
 21
-1.48824314E+02
  0
LINE
  8
0
  6
PHANTOM
 62
2
 10
6.61948833E+01
 20
-1.48824314E+02
 11
6.63308298E+01
 21
-1.48624315E+02
  0
LINE
  8
0
  6
PHANTOM
 62
2
 10
6.53209400E+01
 20
-1.49624313E+02
 11
6.63308353E+01
 21
-1.49624313E+02
  0
LINE
  8
0
  6
PHANTOM
 62
2
 10
6.53209400E+01
 20
-1.49824314E+02
 11
6.61948872E+01
 21
-1.49824314E+02
  0
LINE
  8
0
  6
PHANTOM
 62
2
 10
6.61948853E+01
 20
-1.49824313E+02
 11
6.63308318E+01
 21
-1.49624313E+02
  0
LINE
  8
0
  6
PHANTOM
 62
2
 10
5.00466709E+01
 20
-1.48124313E+02
 11
6.99009571E+01
 21
-1.48124313E+02
  0
LINE
  8
0
  6
PHANTOM
 62
2
 10
6.02873249E+01
 20
-1.46124313E+02
 11
6.34403706E+01
 21
-1.46124313E+02
  0
LINE
  8
0
 62
7
 10
8.13981819E+00
 20
-7.03659668E+01
 11
8.13981819E+00
 21
-1.88365967E+02
  0
LINE
  8
0
  6
CENTER
 62
2
 10
9.12874794E+00
 20
-1.07865967E+02
 11
-2.15681295E+01
 21
-1.07865967E+02
  0
LINE
  8
0
 62
7
 10
1.91398182E+01
 20
-1.88365967E+02
 11
8.13981819E+00
 21
-1.88365967E+02
  0
LINE
  8
0
 62
7
 10
-2.56601820E+01
 20
-1.96363227E+02
 11
7.93981743E+00
 21
-1.96363227E+02
  0
LINE
  8
0
 62
7
 10
-2.58601818E+01
 20
-7.03659668E+01
 11
8.13981819E+00
 21
-7.03659668E+01
  0
LINE
  8
0
 62
7
 10
-2.58601818E+01
 20
-1.96563227E+02
 11
-2.58601818E+01
 21
-1.97365967E+02
  0
LINE
  8
0
 62
7
 10
8.13981819E+00
 20
-1.96563227E+02
 11
8.13981819E+00
 21
-1.97365967E+02
  0
LINE
  8
0
 62
7
 10
8.13981819E+00
 20
-1.97365967E+02
 11
1.91398182E+01
 21
-1.97365967E+02
  0
LINE
  8
0
 62
7
 10
-3.68601818E+01
 20
-1.97365967E+02
 11
-2.58601818E+01
 21
-1.97365967E+02
  0
LINE
  8
0
  6
CENTER
 62
2
 10
-1.08601818E+01
 20
-7.93760223E+01
 11
-1.08601818E+01
 21
-9.23336792E+01
  0
LINE
  8
0
  6
CENTER
 62
2
 10
-3.68735123E+00
 20
-8.58659668E+01
 11
-1.76557493E+01
 21
-8.58659668E+01
  0
LINE
  8
0
 62
7
 10
8.13981819E+00
 20
-1.21365967E+02
 11
-2.58601818E+01
 21
-1.21365967E+02
  0
LINE
  8
0
 62
7
 10
-2.58601818E+01
 20
-9.43659668E+01
 11
8.13981819E+00
 21
-9.43659668E+01
  0
LINE
  8
0
 62
7
 10
-2.58601818E+01
 20
-7.03659668E+01
 11
-2.58601818E+01
 21
-1.88365967E+02
  0
LINE
  8
0
 62
7
 10
-3.68601818E+01
 20
-1.88365967E+02
 11
-3.68601818E+01
 21
-1.97365967E+02
  0
LINE
  8
0
 62
7
 10
1.91398182E+01
 20
-1.88365967E+02
 11
1.91398182E+01
 21
-1.97365967E+02
  0
LINE
  8
0
 62
7
 10
-2.58601818E+01
 20
-1.88365967E+02
 11
-3.68601818E+01
 21
-1.88365967E+02
  0
LINE
  8
0
  6
CENTER
 62
2
 10
5.73981667E+00
 20
-1.04548965E+02
 11
5.73981667E+00
 21
-1.11172417E+02
  0
LINE
  8
0
 62
7
 10
4.48981667E+00
 20
-1.08570755E+02
 11
4.48981667E+00
 21
-1.07161179E+02
  0
LINE
  8
0
 62
7
 10
6.98981667E+00
 20
-1.08570755E+02
 11
6.98981667E+00
 21
-1.07161179E+02
  0
LINE
  8
0
 62
7
 10
5.73981915E+00
 20
-1.06430967E+02
 11
4.48982107E+00
 21
-1.07161179E+02
  0
LINE
  8
0
 62
7
 10
5.73981748E+00
 20
-1.06430963E+02
 11
6.98981803E+00
 21
-1.07161176E+02
  0
LINE
  8
0
 62
7
 10
5.73981831E+00
 20
-1.09300963E+02
 11
4.48981776E+00
 21
-1.08570750E+02
  0
LINE
  8
0
 62
7
 10
5.73982078E+00
 20
-1.09300966E+02
 11
6.98981886E+00
 21
-1.08570754E+02
  0
LINE
  8
0
  6
CENTER
 62
2
 10
-1.93712511E+01
 20
-1.16865967E+02
 11
-2.60780177E+01
 21
-1.16865967E+02
  0
LINE
  8
0
  6
CENTER
 62
2
 10
-2.27601814E+01
 20
-1.13548965E+02
 11
-2.27601814E+01
 21
-1.20172417E+02
  0
LINE
  8
0
 62
7
 10
-2.40101819E+01
 20
-1.17570755E+02
 11
-2.40101819E+01
 21
-1.16161179E+02
  0
LINE
  8
0
 62
7
 10
-2.15101814E+01
 20
-1.17570755E+02
 11
-2.15101814E+01
 21
-1.16161179E+02
  0
LINE
  8
0
 62
7
 10
-2.27601779E+01
 20
-1.15430968E+02
 11
-2.40101793E+01
 21
-1.16161181E+02
  0
LINE
  8
0
 62
7
 10
-2.27601828E+01
 20
-1.15430964E+02
 11
-2.15101814E+01
 21
-1.16161178E+02
  0
LINE
  8
0
 62
7
 10
-2.27601811E+01
 20
-1.18300964E+02
 11
-2.40101825E+01
 21
-1.17570751E+02
  0
LINE
  8
0
 62
7
 10
-2.27601795E+01
 20
-1.18300968E+02
 11
-2.15101782E+01
 21
-1.17570754E+02
  0
LINE
  8
0
  6
CENTER
 62
2
 10
-1.93712511E+01
 20
-9.88659668E+01
 11
-2.60780177E+01
 21
-9.88659668E+01
  0
LINE
  8
0
  6
CENTER
 62
2
 10
-2.27601814E+01
 20
-9.55489655E+01
 11
-2.27601814E+01
 21
-1.02172417E+02
  0
LINE
  8
0
 62
7
 10
-2.40101819E+01
 20
-9.95707550E+01
 11
-2.40101819E+01
 21
-9.81611786E+01
  0
LINE
  8
0
 62
7
 10
-2.15101814E+01
 20
-9.95707550E+01
 11
-2.15101814E+01
 21
-9.81611786E+01
  0
LINE
  8
0
 62
7
 10
-2.27601803E+01
 20
-9.74309661E+01
 11
-2.40101784E+01
 21
-9.81611778E+01
  0
LINE
  8
0
 62
7
 10
-2.27601842E+01
 20
-9.74309692E+01
 11
-2.15101861E+01
 21
-9.81611808E+01
  0
LINE
  8
0
 62
7
 10
-2.27601859E+01
 20
-1.00300968E+02
 11
-2.40101839E+01
 21
-9.95707560E+01
  0
LINE
  8
0
 62
7
 10
-2.27601787E+01
 20
-1.00300965E+02
 11
-2.15101806E+01
 21
-9.95707529E+01
  0
LINE
  8
0
  6
CENTER
 62
2
 10
-7.66018105E+00
 20
-1.22896759E+02
 11
-7.66018105E+00
 21
-9.21493835E+01
  0
LINE
  8
0
 62
7
 10
-2.53601818E+01
 20
-9.44659653E+01
 11
7.63981819E+00
 21
-9.44659653E+01
  0
LINE
  8
0
 62
7
 10
7.63981819E+00
 20
-1.21265968E+02
 11
-2.53601818E+01
 21
-1.21265968E+02
  0
LINE
  8
0
  6
CENTER
 62
2
 10
-1.17491131E+01
 20
-7.43659668E+01
 11
-5.04234505E+00
 21
-7.43659668E+01
  0
LINE
  8
0
  6
CENTER
 62
2
 10
-8.36018181E+00
 20
-7.10489655E+01
 11
-8.36018181E+00
 21
-7.76724167E+01
  0
LINE
  8
0
 62
7
 10
-7.11018181E+00
 20
-7.50707550E+01
 11
-7.11018181E+00
 21
-7.36611786E+01
  0
LINE
  8
0
 62
7
 10
-9.61018181E+00
 20
-7.50707550E+01
 11
-9.61018181E+00
 21
-7.36611786E+01
  0
LINE
  8
0
 62
7
 10
-8.36018447E+00
 20
-7.29309663E+01
 11
-7.11018309E+00
 21
-7.36611798E+01
  0
LINE
  8
0
 62
7
 10
-8.36017908E+00
 20
-7.29309690E+01
 11
-9.61017716E+00
 21
-7.36611807E+01
  0
LINE
  8
0
 62
7
 10
-8.36017745E+00
 20
-7.58009675E+01
 11
-7.11017937E+00
 21
-7.50707558E+01
  0
LINE
  8
0
 62
7
 10
-8.36018281E+00
 20
-7.58009667E+01
 11
-9.61018418E+00
 21
-7.50707531E+01
  0
LINE
  8
0
  6
CENTER
 62
2
 10
-1.37491131E+01
 20
-1.41863228E+02
 11
-7.04234505E+00
 21
-1.41863228E+02
  0
LINE
  8
0
  6
CENTER
 62
2
 10
-1.03601818E+01
 20
-1.38546223E+02
 11
-1.03601818E+01
 21
-1.45169678E+02
  0
LINE
  8
0
 62
7
 10
-9.11018181E+00
 20
-1.42568012E+02
 11
-9.11018181E+00
 21
-1.41158440E+02
  0
LINE
  8
0
 62
7
 10
-1.16101818E+01
 20
-1.42568012E+02
 11
-1.16101818E+01
 21
-1.41158440E+02
  0
LINE
  8
0
 62
7
 10
-1.03601822E+01
 20
-1.40428226E+02
 11
-9.11018245E+00
 21
-1.41158438E+02
  0
LINE
  8
0
 62
7
 10
-1.03601824E+01
 20
-1.40428226E+02
 11
-1.16101805E+01
 21
-1.41158437E+02
  0
LINE
  8
0
 62
7
 10
-1.03601788E+01
 20
-1.43298228E+02
 11
-9.11018074E+00
 21
-1.42568016E+02
  0
LINE
  8
0
 62
7
 10
-1.03601822E+01
 20
-1.43298225E+02
 11
-1.16101819E+01
 21
-1.42568012E+02
  0
LINE
  8
0
  6
CENTER
 62
2
 10
1.31398182E+01
 20
-2.02707083E+02
 11
1.31398182E+01
 21
-1.82334177E+02
  0
LINE
  8
0
  6
CENTER
 62
2
 10
-3.08601818E+01
 20
-2.02707083E+02
 11
-3.08601818E+01
 21
-1.82334177E+02
  0
ARC
  8
0
 62
7
 10
9.73981667E+00
 20
-6.28687134E+01
 40
2.50000000E+00
 50
5.31301018E+01
 51
1.26869903E+02
  0
ARC
  8
0
 62
7
 10
2.70953846E+01
 20
-9.38230667E+01
 40
7.95639873E-01
 50
2.70000000E+02
 51
3.43900220E+02
  0
ARC
  8
0
 62
7
 10
2.21024075E+01
 20
-9.23712082E+01
 40
5.99541616E+00
 50
3.43801670E+02
 51
1.61983298E+01
  0
ARC
  8
0
 62
7
 10
2.70908298E+01
 20
-9.09184723E+01
 40
7.99777389E-01
 50
1.59492465E+01
 51
8.97141315E+01
  0
ARC
  8
0
 62
7
 10
2.67398167E+01
 20
-1.42867062E+02
 40
2.50000000E+00
 50
2.33130097E+02
 51
3.06869898E+02
  0
ARC
  8
0
 62
6
 10
4.91405277E+01
 20
-1.24867996E+02
 40
1.99289829E-01
 50
3.59795462E+02
 51
9.00000002E+01
  0
ARC
  8
0
 62
6
 10
4.91405277E+01
 20
-1.28469421E+02
 40
1.99289829E-01
 50
2.70000000E+02
 51
2.04538593E-01
  0
ARC
  8
0
 62
6
 10
4.28398151E+01
 20
-1.35868706E+02
 40
5.00000000E-01
 50
0.00000000E+00
 51
9.00000002E+01
  0
ARC
  8
0
 62
6
 10
4.28398151E+01
 20
-1.37868706E+02
 40
5.00000000E-01
 50
2.70000000E+02
 51
0.00000000E+00
  0
ARC
  8
0
 62
6
 10
4.91405277E+01
 20
-7.72679977E+01
 40
1.99289829E-01
 50
3.59795462E+02
 51
9.00000002E+01
  0
ARC
  8
0
 62
6
 10
4.91405277E+01
 20
-8.08694153E+01
 40
1.99289829E-01
 50
2.70000000E+02
 51
2.04538593E-01
  0
ARC
  8
0
 62
6
 10
4.28398151E+01
 20
-6.98687057E+01
 40
5.00000000E-01
 50
2.70000000E+02
 51
0.00000000E+00
  0
ARC
  8
0
 62
6
 10
4.28398151E+01
 20
-6.78687134E+01
 40
5.00000000E-01
 50
0.00000000E+00
 51
9.00000002E+01
  0
ARC
  8
0
  6
PHANTOM
 62
2
 10
5.33398151E+01
 20
-1.70165966E+02
 40
2.00000003E-01
 50
2.70000000E+02
 51
0.00000000E+00
  0
CIRCLE
  8
0
  6
PHANTOM
 62
2
 10
1.22398167E+01
 20
-1.63965965E+02
 40
1.64999998E+00
  0
CIRCLE
  8
0
  6
PHANTOM
 62
2
 10
1.22398167E+01
 20
-1.51965965E+02
 40
1.64999998E+00
  0
ARC
  8
0
  6
PHANTOM
 62
2
 10
5.33398151E+01
 20
-1.62965965E+02
 40
2.00000003E-01
 50
0.00000000E+00
 51
9.00000002E+01
  0
ARC
  8
0
 62
7
 10
5.92348957E+01
 20
-1.86315967E+02
 40
1.50000000E+00
 50
2.70000000E+02
 51
0.00000000E+00
  0
ARC
  8
0
 62
7
 10
5.92348957E+01
 20
-1.79415966E+02
 40
1.50000000E+00
 50
0.00000000E+00
 51
9.00000002E+01
  0
ARC
  8
0
 62
6
 10
4.91405277E+01
 20
-9.08666763E+01
 40
1.99289829E-01
 50
2.70000000E+02
 51
2.04538593E-01
  0
ARC
  8
0
 62
6
 10
4.91405277E+01
 20
-8.72652588E+01
 40
1.99289829E-01
 50
3.59795462E+02
 51
9.00000002E+01
  0
ARC
  8
0
 62
7
 10
5.92398167E+01
 20
-1.77913227E+02
 40
1.50000000E+00
 50
0.00000000E+00
 51
9.00000002E+01
  0
CIRCLE
  8
0
 62
7
 10
-1.08601818E+01
 20
-8.58659668E+01
 40
4.86399984E+00
  0
CIRCLE
  8
0
 62
7
 10
-1.08601818E+01
 20
-8.58659668E+01
 40
4.28299999E+00
  0
CIRCLE
  8
0
 62
7
 10
-1.08601818E+01
 20
-8.58659668E+01
 40
4.04500008E+00
  0
CIRCLE
  8
0
 62
7
 10
-8.36018181E+00
 20
-7.43659668E+01
 40
3.25000000E+00
  0
CIRCLE
  8
0
 62
7
 10
-1.03601818E+01
 20
-1.41863228E+02
 40
3.25000000E+00
  0
CIRCLE
  8
0
 62
7
 10
5.73981667E+00
 20
-1.07865967E+02
 40
2.75000000E+00
  0
CIRCLE
  8
0
 62
7
 10
-2.27601814E+01
 20
-1.16865967E+02
 40
2.75000000E+00
  0
CIRCLE
  8
0
 62
7
 10
-2.27601814E+01
 20
-9.88659668E+01
 40
2.75000000E+00
  0
ARC
  8
0
 62
7
 10
-2.53601818E+01
 20
-9.49659653E+01
 40
5.00000000E-01
 50
9.00000002E+01
 51
1.80000005E+02
  0
ARC
  8
0
 62
7
 10
-2.53601818E+01
 20
-1.20765968E+02
 40
5.00000000E-01
 50
1.79999995E+02
 51
2.70000000E+02
  0
ARC
  8
0
 62
7
 10
7.63981819E+00
 20
-1.20765968E+02
 40
5.00000000E-01
 50
2.70000000E+02
 51
0.00000000E+00
  0
ARC
  8
0
 62
7
 10
7.63981819E+00
 20
-9.49659653E+01
 40
5.00000000E-01
 50
0.00000000E+00
 51
9.00000002E+01
  0
ARC
  8
0
 62
7
 10
7.93981743E+00
 20
-1.96563227E+02
 40
2.00000003E-01
 50
0.00000000E+00
 51
9.00000002E+01
  0
ARC
  8
0
 62
7
 10
-2.56601820E+01
 20
-1.96563227E+02
 40
2.00000003E-01
 50
9.00000002E+01
 51
1.80000005E+02
  0
ARC
  8
0
 62
7
 10
5.73981667E+00
 20
-1.07865967E+02
 40
3.25000000E+00
 50
1.05797875E+02
 51
2.54202128E+02
  0
ARC
  8
0
 62
7
 10
-7.66018105E+00
 20
-1.07865967E+02
 40
1.28999996E+01
 50
1.40295219E+01
 51
3.45970474E+02
  0
CIRCLE
  8
0
 62
7
 10
-7.66018105E+00
 20
-1.07865967E+02
 40
1.00000000E+01
  0
CIRCLE
  8
0
 62
7
 10
-7.66018105E+00
 20
-1.07865967E+02
 40
8.30000019E+00
  0
CIRCLE
  8
0
 62
7
 10
-7.66018105E+00
 20
-1.07865967E+02
 40
7.40000010E+00
  0
CIRCLE
  8
0
 62
7
 10
-8.36018181E+00
 20
-7.43659668E+01
 40
2.75000000E+00
  0
CIRCLE
  8
0
 62
7
 10
-1.03601818E+01
 20
-1.41863228E+02
 40
2.75000000E+00
  0
LINE
  8
0
 62
7
 10
-2.27458032E+02
 20
-1.19615812E+02
 11
-2.30458032E+02
 21
-1.19615729E+02
  0
LINE
  8
0
 62
7
 10
-2.27457880E+02
 20
-1.14115812E+02
 11
-2.30457880E+02
 21
-1.14115729E+02
  0
LINE
  8
0
 62
7
 10
-2.30457880E+02
 20
-1.14115729E+02
 11
-2.30458032E+02
 21
-1.19615729E+02
  0
LINE
  8
0
  6
CENTER
 62
2
 10
-2.26858401E+02
 20
-1.16865828E+02
 11
-2.31098077E+02
 21
-1.16865711E+02
  0
LINE
  8
0
 62
7
 10
-2.27457783E+02
 20
-1.10615812E+02
 11
-2.30457783E+02
 21
-1.10615729E+02
  0
LINE
  8
0
 62
7
 10
-2.27457631E+02
 20
-1.05115812E+02
 11
-2.30457631E+02
 21
-1.05115729E+02
  0
LINE
  8
0
 62
7
 10
-2.30457631E+02
 20
-1.05115729E+02
 11
-2.30457783E+02
 21
-1.10615729E+02
  0
LINE
  8
0
  6
CENTER
 62
2
 10
-2.26858152E+02
 20
-1.07865828E+02
 11
-2.31097828E+02
 21
-1.07865711E+02
  0
LINE
  8
0
 62
7
 10
-2.27457534E+02
 20
-1.01615812E+02
 11
-2.30457534E+02
 21
-1.01615729E+02
  0
LINE
  8
0
 62
7
 10
-2.27457381E+02
 20
-9.61158119E+01
 11
-2.30457382E+02
 21
-9.61157288E+01
  0
LINE
  8
0
 62
7
 10
-2.30457382E+02
 20
-9.61157288E+01
 11
-2.30457534E+02
 21
-1.01615729E+02
  0
LINE
  8
0
  6
CENTER
 62
2
 10
-2.26857903E+02
 20
-9.88658284E+01
 11
-2.31097579E+02
 21
-9.88657111E+01
  0
LINE
  8
0
 62
7
 10
-2.11357422E+02
 20
-9.75690010E+01
 11
-2.11107422E+02
 21
-9.75690079E+01
  0
LINE
  8
0
 62
7
 10
-2.11107250E+02
 20
-9.13690033E+01
 11
-2.11357250E+02
 21
-9.13689964E+01
  0
LINE
  8
0
 62
7
 10
-2.11356946E+02
 20
-8.03689964E+01
 11
-2.11106946E+02
 21
-8.03690033E+01
  0
LINE
  8
0
 62
7
 10
-2.11358532E+02
 20
-1.37668996E+02
 11
-2.11108532E+02
 21
-1.37669003E+02
  0
LINE
  8
0
 62
7
 10
-1.21857534E+02
 20
-1.01618734E+02
 11
-1.18857534E+02
 21
-1.01618817E+02
  0
LINE
  8
0
 62
7
 10
-1.21857382E+02
 20
-9.61187344E+01
 11
-1.18857382E+02
 21
-9.61188174E+01
  0
LINE
  8
0
 62
7
 10
-1.18857382E+02
 20
-9.61188174E+01
 11
-1.18857534E+02
 21
-1.01618817E+02
  0
LINE
  8
0
  6
CENTER
 62
2
 10
-1.22457014E+02
 20
-9.88687178E+01
 11
-1.18217336E+02
 21
-9.88688351E+01
  0
LINE
  8
0
 62
7
 10
-1.21858032E+02
 20
-1.19618734E+02
 11
-1.18858032E+02
 21
-1.19618817E+02
  0
LINE
  8
0
 62
7
 10
-1.21857880E+02
 20
-1.14118734E+02
 11
-1.18857880E+02
 21
-1.14118817E+02
  0
LINE
  8
0
 62
7
 10
-1.18857880E+02
 20
-1.14118817E+02
 11
-1.18858032E+02
 21
-1.19618817E+02
  0
LINE
  8
0
  6
CENTER
 62
2
 10
-1.22457512E+02
 20
-1.16868718E+02
 11
-1.18217834E+02
 21
-1.16868835E+02
  0
LINE
  8
0
 62
7
 10
-2.26860184E+02
 20
-1.97365828E+02
 11
-2.11360184E+02
 21
-1.97366257E+02
  0
LINE
  8
0
 62
7
 10
-2.26859935E+02
 20
-1.88365828E+02
 11
-2.17859935E+02
 21
-1.88366078E+02
  0
LINE
  8
0
 62
7
 10
-2.26858058E+02
 20
-1.20565825E+02
 11
-2.26860184E+02
 21
-1.97365828E+02
  0
LINE
  8
0
 62
7
 10
-2.26856669E+02
 20
-7.03658285E+01
 11
-2.11356669E+02
 21
-7.03662574E+01
  0
LINE
  8
0
 62
7
 10
-2.27457339E+02
 20
-9.45658088E+01
 11
-2.25857339E+02
 21
-9.45658531E+01
  0
LINE
  8
0
 62
7
 10
-2.26856669E+02
 20
-7.03658285E+01
 11
-2.26857339E+02
 21
-9.45658254E+01
  0
LINE
  8
0
 62
7
 10
-1.22858078E+02
 20
-1.21268708E+02
 11
-1.22860184E+02
 21
-1.97365967E+02
  0
LINE
  8
0
 62
7
 10
-1.22856669E+02
 20
-7.03659678E+01
 11
-1.22857336E+02
 21
-9.44687052E+01
  0
LINE
  8
0
 62
7
 10
-1.22856669E+02
 20
-7.03659678E+01
 11
-1.38356669E+02
 21
-7.03655388E+01
  0
LINE
  8
0
 62
7
 10
-1.22859935E+02
 20
-1.88365967E+02
 11
-1.31859935E+02
 21
-1.88365718E+02
  0
LINE
  8
0
 62
7
 10
-1.22860184E+02
 20
-1.97365967E+02
 11
-1.38360184E+02
 21
-1.97365538E+02
  0
LINE
  8
0
 62
7
 10
-1.38356669E+02
 20
-7.03655388E+01
 11
-1.38360184E+02
 21
-1.97365538E+02
  0
LINE
  8
0
 62
7
 10
-2.27458058E+02
 20
-1.20565809E+02
 11
-2.25858058E+02
 21
-1.20565853E+02
  0
LINE
  8
0
 62
7
 10
-1.31860184E+02
 20
-1.97365718E+02
 11
-1.31859935E+02
 21
-1.88365718E+02
  0
LINE
  8
0
 62
7
 10
-2.17860184E+02
 20
-1.97366077E+02
 11
-2.17859935E+02
 21
-1.88366078E+02
  0
LINE
  8
0
 62
7
 10
-2.27457339E+02
 20
-9.45658088E+01
 11
-2.27458058E+02
 21
-1.20565809E+02
  0
LINE
  8
0
 62
7
 10
-2.25857339E+02
 20
-9.45658531E+01
 11
-2.25858058E+02
 21
-1.20565853E+02
  0
LINE
  8
0
 62
7
 10
-1.21858078E+02
 20
-1.21268736E+02
 11
-1.21857336E+02
 21
-9.44687328E+01
  0
LINE
  8
0
 62
7
 10
-1.13857990E+02
 20
-1.17868957E+02
 11
-1.21858068E+02
 21
-1.20780497E+02
  0
LINE
  8
0
 62
7
 10
-1.13857432E+02
 20
-9.78689556E+01
 11
-1.21857350E+02
 21
-9.49569729E+01
  0
LINE
  8
0
 62
7
 10
-1.13857430E+02
 20
-9.78689558E+01
 11
-1.13857984E+02
 21
-1.17868956E+02
  0
LINE
  8
0
 62
7
 10
-1.23858078E+02
 20
-1.21268681E+02
 11
-1.21858078E+02
 21
-1.21268736E+02
  0
LINE
  8
0
 62
7
 10
-1.23857336E+02
 20
-9.44686775E+01
 11
-1.21857336E+02
 21
-9.44687328E+01
  0
LINE
  8
0
 62
7
 10
-1.23857336E+02
 20
-9.44686775E+01
 11
-1.23858078E+02
 21
-1.21268681E+02
  0
LINE
  8
0
 62
7
 10
-1.38356946E+02
 20
-8.03710167E+01
 11
-1.38606946E+02
 21
-8.03710098E+01
  0
LINE
  8
0
 62
7
 10
-1.38357250E+02
 20
-9.13710167E+01
 11
-1.38607250E+02
 21
-9.13710098E+01
  0
LINE
  8
0
 62
7
 10
-1.38357397E+02
 20
-9.66710197E+01
 11
-1.38607397E+02
 21
-9.66710128E+01
  0
LINE
  8
0
 62
7
 10
-1.38358532E+02
 20
-1.37671016E+02
 11
-1.38608532E+02
 21
-1.37671009E+02
  0
LINE
  8
0
 62
7
 10
-2.11360184E+02
 20
-1.97366257E+02
 11
-2.11356669E+02
 21
-7.03662574E+01
  0
LINE
  8
0
 62
7
 10
-2.07752603E+02
 20
-1.57946013E+02
 11
-2.04571649E+02
 21
-1.52436792E+02
  0
LINE
  8
0
 62
7
 10
-2.07146395E+02
 20
-1.58296030E+02
 11
-2.03965441E+02
 21
-1.52786809E+02
  0
LINE
  8
0
  6
CENTER
 62
2
 10
-2.05856572E+02
 20
-6.68597263E+01
 11
-2.05859997E+02
 21
-1.90619596E+02
  0
LINE
  8
0
  6
CENTER
 62
2
 10
-2.07107261E+02
 20
-9.17567941E+01
 11
-2.07107027E+02
 21
-8.32941247E+01
  0
LINE
  8
0
 62
7
 10
-2.11106669E+02
 20
-7.03690033E+01
 11
-2.00606669E+02
 21
-7.03692939E+01
  0
LINE
  8
0
 62
7
 10
-2.00606669E+02
 20
-7.03692939E+01
 11
-2.00608745E+02
 21
-1.45369294E+02
  0
LINE
  8
0
 62
7
 10
-2.11106669E+02
 20
-7.03690033E+01
 11
-2.11108745E+02
 21
-1.45369003E+02
  0
LINE
  8
0
 62
7
 10
-2.11108745E+02
 20
-1.45369003E+02
 11
-2.00608745E+02
 21
-1.45369294E+02
  0
LINE
  8
0
  6
CENTER
 62
2
 10
-2.09115324E+02
 20
-1.74366320E+02
 11
-2.01895962E+02
 21
-1.74366519E+02
  0
LINE
  8
0
 62
7
 10
-2.00609935E+02
 20
-1.88366555E+02
 11
-2.11109935E+02
 21
-1.88366264E+02
  0
LINE
  8
0
 62
7
 10
-2.00608745E+02
 20
-1.45369294E+02
 11
-2.00609935E+02
 21
-1.88366555E+02
  0
LINE
  8
0
 62
7
 10
-2.11109935E+02
 20
-1.88366264E+02
 11
-2.11108745E+02
 21
-1.45369003E+02
  0
LINE
  8
0
  6
CENTER
 62
2
 10
-2.11113253E+02
 20
-8.78690031E+01
 11
-2.02950575E+02
 21
-8.78692290E+01
  0
LINE
  8
0
  6
CENTER
 62
2
 10
-2.04906240E+02
 20
-5.48829002E+01
 11
-2.04906709E+02
 21
-7.18467292E+01
  0
LINE
  8
0
 62
7
 10
-2.08906650E+02
 20
-6.96690672E+01
 11
-2.00906649E+02
 21
-6.96692886E+01
  0
LINE
  8
0
 62
7
 10
-2.01206639E+02
 20
-6.93692779E+01
 11
-2.00906648E+02
 21
-6.96692854E+01
  0
LINE
  8
0
 62
7
 10
-2.08906651E+02
 20
-6.96690694E+01
 11
-2.08606643E+02
 21
-6.93690785E+01
  0
LINE
  8
0
 62
7
 10
-2.08906669E+02
 20
-7.03690642E+01
 11
-2.08906650E+02
 21
-6.96690672E+01
  0
LINE
  8
0
 62
7
 10
-2.00906668E+02
 20
-7.03692856E+01
 11
-2.00906649E+02
 21
-6.96692886E+01
  0
LINE
  8
0
 62
7
 10
-2.08606641E+02
 20
-6.93690725E+01
 11
-2.01206642E+02
 21
-6.93692773E+01
  0
LINE
  8
0
 62
7
 10
-2.01406626E+02
 20
-6.88692772E+01
 11
-2.01906641E+02
 21
-6.93692639E+01
  0
LINE
  8
0
 62
7
 10
-2.06156484E+02
 20
-6.36641461E+01
 11
-2.06156559E+02
 21
-6.63691479E+01
  0
LINE
  8
0
 62
7
 10
-2.08406628E+02
 20
-6.88690857E+01
 11
-2.08406572E+02
 21
-6.68690857E+01
  0
LINE
  8
0
 62
7
 10
-2.07406359E+02
 20
-5.91641115E+01
 11
-2.07406470E+02
 21
-6.31641115E+01
  0
LINE
  8
0
 62
7
 10
-2.06906483E+02
 20
-6.36641228E+01
 11
-2.07406469E+02
 21
-6.31641085E+01
  0
LINE
  8
0
 62
7
 10
-2.07406359E+02
 20
-5.91641042E+01
 11
-2.06906350E+02
 21
-5.86641229E+01
  0
LINE
  8
0
 62
7
 10
-2.08406568E+02
 20
-6.68690814E+01
 11
-2.07906559E+02
 21
-6.63691001E+01
  0
LINE
  8
0
 62
7
 10
-2.08406628E+02
 20
-6.88690781E+01
 11
-2.07906642E+02
 21
-6.93690925E+01
  0
LINE
  8
0
 62
7
 10
-2.02406358E+02
 20
-5.91642499E+01
 11
-2.02406469E+02
 21
-6.31642499E+01
  0
LINE
  8
0
 62
7
 10
-2.02406359E+02
 20
-5.91642480E+01
 11
-2.02906345E+02
 21
-5.86642336E+01
  0
LINE
  8
0
 62
7
 10
-2.02406475E+02
 20
-6.31642468E+01
 11
-2.02906484E+02
 21
-6.36642281E+01
  0
LINE
  8
0
 62
7
 10
-2.01406571E+02
 20
-6.68692751E+01
 11
-2.01906558E+02
 21
-6.63692607E+01
  0
LINE
  8
0
 62
7
 10
-2.03656483E+02
 20
-6.36642153E+01
 11
-2.03656558E+02
 21
-6.63692171E+01
  0
LINE
  8
0
 62
7
 10
-2.01406627E+02
 20
-6.88692794E+01
 11
-2.01406571E+02
 21
-6.68692794E+01
  0
LINE
  8
0
 62
7
 10
-2.01906558E+02
 20
-6.63692656E+01
 11
-2.07906559E+02
 21
-6.63690995E+01
  0
LINE
  8
0
 62
7
 10
-2.06906484E+02
 20
-6.36641253E+01
 11
-2.02906483E+02
 21
-6.36642360E+01
  0
LINE
  8
0
 62
7
 10
-2.02906344E+02
 20
-5.86642360E+01
 11
-2.06906345E+02
 21
-5.86641253E+01
  0
LINE
  8
0
 62
7
 10
-1.96752603E+02
 20
-1.57946318E+02
 11
-1.93571649E+02
 21
-1.52437097E+02
  0
LINE
  8
0
 62
7
 10
-1.96146395E+02
 20
-1.58296335E+02
 11
-1.92965441E+02
 21
-1.52787113E+02
  0
LINE
  8
0
  6
CENTER
 62
2
 10
-1.94856572E+02
 20
-6.68600307E+01
 11
-1.94859997E+02
 21
-1.90619901E+02
  0
LINE
  8
0
  6
CENTER
 62
2
 10
-1.96107261E+02
 20
-9.17570985E+01
 11
-1.96107027E+02
 21
-8.32944291E+01
  0
LINE
  8
0
 62
7
 10
-2.00106669E+02
 20
-7.03693077E+01
 11
-1.89606669E+02
 21
-7.03695983E+01
  0
LINE
  8
0
 62
7
 10
-1.89606669E+02
 20
-7.03695983E+01
 11
-1.89608745E+02
 21
-1.45369598E+02
  0
LINE
  8
0
 62
7
 10
-2.00106669E+02
 20
-7.03693077E+01
 11
-2.00108745E+02
 21
-1.45369308E+02
  0
LINE
  8
0
 62
7
 10
-2.00108745E+02
 20
-1.45369308E+02
 11
-1.89608745E+02
 21
-1.45369598E+02
  0
LINE
  8
0
  6
CENTER
 62
2
 10
-1.98115323E+02
 20
-1.74366624E+02
 11
-1.90895962E+02
 21
-1.74366824E+02
  0
LINE
  8
0
 62
7
 10
-1.89609935E+02
 20
-1.88366859E+02
 11
-2.00109935E+02
 21
-1.88366569E+02
  0
LINE
  8
0
 62
7
 10
-1.89608745E+02
 20
-1.45369598E+02
 11
-1.89609935E+02
 21
-1.88366859E+02
  0
LINE
  8
0
 62
7
 10
-2.00109935E+02
 20
-1.88366569E+02
 11
-2.00108745E+02
 21
-1.45369308E+02
  0
LINE
  8
0
  6
CENTER
 62
2
 10
-2.00113253E+02
 20
-8.78693076E+01
 11
-1.91950575E+02
 21
-8.78695335E+01
  0
LINE
  8
0
  6
CENTER
 62
2
 10
-1.93906240E+02
 20
-5.48832046E+01
 11
-1.93906709E+02
 21
-7.18470336E+01
  0
LINE
  8
0
 62
7
 10
-1.97906649E+02
 20
-6.96693717E+01
 11
-1.89906649E+02
 21
-6.96695931E+01
  0
LINE
  8
0
 62
7
 10
-1.90206643E+02
 20
-6.93695877E+01
 11
-1.89906652E+02
 21
-6.96695953E+01
  0
LINE
  8
0
 62
7
 10
-1.97906650E+02
 20
-6.96693738E+01
 11
-1.97606643E+02
 21
-6.93693829E+01
  0
LINE
  8
0
 62
7
 10
-1.97906668E+02
 20
-7.03693686E+01
 11
-1.97906649E+02
 21
-6.96693717E+01
  0
LINE
  8
0
 62
7
 10
-1.89906668E+02
 20
-7.03695900E+01
 11
-1.89906649E+02
 21
-6.96695931E+01
  0
LINE
  8
0
 62
7
 10
-1.97606641E+02
 20
-6.93693769E+01
 11
-1.90206642E+02
 21
-6.93695817E+01
  0
LINE
  8
0
 62
7
 10
-1.90406625E+02
 20
-6.88695816E+01
 11
-1.90906640E+02
 21
-6.93695683E+01
  0
LINE
  8
0
 62
7
 10
-1.95156483E+02
 20
-6.36644505E+01
 11
-1.95156558E+02
 21
-6.63694524E+01
  0
LINE
  8
0
 62
7
 10
-1.97406627E+02
 20
-6.88693901E+01
 11
-1.97406571E+02
 21
-6.68693901E+01
  0
LINE
  8
0
 62
7
 10
-1.96406358E+02
 20
-5.91644159E+01
 11
-1.96406469E+02
 21
-6.31644159E+01
  0
LINE
  8
0
 62
7
 10
-1.95906482E+02
 20
-6.36644272E+01
 11
-1.96406469E+02
 21
-6.31644129E+01
  0
LINE
  8
0
 62
7
 10
-1.96406363E+02
 20
-5.91644140E+01
 11
-1.95906349E+02
 21
-5.86644273E+01
  0
LINE
  8
0
 62
7
 10
-1.97406578E+02
 20
-6.68693858E+01
 11
-1.96906563E+02
 21
-6.63693991E+01
  0
LINE
  8
0
 62
7
 10
-1.97406627E+02
 20
-6.88693825E+01
 11
-1.96906641E+02
 21
-6.93693969E+01
  0
LINE
  8
0
 62
7
 10
-1.91406358E+02
 20
-5.91645543E+01
 11
-1.91406469E+02
 21
-6.31645543E+01
  0
LINE
  8
0
 62
7
 10
-1.91406358E+02
 20
-5.91645524E+01
 11
-1.91906345E+02
 21
-5.86645380E+01
  0
LINE
  8
0
 62
7
 10
-1.91406474E+02
 20
-6.31645513E+01
 11
-1.91906488E+02
 21
-6.36645380E+01
  0
LINE
  8
0
 62
7
 10
-1.90406570E+02
 20
-6.68695795E+01
 11
-1.90906557E+02
 21
-6.63695652E+01
  0
LINE
  8
0
 62
7
 10
-1.92656483E+02
 20
-6.36645197E+01
 11
-1.92656558E+02
 21
-6.63695215E+01
  0
LINE
  8
0
 62
7
 10
-1.90406627E+02
 20
-6.88695838E+01
 11
-1.90406571E+02
 21
-6.68695838E+01
  0
LINE
  8
0
 62
7
 10
-1.90906558E+02
 20
-6.63695700E+01
 11
-1.96906558E+02
 21
-6.63694039E+01
  0
LINE
  8
0
 62
7
 10
-1.95906483E+02
 20
-6.36644298E+01
 11
-1.91906483E+02
 21
-6.36645405E+01
  0
LINE
  8
0
 62
7
 10
-1.91906344E+02
 20
-5.86645405E+01
 11
-1.95906344E+02
 21
-5.86644298E+01
  0
LINE
  8
0
 62
7
 10
-1.83148782E+02
 20
-1.61666693E+02
 11
-1.78963191E+02
 21
-1.54417500E+02
  0
LINE
  8
0
 62
7
 10
-1.83754990E+02
 20
-1.61316676E+02
 11
-1.79569399E+02
 21
-1.54067483E+02
  0
LINE
  8
0
  6
CENTER
 62
2
 10
-1.88060782E+02
 20
-1.80366902E+02
 11
-1.74438471E+02
 21
-1.80367279E+02
  0
LINE
  8
0
  6
CENTER
 62
2
 10
-1.88058208E+02
 20
-8.73696412E+01
 11
-1.74545879E+02
 21
-8.73700151E+01
  0
LINE
  8
0
 62
7
 10
-1.81357084E+02
 20
-8.53698266E+01
 11
-1.85144441E+02
 21
-8.53697218E+01
  0
LINE
  8
0
 62
7
 10
-1.81357084E+02
 20
-8.53698266E+01
 11
-1.81357209E+02
 21
-8.98698266E+01
  0
LINE
  8
0
 62
7
 10
-1.85357097E+02
 20
-8.58386719E+01
 11
-1.85357182E+02
 21
-8.89007599E+01
  0
LINE
  8
0
 62
7
 10
-1.84834866E+02
 20
-8.98697304E+01
 11
-1.81357209E+02
 21
-8.98698266E+01
  0
LINE
  8
0
 62
7
 10
-1.89106669E+02
 20
-7.03696122E+01
 11
-1.73606669E+02
 21
-7.03700411E+01
  0
LINE
  8
0
 62
7
 10
-1.89106669E+02
 20
-7.03696122E+01
 11
-1.89108745E+02
 21
-1.45369612E+02
  0
LINE
  8
0
 62
7
 10
-1.73606669E+02
 20
-7.03700411E+01
 11
-1.73608745E+02
 21
-1.45370041E+02
  0
LINE
  8
0
 62
7
 10
-1.89108745E+02
 20
-1.45369612E+02
 11
-1.73608745E+02
 21
-1.45370041E+02
  0
LINE
  8
0
  6
CENTER
 62
2
 10
-1.82616102E+02
 20
-1.82667053E+02
 11
-1.80100973E+02
 21
-1.82667123E+02
  0
LINE
  8
0
 62
7
 10
-1.83359609E+02
 20
-1.76617032E+02
 11
-1.83359817E+02
 21
-1.84117032E+02
  0
LINE
  8
0
 62
7
 10
-1.79359609E+02
 20
-1.76617143E+02
 11
-1.79359817E+02
 21
-1.84117143E+02
  0
LINE
  8
0
 62
7
 10
-1.83059700E+02
 20
-1.79867041E+02
 11
-1.79659699E+02
 21
-1.79867135E+02
  0
LINE
  8
0
 62
7
 10
-1.73609935E+02
 20
-1.88367302E+02
 11
-1.89109935E+02
 21
-1.88366873E+02
  0
LINE
  8
0
 62
7
 10
-1.73608745E+02
 20
-1.45370041E+02
 11
-1.73609935E+02
 21
-1.88367302E+02
  0
LINE
  8
0
 62
7
 10
-1.89109935E+02
 20
-1.88366873E+02
 11
-1.89108745E+02
 21
-1.45369612E+02
  0
LINE
  8
0
  6
CENTER
 62
2
 10
-1.81356533E+02
 20
-6.54446786E+01
 11
-1.81359997E+02
 21
-1.90620274E+02
  0
LINE
  8
0
 62
7
 10
-1.77356345E+02
 20
-5.86649432E+01
 11
-1.81356345E+02
 21
-5.86648325E+01
  0
LINE
  8
0
 62
7
 10
-1.81356483E+02
 20
-6.36648325E+01
 11
-1.77356483E+02
 21
-6.36649432E+01
  0
LINE
  8
0
 62
7
 10
-1.76356558E+02
 20
-6.63699727E+01
 11
-1.82356558E+02
 21
-6.63698066E+01
  0
LINE
  8
0
 62
7
 10
-1.75856628E+02
 20
-6.88699865E+01
 11
-1.75856572E+02
 21
-6.68699865E+01
  0
LINE
  8
0
 62
7
 10
-1.78106483E+02
 20
-6.36649224E+01
 11
-1.78106558E+02
 21
-6.63699242E+01
  0
LINE
  8
0
 62
7
 10
-1.75856575E+02
 20
-6.68699849E+01
 11
-1.76356561E+02
 21
-6.63699705E+01
  0
LINE
  8
0
 62
7
 10
-1.76856470E+02
 20
-6.31649539E+01
 11
-1.77356485E+02
 21
-6.36649406E+01
  0
LINE
  8
0
 62
7
 10
-1.76856360E+02
 20
-5.91649497E+01
 11
-1.77356341E+02
 21
-5.86649407E+01
  0
LINE
  8
0
 62
7
 10
-1.76856359E+02
 20
-5.91649570E+01
 11
-1.76856470E+02
 21
-6.31649570E+01
  0
LINE
  8
0
 62
7
 10
-1.82856629E+02
 20
-6.88697906E+01
 11
-1.82356643E+02
 21
-6.93698050E+01
  0
LINE
  8
0
 62
7
 10
-1.82856574E+02
 20
-6.68697885E+01
 11
-1.82356560E+02
 21
-6.63698018E+01
  0
LINE
  8
0
 62
7
 10
-1.81856360E+02
 20
-5.91648167E+01
 11
-1.81356345E+02
 21
-5.86648300E+01
  0
LINE
  8
0
 62
7
 10
-1.81356489E+02
 20
-6.36648299E+01
 11
-1.81856470E+02
 21
-6.31648210E+01
  0
LINE
  8
0
 62
7
 10
-1.81856359E+02
 20
-5.91648186E+01
 11
-1.81856470E+02
 21
-6.31648186E+01
  0
LINE
  8
0
 62
7
 10
-1.82856628E+02
 20
-6.88697928E+01
 11
-1.82856572E+02
 21
-6.68697928E+01
  0
LINE
  8
0
 62
7
 10
-1.80606483E+02
 20
-6.36648532E+01
 11
-1.80606558E+02
 21
-6.63698550E+01
  0
LINE
  8
0
 62
7
 10
-1.75856627E+02
 20
-6.88699789E+01
 11
-1.76356642E+02
 21
-6.93699656E+01
  0
LINE
  8
0
 62
7
 10
-1.83056642E+02
 20
-6.93697796E+01
 11
-1.75656641E+02
 21
-6.93699844E+01
  0
LINE
  8
0
 62
7
 10
-1.75356669E+02
 20
-7.03699927E+01
 11
-1.75356650E+02
 21
-6.96699958E+01
  0
LINE
  8
0
 62
7
 10
-1.83356669E+02
 20
-7.03697713E+01
 11
-1.83356650E+02
 21
-6.96697744E+01
  0
LINE
  8
0
 62
7
 10
-1.83356649E+02
 20
-6.96697738E+01
 11
-1.83056642E+02
 21
-6.93697829E+01
  0
LINE
  8
0
 62
7
 10
-1.75656642E+02
 20
-6.93699877E+01
 11
-1.75356652E+02
 21
-6.96699952E+01
  0
LINE
  8
0
 62
7
 10
-1.83356650E+02
 20
-6.96697744E+01
 11
-1.75356650E+02
 21
-6.96699958E+01
  0
LINE
  8
0
  6
CENTER
 62
2
 10
-1.79356240E+02
 20
-5.48836073E+01
 11
-1.79356710E+02
 21
-7.18474363E+01
  0
LINE
  8
0
 62
7
 10
-1.67148782E+02
 20
-1.61667136E+02
 11
-1.62963191E+02
 21
-1.54417943E+02
  0
LINE
  8
0
 62
7
 10
-1.67754991E+02
 20
-1.61317119E+02
 11
-1.63569400E+02
 21
-1.54067926E+02
  0
LINE
  8
0
  6
CENTER
 62
2
 10
-1.72060782E+02
 20
-1.80367345E+02
 11
-1.58438471E+02
 21
-1.80367722E+02
  0
LINE
  8
0
  6
CENTER
 62
2
 10
-1.72058208E+02
 20
-8.73700840E+01
 11
-1.58545879E+02
 21
-8.73704580E+01
  0
LINE
  8
0
 62
7
 10
-1.65357084E+02
 20
-8.53702694E+01
 11
-1.69144442E+02
 21
-8.53701646E+01
  0
LINE
  8
0
 62
7
 10
-1.65357084E+02
 20
-8.53702694E+01
 11
-1.65357209E+02
 21
-8.98702694E+01
  0
LINE
  8
0
 62
7
 10
-1.69357097E+02
 20
-8.58391147E+01
 11
-1.69357182E+02
 21
-8.89012028E+01
  0
LINE
  8
0
 62
7
 10
-1.68834866E+02
 20
-8.98701732E+01
 11
-1.65357209E+02
 21
-8.98702694E+01
  0
LINE
  8
0
 62
7
 10
-1.73106669E+02
 20
-7.03700550E+01
 11
-1.57606669E+02
 21
-7.03704839E+01
  0
LINE
  8
0
 62
7
 10
-1.73106669E+02
 20
-7.03700550E+01
 11
-1.73108745E+02
 21
-1.45370055E+02
  0
LINE
  8
0
 62
7
 10
-1.57606669E+02
 20
-7.03704839E+01
 11
-1.57608745E+02
 21
-1.45370484E+02
  0
LINE
  8
0
 62
7
 10
-1.73108745E+02
 20
-1.45370055E+02
 11
-1.57608745E+02
 21
-1.45370484E+02
  0
LINE
  8
0
  6
CENTER
 62
2
 10
-1.66616102E+02
 20
-1.82667496E+02
 11
-1.64100973E+02
 21
-1.82667565E+02
  0
LINE
  8
0
 62
7
 10
-1.67359609E+02
 20
-1.76617475E+02
 11
-1.67359817E+02
 21
-1.84117475E+02
  0
LINE
  8
0
 62
7
 10
-1.63359609E+02
 20
-1.76617586E+02
 11
-1.63359817E+02
 21
-1.84117586E+02
  0
LINE
  8
0
 62
7
 10
-1.67059700E+02
 20
-1.79867483E+02
 11
-1.63659699E+02
 21
-1.79867578E+02
  0
LINE
  8
0
 62
7
 10
-1.57609935E+02
 20
-1.88367745E+02
 11
-1.73109935E+02
 21
-1.88367316E+02
  0
LINE
  8
0
 62
7
 10
-1.57608745E+02
 20
-1.45370484E+02
 11
-1.57609935E+02
 21
-1.88367745E+02
  0
LINE
  8
0
 62
7
 10
-1.73109935E+02
 20
-1.88367316E+02
 11
-1.73108745E+02
 21
-1.45370055E+02
  0
LINE
  8
0
  6
CENTER
 62
2
 10
-1.65356533E+02
 20
-6.54451214E+01
 11
-1.65359997E+02
 21
-1.90620717E+02
  0
LINE
  8
0
 62
7
 10
-1.61356345E+02
 20
-5.86653860E+01
 11
-1.65356345E+02
 21
-5.86652753E+01
  0
LINE
  8
0
 62
7
 10
-1.65356483E+02
 20
-6.36652753E+01
 11
-1.61356483E+02
 21
-6.36653860E+01
  0
LINE
  8
0
 62
7
 10
-1.60356558E+02
 20
-6.63704155E+01
 11
-1.66356558E+02
 21
-6.63702494E+01
  0
LINE
  8
0
 62
7
 10
-1.59856628E+02
 20
-6.88704293E+01
 11
-1.59856572E+02
 21
-6.68704293E+01
  0
LINE
  8
0
 62
7
 10
-1.62106483E+02
 20
-6.36653652E+01
 11
-1.62106558E+02
 21
-6.63703670E+01
  0
LINE
  8
0
 62
7
 10
-1.59856571E+02
 20
-6.68704250E+01
 11
-1.60356558E+02
 21
-6.63704106E+01
  0
LINE
  8
0
 62
7
 10
-1.60856472E+02
 20
-6.31653994E+01
 11
-1.61356487E+02
 21
-6.36653861E+01
  0
LINE
  8
0
 62
7
 10
-1.60856359E+02
 20
-5.91653979E+01
 11
-1.61356346E+02
 21
-5.86653835E+01
  0
LINE
  8
0
 62
7
 10
-1.60856359E+02
 20
-5.91653998E+01
 11
-1.60856470E+02
 21
-6.31653998E+01
  0
LINE
  8
0
 62
7
 10
-1.66856631E+02
 20
-6.88702361E+01
 11
-1.66356647E+02
 21
-6.93702478E+01
  0
LINE
  8
0
 62
7
 10
-1.66856576E+02
 20
-6.68702340E+01
 11
-1.66356561E+02
 21
-6.63702473E+01
  0
LINE
  8
0
 62
7
 10
-1.65856362E+02
 20
-5.91652622E+01
 11
-1.65356347E+02
 21
-5.86652755E+01
  0
LINE
  8
0
 62
7
 10
-1.65356488E+02
 20
-6.36652781E+01
 11
-1.65856475E+02
 21
-6.31652638E+01
  0
LINE
  8
0
 62
7
 10
-1.65856359E+02
 20
-5.91652614E+01
 11
-1.65856470E+02
 21
-6.31652614E+01
  0
LINE
  8
0
 62
7
 10
-1.66856628E+02
 20
-6.88702356E+01
 11
-1.66856572E+02
 21
-6.68702356E+01
  0
LINE
  8
0
 62
7
 10
-1.64606483E+02
 20
-6.36652960E+01
 11
-1.64606558E+02
 21
-6.63702978E+01
  0
LINE
  8
0
 62
7
 10
-1.59856629E+02
 20
-6.88704244E+01
 11
-1.60356644E+02
 21
-6.93704111E+01
  0
LINE
  8
0
 62
7
 10
-1.67056642E+02
 20
-6.93702224E+01
 11
-1.59656641E+02
 21
-6.93704272E+01
  0
LINE
  8
0
 62
7
 10
-1.59356669E+02
 20
-7.03704355E+01
 11
-1.59356650E+02
 21
-6.96704386E+01
  0
LINE
  8
0
 62
7
 10
-1.67356669E+02
 20
-7.03702141E+01
 11
-1.67356650E+02
 21
-6.96702172E+01
  0
LINE
  8
0
 62
7
 10
-1.67356651E+02
 20
-6.96702193E+01
 11
-1.67056638E+02
 21
-6.93702230E+01
  0
LINE
  8
0
 62
7
 10
-1.59656639E+02
 20
-6.93704278E+01
 11
-1.59356648E+02
 21
-6.96704353E+01
  0
LINE
  8
0
 62
7
 10
-1.67356650E+02
 20
-6.96702172E+01
 11
-1.59356650E+02
 21
-6.96704386E+01
  0
LINE
  8
0
  6
CENTER
 62
2
 10
-1.63356240E+02
 20
-5.48840501E+01
 11
-1.63356710E+02
 21
-7.18478791E+01
  0
LINE
  8
0
 62
7
 10
-1.50254989E+02
 20
-1.61320344E+02
 11
-1.46069398E+02
 21
-1.54071151E+02
  0
LINE
  8
0
 62
7
 10
-1.49648784E+02
 20
-1.61670359E+02
 11
-1.45463193E+02
 21
-1.54421166E+02
  0
LINE
  8
0
 62
7
 10
-1.57106392E+02
 20
-6.03732367E+01
 11
-1.38606392E+02
 21
-6.03737487E+01
  0
LINE
  8
0
 62
7
 10
-1.57106392E+02
 20
-6.03732367E+01
 11
-1.57109935E+02
 21
-1.88370499E+02
  0
LINE
  8
0
 62
7
 10
-1.38606392E+02
 20
-6.03737487E+01
 11
-1.38609935E+02
 21
-1.88371011E+02
  0
LINE
  8
0
 62
7
 10
-1.57108745E+02
 20
-1.45373237E+02
 11
-1.38608745E+02
 21
-1.45373749E+02
  0
LINE
  8
0
 62
7
 10
-1.45857181E+02
 20
-8.88851448E+01
 11
-1.45856987E+02
 21
-8.18532157E+01
  0
LINE
  8
0
 62
7
 10
-1.49857181E+02
 20
-8.88850340E+01
 11
-1.49856987E+02
 21
-8.18531050E+01
  0
LINE
  8
0
 62
7
 10
-1.45143865E+02
 20
-8.83692038E+01
 11
-1.45857167E+02
 21
-8.83691841E+01
  0
LINE
  8
0
 62
7
 10
-1.50570470E+02
 20
-8.83690536E+01
 11
-1.49857167E+02
 21
-8.83690734E+01
  0
LINE
  8
0
  6
CENTER
 62
2
 10
-1.55324598E+02
 20
-8.53689220E+01
 11
-1.40701315E+02
 21
-8.53693267E+01
  0
LINE
  8
0
 62
7
 10
-1.38609935E+02
 20
-1.88371011E+02
 11
-1.57109935E+02
 21
-1.88370499E+02
  0
LINE
  8
0
  6
CENTER
 62
2
 10
-1.55138552E+02
 20
-1.80370552E+02
 11
-1.40132121E+02
 21
-1.80370968E+02
  0
LINE
  8
0
 62
7
 10
-1.51346849E+02
 20
-1.80870657E+02
 11
-1.44372606E+02
 21
-1.80870850E+02
  0
LINE
  8
0
 62
7
 10
-1.45856068E+02
 20
-4.86685463E+01
 11
-1.49856068E+02
 21
-4.86684356E+01
  0
LINE
  8
0
 62
7
 10
-1.49856207E+02
 20
-5.36684356E+01
 11
-1.45856207E+02
 21
-5.36685463E+01
  0
LINE
  8
0
 62
7
 10
-1.44856282E+02
 20
-5.63735758E+01
 11
-1.50856282E+02
 21
-5.63734097E+01
  0
LINE
  8
0
 62
7
 10
-1.44356351E+02
 20
-5.88735896E+01
 11
-1.44356296E+02
 21
-5.68735896E+01
  0
LINE
  8
0
 62
7
 10
-1.46606207E+02
 20
-5.36685255E+01
 11
-1.46606282E+02
 21
-5.63735273E+01
  0
LINE
  8
0
 62
7
 10
-1.44356300E+02
 20
-5.68735947E+01
 11
-1.44856284E+02
 21
-5.63735830E+01
  0
LINE
  8
0
 62
7
 10
-1.45356198E+02
 20
-5.31685718E+01
 11
-1.45856212E+02
 21
-5.36685585E+01
  0
LINE
  8
0
 62
7
 10
-1.45356087E+02
 20
-4.91685676E+01
 11
-1.45856071E+02
 21
-4.86685559E+01
  0
LINE
  8
0
 62
7
 10
-1.45356082E+02
 20
-4.91685601E+01
 11
-1.45356193E+02
 21
-5.31685601E+01
  0
LINE
  8
0
 62
7
 10
-1.51356349E+02
 20
-5.88733950E+01
 11
-1.50856362E+02
 21
-5.93734094E+01
  0
LINE
  8
0
 62
7
 10
-1.51356291E+02
 20
-5.68733956E+01
 11
-1.50856287E+02
 21
-5.63734197E+01
  0
LINE
  8
0
 62
7
 10
-1.50356090E+02
 20
-4.91684319E+01
 11
-1.49856076E+02
 21
-4.86684452E+01
  0
LINE
  8
0
 62
7
 10
-1.49856206E+02
 20
-5.36684370E+01
 11
-1.50356190E+02
 21
-5.31684254E+01
  0
LINE
  8
0
 62
7
 10
-1.50356082E+02
 20
-4.91684217E+01
 11
-1.50356193E+02
 21
-5.31684217E+01
  0
LINE
  8
0
 62
7
 10
-1.51356351E+02
 20
-5.88733959E+01
 11
-1.51356296E+02
 21
-5.68733959E+01
  0
LINE
  8
0
 62
7
 10
-1.49106207E+02
 20
-5.36684563E+01
 11
-1.49106282E+02
 21
-5.63734581E+01
  0
LINE
  8
0
 62
7
 10
-1.44356355E+02
 20
-5.88735968E+01
 11
-1.44856369E+02
 21
-5.93735835E+01
  0
LINE
  8
0
 62
7
 10
-1.51556362E+02
 20
-5.93733903E+01
 11
-1.44156368E+02
 21
-5.93735951E+01
  0
LINE
  8
0
 62
7
 10
-1.43856392E+02
 20
-6.03736034E+01
 11
-1.43856373E+02
 21
-5.96736065E+01
  0
LINE
  8
0
 62
7
 10
-1.51856392E+02
 20
-6.03733820E+01
 11
-1.51856373E+02
 21
-5.96733851E+01
  0
LINE
  8
0
 62
7
 10
-1.51856380E+02
 20
-5.96733890E+01
 11
-1.51556367E+02
 21
-5.93733927E+01
  0
LINE
  8
0
 62
7
 10
-1.44156365E+02
 20
-5.93736002E+01
 11
-1.43856374E+02
 21
-5.96736077E+01
  0
LINE
  8
0
 62
7
 10
-1.51856373E+02
 20
-5.96733851E+01
 11
-1.43856373E+02
 21
-5.96736065E+01
  0
LINE
  8
0
  6
CENTER
 62
2
 10
-1.47855964E+02
 20
-4.48872104E+01
 11
-1.47860054E+02
 21
-1.92663793E+02
  0
LINE
  8
0
  6
CENTER
 62
2
 10
-1.60358648E+02
 20
-1.41870408E+02
 11
-1.35358648E+02
 21
-1.41871100E+02
  0
LINE
  8
0
  6
CENTER
 62
2
 10
-2.13356780E+02
 20
-7.43689410E+01
 11
-1.35356780E+02
 21
-7.43710997E+01
  0
LINE
  8
0
  6
CENTER
 62
2
 10
-2.13358648E+02
 20
-1.41866202E+02
 11
-1.55358648E+02
 21
-1.41867807E+02
  0
LINE
  8
0
 62
7
 10
-2.00606946E+02
 20
-8.03692939E+01
 11
-2.00356946E+02
 21
-8.03693008E+01
  0
LINE
  8
0
 62
7
 10
-2.00357250E+02
 20
-9.13693008E+01
 11
-2.00607250E+02
 21
-9.13692939E+01
  0
LINE
  8
0
 62
7
 10
-2.00607422E+02
 20
-9.75692985E+01
 11
-2.00357422E+02
 21
-9.75693054E+01
  0
LINE
  8
0
 62
7
 10
-2.00608532E+02
 20
-1.37669293E+02
 11
-2.00358532E+02
 21
-1.37669300E+02
  0
LINE
  8
0
 62
7
 10
-2.00356946E+02
 20
-8.03693008E+01
 11
-2.00106946E+02
 21
-8.03693077E+01
  0
LINE
  8
0
 62
7
 10
-2.00107250E+02
 20
-9.13693077E+01
 11
-2.00357250E+02
 21
-9.13693008E+01
  0
LINE
  8
0
 62
7
 10
-2.00357422E+02
 20
-9.75693054E+01
 11
-2.00107422E+02
 21
-9.75693123E+01
  0
LINE
  8
0
 62
7
 10
-2.00358532E+02
 20
-1.37669300E+02
 11
-2.00108532E+02
 21
-1.37669307E+02
  0
LINE
  8
0
 62
7
 10
-1.89606946E+02
 20
-8.03695983E+01
 11
-1.89356946E+02
 21
-8.03696052E+01
  0
LINE
  8
0
 62
7
 10
-1.89357250E+02
 20
-9.13696052E+01
 11
-1.89607250E+02
 21
-9.13695983E+01
  0
LINE
  8
0
 62
7
 10
-1.89607422E+02
 20
-9.75696029E+01
 11
-1.89357422E+02
 21
-9.75696098E+01
  0
LINE
  8
0
 62
7
 10
-1.89608532E+02
 20
-1.37669598E+02
 11
-1.89358532E+02
 21
-1.37669604E+02
  0
LINE
  8
0
 62
7
 10
-1.89356946E+02
 20
-8.03696052E+01
 11
-1.89106946E+02
 21
-8.03696122E+01
  0
LINE
  8
0
 62
7
 10
-1.89107250E+02
 20
-9.13696122E+01
 11
-1.89357250E+02
 21
-9.13696052E+01
  0
LINE
  8
0
 62
7
 10
-1.89357422E+02
 20
-9.75696098E+01
 11
-1.89107422E+02
 21
-9.75696167E+01
  0
LINE
  8
0
 62
7
 10
-1.89358532E+02
 20
-1.37669604E+02
 11
-1.89108532E+02
 21
-1.37669611E+02
  0
LINE
  8
0
 62
7
 10
-1.73606946E+02
 20
-8.03700411E+01
 11
-1.73356946E+02
 21
-8.03700480E+01
  0
LINE
  8
0
 62
7
 10
-1.73357250E+02
 20
-9.13700480E+01
 11
-1.73607250E+02
 21
-9.13700411E+01
  0
LINE
  8
0
 62
7
 10
-1.73607422E+02
 20
-9.75700457E+01
 11
-1.73357422E+02
 21
-9.75700526E+01
  0
LINE
  8
0
 62
7
 10
-1.73608532E+02
 20
-1.37670040E+02
 11
-1.73358532E+02
 21
-1.37670047E+02
  0
LINE
  8
0
 62
7
 10
-1.73356946E+02
 20
-8.03700480E+01
 11
-1.73106946E+02
 21
-8.03700550E+01
  0
LINE
  8
0
 62
7
 10
-1.73107250E+02
 20
-9.13700550E+01
 11
-1.73357250E+02
 21
-9.13700480E+01
  0
LINE
  8
0
 62
7
 10
-1.73357422E+02
 20
-9.75700526E+01
 11
-1.73107422E+02
 21
-9.75700595E+01
  0
LINE
  8
0
 62
7
 10
-1.73358532E+02
 20
-1.37670047E+02
 11
-1.73108532E+02
 21
-1.37670054E+02
  0
LINE
  8
0
 62
7
 10
-1.57606946E+02
 20
-8.03704839E+01
 11
-1.57356946E+02
 21
-8.03704909E+01
  0
LINE
  8
0
 62
7
 10
-1.57357250E+02
 20
-9.13704909E+01
 11
-1.57607250E+02
 21
-9.13704839E+01
  0
LINE
  8
0
 62
7
 10
-1.57607422E+02
 20
-9.75704885E+01
 11
-1.57357422E+02
 21
-9.75704954E+01
  0
LINE
  8
0
 62
7
 10
-1.57608532E+02
 20
-1.37670483E+02
 11
-1.57358532E+02
 21
-1.37670490E+02
  0
LINE
  8
0
 62
7
 10
-1.57356946E+02
 20
-8.03704909E+01
 11
-1.57106946E+02
 21
-8.03704978E+01
  0
LINE
  8
0
 62
7
 10
-1.57107250E+02
 20
-9.13704978E+01
 11
-1.57357250E+02
 21
-9.13704909E+01
  0
LINE
  8
0
 62
7
 10
-1.57357422E+02
 20
-9.75704954E+01
 11
-1.57107422E+02
 21
-9.75705023E+01
  0
LINE
  8
0
 62
7
 10
-1.57358532E+02
 20
-1.37670490E+02
 11
-1.57108532E+02
 21
-1.37670497E+02
  0
LINE
  8
0
  6
CENTER
 62
2
 10
-1.27860332E+02
 20
-2.02709685E+02
 11
-1.27859768E+02
 21
-1.82336779E+02
  0
LINE
  8
0
  6
CENTER
 62
2
 10
-2.21860332E+02
 20
-2.02707083E+02
 11
-2.21859768E+02
 21
-1.82334177E+02
  0
CIRCLE
  8
0
 62
7
 10
-2.05859021E+02
 20
-1.55366410E+02
 40
2.70000005E+00
  0
CIRCLE
  8
0
 62
7
 10
-2.05859021E+02
 20
-1.55366410E+02
 40
3.25000000E+00
  0
CIRCLE
  8
0
 62
7
 10
-2.05859021E+02
 20
-1.55366410E+02
 40
3.20000005E+00
  0
CIRCLE
  8
0
 62
2
 10
-2.07107153E+02
 20
-8.78691140E+01
 40
2.50000000E+00
  0
CIRCLE
  8
0
 62
7
 10
-2.07107153E+02
 20
-8.78691140E+01
 40
2.00000000E+00
  0
CIRCLE
  8
0
 62
7
 10
-2.05859547E+02
 20
-1.74366410E+02
 40
2.00000000E+00
  0
CIRCLE
  8
0
 62
2
 10
-2.05859547E+02
 20
-1.74366410E+02
 40
2.50000000E+00
  0
CIRCLE
  8
0
 62
7
 10
-1.94859021E+02
 20
-1.55366714E+02
 40
2.70000005E+00
  0
CIRCLE
  8
0
 62
7
 10
-1.94859021E+02
 20
-1.55366714E+02
 40
3.25000000E+00
  0
CIRCLE
  8
0
 62
7
 10
-1.94859021E+02
 20
-1.55366714E+02
 40
3.20000005E+00
  0
CIRCLE
  8
0
 62
2
 10
-1.96107153E+02
 20
-8.78694184E+01
 40
2.50000000E+00
  0
CIRCLE
  8
0
 62
7
 10
-1.96107153E+02
 20
-8.78694184E+01
 40
2.00000000E+00
  0
CIRCLE
  8
0
 62
7
 10
-1.94859547E+02
 20
-1.74366714E+02
 40
2.00000000E+00
  0
CIRCLE
  8
0
 62
2
 10
-1.94859547E+02
 20
-1.74366714E+02
 40
2.50000000E+00
  0
CIRCLE
  8
0
 62
7
 10
-1.81359091E+02
 20
-1.57867088E+02
 40
4.30000019E+00
  0
CIRCLE
  8
0
 62
7
 10
-1.81359091E+02
 20
-1.57867088E+02
 40
4.19999981E+00
  0
CIRCLE
  8
0
 62
7
 10
-1.81359091E+02
 20
-1.57867088E+02
 40
3.70000005E+00
  0
CIRCLE
  8
0
 62
2
 10
-1.81357140E+02
 20
-8.73698266E+01
 40
4.86399984E+00
  0
CIRCLE
  8
0
 62
7
 10
-1.81357140E+02
 20
-8.73698266E+01
 40
4.28299999E+00
  0
CIRCLE
  8
0
 62
7
 10
-1.81359777E+02
 20
-1.82667088E+02
 40
8.00000012E-01
  0
CIRCLE
  8
0
 62
7
 10
-1.81359713E+02
 20
-1.80367088E+02
 40
4.25000000E+00
  0
ARC
  8
0
 62
7
 10
-1.83059692E+02
 20
-1.79567041E+02
 40
3.00000012E-01
 50
1.79998409E+02
 51
2.70000000E+02
  0
ARC
  8
0
 62
7
 10
-1.79659690E+02
 20
-1.79567135E+02
 40
3.00000012E-01
 50
2.70000000E+02
 51
3.59998414E+02
  0
ARC
  8
0
 62
7
 10
-1.81359658E+02
 20
-1.78367088E+02
 40
2.00000000E+00
 50
3.59998414E+02
 51
1.79998420E+02
  0
CIRCLE
  8
0
 62
2
 10
-1.81359713E+02
 20
-1.80367088E+02
 40
4.86399984E+00
  0
CIRCLE
  8
0
 62
7
 10
-1.65359091E+02
 20
-1.57867530E+02
 40
4.30000019E+00
  0
CIRCLE
  8
0
 62
7
 10
-1.65359091E+02
 20
-1.57867530E+02
 40
4.19999981E+00
  0
CIRCLE
  8
0
 62
7
 10
-1.65359091E+02
 20
-1.57867530E+02
 40
3.70000005E+00
  0
CIRCLE
  8
0
 62
2
 10
-1.65357140E+02
 20
-8.73702694E+01
 40
4.86399984E+00
  0
CIRCLE
  8
0
 62
7
 10
-1.65357140E+02
 20
-8.73702694E+01
 40
4.28299999E+00
  0
CIRCLE
  8
0
 62
7
 10
-1.65359777E+02
 20
-1.82667531E+02
 40
8.00000012E-01
  0
CIRCLE
  8
0
 62
7
 10
-1.65359713E+02
 20
-1.80367530E+02
 40
4.25000000E+00
  0
ARC
  8
0
 62
7
 10
-1.67059692E+02
 20
-1.79567484E+02
 40
3.00000012E-01
 50
1.79998409E+02
 51
2.70000000E+02
  0
ARC
  8
0
 62
7
 10
-1.63659690E+02
 20
-1.79567578E+02
 40
3.00000012E-01
 50
2.70000000E+02
 51
3.59998414E+02
  0
ARC
  8
0
 62
7
 10
-1.65359658E+02
 20
-1.78367530E+02
 40
2.00000000E+00
 50
3.59998414E+02
 51
1.79998420E+02
  0
CIRCLE
  8
0
 62
2
 10
-1.65359713E+02
 20
-1.80367530E+02
 40
4.86399984E+00
  0
CIRCLE
  8
0
 62
7
 10
-1.47859091E+02
 20
-1.57870754E+02
 40
3.70000005E+00
  0
CIRCLE
  8
0
 62
7
 10
-1.47859091E+02
 20
-1.57870754E+02
 40
4.19999981E+00
  0
CIRCLE
  8
0
 62
7
 10
-1.47859091E+02
 20
-1.57870754E+02
 40
4.30000019E+00
  0
CIRCLE
  8
0
 62
2
 10
-1.47857084E+02
 20
-8.53691287E+01
 40
4.86399984E+00
  0
CIRCLE
  8
0
 62
7
 10
-1.47857084E+02
 20
-8.53691287E+01
 40
4.04500008E+00
  0
CIRCLE
  8
0
 62
2
 10
-1.47859713E+02
 20
-1.80370754E+02
 40
4.86399984E+00
  0
CIRCLE
  8
0
 62
7
 10
-1.47859713E+02
 20
-1.80370754E+02
 40
4.28299999E+00
  0
ARC
  8
0
 62
7
 10
-1.47859727E+02
 20
-1.80870754E+02
 40
3.79999995E+00
 50
4.91551446E+00
 51
1.75081311E+02
  0
ARC
  8
0
 62
7
 10
-1.51346840E+02
 20
-1.80570658E+02
 40
3.00000012E-01
 50
1.75081311E+02
 51
2.70000000E+02
  0
ARC
  8
0
 62
7
 10
-1.44372597E+02
 20
-1.80570851E+02
 40
3.00000012E-01
 50
2.70000000E+02
 51
4.91551446E+00
  0
INSERT
  8
0
  2
ARROW
  6
BYBLOCK
 62
2
 10
-2.21860184E+02
 20
1.81766968E+01
 41
1.00000000E+00
 42
1.00000000E+00
 50
0.00000000E+00
  0
LINE
  8
0
 62
2
 10
-2.21860184E+02
 20
1.81766968E+01
 11
-2.21360184E+02
 21
1.81766968E+01
  0
LINE
  8
0
 62
2
 10
-1.30360184E+02
 20
1.81766968E+01
 11
-2.21860184E+02
 21
1.81766968E+01
  0
TEXT
  8
0
 62
2
 10
-2.17946122E+02
 20
1.91766968E+01
 40
6.30000019E+00
  1
P=(L
 41
1.00000000E+00
  7
MONOTXT
  0
TEXT
  8
0
 62
2
 10
-1.93090653E+02
 20
1.81923221E+01
 40
3.15000010E+00
  1
1
 41
1.00000000E+00
  7
MONOTXT
  0
TEXT
  8
0
 62
2
 10
-1.89596121E+02
 20
1.91766968E+01
 40
6.30000019E+00
  1
+L
 41
1.00000000E+00
  7
MONOTXT
  0
TEXT
  8
0
 62
2
 10
-1.77340653E+02
 20
1.81923221E+01
 40
3.15000010E+00
  1
2
 41
1.00000000E+00
  7
MONOTXT
  0
TEXT
  8
0
 62
2
 10
-1.73846121E+02
 20
1.91766968E+01
 40
6.30000019E+00
  1
+L
 41
1.00000000E+00
  7
MONOTXT
  0
TEXT
  8
0
 62
2
 10
-1.61590652E+02
 20
1.81923221E+01
 40
3.15000010E+00
  1
3
 41
1.00000000E+00
  7
MONOTXT
  0
TEXT
  8
0
 62
2
 10
-1.58096120E+02
 20
1.91766968E+01
 40
6.30000019E+00
  1
+21)
 41
1.00000000E+00
  7
MONOTXT
  0
DIMENSION
  8
0
  2
*D1
 10
-1.27860184E+02
 20
1.81766968E+01
 11
-1.18318450E+02
 21
2.39016969E+01
 13
-1.22860184E+02
 23
5.18340416E+01
 14
-1.27860184E+02
 24
5.76340408E+01
 50
1.80000000E+02
  0
DIMENSION
  8
0
  2
*D2
 10
-2.26860184E+02
 20
1.81766968E+01
 11
-2.45102521E+02
 21
2.39016969E+01
 13
-2.21860184E+02
 23
5.76340408E+01
 14
-2.26860184E+02
 24
5.18340416E+01
 50
1.80000000E+02
  0
DIMENSION
  8
0
  2
*D3
 10
-2.11360184E+02
 20
-4.20582428E+01
 11
-2.55525120E+02
 21
-3.63332427E+01
 13
-2.26860184E+02
 23
-6.88659592E+01
 14
-2.11360184E+02
 24
-6.88659592E+01
  0
DIMENSION
  8
0
  2
*D4
 10
-1.89360184E+02
 20
-4.20582428E+01
 11
-2.02821122E+02
 21
-3.63332427E+01
 13
-2.11360184E+02
 23
-6.88659592E+01
 14
-1.89360184E+02
 24
-7.88686981E+01
  0
DIMENSION
  8
0
  2
*D5
 10
-1.57360184E+02
 20
-4.20582428E+01
 11
-1.75821122E+02
 21
-3.63332427E+01
 13
-1.89360184E+02
 23
-7.88686981E+01
 14
-1.57360184E+02
 24
-7.88686981E+01
  0
DIMENSION
  8
0
  2
*D6
 10
-1.38360184E+02
 20
-4.20582428E+01
 11
-1.50321122E+02
 21
-3.63332427E+01
 13
-1.57360184E+02
 23
-7.88686981E+01
 14
-1.38360184E+02
 24
-6.88632202E+01
  0
DIMENSION
  8
0
  2
*D7
 10
-1.22860184E+02
 20
-4.20582428E+01
 11
-1.21716350E+02
 21
-3.63332427E+01
 13
-1.38360184E+02
 23
-6.88632202E+01
 14
-1.22860184E+02
 24
-6.88632202E+01
  0
LINE
  8
0
 62
2
 10
-2.26860184E+02
 20
-3.03659592E+01
 11
-2.26860184E+02
 21
-2.88659592E+01
  0
LINE
  8
0
 62
2
 10
-2.26860184E+02
 20
-6.88659592E+01
 11
-2.26860184E+02
 21
-3.03659592E+01
  0
LINE
  8
0
 62
2
 10
-1.22860184E+02
 20
-3.03659592E+01
 11
-1.22860184E+02
 21
-2.88659592E+01
  0
LINE
  8
0
 62
2
 10
-1.22860184E+02
 20
-6.88632202E+01
 11
-1.22860184E+02
 21
-3.03659592E+01
  0
INSERT
  8
0
  2
ARROW
  6
BYBLOCK
 62
2
 10
-2.26860184E+02
 20
-3.03659592E+01
 41
1.00000000E+00
 42
1.00000000E+00
 50
0.00000000E+00
  0
LINE
  8
0
 62
2
 10
-2.26860184E+02
 20
-3.03659592E+01
 11
-2.26360184E+02
 21
-3.03659592E+01
  0
INSERT
  8
0
  2
ARROW
  6
BYBLOCK
 62
2
 10
-1.22860184E+02
 20
-3.03659592E+01
 41
1.00000000E+00
 42
1.00000000E+00
 50
1.80000000E+02
  0
LINE
  8
0
 62
2
 10
-1.22860184E+02
 20
-3.03659592E+01
 11
-1.23360184E+02
 21
-3.03659592E+01
  0
LINE
  8
0
 62
2
 10
-2.26860184E+02
 20
-3.03659592E+01
 11
-1.22860184E+02
 21
-3.03659592E+01
  0
TEXT
  8
0
 62
2
 10
-2.17360184E+02
 20
-2.93659591E+01
 40
6.40000010E+00
  1
L=(L
 41
1.00000000E+00
  7
MONOTXT
  0
TEXT
  8
0
 62
2
 10
-1.92110184E+02
 20
-3.03659590E+01
 40
3.20000005E+00
  1
1
 41
1.00000000E+00
  7
MONOTXT
  0
TEXT
  8
0
 62
2
 10
-1.88560184E+02
 20
-2.93659591E+01
 40
6.40000010E+00
  1
+L
 41
1.00000000E+00
  7
MONOTXT
  0
TEXT
  8
0
 62
2
 10
-1.76110184E+02
 20
-3.03659590E+01
 40
3.20000005E+00
  1
2
 41
1.00000000E+00
  7
MONOTXT
  0
TEXT
  8
0
 62
2
 10
-1.72560184E+02
 20
-2.93659591E+01
 40
6.40000010E+00
  1
+L
 41
1.00000000E+00
  7
MONOTXT
  0
TEXT
  8
0
 62
2
 10
-1.60110184E+02
 20
-3.03659590E+01
 40
3.20000005E+00
  1
3
 41
1.00000000E+00
  7
MONOTXT
  0
TEXT
  8
0
 62
2
 10
-1.56560183E+02
 20
-2.93659591E+01
 40
6.40000010E+00
  1
+31)
 41
1.00000000E+00
  7
MONOTXT
  0
TEXT
  8
0
 62
7
 10
-3.69850268E+02
 20
2.63100000E+02
 40
6.29999924E+00
  1
GME SERIES
 41
1.06382946E+00
  7
MONOTXT
  0
TEXT
  8
0
 62
7
 10
-3.85600561E+02
 20
2.38100000E+02
 40
6.29999924E+00
  1
MODEL:GMEM5A-ER
 41
9.99999697E-01
  7
MONOTXT
  0
TEXT
  8
0
 62
7
 10
3.15499656E+02
 20
2.63100000E+02
 40
6.29999924E+00
  1
Ver. 1.0
 41
1.08108075E+00
  7
MONOTXT
  0
TEXT
  8
0
 62
7
 10
2.87585227E+02
 20
-2.71250000E+02
 40
9.00000000E+00
  1
KOGANEI CORP.
 41
1.04838732E+00
  7
MONOTXT
  0
TEXT
  8
0
 62
7
 10
1.92307581E+02
 20
7.79887176E+01
 40
6.30000019E+00
  1
95
 41
1.00000000E+00
  7
MONOTXT
  0
TEXT
  8
0
 62
7
 10
1.92307581E+02
 20
8.79887176E+01
 40
6.30000019E+00
  1
76
 41
1.00000000E+00
  7
MONOTXT
  0
TEXT
  8
0
 62
7
 10
1.92307581E+02
 20
9.79887179E+01
 40
6.30000019E+00
  1
57
 41
1.00000000E+00
  7
MONOTXT
  0
TEXT
  8
0
 62
7
 10
1.92307581E+02
 20
1.07988718E+02
 40
6.30000019E+00
  1
38
 41
1.00000000E+00
  7
MONOTXT
  0
TEXT
  8
0
 62
7
 10
1.92307581E+02
 20
1.17988718E+02
 40
6.30000019E+00
  1
19
 41
1.00000000E+00
  7
MONOTXT
  0
TEXT
  8
0
 62
7
 10
1.34807581E+02
 20
7.80480895E+01
 40
6.30000019E+00
  1
80
 41
1.00000000E+00
  7
MONOTXT
  0
TEXT
  8
0
 62
7
 10
1.34807581E+02
 20
8.80480895E+01
 40
6.30000019E+00
  1
64
 41
1.00000000E+00
  7
MONOTXT
  0
TEXT
  8
0
 62
7
 10
1.34807581E+02
 20
9.80480899E+01
 40
6.30000019E+00
  1
48
 41
1.00000000E+00
  7
MONOTXT
  0
TEXT
  8
0
 62
7
 10
1.34807581E+02
 20
1.08048090E+02
 40
6.30000019E+00
  1
32
 41
1.00000000E+00
  7
MONOTXT
  0
TEXT
  8
0
 62
7
 10
1.34807581E+02
 20
1.18048090E+02
 40
6.30000019E+00
  1
16
 41
1.00000000E+00
  7
MONOTXT
  0
TEXT
  8
0
 62
7
 10
7.48075728E+01
 20
7.80480895E+01
 40
6.30000019E+00
  1
55
 41
1.00000000E+00
  7
MONOTXT
  0
TEXT
  8
0
 62
7
 10
7.48075728E+01
 20
8.80480895E+01
 40
6.30000019E+00
  1
44
 41
1.00000000E+00
  7
MONOTXT
  0
TEXT
  8
0
 62
7
 10
7.48075728E+01
 20
9.80480899E+01
 40
6.30000019E+00
  1
33
 41
1.00000000E+00
  7
MONOTXT
  0
TEXT
  8
0
 62
7
 10
7.48075728E+01
 20
1.08048090E+02
 40
6.30000019E+00
  1
22
 41
1.00000000E+00
  7
MONOTXT
  0
TEXT
  8
0
 62
7
 10
7.48075728E+01
 20
1.18048090E+02
 40
6.30000019E+00
  1
11
 41
1.00000000E+00
  7
MONOTXT
  0
TEXT
  8
0
 62
7
 10
-9.74242401E+00
 20
1.38166839E+02
 40
6.30000019E+00
  1
NUMBER
 41
1.00000000E+00
  7
MONOTXT
  0
TEXT
  8
0
 62
7
 10
-9.74242401E+00
 20
1.27929340E+02
 40
6.30000019E+00
  1
 OF UNITS
 41
1.15384615E+00
  7
MONOTXT
  0
TEXT
  8
0
 62
7
 10
5.43325722E+01
 20
1.33107462E+02
 40
6.30000019E+00
  1
L
 41
1.00000000E+00
  7
MONOTXT
  0
TEXT
  8
0
 62
7
 10
6.02880411E+01
 20
1.32123087E+02
 40
3.15000010E+00
  1
1
 41
1.00000000E+00
  7
MONOTXT
  0
TEXT
  8
0
 62
7
 10
6.37825725E+01
 20
1.33107462E+02
 40
6.30000019E+00
  1
(GME05)
 41
1.00000000E+00
  7
MONOTXT
  0
TEXT
  8
0
 62
7
 10
1.14332580E+02
 20
1.33107462E+02
 40
6.30000019E+00
  1
L
 41
1.00000000E+00
  7
MONOTXT
  0
TEXT
  8
0
 62
7
 10
1.20288048E+02
 20
1.32123087E+02
 40
3.15000010E+00
  1
2
 41
1.00000000E+00
  7
MONOTXT
  0
TEXT
  8
0
 62
7
 10
1.23782581E+02
 20
1.33107462E+02
 40
6.30000019E+00
  1
(GME07)
 41
1.00000000E+00
  7
MONOTXT
  0
TEXT
  8
0
 62
7
 10
1.71832580E+02
 20
1.33048090E+02
 40
6.30000019E+00
  1
L
 41
1.00000000E+00
  7
MONOTXT
  0
TEXT
  8
0
 62
7
 10
1.77788048E+02
 20
1.32063715E+02
 40
3.15000010E+00
  1
3
 41
1.00000000E+00
  7
MONOTXT
  0
TEXT
  8
0
 62
7
 10
1.81282581E+02
 20
1.33048090E+02
 40
6.30000019E+00
  1
(GME10)
 41
1.00000000E+00
  7
MONOTXT
  0
TEXT
  8
0
 62
7
 10
1.54575768E+01
 20
1.18048090E+02
 40
6.30000019E+00
  1
1
 41
1.00000000E+00
  7
MONOTXT
  0
TEXT
  8
0
 62
7
 10
1.54575768E+01
 20
1.08048090E+02
 40
6.30000019E+00
  1
2
 41
1.00000000E+00
  7
MONOTXT
  0
TEXT
  8
0
 62
7
 10
1.54575768E+01
 20
9.80480899E+01
 40
6.30000019E+00
  1
3
 41
1.00000000E+00
  7
MONOTXT
  0
TEXT
  8
0
 62
7
 10
1.54575768E+01
 20
8.80480895E+01
 40
6.30000019E+00
  1
4
 41
1.00000000E+00
  7
MONOTXT
  0
TEXT
  8
0
 62
7
 10
1.54575768E+01
 20
7.80480895E+01
 40
6.30000019E+00
  1
5
 41
1.00000000E+00
  7
MONOTXT
  0
LINE
  8
0
 62
7
 10
3.99799805E+02
 20
2.76250000E+02
 11
3.99799805E+02
 21
-2.76750000E+02
  0
LINE
  8
0
 62
7
 10
-3.99250000E+02
 20
2.76250000E+02
 11
-3.99250000E+02
 21
-2.76750000E+02
  0
LINE
  8
0
 62
7
 10
-3.99250000E+02
 20
2.76250000E+02
 11
3.99799805E+02
 21
2.76250000E+02
  0
LINE
  8
0
 62
7
 10
-3.99250000E+02
 20
-2.76750000E+02
 11
3.99799805E+02
 21
-2.76750000E+02
  0
LINE
  8
0
 62
7
 10
-2.79250000E+02
 20
2.76250000E+02
 11
-2.79250000E+02
 21
2.56250000E+02
  0
LINE
  8
0
 62
7
 10
-3.99250000E+02
 20
2.56250000E+02
 11
-2.79250000E+02
 21
2.56250000E+02
  0
LINE
  8
0
 62
7
 10
2.79799927E+02
 20
2.76250000E+02
 11
2.79799927E+02
 21
2.56250000E+02
  0
LINE
  8
0
 62
7
 10
2.79799927E+02
 20
2.56250000E+02
 11
3.99799805E+02
 21
2.56250000E+02
  0
LINE
  8
0
 62
7
 10
2.79799927E+02
 20
-2.56750000E+02
 11
2.79799927E+02
 21
-2.76750000E+02
  0
LINE
  8
0
 62
7
 10
2.79799927E+02
 20
-2.56750000E+02
 11
3.99799805E+02
 21
-2.56750000E+02
  0
LINE
  8
0
 62
7
 10
-1.20814857E+01
 20
7.61980896E+01
 11
-1.20814857E+01
 21
1.46198090E+02
  0
LINE
  8
0
 62
7
 10
-1.20814857E+01
 20
7.61980896E+01
 11
2.27918518E+02
 21
7.61980896E+01
  0
LINE
  8
0
 62
7
 10
-1.20814857E+01
 20
8.61980896E+01
 11
2.27918518E+02
 21
8.61980896E+01
  0
LINE
  8
0
 62
7
 10
-1.20814857E+01
 20
9.61980896E+01
 11
2.27918518E+02
 21
9.61980896E+01
  0
LINE
  8
0
 62
7
 10
-1.20814857E+01
 20
1.06198090E+02
 11
2.27918518E+02
 21
1.06198090E+02
  0
LINE
  8
0
 62
7
 10
-1.20814857E+01
 20
1.16198090E+02
 11
2.27918518E+02
 21
1.16198090E+02
  0
LINE
  8
0
 62
7
 10
-1.20814857E+01
 20
1.26198090E+02
 11
2.27918518E+02
 21
1.26198090E+02
  0
LINE
  8
0
 62
7
 10
4.79185143E+01
 20
7.61980896E+01
 11
4.79185143E+01
 21
1.46198090E+02
  0
LINE
  8
0
 62
7
 10
-1.20814857E+01
 20
1.46198090E+02
 11
2.27918518E+02
 21
1.46198090E+02
  0
LINE
  8
0
 62
7
 10
1.07918510E+02
 20
7.61980896E+01
 11
1.07918510E+02
 21
1.46198090E+02
  0
LINE
  8
0
 62
7
 10
1.67918518E+02
 20
7.61980896E+01
 11
1.67918518E+02
 21
1.46198090E+02
  0
LINE
  8
0
 62
7
 10
2.27918518E+02
 20
7.61980896E+01
 11
2.27918518E+02
 21
1.46198090E+02
  0
ENDSEC
  0
EOF
