  0
SECTION
  2
HEADER
  9
$ACADVER
  1
AC1003
  9
$EXTMIN
 10
-3.99250000E+02
 20
-2.76750000E+02
  9
$EXTMAX
 10
3.99799805E+02
 20
2.76250000E+02
  9
$LIMMIN
 10
-3.99251000E+02
 20
-2.76751000E+02
  9
$LIMMAX
 10
3.99800805E+02
 20
2.76251000E+02
  9
$SNAPUNIT
 10
1
 20
1
  9
$SNAPBASE
 10
0
 20
0
  9
$GRIDMODE
 70
0
  9
$GRIDUNIT
 10
0
 20
0
  9
$LTSCALE
 40
1.33174967E+01
  9
$TEXTSIZE
 40
3.2
  9
$DIMTAD
 70
0
  9
$LUNITS
 70
2
  9
$LUPREC
 70
4
  9
$FILLETRAD
 40
0
  9
$AUNITS
 70
0
  9
$AUPREC
 70
0
  0
ENDSEC
  0
SECTION
  2
TABLES
  0
TABLE
  2
LTYPE
 70
2
  0
LTYPE
  2
CONTINUOUS
 70
64
  3
Solid-Line
 72
65
 73
0
 40
0
  0
LTYPE
  2
DASHED
 70
64
  3
DASHED
 72
65
 73
2
 40
.75
 49
.5
 49
-.25
  0
LTYPE
  2
HIDDEN
 70
64
  3
HIDDEN
 72
65
 73
2
 40
.375
 49
.25
 49
-.125
  0
LTYPE
  2
CENTER
 70
64
  3
CENTER
 72
65
 73
4
 40
2
 49
1.25
 49
-.25
 49
.25
 49
-.25
  0
LTYPE
  2
PHANTOM
 70
64
  3
PHANTOM
 72
65
 73
6
 40
2.5
 49
1.25
 49
-.25
 49
.25
 49
-.25
 49
.25
 49
-.25
  0
ENDTAB
  0
TABLE
  2
LAYER
 70
1
  0
LAYER
  2
1
 70
0
 62
7
  6
CONTINUOUS
 0
ENDTAB
  0
TABLE
  2
STYLE
 70
2
  0
STYLE
  2
MONOTXT
 70
0
 40
0
 41
1
 50
0
 71
0
 42
.2
  3
monotxt
  0
STYLE
  2
BIGFONT
 70
0
 40
0
 41
1
 50
0
 71
0
 42
.2
  3
txt
  4
bigfont
  0
ENDTAB
  0
ENDSEC
  0
SECTION
  2
BLOCKS
  0
BLOCK
  8
0
  2
ARROW
 70
10
 10
0
 20
0
  0
POLYLINE
  8
0
  6
CONTINUOUS
 62
0
 66
1
  0
VERTEX
  8
0
  6
CONTINUOUS
 62
0
 10
4.50534132E+00
 20
1.20720257E+00
  0
VERTEX
  8
0
  6
CONTINUOUS
 62
0
 10
0.0
 20
0.0
  0
VERTEX
  8
0
  6
CONTINUOUS
 62
0
 10
4.50534132E+00
 20
-1.20720257E+00
  0
SEQEND
  8
0
  0
ENDBLK
  8
0
  0
BLOCK
  8
0
  2
*D1
 70
1
 10
0.0
 20
0.0
  0
LINE
  8
0
 62
2
 10
2.52139816E+02
 20
2.81766968E+01
 11
2.47139816E+02
 21
2.81766968E+01
  0
LINE
  8
0
 62
2
 10
2.52139816E+02
 20
6.18340416E+01
 11
2.52139816E+02
 21
2.66766968E+01
  0
LINE
  8
0
 62
2
 10
2.47139816E+02
 20
6.76340408E+01
 11
2.47139816E+02
 21
2.66766968E+01
  0
INSERT
  8
0
  2
ARROW
  6
BYBLOCK
 62
2
 10
2.52139816E+02
 20
2.81766968E+01
 41
1.00000000E+00
 42
1.00000000E+00
 50
0.00000000E+00
  0
INSERT
  8
0
  2
ARROW
  6
BYBLOCK
 62
2
 10
2.47139816E+02
 20
2.81766968E+01
 41
1.00000000E+00
 42
1.00000000E+00
 50
1.80000000E+02
  0
TEXT
  8
0
 62
2
 10
2.56681550E+02
 20
3.07516968E+01
 40
6.30000019E+00
  1
5
 41
1.00000000E+00
  7
MONOTXT
  0
POINT
  8
0
 62
2
 10
2.52139816E+02
 20
6.18340416E+01
  0
POINT
  8
0
 62
2
 10
2.47139816E+02
 20
6.76340408E+01
  0
POINT
  8
0
 62
2
 10
2.47139816E+02
 20
2.81766968E+01
  0
LINE
  8
0
 62
2
 10
2.52139816E+02
 20
2.81766968E+01
 11
2.62292487E+02
 21
2.81766968E+01
  0
LINE
  8
0
 62
2
 10
2.47139816E+02
 20
2.81766968E+01
 11
2.46639816E+02
 21
2.81766968E+01
  0
ENDBLK
  8
0
  0
BLOCK
  8
0
  2
*D2
 70
1
 10
0.0
 20
0.0
  0
LINE
  8
0
 62
2
 10
1.53139816E+02
 20
2.81766968E+01
 11
1.48139816E+02
 21
2.81766968E+01
  0
LINE
  8
0
 62
2
 10
1.53139816E+02
 20
6.76340408E+01
 11
1.53139816E+02
 21
2.66766968E+01
  0
LINE
  8
0
 62
2
 10
1.48139816E+02
 20
6.18340416E+01
 11
1.48139816E+02
 21
2.66766968E+01
  0
INSERT
  8
0
  2
ARROW
  6
BYBLOCK
 62
2
 10
1.53139816E+02
 20
2.81766968E+01
 41
1.00000000E+00
 42
1.00000000E+00
 50
0.00000000E+00
  0
INSERT
  8
0
  2
ARROW
  6
BYBLOCK
 62
2
 10
1.48139816E+02
 20
2.81766968E+01
 41
1.00000000E+00
 42
1.00000000E+00
 50
1.80000000E+02
  0
TEXT
  8
0
 62
2
 10
1.29897479E+02
 20
3.07516968E+01
 40
6.30000019E+00
  1
(5)
 41
1.00000000E+00
  7
MONOTXT
  0
POINT
  8
0
 62
2
 10
1.53139816E+02
 20
6.76340408E+01
  0
POINT
  8
0
 62
2
 10
1.48139816E+02
 20
6.18340416E+01
  0
POINT
  8
0
 62
2
 10
1.48139816E+02
 20
2.81766968E+01
  0
LINE
  8
0
 62
2
 10
1.29208416E+02
 20
2.81766968E+01
 11
1.48139816E+02
 21
2.81766968E+01
  0
LINE
  8
0
 62
2
 10
1.53139816E+02
 20
2.81766968E+01
 11
1.53639816E+02
 21
2.81766968E+01
  0
ENDBLK
  8
0
  0
BLOCK
  8
0
  2
*D3
 70
1
 10
0.0
 20
0.0
  0
LINE
  8
0
 62
2
 10
1.48139816E+02
 20
-4.20582428E+01
 11
1.63639816E+02
 21
-4.20582428E+01
  0
LINE
  8
0
 62
2
 10
1.48139816E+02
 20
-6.88659592E+01
 11
1.48139816E+02
 21
-4.05582428E+01
  0
LINE
  8
0
 62
2
 10
1.63639816E+02
 20
-6.88659592E+01
 11
1.63639816E+02
 21
-4.05582428E+01
  0
INSERT
  8
0
  2
ARROW
  6
BYBLOCK
 62
2
 10
1.48139816E+02
 20
-4.20582428E+01
 41
1.00000000E+00
 42
1.00000000E+00
 50
0.00000000E+00
  0
INSERT
  8
0
  2
ARROW
  6
BYBLOCK
 62
2
 10
1.63639816E+02
 20
-4.20582428E+01
 41
1.00000000E+00
 42
1.00000000E+00
 50
1.80000000E+02
  0
TEXT
  8
0
 62
2
 10
1.19474880E+02
 20
-3.94832428E+01
 40
6.30000019E+00
  1
15.5
 41
1.00000000E+00
  7
MONOTXT
  0
POINT
  8
0
 62
2
 10
1.48139816E+02
 20
-6.88659592E+01
  0
POINT
  8
0
 62
2
 10
1.63639816E+02
 20
-6.88659592E+01
  0
POINT
  8
0
 62
2
 10
1.63639816E+02
 20
-4.20582428E+01
  0
LINE
  8
0
 62
2
 10
1.48139816E+02
 20
-4.20582428E+01
 11
1.18785818E+02
 21
-4.20582428E+01
  0
ENDBLK
  8
0
  0
BLOCK
  8
0
  2
*D4
 70
1
 10
0.0
 20
0.0
  0
LINE
  8
0
 62
2
 10
1.63639816E+02
 20
-4.20582428E+01
 11
1.85639816E+02
 21
-4.20582428E+01
  0
LINE
  8
0
 62
2
 10
1.63639816E+02
 20
-6.88659592E+01
 11
1.63639816E+02
 21
-4.05582428E+01
  0
LINE
  8
0
 62
2
 10
1.85639816E+02
 20
-7.88686981E+01
 11
1.85639816E+02
 21
-4.05582428E+01
  0
INSERT
  8
0
  2
ARROW
  6
BYBLOCK
 62
2
 10
1.63639816E+02
 20
-4.20582428E+01
 41
1.00000000E+00
 42
1.00000000E+00
 50
0.00000000E+00
  0
INSERT
  8
0
  2
ARROW
  6
BYBLOCK
 62
2
 10
1.85639816E+02
 20
-4.20582428E+01
 41
1.00000000E+00
 42
1.00000000E+00
 50
1.80000000E+02
  0
TEXT
  8
0
 62
2
 10
1.72178878E+02
 20
-3.94832428E+01
 40
6.30000019E+00
  1
L
 41
1.00000000E+00
  7
MONOTXT
  0
TEXT
  8
0
 62
2
 10
1.78478879E+02
 20
-4.04676175E+01
 40
3.15000010E+00
  1
1
 41
1.00000000E+00
  7
MONOTXT
  0
POINT
  8
0
 62
2
 10
1.63639816E+02
 20
-6.88659592E+01
  0
POINT
  8
0
 62
2
 10
1.85639816E+02
 20
-7.88686981E+01
  0
POINT
  8
0
 62
2
 10
1.85639816E+02
 20
-4.20582428E+01
  0
ENDBLK
  8
0
  0
BLOCK
  8
0
  2
*D5
 70
1
 10
0.0
 20
0.0
  0
LINE
  8
0
 62
2
 10
1.85639816E+02
 20
-4.20582428E+01
 11
2.17639816E+02
 21
-4.20582428E+01
  0
LINE
  8
0
 62
2
 10
1.85639816E+02
 20
-7.88686981E+01
 11
1.85639816E+02
 21
-4.05582428E+01
  0
LINE
  8
0
 62
2
 10
2.17639816E+02
 20
-7.88686981E+01
 11
2.17639816E+02
 21
-4.05582428E+01
  0
INSERT
  8
0
  2
ARROW
  6
BYBLOCK
 62
2
 10
1.85639816E+02
 20
-4.20582428E+01
 41
1.00000000E+00
 42
1.00000000E+00
 50
0.00000000E+00
  0
INSERT
  8
0
  2
ARROW
  6
BYBLOCK
 62
2
 10
2.17639816E+02
 20
-4.20582428E+01
 41
1.00000000E+00
 42
1.00000000E+00
 50
1.80000000E+02
  0
TEXT
  8
0
 62
2
 10
1.99178878E+02
 20
-3.94832428E+01
 40
6.30000019E+00
  1
L
 41
1.00000000E+00
  7
MONOTXT
  0
TEXT
  8
0
 62
2
 10
2.05478879E+02
 20
-4.04676175E+01
 40
3.15000010E+00
  1
2
 41
1.00000000E+00
  7
MONOTXT
  0
POINT
  8
0
 62
2
 10
1.85639816E+02
 20
-7.88686981E+01
  0
POINT
  8
0
 62
2
 10
2.17639816E+02
 20
-7.88686981E+01
  0
POINT
  8
0
 62
2
 10
2.17639816E+02
 20
-4.20582428E+01
  0
ENDBLK
  8
0
  0
BLOCK
  8
0
  2
*D6
 70
1
 10
0.0
 20
0.0
  0
LINE
  8
0
 62
2
 10
2.17639816E+02
 20
-4.20582428E+01
 11
2.36639816E+02
 21
-4.20582428E+01
  0
LINE
  8
0
 62
2
 10
2.17639816E+02
 20
-7.88686981E+01
 11
2.17639816E+02
 21
-4.05582428E+01
  0
LINE
  8
0
 62
2
 10
2.36639816E+02
 20
-6.88632202E+01
 11
2.36639816E+02
 21
-4.05582428E+01
  0
INSERT
  8
0
  2
ARROW
  6
BYBLOCK
 62
2
 10
2.17639816E+02
 20
-4.20582428E+01
 41
1.00000000E+00
 42
1.00000000E+00
 50
0.00000000E+00
  0
INSERT
  8
0
  2
ARROW
  6
BYBLOCK
 62
2
 10
2.36639816E+02
 20
-4.20582428E+01
 41
1.00000000E+00
 42
1.00000000E+00
 50
1.80000000E+02
  0
TEXT
  8
0
 62
2
 10
2.24678878E+02
 20
-3.94832428E+01
 40
6.30000019E+00
  1
L
 41
1.00000000E+00
  7
MONOTXT
  0
TEXT
  8
0
 62
2
 10
2.30978879E+02
 20
-4.04676175E+01
 40
3.15000010E+00
  1
3
 41
1.00000000E+00
  7
MONOTXT
  0
POINT
  8
0
 62
2
 10
2.17639816E+02
 20
-7.88686981E+01
  0
POINT
  8
0
 62
2
 10
2.36639816E+02
 20
-6.88632202E+01
  0
POINT
  8
0
 62
2
 10
2.36639816E+02
 20
-4.20582428E+01
  0
ENDBLK
  8
0
  0
BLOCK
  8
0
  2
*D7
 70
1
 10
0.0
 20
0.0
  0
LINE
  8
0
 62
2
 10
2.36639816E+02
 20
-4.20582428E+01
 11
2.52139816E+02
 21
-4.20582428E+01
  0
LINE
  8
0
 62
2
 10
2.36639816E+02
 20
-6.88632202E+01
 11
2.36639816E+02
 21
-4.05582428E+01
  0
LINE
  8
0
 62
2
 10
2.52139816E+02
 20
-6.88632202E+01
 11
2.52139816E+02
 21
-4.05582428E+01
  0
INSERT
  8
0
  2
ARROW
  6
BYBLOCK
 62
2
 10
2.36639816E+02
 20
-4.20582428E+01
 41
1.00000000E+00
 42
1.00000000E+00
 50
0.00000000E+00
  0
INSERT
  8
0
  2
ARROW
  6
BYBLOCK
 62
2
 10
2.52139816E+02
 20
-4.20582428E+01
 41
1.00000000E+00
 42
1.00000000E+00
 50
1.80000000E+02
  0
TEXT
  8
0
 62
2
 10
2.53283642E+02
 20
-3.94832428E+01
 40
6.30000019E+00
  1
15.5
 41
1.00000000E+00
  7
MONOTXT
  0
POINT
  8
0
 62
2
 10
2.36639816E+02
 20
-6.88632202E+01
  0
POINT
  8
0
 62
2
 10
2.52139816E+02
 20
-6.88632202E+01
  0
POINT
  8
0
 62
2
 10
2.52139816E+02
 20
-4.20582428E+01
  0
LINE
  8
0
 62
2
 10
2.77794580E+02
 20
-4.20582428E+01
 11
2.52139816E+02
 21
-4.20582428E+01
  0
ENDBLK
  8
0
  0
ENDSEC
  0
SECTION
  2
ENTITIES
  0
LINE
  8
0
 62
7
 10
-1.93360184E+02
 20
-1.97368698E+02
 11
-1.93360184E+02
 21
-7.03686981E+01
  0
LINE
  8
0
 62
7
 10
-2.66360184E+02
 20
-1.37671436E+02
 11
-2.66110184E+02
 21
-1.37671436E+02
  0
LINE
  8
0
 62
7
 10
-2.66360184E+02
 20
-9.66714401E+01
 11
-2.66110184E+02
 21
-9.66714401E+01
  0
LINE
  8
0
 62
7
 10
-2.66360184E+02
 20
-9.13714371E+01
 11
-2.66110184E+02
 21
-9.13714371E+01
  0
LINE
  8
0
 62
7
 10
-2.66360184E+02
 20
-8.03714371E+01
 11
-2.66110184E+02
 21
-8.03714371E+01
  0
LINE
  8
0
 62
7
 10
-2.72860184E+02
 20
-1.97365958E+02
 11
-2.72860184E+02
 21
-1.88365958E+02
  0
LINE
  8
0
 62
7
 10
-2.66360184E+02
 20
-7.03659592E+01
 11
-2.66360184E+02
 21
-1.97365958E+02
  0
LINE
  8
0
 62
7
 10
-2.81860184E+02
 20
-1.97365958E+02
 11
-2.66360184E+02
 21
-1.97365958E+02
  0
LINE
  8
0
 62
7
 10
-2.81860184E+02
 20
-1.88365958E+02
 11
-2.72860184E+02
 21
-1.88365958E+02
  0
LINE
  8
0
 62
7
 10
-2.81860184E+02
 20
-7.03659592E+01
 11
-2.66360184E+02
 21
-7.03659592E+01
  0
LINE
  8
0
 62
7
 10
-1.77860184E+02
 20
-7.03686981E+01
 11
-1.93360184E+02
 21
-7.03686981E+01
  0
LINE
  8
0
 62
7
 10
-1.93360184E+02
 20
-9.75714417E+01
 11
-1.93610184E+02
 21
-9.75714417E+01
  0
LINE
  8
0
 62
7
 10
-1.86860184E+02
 20
-1.97368698E+02
 11
-1.86860184E+02
 21
-1.88368698E+02
  0
LINE
  8
0
 62
7
 10
-1.77860184E+02
 20
-1.88368698E+02
 11
-1.86860184E+02
 21
-1.88368698E+02
  0
LINE
  8
0
 62
7
 10
-1.77860184E+02
 20
-1.97368698E+02
 11
-1.93360184E+02
 21
-1.97368698E+02
  0
LINE
  8
0
 62
6
 10
-2.60160187E+02
 20
-1.31476494E+02
 11
-2.50160187E+02
 21
-1.31476494E+02
  0
LINE
  8
0
 62
6
 10
-2.50160187E+02
 20
-1.30978416E+02
 11
-2.60160187E+02
 21
-1.30978416E+02
  0
LINE
  8
0
 62
6
 10
-2.50160187E+02
 20
-1.30878418E+02
 11
-2.60160187E+02
 21
-1.30878418E+02
  0
LINE
  8
0
 62
6
 10
-2.50160187E+02
 20
-1.32287598E+02
 11
-2.60160187E+02
 21
-1.32287598E+02
  0
LINE
  8
0
 62
6
 10
-2.52260185E+02
 20
-1.24678413E+02
 11
-2.58060181E+02
 21
-1.24678413E+02
  0
LINE
  8
0
 62
6
 10
-2.52260185E+02
 20
-1.28678413E+02
 11
-2.58060181E+02
 21
-1.28678413E+02
  0
LINE
  8
0
 62
6
 10
-2.63560181E+02
 20
-7.48784180E+01
 11
-2.53560181E+02
 21
-7.48784180E+01
  0
LINE
  8
0
 62
6
 10
-2.63560181E+02
 20
-7.47784119E+01
 11
-2.53560181E+02
 21
-7.47784119E+01
  0
LINE
  8
0
 62
6
 10
-2.63560181E+02
 20
-7.42803345E+01
 11
-2.53560181E+02
 21
-7.42803345E+01
  0
LINE
  8
0
 62
6
 10
-2.61460182E+02
 20
-8.10784149E+01
 11
-2.55660187E+02
 21
-8.10784149E+01
  0
LINE
  8
0
 62
6
 10
-2.61460182E+02
 20
-7.70784149E+01
 11
-2.55660187E+02
 21
-7.70784149E+01
  0
LINE
  8
0
 62
7
 10
-2.63560181E+02
 20
-7.38784180E+01
 11
-2.65860184E+02
 21
-7.38784180E+01
  0
LINE
  8
0
 62
7
 10
-2.47860184E+02
 20
-7.38784180E+01
 11
-2.53560181E+02
 21
-7.38784180E+01
  0
LINE
  8
0
 62
7
 10
-2.62261253E+02
 20
-1.44599041E+02
 11
-2.62261253E+02
 21
-1.45378414E+02
  0
LINE
  8
0
 62
7
 10
-2.65555183E+02
 20
-1.44378414E+02
 11
-2.65555183E+02
 21
-1.44878414E+02
  0
LINE
  8
0
  6
CENTER
 62
2
 10
-2.64060181E+02
 20
-1.42362427E+02
 11
-2.64060181E+02
 21
-1.46664196E+02
  0
LINE
  8
0
 62
7
 10
-2.62460182E+02
 20
-1.44378414E+02
 11
-2.65860184E+02
 21
-1.44378414E+02
  0
LINE
  8
0
 62
7
 10
-2.64420843E+02
 20
-9.13177558E+01
 11
-2.62299523E+02
 21
-9.34390761E+01
  0
LINE
  8
0
 62
7
 10
-2.64420843E+02
 20
-9.34390761E+01
 11
-2.63360183E+02
 21
-9.23784160E+01
  0
LINE
  8
0
 62
6
 10
-2.57060181E+02
 20
-8.73784180E+01
 11
-2.57060181E+02
 21
-9.23784180E+01
  0
LINE
  8
0
 62
6
 10
-2.60060181E+02
 20
-8.73784180E+01
 11
-2.60060181E+02
 21
-9.23784180E+01
  0
LINE
  8
0
 62
6
 10
-2.60060181E+02
 20
-8.73784180E+01
 11
-2.57060181E+02
 21
-8.73784180E+01
  0
LINE
  8
0
 62
6
 10
-2.56165815E+02
 20
-6.63376013E+01
 11
-2.55910189E+02
 21
-6.67784122E+01
  0
LINE
  8
0
 62
6
 10
-2.61210185E+02
 20
-6.67784118E+01
 11
-2.60954555E+02
 21
-6.63375943E+01
  0
LINE
  8
0
 62
6
 10
-2.57415815E+02
 20
-6.75876004E+01
 11
-2.57160190E+02
 21
-6.80284113E+01
  0
LINE
  8
0
 62
6
 10
-2.55910179E+02
 20
-6.67784179E+01
 11
-2.57160181E+02
 21
-6.80284193E+01
  0
LINE
  8
0
 62
6
 10
-2.57415810E+02
 20
-6.75876023E+01
 11
-2.56165809E+02
 21
-6.63376010E+01
  0
LINE
  8
0
 62
6
 10
-2.59704553E+02
 20
-6.75875945E+01
 11
-2.59960182E+02
 21
-6.80284120E+01
  0
LINE
  8
0
 62
6
 10
-2.63560181E+02
 20
-7.34692307E+01
 11
-2.53560181E+02
 21
-7.34692307E+01
  0
LINE
  8
0
 62
6
 10
-2.59704555E+02
 20
-6.75875942E+01
 11
-2.60954551E+02
 21
-6.63375983E+01
  0
LINE
  8
0
 62
6
 10
-2.63560181E+02
 20
-6.63376007E+01
 11
-2.60954552E+02
 21
-6.63376007E+01
  0
LINE
  8
0
 62
6
 10
-2.56165810E+02
 20
-6.63376007E+01
 11
-2.53560181E+02
 21
-6.63376007E+01
  0
LINE
  8
0
 62
6
 10
-2.57415810E+02
 20
-6.75876007E+01
 11
-2.59704552E+02
 21
-6.75876007E+01
  0
LINE
  8
0
 62
6
 10
-2.63560181E+02
 20
-6.67784119E+01
 11
-2.61210182E+02
 21
-6.67784119E+01
  0
LINE
  8
0
 62
6
 10
-2.61210178E+02
 20
-6.67784179E+01
 11
-2.59960182E+02
 21
-6.80284139E+01
  0
LINE
  8
0
 62
6
 10
-2.57160187E+02
 20
-6.80284119E+01
 11
-2.59960182E+02
 21
-6.80284119E+01
  0
LINE
  8
0
 62
6
 10
-2.55910187E+02
 20
-6.67784119E+01
 11
-2.53560181E+02
 21
-6.67784119E+01
  0
LINE
  8
0
 62
6
 10
-2.62060181E+02
 20
-7.04784164E+01
 11
-2.63560181E+02
 21
-7.04784164E+01
  0
LINE
  8
0
 62
6
 10
-2.63560181E+02
 20
-6.72784119E+01
 11
-2.62060181E+02
 21
-6.72784119E+01
  0
LINE
  8
0
 62
6
 10
-2.55060181E+02
 20
-6.72784119E+01
 11
-2.53560181E+02
 21
-6.72784119E+01
  0
LINE
  8
0
 62
6
 10
-2.53560181E+02
 20
-7.04784164E+01
 11
-2.55060181E+02
 21
-7.04784164E+01
  0
LINE
  8
0
 62
6
 10
-2.60385696E+02
 20
-7.03284149E+01
 11
-2.56734673E+02
 21
-7.03284149E+01
  0
LINE
  8
0
 62
6
 10
-2.60385696E+02
 20
-7.09284134E+01
 11
-2.56734673E+02
 21
-7.09284134E+01
  0
LINE
  8
0
 62
6
 10
-2.54353071E+02
 20
-6.81713139E+01
 11
-2.55767285E+02
 21
-6.95855275E+01
  0
LINE
  8
0
 62
6
 10
-2.54353071E+02
 20
-6.95855275E+01
 11
-2.55767285E+02
 21
-6.81713139E+01
  0
LINE
  8
0
 62
6
 10
-2.62767289E+02
 20
-6.95855248E+01
 11
-2.61353076E+02
 21
-6.81713112E+01
  0
LINE
  8
0
 62
6
 10
-2.62767289E+02
 20
-6.81713112E+01
 11
-2.61353076E+02
 21
-6.95855248E+01
  0
LINE
  8
0
 62
6
 10
-2.63260185E+02
 20
-9.23784180E+01
 11
-2.53860184E+02
 21
-9.23784180E+01
  0
LINE
  8
0
 62
6
 10
-2.63560181E+02
 20
-9.20784149E+01
 11
-2.63560181E+02
 21
-6.03686981E+01
  0
LINE
  8
0
  6
CENTER
 62
6
 10
-2.58560181E+02
 20
-5.85934143E+01
 11
-2.58560181E+02
 21
-9.45144653E+01
  0
LINE
  8
0
 62
6
 10
-2.53560181E+02
 20
-9.20784149E+01
 11
-2.53560181E+02
 21
-6.03784180E+01
  0
LINE
  8
0
 62
7
 10
-2.63360184E+02
 20
-9.50784149E+01
 11
-2.65860184E+02
 21
-9.50784149E+01
  0
LINE
  8
0
 62
7
 10
-2.63560181E+02
 20
-8.96784134E+01
 11
-2.65860184E+02
 21
-8.96784134E+01
  0
LINE
  8
0
  6
CENTER
 62
2
 10
-2.49660187E+02
 20
-6.33944092E+01
 11
-2.49660187E+02
 21
-5.90926361E+01
  0
LINE
  8
0
 62
7
 10
-2.48165184E+02
 20
-6.13784180E+01
 11
-2.48165184E+02
 21
-6.08784180E+01
  0
LINE
  8
0
 62
7
 10
-2.51165184E+02
 20
-6.13784180E+01
 11
-2.51165184E+02
 21
-6.08784180E+01
  0
LINE
  8
0
 62
7
 10
-2.50160180E+02
 20
-1.14678418E+02
 11
-2.49299520E+02
 21
-1.13817758E+02
  0
LINE
  8
0
 62
7
 10
-2.50160184E+02
 20
-1.15078414E+02
 11
-2.49299520E+02
 21
-1.15939078E+02
  0
LINE
  8
0
  6
PHANTOM
 62
2
 10
-2.63860184E+02
 20
-1.45575676E+02
 11
-2.62610184E+02
 21
-1.45575676E+02
  0
LINE
  8
0
  6
CENTER
 62
2
 10
-2.52260185E+02
 20
-1.70566376E+02
 11
-2.52260185E+02
 21
-1.62828732E+02
  0
LINE
  8
0
  6
CENTER
 62
2
 10
-2.55097122E+02
 20
-1.66475674E+02
 11
-2.49295425E+02
 21
-1.66475674E+02
  0
LINE
  8
0
 62
7
 10
-2.50160187E+02
 20
-1.17578415E+02
 11
-2.47860184E+02
 21
-1.17578415E+02
  0
LINE
  8
0
 62
7
 10
-2.50360184E+02
 20
-1.12178413E+02
 11
-2.47860184E+02
 21
-1.12178413E+02
  0
LINE
  8
0
 62
7
 10
-2.51460182E+02
 20
-6.11784210E+01
 11
-2.51460182E+02
 21
-6.03784180E+01
  0
LINE
  8
0
 62
7
 10
-2.51260185E+02
 20
-6.13784180E+01
 11
-2.47860184E+02
 21
-6.13784180E+01
  0
LINE
  8
0
  6
CENTER
 62
2
 10
-2.63263443E+02
 20
-1.82875674E+02
 11
-2.50180481E+02
 21
-1.82875674E+02
  0
LINE
  8
0
 62
7
 10
-2.47860184E+02
 20
-1.45378414E+02
 11
-2.47860184E+02
 21
-6.03784180E+01
  0
LINE
  8
0
 62
7
 10
-2.65860184E+02
 20
-1.45378414E+02
 11
-2.65860184E+02
 21
-6.03784180E+01
  0
LINE
  8
0
 62
7
 10
-2.47610184E+02
 20
-1.88385391E+02
 11
-2.47610184E+02
 21
-6.03784180E+01
  0
LINE
  8
0
 62
7
 10
-2.66110184E+02
 20
-1.88385391E+02
 11
-2.66110184E+02
 21
-6.03784180E+01
  0
LINE
  8
0
 62
7
 10
-2.47610184E+02
 20
-1.88385391E+02
 11
-2.66110184E+02
 21
-1.88385391E+02
  0
LINE
  8
0
  6
PHANTOM
 62
2
 10
-2.55060181E+02
 20
-1.69885391E+02
 11
-2.55060181E+02
 21
-1.63285389E+02
  0
LINE
  8
0
  6
PHANTOM
 62
2
 10
-2.54560181E+02
 20
-1.62785389E+02
 11
-2.49960182E+02
 21
-1.62785389E+02
  0
LINE
  8
0
  6
PHANTOM
 62
2
 10
-2.49460182E+02
 20
-1.69885391E+02
 11
-2.49460182E+02
 21
-1.63285389E+02
  0
LINE
  8
0
  6
CENTER
 62
2
 10
-2.63776024E+02
 20
-1.63688129E+02
 11
-2.58843193E+02
 21
-1.63688129E+02
  0
LINE
  8
0
  6
CENTER
 62
2
 10
-2.61360184E+02
 20
-1.66136292E+02
 11
-2.61360184E+02
 21
-1.61203457E+02
  0
LINE
  8
0
  6
CENTER
 62
2
 10
-2.61360184E+02
 20
-1.58069660E+02
 11
-2.61360184E+02
 21
-1.53368961E+02
  0
LINE
  8
0
  6
CENTER
 62
2
 10
-2.63659958E+02
 20
-1.55688129E+02
 11
-2.59191391E+02
 21
-1.55688129E+02
  0
LINE
  8
0
  6
PHANTOM
 62
2
 10
-2.51110184E+02
 20
-1.52875675E+02
 11
-2.49860184E+02
 21
-1.52875675E+02
  0
LINE
  8
0
  6
PHANTOM
 62
2
 10
-2.63860184E+02
 20
-1.52875675E+02
 11
-2.62610184E+02
 21
-1.52875675E+02
  0
LINE
  8
0
  6
PHANTOM
 62
2
 10
-2.62610184E+02
 20
-1.53575676E+02
 11
-2.51110184E+02
 21
-1.53575676E+02
  0
LINE
  8
0
  6
PHANTOM
 62
2
 10
-2.62110184E+02
 20
-1.50575676E+02
 11
-2.51610184E+02
 21
-1.50575676E+02
  0
LINE
  8
0
  6
PHANTOM
 62
2
 10
-2.51110184E+02
 20
-1.45575676E+02
 11
-2.49860184E+02
 21
-1.45575676E+02
  0
LINE
  8
0
  6
PHANTOM
 62
2
 10
-2.62110184E+02
 20
-1.44575676E+02
 11
-2.51610184E+02
 21
-1.44575676E+02
  0
LINE
  8
0
  6
PHANTOM
 62
2
 10
-2.51110184E+02
 20
-1.45015377E+02
 11
-2.51110184E+02
 21
-1.53575676E+02
  0
LINE
  8
0
  6
PHANTOM
 62
2
 10
-2.62610184E+02
 20
-1.53575676E+02
 11
-2.62610184E+02
 21
-1.45075676E+02
  0
LINE
  8
0
  6
PHANTOM
 62
2
 10
-2.63860184E+02
 20
-1.70375675E+02
 11
-2.49860184E+02
 21
-1.70375675E+02
  0
LINE
  8
0
 62
7
 10
-2.49360184E+02
 20
-1.87885391E+02
 11
-2.49360184E+02
 21
-1.70885391E+02
  0
LINE
  8
0
 62
7
 10
-2.64360184E+02
 20
-1.87885391E+02
 11
-2.64360184E+02
 21
-1.70885391E+02
  0
LINE
  8
0
  6
PHANTOM
 62
2
 10
-2.49360184E+02
 20
-1.69875675E+02
 11
-2.49360184E+02
 21
-1.46075676E+02
  0
LINE
  8
0
  6
PHANTOM
 62
2
 10
-2.64360184E+02
 20
-1.69875675E+02
 11
-2.64360184E+02
 21
-1.46075676E+02
  0
LINE
  8
0
 62
7
 10
-2.49860184E+02
 20
-1.70385391E+02
 11
-2.63860184E+02
 21
-1.70385391E+02
  0
LINE
  8
0
 62
7
 10
-2.47610184E+02
 20
-6.03784180E+01
 11
-2.66110184E+02
 21
-6.03784180E+01
  0
LINE
  8
0
 62
6
 10
-2.50460182E+02
 20
-1.13378418E+02
 11
-2.59860184E+02
 21
-1.13378418E+02
  0
LINE
  8
0
 62
6
 10
-2.56660187E+02
 20
-1.18378418E+02
 11
-2.53660187E+02
 21
-1.18378418E+02
  0
LINE
  8
0
 62
6
 10
-2.53660187E+02
 20
-1.18378418E+02
 11
-2.53660187E+02
 21
-1.13378418E+02
  0
LINE
  8
0
 62
6
 10
-2.56660187E+02
 20
-1.18378418E+02
 11
-2.56660187E+02
 21
-1.13378418E+02
  0
LINE
  8
0
  6
CENTER
 62
6
 10
-2.55160187E+02
 20
-1.47163422E+02
 11
-2.55160187E+02
 21
-1.11242363E+02
  0
LINE
  8
0
 62
6
 10
-2.57554558E+02
 20
-1.39419232E+02
 11
-2.57810188E+02
 21
-1.38978415E+02
  0
LINE
  8
0
 62
6
 10
-2.52510183E+02
 20
-1.38978413E+02
 11
-2.52765813E+02
 21
-1.39419230E+02
  0
LINE
  8
0
 62
6
 10
-2.56304556E+02
 20
-1.38169232E+02
 11
-2.56560185E+02
 21
-1.37728415E+02
  0
LINE
  8
0
 62
6
 10
-2.57810183E+02
 20
-1.38978415E+02
 11
-2.56560183E+02
 21
-1.37728415E+02
  0
LINE
  8
0
 62
6
 10
-2.56304554E+02
 20
-1.38169232E+02
 11
-2.57554554E+02
 21
-1.39419232E+02
  0
LINE
  8
0
 62
6
 10
-2.54015808E+02
 20
-1.38169232E+02
 11
-2.53760178E+02
 21
-1.37728415E+02
  0
LINE
  8
0
 62
6
 10
-2.54015812E+02
 20
-1.38169232E+02
 11
-2.52765811E+02
 21
-1.39419234E+02
  0
LINE
  8
0
 62
6
 10
-2.50160187E+02
 20
-1.39419231E+02
 11
-2.52765816E+02
 21
-1.39419231E+02
  0
LINE
  8
0
 62
6
 10
-2.57554558E+02
 20
-1.39419231E+02
 11
-2.60160187E+02
 21
-1.39419231E+02
  0
LINE
  8
0
 62
6
 10
-2.56304558E+02
 20
-1.38169231E+02
 11
-2.54015816E+02
 21
-1.38169231E+02
  0
LINE
  8
0
 62
6
 10
-2.50160187E+02
 20
-1.38978413E+02
 11
-2.52510185E+02
 21
-1.38978413E+02
  0
LINE
  8
0
 62
6
 10
-2.52510184E+02
 20
-1.38978414E+02
 11
-2.53760185E+02
 21
-1.37728413E+02
  0
LINE
  8
0
 62
6
 10
-2.56560181E+02
 20
-1.37728413E+02
 11
-2.53760185E+02
 21
-1.37728413E+02
  0
LINE
  8
0
 62
6
 10
-2.57810181E+02
 20
-1.38978413E+02
 11
-2.60160187E+02
 21
-1.38978413E+02
  0
LINE
  8
0
 62
6
 10
-2.51660187E+02
 20
-1.35278416E+02
 11
-2.50160187E+02
 21
-1.35278416E+02
  0
LINE
  8
0
 62
6
 10
-2.50160187E+02
 20
-1.38478413E+02
 11
-2.51660187E+02
 21
-1.38478413E+02
  0
LINE
  8
0
 62
6
 10
-2.58660187E+02
 20
-1.38478413E+02
 11
-2.60160187E+02
 21
-1.38478413E+02
  0
LINE
  8
0
 62
6
 10
-2.60160187E+02
 20
-1.35278416E+02
 11
-2.58660187E+02
 21
-1.35278416E+02
  0
LINE
  8
0
 62
6
 10
-2.60160187E+02
 20
-1.13678413E+02
 11
-2.60160187E+02
 21
-1.45378414E+02
  0
LINE
  8
0
 62
6
 10
-2.50160187E+02
 20
-1.13678413E+02
 11
-2.50160187E+02
 21
-1.45388130E+02
  0
LINE
  8
0
 62
6
 10
-2.53334671E+02
 20
-1.35428413E+02
 11
-2.56985695E+02
 21
-1.35428413E+02
  0
LINE
  8
0
 62
6
 10
-2.56985695E+02
 20
-1.34828415E+02
 11
-2.53334671E+02
 21
-1.34828415E+02
  0
LINE
  8
0
 62
6
 10
-2.59367287E+02
 20
-1.37585525E+02
 11
-2.57953073E+02
 21
-1.36171311E+02
  0
LINE
  8
0
 62
6
 10
-2.59367287E+02
 20
-1.36171311E+02
 11
-2.57953073E+02
 21
-1.37585525E+02
  0
LINE
  8
0
 62
6
 10
-2.50953075E+02
 20
-1.36171310E+02
 11
-2.52367289E+02
 21
-1.37585523E+02
  0
LINE
  8
0
 62
6
 10
-2.50953075E+02
 20
-1.37585523E+02
 11
-2.52367289E+02
 21
-1.36171310E+02
  0
LINE
  8
0
 62
7
 10
-2.66110184E+02
 20
-1.45378414E+02
 11
-2.47610184E+02
 21
-1.45378414E+02
  0
LINE
  8
0
 62
7
 10
-2.65860184E+02
 20
-1.31878418E+02
 11
-2.60160187E+02
 21
-1.31878418E+02
  0
LINE
  8
0
 62
7
 10
-2.50160187E+02
 20
-1.31878418E+02
 11
-2.47860184E+02
 21
-1.31878418E+02
  0
LINE
  8
0
 62
7
 10
-2.54860184E+02
 20
-4.86734161E+01
 11
-2.58860184E+02
 21
-4.86734161E+01
  0
LINE
  8
0
 62
7
 10
-2.58860184E+02
 20
-5.36734161E+01
 11
-2.54860184E+02
 21
-5.36734161E+01
  0
LINE
  8
0
 62
7
 10
-2.53860184E+02
 20
-5.63784180E+01
 11
-2.59860184E+02
 21
-5.63784180E+01
  0
LINE
  8
0
 62
7
 10
-2.53360184E+02
 20
-5.88784180E+01
 11
-2.53360184E+02
 21
-5.68784180E+01
  0
LINE
  8
0
 62
7
 10
-2.55610184E+02
 20
-5.36734161E+01
 11
-2.55610184E+02
 21
-5.63784180E+01
  0
LINE
  8
0
 62
7
 10
-2.53360180E+02
 20
-5.68784187E+01
 11
-2.53860181E+02
 21
-5.63784182E+01
  0
LINE
  8
0
 62
7
 10
-2.54360179E+02
 20
-5.31734209E+01
 11
-2.54860179E+02
 21
-5.36734214E+01
  0
LINE
  8
0
 62
7
 10
-2.54360181E+02
 20
-4.91734193E+01
 11
-2.54860182E+02
 21
-4.86734188E+01
  0
LINE
  8
0
 62
7
 10
-2.54360184E+02
 20
-4.91734161E+01
 11
-2.54360184E+02
 21
-5.31734161E+01
  0
LINE
  8
0
 62
7
 10
-2.60360182E+02
 20
-5.88784155E+01
 11
-2.59860182E+02
 21
-5.93784160E+01
  0
LINE
  8
0
 62
7
 10
-2.60360185E+02
 20
-5.68784160E+01
 11
-2.59860185E+02
 21
-5.63784155E+01
  0
LINE
  8
0
 62
7
 10
-2.59360184E+02
 20
-4.91734166E+01
 11
-2.58860183E+02
 21
-4.86734161E+01
  0
LINE
  8
0
 62
7
 10
-2.58860181E+02
 20
-5.36734187E+01
 11
-2.59360181E+02
 21
-5.31734182E+01
  0
LINE
  8
0
 62
7
 10
-2.59360184E+02
 20
-4.91734161E+01
 11
-2.59360184E+02
 21
-5.31734161E+01
  0
LINE
  8
0
 62
7
 10
-2.60360184E+02
 20
-5.88784180E+01
 11
-2.60360184E+02
 21
-5.68784180E+01
  0
LINE
  8
0
 62
7
 10
-2.58110184E+02
 20
-5.36734161E+01
 11
-2.58110184E+02
 21
-5.63784180E+01
  0
LINE
  8
0
 62
7
 10
-2.53360180E+02
 20
-5.88784209E+01
 11
-2.53860178E+02
 21
-5.93784187E+01
  0
LINE
  8
0
 62
7
 10
-2.60560181E+02
 20
-5.93784180E+01
 11
-2.53160187E+02
 21
-5.93784180E+01
  0
LINE
  8
0
 62
7
 10
-2.52860184E+02
 20
-6.03784180E+01
 11
-2.52860184E+02
 21
-5.96784210E+01
  0
LINE
  8
0
 62
7
 10
-2.60860184E+02
 20
-6.03784180E+01
 11
-2.60860184E+02
 21
-5.96784210E+01
  0
LINE
  8
0
 62
7
 10
-2.60860186E+02
 20
-5.96784125E+01
 11
-2.60560186E+02
 21
-5.93784133E+01
  0
LINE
  8
0
 62
7
 10
-2.53160187E+02
 20
-5.93784133E+01
 11
-2.52860182E+02
 21
-5.96784179E+01
  0
LINE
  8
0
 62
7
 10
-2.60860184E+02
 20
-5.96784210E+01
 11
-2.52860184E+02
 21
-5.96784210E+01
  0
LINE
  8
0
  6
CENTER
 62
2
 10
-2.56860184E+02
 20
-4.48921356E+01
 11
-2.56860184E+02
 21
-1.92668713E+02
  0
LINE
  8
0
  6
CENTER
 62
6
 10
-2.61160187E+02
 20
-1.36878414E+02
 11
-2.56160187E+02
 21
-1.36878414E+02
  0
LINE
  8
0
  6
CENTER
 62
6
 10
-2.54160187E+02
 20
-1.36878414E+02
 11
-2.49160187E+02
 21
-1.36878414E+02
  0
LINE
  8
0
  6
CENTER
 62
6
 10
-2.58660187E+02
 20
-1.39378414E+02
 11
-2.58660187E+02
 21
-1.34378414E+02
  0
LINE
  8
0
  6
CENTER
 62
6
 10
-2.51660187E+02
 20
-1.39378414E+02
 11
-2.51660187E+02
 21
-1.34378414E+02
  0
LINE
  8
0
  6
CENTER
 62
6
 10
-2.55060181E+02
 20
-7.13784180E+01
 11
-2.55060181E+02
 21
-6.63784180E+01
  0
LINE
  8
0
  6
CENTER
 62
6
 10
-2.62060181E+02
 20
-7.13784180E+01
 11
-2.62060181E+02
 21
-6.63784180E+01
  0
LINE
  8
0
  6
CENTER
 62
6
 10
-2.57560181E+02
 20
-6.88784180E+01
 11
-2.52560181E+02
 21
-6.88784180E+01
  0
LINE
  8
0
  6
CENTER
 62
6
 10
-2.64560181E+02
 20
-6.88784180E+01
 11
-2.59560181E+02
 21
-6.88784180E+01
  0
LINE
  8
0
  6
CENTER
 62
6
 10
-2.49695770E+02
 20
-1.26678413E+02
 11
-2.60572067E+02
 21
-1.26678413E+02
  0
LINE
  8
0
  6
CENTER
 62
6
 10
-2.52260185E+02
 20
-1.29386490E+02
 11
-2.52260185E+02
 21
-1.23841713E+02
  0
LINE
  8
0
  6
CENTER
 62
6
 10
-2.58060181E+02
 20
-1.29386490E+02
 11
-2.58060181E+02
 21
-1.23841713E+02
  0
LINE
  8
0
  6
CENTER
 62
6
 10
-2.53095772E+02
 20
-7.90784149E+01
 11
-2.63972069E+02
 21
-7.90784149E+01
  0
LINE
  8
0
  6
CENTER
 62
6
 10
-2.55660187E+02
 20
-8.17864914E+01
 11
-2.55660187E+02
 21
-7.62417145E+01
  0
LINE
  8
0
  6
CENTER
 62
6
 10
-2.61460182E+02
 20
-8.17864914E+01
 11
-2.61460182E+02
 21
-7.62417145E+01
  0
LINE
  8
0
  6
CENTER
 62
2
 10
-2.69360184E+02
 20
-1.41875675E+02
 11
-2.44360184E+02
 21
-1.41875675E+02
  0
LINE
  8
0
 62
6
 10
-2.26660183E+02
 20
-1.31473755E+02
 11
-2.16660183E+02
 21
-1.31473755E+02
  0
LINE
  8
0
 62
6
 10
-2.16660183E+02
 20
-1.30975677E+02
 11
-2.26660183E+02
 21
-1.30975677E+02
  0
LINE
  8
0
 62
6
 10
-2.16660183E+02
 20
-1.30875671E+02
 11
-2.26660183E+02
 21
-1.30875671E+02
  0
LINE
  8
0
 62
7
 10
-2.30860184E+02
 20
-1.45375675E+02
 11
-2.30860184E+02
 21
-7.03756714E+01
  0
LINE
  8
0
 62
7
 10
-2.15860184E+02
 20
-1.45375675E+02
 11
-2.15860184E+02
 21
-7.03756714E+01
  0
LINE
  8
0
 62
6
 10
-2.16660183E+02
 20
-1.13675674E+02
 11
-2.16660183E+02
 21
-1.45385391E+02
  0
LINE
  8
0
  6
CENTER
 62
6
 10
-2.18760185E+02
 20
-1.29383751E+02
 11
-2.18760185E+02
 21
-1.23838974E+02
  0
LINE
  8
0
  6
CENTER
 62
6
 10
-2.24560184E+02
 20
-1.29383751E+02
 11
-2.24560184E+02
 21
-1.23838974E+02
  0
LINE
  8
0
 62
6
 10
-2.18760185E+02
 20
-1.24675674E+02
 11
-2.24560184E+02
 21
-1.24675674E+02
  0
LINE
  8
0
 62
6
 10
-2.18760185E+02
 20
-1.28675674E+02
 11
-2.24560184E+02
 21
-1.28675674E+02
  0
LINE
  8
0
  6
CENTER
 62
6
 10
-2.16195770E+02
 20
-1.26675674E+02
 11
-2.27072067E+02
 21
-1.26675674E+02
  0
LINE
  8
0
 62
6
 10
-2.30060184E+02
 20
-8.48756714E+01
 11
-2.20060184E+02
 21
-8.48756714E+01
  0
LINE
  8
0
 62
6
 10
-2.30060184E+02
 20
-8.47756729E+01
 11
-2.20060184E+02
 21
-8.47756729E+01
  0
LINE
  8
0
  6
CENTER
 62
6
 10
-2.27960182E+02
 20
-8.63675995E+01
 11
-2.27960182E+02
 21
-9.19123764E+01
  0
LINE
  8
0
  6
CENTER
 62
6
 10
-2.22160183E+02
 20
-8.63675995E+01
 11
-2.22160183E+02
 21
-9.19123764E+01
  0
LINE
  8
0
 62
6
 10
-2.27960182E+02
 20
-9.10756760E+01
 11
-2.22160183E+02
 21
-9.10756760E+01
  0
LINE
  8
0
 62
6
 10
-2.27960182E+02
 20
-8.70756760E+01
 11
-2.22160183E+02
 21
-8.70756760E+01
  0
LINE
  8
0
  6
CENTER
 62
6
 10
-2.30524597E+02
 20
-8.90756760E+01
 11
-2.19648300E+02
 21
-8.90756760E+01
  0
LINE
  8
0
 62
7
 10
-2.30555183E+02
 20
-1.44875675E+02
 11
-2.30555183E+02
 21
-1.44375675E+02
  0
LINE
  8
0
 62
7
 10
-2.27260185E+02
 20
-1.45375675E+02
 11
-2.27260185E+02
 21
-1.44575676E+02
  0
LINE
  8
0
 62
7
 10
-2.27555183E+02
 20
-1.44375675E+02
 11
-2.27555183E+02
 21
-1.44875675E+02
  0
LINE
  8
0
  6
CENTER
 62
2
 10
-2.29060184E+02
 20
-1.46240658E+02
 11
-2.29060184E+02
 21
-1.43534286E+02
  0
LINE
  8
0
 62
7
 10
-2.27460182E+02
 20
-1.44375675E+02
 11
-2.30860184E+02
 21
-1.44375675E+02
  0
LINE
  8
0
  6
CENTER
 62
2
 10
-2.17660183E+02
 20
-6.95106888E+01
 11
-2.17660183E+02
 21
-7.22170639E+01
  0
LINE
  8
0
  6
CENTER
 62
2
 10
-2.30055248E+02
 20
-1.82672935E+02
 11
-2.16793648E+02
 21
-1.82672935E+02
  0
LINE
  8
0
 62
7
 10
-2.16165184E+02
 20
-7.13756714E+01
 11
-2.16165184E+02
 21
-7.08756714E+01
  0
LINE
  8
0
 62
7
 10
-2.19165184E+02
 20
-7.13756714E+01
 11
-2.19165184E+02
 21
-7.08756714E+01
  0
LINE
  8
0
 62
7
 10
-2.19460182E+02
 20
-7.03756714E+01
 11
-2.19460182E+02
 21
-7.11756744E+01
  0
LINE
  8
0
 62
7
 10
-2.19260185E+02
 20
-7.13756714E+01
 11
-2.15860184E+02
 21
-7.13756714E+01
  0
LINE
  8
0
 62
7
 10
-2.16660183E+02
 20
-1.17575676E+02
 11
-2.15860184E+02
 21
-1.17575676E+02
  0
LINE
  8
0
 62
7
 10
-2.18360184E+02
 20
-1.12175674E+02
 11
-2.15860184E+02
 21
-1.12175674E+02
  0
LINE
  8
0
 62
7
 10
-2.28360184E+02
 20
-1.03075676E+02
 11
-2.30860184E+02
 21
-1.03075676E+02
  0
LINE
  8
0
 62
7
 10
-2.30060184E+02
 20
-9.76756744E+01
 11
-2.30860184E+02
 21
-9.76756744E+01
  0
LINE
  8
0
 62
7
 10
-2.15610184E+02
 20
-1.88382651E+02
 11
-2.31110184E+02
 21
-1.88382651E+02
  0
LINE
  8
0
  6
PHANTOM
 62
2
 10
-2.21560184E+02
 20
-1.69585390E+02
 11
-2.21560184E+02
 21
-1.62985390E+02
  0
LINE
  8
0
  6
PHANTOM
 62
2
 10
-2.21060184E+02
 20
-1.62485390E+02
 11
-2.16460182E+02
 21
-1.62485390E+02
  0
LINE
  8
0
  6
PHANTOM
 62
2
 10
-2.15960182E+02
 20
-1.69585390E+02
 11
-2.15960182E+02
 21
-1.62985390E+02
  0
LINE
  8
0
  6
PHANTOM
 62
2
 10
-2.21060184E+02
 20
-1.70085390E+02
 11
-2.16460182E+02
 21
-1.70085390E+02
  0
LINE
  8
0
  6
CENTER
 62
2
 10
-2.30276024E+02
 20
-1.63685390E+02
 11
-2.25343193E+02
 21
-1.63685390E+02
  0
LINE
  8
0
  6
CENTER
 62
2
 10
-2.27860184E+02
 20
-1.66133551E+02
 11
-2.27860184E+02
 21
-1.61200718E+02
  0
LINE
  8
0
  6
CENTER
 62
2
 10
-2.27860184E+02
 20
-1.58066921E+02
 11
-2.27860184E+02
 21
-1.53366222E+02
  0
LINE
  8
0
  6
CENTER
 62
2
 10
-2.30159958E+02
 20
-1.55685390E+02
 11
-2.25691391E+02
 21
-1.55685390E+02
  0
LINE
  8
0
  6
PHANTOM
 62
2
 10
-2.17610184E+02
 20
-1.52685390E+02
 11
-2.16360184E+02
 21
-1.52685390E+02
  0
LINE
  8
0
  6
PHANTOM
 62
2
 10
-2.30360184E+02
 20
-1.52685390E+02
 11
-2.29110184E+02
 21
-1.52685390E+02
  0
LINE
  8
0
  6
PHANTOM
 62
2
 10
-2.29110184E+02
 20
-1.53385391E+02
 11
-2.17610184E+02
 21
-1.53385391E+02
  0
LINE
  8
0
  6
PHANTOM
 62
2
 10
-2.28610184E+02
 20
-1.50385391E+02
 11
-2.18110184E+02
 21
-1.50385391E+02
  0
LINE
  8
0
 62
7
 10
-2.17610184E+02
 20
-1.45385391E+02
 11
-2.16360184E+02
 21
-1.45385391E+02
  0
LINE
  8
0
  6
PHANTOM
 62
2
 10
-2.28610184E+02
 20
-1.44385391E+02
 11
-2.18110184E+02
 21
-1.44385391E+02
  0
LINE
  8
0
  6
PHANTOM
 62
2
 10
-2.17610184E+02
 20
-1.44825096E+02
 11
-2.17610184E+02
 21
-1.53385391E+02
  0
LINE
  8
0
  6
PHANTOM
 62
2
 10
-2.29110184E+02
 20
-1.53385391E+02
 11
-2.29110184E+02
 21
-1.44885391E+02
  0
LINE
  8
0
 62
7
 10
-2.30360184E+02
 20
-1.45385391E+02
 11
-2.29110184E+02
 21
-1.45385391E+02
  0
LINE
  8
0
  6
PHANTOM
 62
2
 10
-2.30360184E+02
 20
-1.70185390E+02
 11
-2.16360184E+02
 21
-1.70185390E+02
  0
LINE
  8
0
 62
7
 10
-2.15860184E+02
 20
-1.87882651E+02
 11
-2.15860184E+02
 21
-1.70882650E+02
  0
LINE
  8
0
 62
7
 10
-2.30860184E+02
 20
-1.87882651E+02
 11
-2.30860184E+02
 21
-1.70882650E+02
  0
LINE
  8
0
  6
PHANTOM
 62
2
 10
-2.15860184E+02
 20
-1.69685390E+02
 11
-2.15860184E+02
 21
-1.45885391E+02
  0
LINE
  8
0
  6
PHANTOM
 62
2
 10
-2.30860184E+02
 20
-1.69685390E+02
 11
-2.30860184E+02
 21
-1.45885391E+02
  0
LINE
  8
0
 62
7
 10
-2.16360184E+02
 20
-1.70382650E+02
 11
-2.30360184E+02
 21
-1.70382650E+02
  0
LINE
  8
0
  6
CENTER
 62
2
 10
-2.23360184E+02
 20
-1.91665973E+02
 11
-2.23360184E+02
 21
-6.58907013E+01
  0
LINE
  8
0
 62
6
 10
-2.20360184E+02
 20
-1.02375671E+02
 11
-2.29760185E+02
 21
-1.02375671E+02
  0
LINE
  8
0
 62
6
 10
-2.23560184E+02
 20
-9.73756714E+01
 11
-2.23560184E+02
 21
-1.02375671E+02
  0
LINE
  8
0
 62
6
 10
-2.26560184E+02
 20
-9.73756714E+01
 11
-2.23560184E+02
 21
-9.73756714E+01
  0
LINE
  8
0
 62
6
 10
-2.26560184E+02
 20
-9.73756714E+01
 11
-2.26560184E+02
 21
-1.02375671E+02
  0
LINE
  8
0
 62
6
 10
-2.27454553E+02
 20
-7.63348584E+01
 11
-2.27710182E+02
 21
-7.67756758E+01
  0
LINE
  8
0
 62
6
 10
-2.22410187E+02
 20
-7.67756738E+01
 11
-2.22665817E+02
 21
-7.63348563E+01
  0
LINE
  8
0
 62
6
 10
-2.26204550E+02
 20
-7.75848586E+01
 11
-2.26460180E+02
 21
-7.80256761E+01
  0
LINE
  8
0
 62
6
 10
-2.27710183E+02
 20
-7.67756745E+01
 11
-2.26460182E+02
 21
-7.80256758E+01
  0
LINE
  8
0
 62
6
 10
-2.26204555E+02
 20
-7.75848562E+01
 11
-2.27454551E+02
 21
-7.63348603E+01
  0
LINE
  8
0
 62
6
 10
-2.23915814E+02
 20
-7.75848622E+01
 11
-2.23660184E+02
 21
-7.80256797E+01
  0
LINE
  8
0
 62
6
 10
-2.20060184E+02
 20
-8.34664917E+01
 11
-2.30060184E+02
 21
-8.34664917E+01
  0
LINE
  8
0
 62
6
 10
-2.23915815E+02
 20
-7.75848589E+01
 11
-2.22665814E+02
 21
-7.63348576E+01
  0
LINE
  8
0
 62
6
 10
-2.20060184E+02
 20
-7.63348541E+01
 11
-2.22665813E+02
 21
-7.63348541E+01
  0
LINE
  8
0
 62
6
 10
-2.27454556E+02
 20
-7.63348541E+01
 11
-2.30060184E+02
 21
-7.63348541E+01
  0
LINE
  8
0
 62
6
 10
-2.26204556E+02
 20
-7.75848541E+01
 11
-2.23915813E+02
 21
-7.75848541E+01
  0
LINE
  8
0
 62
6
 10
-2.20060184E+02
 20
-7.67756729E+01
 11
-2.22410183E+02
 21
-7.67756729E+01
  0
LINE
  8
0
 62
6
 10
-2.22410184E+02
 20
-7.67756745E+01
 11
-2.23660185E+02
 21
-7.80256758E+01
  0
LINE
  8
0
 62
6
 10
-2.26460182E+02
 20
-7.80256729E+01
 11
-2.23660183E+02
 21
-7.80256729E+01
  0
LINE
  8
0
 62
6
 10
-2.27710182E+02
 20
-7.67756729E+01
 11
-2.30060184E+02
 21
-7.67756729E+01
  0
LINE
  8
0
 62
6
 10
-2.30060184E+02
 20
-8.42775955E+01
 11
-2.20060184E+02
 21
-8.42775955E+01
  0
LINE
  8
0
 62
6
 10
-2.21560184E+02
 20
-8.04756775E+01
 11
-2.20060184E+02
 21
-8.04756775E+01
  0
LINE
  8
0
 62
6
 10
-2.20060184E+02
 20
-7.72756729E+01
 11
-2.21560184E+02
 21
-7.72756729E+01
  0
LINE
  8
0
 62
6
 10
-2.28560184E+02
 20
-7.72756729E+01
 11
-2.30060184E+02
 21
-7.72756729E+01
  0
LINE
  8
0
 62
6
 10
-2.30060184E+02
 20
-8.04756775E+01
 11
-2.28560184E+02
 21
-8.04756775E+01
  0
LINE
  8
0
 62
6
 10
-2.30060184E+02
 20
-1.02075676E+02
 11
-2.30060184E+02
 21
-7.03756714E+01
  0
LINE
  8
0
 62
6
 10
-2.20060184E+02
 20
-1.02075676E+02
 11
-2.20060184E+02
 21
-7.03756714E+01
  0
LINE
  8
0
 62
6
 10
-2.23234669E+02
 20
-8.03256760E+01
 11
-2.26885696E+02
 21
-8.03256760E+01
  0
LINE
  8
0
 62
6
 10
-2.25060184E+02
 20
-8.09256744E+01
 11
-2.26885696E+02
 21
-8.09256744E+01
  0
LINE
  8
0
 62
6
 10
-2.23234669E+02
 20
-8.09256744E+01
 11
-2.25060184E+02
 21
-8.09256744E+01
  0
LINE
  8
0
 62
6
 10
-2.29267289E+02
 20
-7.81685732E+01
 11
-2.27853075E+02
 21
-7.95827867E+01
  0
LINE
  8
0
 62
6
 10
-2.29267289E+02
 20
-7.95827867E+01
 11
-2.27853075E+02
 21
-7.81685732E+01
  0
LINE
  8
0
 62
6
 10
-2.20853076E+02
 20
-7.95827840E+01
 11
-2.22267289E+02
 21
-7.81685705E+01
  0
LINE
  8
0
 62
6
 10
-2.20853076E+02
 20
-7.81685705E+01
 11
-2.22267289E+02
 21
-7.95827840E+01
  0
LINE
  8
0
 62
7
 10
-2.15610184E+02
 20
-7.03756714E+01
 11
-2.31110184E+02
 21
-7.03756714E+01
  0
LINE
  8
0
 62
6
 10
-2.16960182E+02
 20
-1.13375671E+02
 11
-2.26360184E+02
 21
-1.13375671E+02
  0
LINE
  8
0
 62
6
 10
-2.20160183E+02
 20
-1.18375671E+02
 11
-2.20160183E+02
 21
-1.13375671E+02
  0
LINE
  8
0
 62
6
 10
-2.23160183E+02
 20
-1.18375671E+02
 11
-2.20160183E+02
 21
-1.18375671E+02
  0
LINE
  8
0
 62
6
 10
-2.23160183E+02
 20
-1.18375671E+02
 11
-2.23160183E+02
 21
-1.13375671E+02
  0
LINE
  8
0
 62
6
 10
-2.24054554E+02
 20
-1.39416496E+02
 11
-2.24310183E+02
 21
-1.38975678E+02
  0
LINE
  8
0
 62
6
 10
-2.19010181E+02
 20
-1.38975673E+02
 11
-2.19265811E+02
 21
-1.39416493E+02
  0
LINE
  8
0
 62
6
 10
-2.22804557E+02
 20
-1.38166490E+02
 11
-2.23060187E+02
 21
-1.37725673E+02
  0
LINE
  8
0
 62
6
 10
-2.24310182E+02
 20
-1.38975676E+02
 11
-2.23060182E+02
 21
-1.37725676E+02
  0
LINE
  8
0
 62
6
 10
-2.22804553E+02
 20
-1.38166494E+02
 11
-2.24054553E+02
 21
-1.39416494E+02
  0
LINE
  8
0
 62
6
 10
-2.20515813E+02
 20
-1.38166491E+02
 11
-2.20260183E+02
 21
-1.37725673E+02
  0
LINE
  8
0
 62
6
 10
-2.16660183E+02
 20
-1.32284859E+02
 11
-2.26660183E+02
 21
-1.32284859E+02
  0
LINE
  8
0
 62
6
 10
-2.20515811E+02
 20
-1.38166494E+02
 11
-2.19265810E+02
 21
-1.39416496E+02
  0
LINE
  8
0
 62
6
 10
-2.16660183E+02
 20
-1.39416492E+02
 11
-2.19265812E+02
 21
-1.39416492E+02
  0
LINE
  8
0
 62
6
 10
-2.24054554E+02
 20
-1.39416492E+02
 11
-2.26660183E+02
 21
-1.39416492E+02
  0
LINE
  8
0
 62
6
 10
-2.22804554E+02
 20
-1.38166492E+02
 11
-2.20515812E+02
 21
-1.38166492E+02
  0
LINE
  8
0
 62
6
 10
-2.16660183E+02
 20
-1.38975674E+02
 11
-2.19010185E+02
 21
-1.38975674E+02
  0
LINE
  8
0
 62
6
 10
-2.19010182E+02
 20
-1.38975676E+02
 11
-2.20260184E+02
 21
-1.37725674E+02
  0
LINE
  8
0
 62
6
 10
-2.23060184E+02
 20
-1.37725674E+02
 11
-2.20260185E+02
 21
-1.37725674E+02
  0
LINE
  8
0
 62
6
 10
-2.24310184E+02
 20
-1.38975674E+02
 11
-2.26660183E+02
 21
-1.38975674E+02
  0
LINE
  8
0
 62
6
 10
-2.18160183E+02
 20
-1.35275673E+02
 11
-2.16660183E+02
 21
-1.35275673E+02
  0
LINE
  8
0
 62
6
 10
-2.16660183E+02
 20
-1.38475674E+02
 11
-2.18160183E+02
 21
-1.38475674E+02
  0
LINE
  8
0
 62
6
 10
-2.25160183E+02
 20
-1.38475674E+02
 11
-2.26660183E+02
 21
-1.38475674E+02
  0
LINE
  8
0
 62
6
 10
-2.26660183E+02
 20
-1.35275673E+02
 11
-2.25160183E+02
 21
-1.35275673E+02
  0
LINE
  8
0
 62
6
 10
-2.26660183E+02
 20
-1.13675674E+02
 11
-2.26660183E+02
 21
-1.45375675E+02
  0
LINE
  8
0
 62
6
 10
-2.19834671E+02
 20
-1.35425674E+02
 11
-2.23485699E+02
 21
-1.35425674E+02
  0
LINE
  8
0
 62
6
 10
-2.23485699E+02
 20
-1.34825676E+02
 11
-2.19834671E+02
 21
-1.34825676E+02
  0
LINE
  8
0
 62
6
 10
-2.25867291E+02
 20
-1.37582781E+02
 11
-2.24453078E+02
 21
-1.36168567E+02
  0
LINE
  8
0
 62
6
 10
-2.25867291E+02
 20
-1.36168567E+02
 11
-2.24453078E+02
 21
-1.37582781E+02
  0
LINE
  8
0
 62
6
 10
-2.17453074E+02
 20
-1.36168571E+02
 11
-2.18867288E+02
 21
-1.37582785E+02
  0
LINE
  8
0
 62
6
 10
-2.17453074E+02
 20
-1.37582785E+02
 11
-2.18867288E+02
 21
-1.36168571E+02
  0
LINE
  8
0
 62
7
 10
-2.31110184E+02
 20
-1.45375675E+02
 11
-2.15610184E+02
 21
-1.45375675E+02
  0
LINE
  8
0
 62
7
 10
-2.30860184E+02
 20
-8.38756714E+01
 11
-2.30060184E+02
 21
-8.38756714E+01
  0
LINE
  8
0
 62
6
 10
-2.30860184E+02
 20
-1.31875671E+02
 11
-2.26660183E+02
 21
-1.31875671E+02
  0
LINE
  8
0
 62
7
 10
-2.20060184E+02
 20
-8.38756714E+01
 11
-2.15860184E+02
 21
-8.38756714E+01
  0
LINE
  8
0
 62
7
 10
-2.16660183E+02
 20
-1.31875671E+02
 11
-2.15860184E+02
 21
-1.31875671E+02
  0
LINE
  8
0
 62
7
 10
-2.15610184E+02
 20
-1.88382651E+02
 11
-2.15610184E+02
 21
-7.03756714E+01
  0
LINE
  8
0
 62
7
 10
-2.31110184E+02
 20
-1.88382651E+02
 11
-2.31110184E+02
 21
-7.03756714E+01
  0
LINE
  8
0
 62
7
 10
-2.23310184E+02
 20
-5.86706696E+01
 11
-2.27310184E+02
 21
-5.86706696E+01
  0
LINE
  8
0
 62
7
 10
-2.27310184E+02
 20
-6.36706696E+01
 11
-2.23310184E+02
 21
-6.36706696E+01
  0
LINE
  8
0
 62
7
 10
-2.22310184E+02
 20
-6.63756714E+01
 11
-2.28310184E+02
 21
-6.63756714E+01
  0
LINE
  8
0
 62
7
 10
-2.21810184E+02
 20
-6.88756714E+01
 11
-2.21810184E+02
 21
-6.68756714E+01
  0
LINE
  8
0
 62
7
 10
-2.24060184E+02
 20
-6.36706696E+01
 11
-2.24060184E+02
 21
-6.63756714E+01
  0
LINE
  8
0
 62
7
 10
-2.21810183E+02
 20
-6.68756807E+01
 11
-2.22310184E+02
 21
-6.63756802E+01
  0
LINE
  8
0
 62
7
 10
-2.22810184E+02
 20
-6.31706747E+01
 11
-2.23310185E+02
 21
-6.36706753E+01
  0
LINE
  8
0
 62
7
 10
-2.22810179E+02
 20
-5.91706759E+01
 11
-2.23310179E+02
 21
-5.86706753E+01
  0
LINE
  8
0
 62
7
 10
-2.22810184E+02
 20
-5.91706696E+01
 11
-2.22810184E+02
 21
-6.31706696E+01
  0
LINE
  8
0
 62
7
 10
-2.28810182E+02
 20
-6.88756747E+01
 11
-2.28310182E+02
 21
-6.93756753E+01
  0
LINE
  8
0
 62
7
 10
-2.28810185E+02
 20
-6.68756753E+01
 11
-2.28310184E+02
 21
-6.63756748E+01
  0
LINE
  8
0
 62
7
 10
-2.27810179E+02
 20
-5.91706813E+01
 11
-2.27310178E+02
 21
-5.86706807E+01
  0
LINE
  8
0
 62
7
 10
-2.27310181E+02
 20
-6.36706780E+01
 11
-2.27810181E+02
 21
-6.31706774E+01
  0
LINE
  8
0
 62
7
 10
-2.27810184E+02
 20
-5.91706696E+01
 11
-2.27810184E+02
 21
-6.31706696E+01
  0
LINE
  8
0
 62
7
 10
-2.28810184E+02
 20
-6.88756714E+01
 11
-2.28810184E+02
 21
-6.68756714E+01
  0
LINE
  8
0
 62
7
 10
-2.26560184E+02
 20
-6.36706696E+01
 11
-2.26560184E+02
 21
-6.63756714E+01
  0
LINE
  8
0
 62
7
 10
-2.21810186E+02
 20
-6.88756747E+01
 11
-2.22310186E+02
 21
-6.93756753E+01
  0
LINE
  8
0
 62
7
 10
-2.29010185E+02
 20
-6.93756714E+01
 11
-2.21610184E+02
 21
-6.93756714E+01
  0
LINE
  8
0
 62
7
 10
-2.21310184E+02
 20
-7.03756714E+01
 11
-2.21310184E+02
 21
-6.96756744E+01
  0
LINE
  8
0
 62
7
 10
-2.29310184E+02
 20
-7.03756714E+01
 11
-2.29310184E+02
 21
-6.96756744E+01
  0
LINE
  8
0
 62
7
 10
-2.29310180E+02
 20
-6.96756772E+01
 11
-2.29010181E+02
 21
-6.93756780E+01
  0
LINE
  8
0
 62
7
 10
-2.21610182E+02
 20
-6.93756780E+01
 11
-2.21310182E+02
 21
-6.96756772E+01
  0
LINE
  8
0
 62
7
 10
-2.29310184E+02
 20
-6.96756744E+01
 11
-2.21310184E+02
 21
-6.96756744E+01
  0
LINE
  8
0
  6
CENTER
 62
2
 10
-2.25310184E+02
 20
-5.48893890E+01
 11
-2.25310184E+02
 21
-7.18532257E+01
  0
LINE
  8
0
  6
CENTER
 62
6
 10
-2.31060184E+02
 20
-7.88756714E+01
 11
-2.26060184E+02
 21
-7.88756714E+01
  0
LINE
  8
0
  6
CENTER
 62
6
 10
-2.24060184E+02
 20
-7.88756714E+01
 11
-2.19060184E+02
 21
-7.88756714E+01
  0
LINE
  8
0
  6
CENTER
 62
6
 10
-2.21560184E+02
 20
-8.13756714E+01
 11
-2.21560184E+02
 21
-7.63756714E+01
  0
LINE
  8
0
  6
CENTER
 62
6
 10
-2.28560184E+02
 20
-8.13756714E+01
 11
-2.28560184E+02
 21
-7.63756714E+01
  0
LINE
  8
0
  6
CENTER
 62
6
 10
-2.18160183E+02
 20
-1.39375675E+02
 11
-2.18160183E+02
 21
-1.34375675E+02
  0
LINE
  8
0
  6
CENTER
 62
6
 10
-2.25160183E+02
 20
-1.39375675E+02
 11
-2.25160183E+02
 21
-1.34375675E+02
  0
LINE
  8
0
  6
CENTER
 62
6
 10
-2.27660183E+02
 20
-1.36875675E+02
 11
-2.22660183E+02
 21
-1.36875675E+02
  0
LINE
  8
0
 62
6
 10
-2.30860184E+02
 20
-1.45872936E+02
 11
-2.15860184E+02
 21
-1.45872936E+02
  0
LINE
  8
0
 62
6
 10
-2.30860184E+02
 20
-1.69872934E+02
 11
-2.15860184E+02
 21
-1.69872934E+02
  0
LINE
  8
0
 62
6
 10
-2.30860184E+02
 20
-1.69872934E+02
 11
-2.30860184E+02
 21
-1.45872936E+02
  0
LINE
  8
0
 62
6
 10
-2.15860184E+02
 20
-1.69872934E+02
 11
-2.15860184E+02
 21
-1.45872936E+02
  0
LINE
  8
0
 62
6
 10
-2.42660183E+02
 20
-1.31473755E+02
 11
-2.32660183E+02
 21
-1.31473755E+02
  0
LINE
  8
0
 62
6
 10
-2.32660183E+02
 20
-1.30975677E+02
 11
-2.42660183E+02
 21
-1.30975677E+02
  0
LINE
  8
0
 62
6
 10
-2.32660183E+02
 20
-1.30875671E+02
 11
-2.42660183E+02
 21
-1.30875671E+02
  0
LINE
  8
0
 62
7
 10
-2.46860184E+02
 20
-1.45375675E+02
 11
-2.46860184E+02
 21
-7.03756714E+01
  0
LINE
  8
0
 62
7
 10
-2.31860184E+02
 20
-1.45375675E+02
 11
-2.31860184E+02
 21
-7.03756714E+01
  0
LINE
  8
0
 62
6
 10
-2.32660183E+02
 20
-1.13675674E+02
 11
-2.32660183E+02
 21
-1.45385391E+02
  0
LINE
  8
0
  6
CENTER
 62
6
 10
-2.34760185E+02
 20
-1.29383751E+02
 11
-2.34760185E+02
 21
-1.23838974E+02
  0
LINE
  8
0
  6
CENTER
 62
6
 10
-2.40560184E+02
 20
-1.29383751E+02
 11
-2.40560184E+02
 21
-1.23838974E+02
  0
LINE
  8
0
 62
6
 10
-2.34760185E+02
 20
-1.24675674E+02
 11
-2.40560184E+02
 21
-1.24675674E+02
  0
LINE
  8
0
 62
6
 10
-2.34760185E+02
 20
-1.28675674E+02
 11
-2.40560184E+02
 21
-1.28675674E+02
  0
LINE
  8
0
  6
CENTER
 62
6
 10
-2.32195770E+02
 20
-1.26675674E+02
 11
-2.43072067E+02
 21
-1.26675674E+02
  0
LINE
  8
0
 62
6
 10
-2.46060184E+02
 20
-8.48756714E+01
 11
-2.36060184E+02
 21
-8.48756714E+01
  0
LINE
  8
0
 62
6
 10
-2.46060184E+02
 20
-8.47756729E+01
 11
-2.36060184E+02
 21
-8.47756729E+01
  0
LINE
  8
0
  6
CENTER
 62
6
 10
-2.43960182E+02
 20
-8.63675995E+01
 11
-2.43960182E+02
 21
-9.19123764E+01
  0
LINE
  8
0
  6
CENTER
 62
6
 10
-2.38160183E+02
 20
-8.63675995E+01
 11
-2.38160183E+02
 21
-9.19123764E+01
  0
LINE
  8
0
 62
6
 10
-2.43960182E+02
 20
-9.10756760E+01
 11
-2.38160183E+02
 21
-9.10756760E+01
  0
LINE
  8
0
 62
6
 10
-2.43960182E+02
 20
-8.70756760E+01
 11
-2.38160183E+02
 21
-8.70756760E+01
  0
LINE
  8
0
  6
CENTER
 62
6
 10
-2.46524597E+02
 20
-8.90756760E+01
 11
-2.35648300E+02
 21
-8.90756760E+01
  0
LINE
  8
0
 62
7
 10
-2.46555183E+02
 20
-1.44875675E+02
 11
-2.46555183E+02
 21
-1.44375675E+02
  0
LINE
  8
0
 62
7
 10
-2.43260185E+02
 20
-1.45375675E+02
 11
-2.43260185E+02
 21
-1.44575676E+02
  0
LINE
  8
0
 62
7
 10
-2.43555183E+02
 20
-1.44375675E+02
 11
-2.43555183E+02
 21
-1.44875675E+02
  0
LINE
  8
0
  6
CENTER
 62
2
 10
-2.45060184E+02
 20
-1.46240658E+02
 11
-2.45060184E+02
 21
-1.43534286E+02
  0
LINE
  8
0
 62
7
 10
-2.43460182E+02
 20
-1.44375675E+02
 11
-2.46860184E+02
 21
-1.44375675E+02
  0
LINE
  8
0
  6
CENTER
 62
2
 10
-2.33660183E+02
 20
-6.95106888E+01
 11
-2.33660183E+02
 21
-7.22170639E+01
  0
LINE
  8
0
  6
CENTER
 62
2
 10
-2.46055248E+02
 20
-1.82672935E+02
 11
-2.32793648E+02
 21
-1.82672935E+02
  0
LINE
  8
0
 62
7
 10
-2.32165184E+02
 20
-7.13756714E+01
 11
-2.32165184E+02
 21
-7.08756714E+01
  0
LINE
  8
0
 62
7
 10
-2.35165184E+02
 20
-7.13756714E+01
 11
-2.35165184E+02
 21
-7.08756714E+01
  0
LINE
  8
0
 62
7
 10
-2.35460182E+02
 20
-7.03756714E+01
 11
-2.35460182E+02
 21
-7.11756744E+01
  0
LINE
  8
0
 62
7
 10
-2.35260185E+02
 20
-7.13756714E+01
 11
-2.31860184E+02
 21
-7.13756714E+01
  0
LINE
  8
0
 62
7
 10
-2.32660183E+02
 20
-1.17575676E+02
 11
-2.31860184E+02
 21
-1.17575676E+02
  0
LINE
  8
0
 62
7
 10
-2.34360184E+02
 20
-1.12175674E+02
 11
-2.31860184E+02
 21
-1.12175674E+02
  0
LINE
  8
0
 62
7
 10
-2.44360184E+02
 20
-1.03075676E+02
 11
-2.46860184E+02
 21
-1.03075676E+02
  0
LINE
  8
0
 62
7
 10
-2.46060184E+02
 20
-9.76756744E+01
 11
-2.46860184E+02
 21
-9.76756744E+01
  0
LINE
  8
0
 62
7
 10
-2.31610184E+02
 20
-1.88382651E+02
 11
-2.47110184E+02
 21
-1.88382651E+02
  0
LINE
  8
0
  6
PHANTOM
 62
2
 10
-2.37560184E+02
 20
-1.69585390E+02
 11
-2.37560184E+02
 21
-1.62985390E+02
  0
LINE
  8
0
  6
PHANTOM
 62
2
 10
-2.37060184E+02
 20
-1.62485390E+02
 11
-2.32460182E+02
 21
-1.62485390E+02
  0
LINE
  8
0
  6
PHANTOM
 62
2
 10
-2.31960182E+02
 20
-1.69585390E+02
 11
-2.31960182E+02
 21
-1.62985390E+02
  0
LINE
  8
0
  6
PHANTOM
 62
2
 10
-2.37060184E+02
 20
-1.70085390E+02
 11
-2.32460182E+02
 21
-1.70085390E+02
  0
LINE
  8
0
  6
CENTER
 62
2
 10
-2.46276024E+02
 20
-1.63685390E+02
 11
-2.41343193E+02
 21
-1.63685390E+02
  0
LINE
  8
0
  6
CENTER
 62
2
 10
-2.43860184E+02
 20
-1.66133551E+02
 11
-2.43860184E+02
 21
-1.61200718E+02
  0
LINE
  8
0
  6
CENTER
 62
2
 10
-2.43860184E+02
 20
-1.58066921E+02
 11
-2.43860184E+02
 21
-1.53366222E+02
  0
LINE
  8
0
  6
CENTER
 62
2
 10
-2.46159958E+02
 20
-1.55685390E+02
 11
-2.41691391E+02
 21
-1.55685390E+02
  0
LINE
  8
0
  6
PHANTOM
 62
2
 10
-2.33610184E+02
 20
-1.52685390E+02
 11
-2.32360184E+02
 21
-1.52685390E+02
  0
LINE
  8
0
  6
PHANTOM
 62
2
 10
-2.46360184E+02
 20
-1.52685390E+02
 11
-2.45110184E+02
 21
-1.52685390E+02
  0
LINE
  8
0
  6
PHANTOM
 62
2
 10
-2.45110184E+02
 20
-1.53385391E+02
 11
-2.33610184E+02
 21
-1.53385391E+02
  0
LINE
  8
0
  6
PHANTOM
 62
2
 10
-2.44610184E+02
 20
-1.50385391E+02
 11
-2.34110184E+02
 21
-1.50385391E+02
  0
LINE
  8
0
 62
7
 10
-2.33610184E+02
 20
-1.45385391E+02
 11
-2.32360184E+02
 21
-1.45385391E+02
  0
LINE
  8
0
  6
PHANTOM
 62
2
 10
-2.44610184E+02
 20
-1.44385391E+02
 11
-2.34110184E+02
 21
-1.44385391E+02
  0
LINE
  8
0
  6
PHANTOM
 62
2
 10
-2.33610184E+02
 20
-1.44825096E+02
 11
-2.33610184E+02
 21
-1.53385391E+02
  0
LINE
  8
0
  6
PHANTOM
 62
2
 10
-2.45110184E+02
 20
-1.53385391E+02
 11
-2.45110184E+02
 21
-1.44885391E+02
  0
LINE
  8
0
 62
7
 10
-2.46360184E+02
 20
-1.45385391E+02
 11
-2.45110184E+02
 21
-1.45385391E+02
  0
LINE
  8
0
  6
PHANTOM
 62
2
 10
-2.46360184E+02
 20
-1.70185390E+02
 11
-2.32360184E+02
 21
-1.70185390E+02
  0
LINE
  8
0
 62
7
 10
-2.31860184E+02
 20
-1.87882651E+02
 11
-2.31860184E+02
 21
-1.70882650E+02
  0
LINE
  8
0
 62
7
 10
-2.46860184E+02
 20
-1.87882651E+02
 11
-2.46860184E+02
 21
-1.70882650E+02
  0
LINE
  8
0
  6
PHANTOM
 62
2
 10
-2.31860184E+02
 20
-1.69685390E+02
 11
-2.31860184E+02
 21
-1.45885391E+02
  0
LINE
  8
0
  6
PHANTOM
 62
2
 10
-2.46860184E+02
 20
-1.69685390E+02
 11
-2.46860184E+02
 21
-1.45885391E+02
  0
LINE
  8
0
 62
7
 10
-2.32360184E+02
 20
-1.70382650E+02
 11
-2.46360184E+02
 21
-1.70382650E+02
  0
LINE
  8
0
  6
CENTER
 62
2
 10
-2.39360184E+02
 20
-1.91665973E+02
 11
-2.39360184E+02
 21
-6.58907013E+01
  0
LINE
  8
0
 62
6
 10
-2.36360184E+02
 20
-1.02375671E+02
 11
-2.45760185E+02
 21
-1.02375671E+02
  0
LINE
  8
0
 62
6
 10
-2.39560184E+02
 20
-9.73756714E+01
 11
-2.39560184E+02
 21
-1.02375671E+02
  0
LINE
  8
0
 62
6
 10
-2.42560184E+02
 20
-9.73756714E+01
 11
-2.39560184E+02
 21
-9.73756714E+01
  0
LINE
  8
0
 62
6
 10
-2.42560184E+02
 20
-9.73756714E+01
 11
-2.42560184E+02
 21
-1.02375671E+02
  0
LINE
  8
0
 62
6
 10
-2.43454550E+02
 20
-7.63348598E+01
 11
-2.43710179E+02
 21
-7.67756773E+01
  0
LINE
  8
0
 62
6
 10
-2.38410188E+02
 20
-7.67756743E+01
 11
-2.38665813E+02
 21
-7.63348634E+01
  0
LINE
  8
0
 62
6
 10
-2.42204554E+02
 20
-7.75848562E+01
 11
-2.42460184E+02
 21
-7.80256737E+01
  0
LINE
  8
0
 62
6
 10
-2.43710181E+02
 20
-7.67756772E+01
 11
-2.42460180E+02
 21
-7.80256785E+01
  0
LINE
  8
0
 62
6
 10
-2.42204553E+02
 20
-7.75848589E+01
 11
-2.43454554E+02
 21
-7.63348576E+01
  0
LINE
  8
0
 62
6
 10
-2.39915814E+02
 20
-7.75848627E+01
 11
-2.39660188E+02
 21
-7.80256735E+01
  0
LINE
  8
0
 62
6
 10
-2.36060184E+02
 20
-8.34664917E+01
 11
-2.46060184E+02
 21
-8.34664917E+01
  0
LINE
  8
0
 62
6
 10
-2.39915811E+02
 20
-7.75848589E+01
 11
-2.38665812E+02
 21
-7.63348603E+01
  0
LINE
  8
0
 62
6
 10
-2.36060184E+02
 20
-7.63348541E+01
 11
-2.38665813E+02
 21
-7.63348541E+01
  0
LINE
  8
0
 62
6
 10
-2.43454556E+02
 20
-7.63348541E+01
 11
-2.46060184E+02
 21
-7.63348541E+01
  0
LINE
  8
0
 62
6
 10
-2.42204556E+02
 20
-7.75848541E+01
 11
-2.39915813E+02
 21
-7.75848541E+01
  0
LINE
  8
0
 62
6
 10
-2.36060184E+02
 20
-7.67756729E+01
 11
-2.38410183E+02
 21
-7.67756729E+01
  0
LINE
  8
0
 62
6
 10
-2.38410182E+02
 20
-7.67756772E+01
 11
-2.39660181E+02
 21
-7.80256758E+01
  0
LINE
  8
0
 62
6
 10
-2.42460182E+02
 20
-7.80256729E+01
 11
-2.39660183E+02
 21
-7.80256729E+01
  0
LINE
  8
0
 62
6
 10
-2.43710182E+02
 20
-7.67756729E+01
 11
-2.46060184E+02
 21
-7.67756729E+01
  0
LINE
  8
0
 62
6
 10
-2.46060184E+02
 20
-8.42775955E+01
 11
-2.36060184E+02
 21
-8.42775955E+01
  0
LINE
  8
0
 62
6
 10
-2.37560184E+02
 20
-8.04756775E+01
 11
-2.36060184E+02
 21
-8.04756775E+01
  0
LINE
  8
0
 62
6
 10
-2.36060184E+02
 20
-7.72756729E+01
 11
-2.37560184E+02
 21
-7.72756729E+01
  0
LINE
  8
0
 62
6
 10
-2.44560184E+02
 20
-7.72756729E+01
 11
-2.46060184E+02
 21
-7.72756729E+01
  0
LINE
  8
0
 62
6
 10
-2.46060184E+02
 20
-8.04756775E+01
 11
-2.44560184E+02
 21
-8.04756775E+01
  0
LINE
  8
0
 62
6
 10
-2.46060184E+02
 20
-1.02075676E+02
 11
-2.46060184E+02
 21
-7.03756714E+01
  0
LINE
  8
0
 62
6
 10
-2.36060184E+02
 20
-1.02075676E+02
 11
-2.36060184E+02
 21
-7.03756714E+01
  0
LINE
  8
0
 62
6
 10
-2.39234669E+02
 20
-8.03256760E+01
 11
-2.42885696E+02
 21
-8.03256760E+01
  0
LINE
  8
0
 62
6
 10
-2.41060184E+02
 20
-8.09256744E+01
 11
-2.42885696E+02
 21
-8.09256744E+01
  0
LINE
  8
0
 62
6
 10
-2.39234669E+02
 20
-8.09256744E+01
 11
-2.41060184E+02
 21
-8.09256744E+01
  0
LINE
  8
0
 62
6
 10
-2.45267290E+02
 20
-7.81685678E+01
 11
-2.43853076E+02
 21
-7.95827813E+01
  0
LINE
  8
0
 62
6
 10
-2.45267290E+02
 20
-7.95827813E+01
 11
-2.43853076E+02
 21
-7.81685678E+01
  0
LINE
  8
0
 62
6
 10
-2.36853074E+02
 20
-7.95827867E+01
 11
-2.38267288E+02
 21
-7.81685732E+01
  0
LINE
  8
0
 62
6
 10
-2.36853074E+02
 20
-7.81685732E+01
 11
-2.38267288E+02
 21
-7.95827867E+01
  0
LINE
  8
0
 62
7
 10
-2.31610184E+02
 20
-7.03756714E+01
 11
-2.47110184E+02
 21
-7.03756714E+01
  0
LINE
  8
0
 62
6
 10
-2.32960182E+02
 20
-1.13375671E+02
 11
-2.42360184E+02
 21
-1.13375671E+02
  0
LINE
  8
0
 62
6
 10
-2.36160183E+02
 20
-1.18375671E+02
 11
-2.36160183E+02
 21
-1.13375671E+02
  0
LINE
  8
0
 62
6
 10
-2.39160183E+02
 20
-1.18375671E+02
 11
-2.36160183E+02
 21
-1.18375671E+02
  0
LINE
  8
0
 62
6
 10
-2.39160183E+02
 20
-1.18375671E+02
 11
-2.39160183E+02
 21
-1.13375671E+02
  0
LINE
  8
0
 62
6
 10
-2.40054554E+02
 20
-1.39416496E+02
 11
-2.40310184E+02
 21
-1.38975679E+02
  0
LINE
  8
0
 62
6
 10
-2.35010182E+02
 20
-1.38975675E+02
 11
-2.35265812E+02
 21
-1.39416492E+02
  0
LINE
  8
0
 62
6
 10
-2.38804553E+02
 20
-1.38166497E+02
 11
-2.39060183E+02
 21
-1.37725680E+02
  0
LINE
  8
0
 62
6
 10
-2.40310185E+02
 20
-1.38975673E+02
 11
-2.39060185E+02
 21
-1.37725673E+02
  0
LINE
  8
0
 62
6
 10
-2.38804550E+02
 20
-1.38166496E+02
 11
-2.40054550E+02
 21
-1.39416496E+02
  0
LINE
  8
0
 62
6
 10
-2.36515813E+02
 20
-1.38166490E+02
 11
-2.36260184E+02
 21
-1.37725673E+02
  0
LINE
  8
0
 62
6
 10
-2.32660183E+02
 20
-1.32284859E+02
 11
-2.42660183E+02
 21
-1.32284859E+02
  0
LINE
  8
0
 62
6
 10
-2.36515814E+02
 20
-1.38166491E+02
 11
-2.35265813E+02
 21
-1.39416492E+02
  0
LINE
  8
0
 62
6
 10
-2.32660183E+02
 20
-1.39416492E+02
 11
-2.35265812E+02
 21
-1.39416492E+02
  0
LINE
  8
0
 62
6
 10
-2.40054554E+02
 20
-1.39416492E+02
 11
-2.42660183E+02
 21
-1.39416492E+02
  0
LINE
  8
0
 62
6
 10
-2.38804554E+02
 20
-1.38166492E+02
 11
-2.36515812E+02
 21
-1.38166492E+02
  0
LINE
  8
0
 62
6
 10
-2.32660183E+02
 20
-1.38975674E+02
 11
-2.35010185E+02
 21
-1.38975674E+02
  0
LINE
  8
0
 62
6
 10
-2.35010180E+02
 20
-1.38975678E+02
 11
-2.36260182E+02
 21
-1.37725677E+02
  0
LINE
  8
0
 62
6
 10
-2.39060184E+02
 20
-1.37725674E+02
 11
-2.36260185E+02
 21
-1.37725674E+02
  0
LINE
  8
0
 62
6
 10
-2.40310184E+02
 20
-1.38975674E+02
 11
-2.42660183E+02
 21
-1.38975674E+02
  0
LINE
  8
0
 62
6
 10
-2.34160183E+02
 20
-1.35275673E+02
 11
-2.32660183E+02
 21
-1.35275673E+02
  0
LINE
  8
0
 62
6
 10
-2.32660183E+02
 20
-1.38475674E+02
 11
-2.34160183E+02
 21
-1.38475674E+02
  0
LINE
  8
0
 62
6
 10
-2.41160183E+02
 20
-1.38475674E+02
 11
-2.42660183E+02
 21
-1.38475674E+02
  0
LINE
  8
0
 62
6
 10
-2.42660183E+02
 20
-1.35275673E+02
 11
-2.41160183E+02
 21
-1.35275673E+02
  0
LINE
  8
0
 62
6
 10
-2.42660183E+02
 20
-1.13675674E+02
 11
-2.42660183E+02
 21
-1.45375675E+02
  0
LINE
  8
0
 62
6
 10
-2.35834671E+02
 20
-1.35425674E+02
 11
-2.39485699E+02
 21
-1.35425674E+02
  0
LINE
  8
0
 62
6
 10
-2.39485699E+02
 20
-1.34825676E+02
 11
-2.35834671E+02
 21
-1.34825676E+02
  0
LINE
  8
0
 62
6
 10
-2.41867289E+02
 20
-1.37582783E+02
 11
-2.40453075E+02
 21
-1.36168570E+02
  0
LINE
  8
0
 62
6
 10
-2.41867289E+02
 20
-1.36168570E+02
 11
-2.40453075E+02
 21
-1.37582783E+02
  0
LINE
  8
0
 62
6
 10
-2.33453077E+02
 20
-1.36168568E+02
 11
-2.34867291E+02
 21
-1.37582782E+02
  0
LINE
  8
0
 62
6
 10
-2.33453077E+02
 20
-1.37582782E+02
 11
-2.34867291E+02
 21
-1.36168568E+02
  0
LINE
  8
0
 62
7
 10
-2.47110184E+02
 20
-1.45375675E+02
 11
-2.31610184E+02
 21
-1.45375675E+02
  0
LINE
  8
0
 62
7
 10
-2.46860184E+02
 20
-8.38756714E+01
 11
-2.46060184E+02
 21
-8.38756714E+01
  0
LINE
  8
0
 62
6
 10
-2.46860184E+02
 20
-1.31875671E+02
 11
-2.42660183E+02
 21
-1.31875671E+02
  0
LINE
  8
0
 62
7
 10
-2.36060184E+02
 20
-8.38756714E+01
 11
-2.31860184E+02
 21
-8.38756714E+01
  0
LINE
  8
0
 62
7
 10
-2.32660183E+02
 20
-1.31875671E+02
 11
-2.31860184E+02
 21
-1.31875671E+02
  0
LINE
  8
0
 62
7
 10
-2.31610184E+02
 20
-1.88382651E+02
 11
-2.31610184E+02
 21
-7.03756714E+01
  0
LINE
  8
0
 62
7
 10
-2.47110184E+02
 20
-1.88382651E+02
 11
-2.47110184E+02
 21
-7.03756714E+01
  0
LINE
  8
0
 62
7
 10
-2.39310184E+02
 20
-5.86706696E+01
 11
-2.43310184E+02
 21
-5.86706696E+01
  0
LINE
  8
0
 62
7
 10
-2.43310184E+02
 20
-6.36706696E+01
 11
-2.39310184E+02
 21
-6.36706696E+01
  0
LINE
  8
0
 62
7
 10
-2.38310184E+02
 20
-6.63756714E+01
 11
-2.44310184E+02
 21
-6.63756714E+01
  0
LINE
  8
0
 62
7
 10
-2.37810184E+02
 20
-6.88756714E+01
 11
-2.37810184E+02
 21
-6.68756714E+01
  0
LINE
  8
0
 62
7
 10
-2.40060184E+02
 20
-6.36706696E+01
 11
-2.40060184E+02
 21
-6.63756714E+01
  0
LINE
  8
0
 62
7
 10
-2.37810184E+02
 20
-6.68756753E+01
 11
-2.38310184E+02
 21
-6.63756748E+01
  0
LINE
  8
0
 62
7
 10
-2.38810182E+02
 20
-6.31706774E+01
 11
-2.39310183E+02
 21
-6.36706780E+01
  0
LINE
  8
0
 62
7
 10
-2.38810185E+02
 20
-5.91706759E+01
 11
-2.39310185E+02
 21
-5.86706753E+01
  0
LINE
  8
0
 62
7
 10
-2.38810184E+02
 20
-5.91706696E+01
 11
-2.38810184E+02
 21
-6.31706696E+01
  0
LINE
  8
0
 62
7
 10
-2.44810186E+02
 20
-6.88756720E+01
 11
-2.44310185E+02
 21
-6.93756726E+01
  0
LINE
  8
0
 62
7
 10
-2.44810189E+02
 20
-6.68756726E+01
 11
-2.44310188E+02
 21
-6.63756721E+01
  0
LINE
  8
0
 62
7
 10
-2.43810187E+02
 20
-5.91706732E+01
 11
-2.43310187E+02
 21
-5.86706727E+01
  0
LINE
  8
0
 62
7
 10
-2.43310184E+02
 20
-6.36706753E+01
 11
-2.43810185E+02
 21
-6.31706747E+01
  0
LINE
  8
0
 62
7
 10
-2.43810184E+02
 20
-5.91706696E+01
 11
-2.43810184E+02
 21
-6.31706696E+01
  0
LINE
  8
0
 62
7
 10
-2.44810184E+02
 20
-6.88756714E+01
 11
-2.44810184E+02
 21
-6.68756714E+01
  0
LINE
  8
0
 62
7
 10
-2.42560184E+02
 20
-6.36706696E+01
 11
-2.42560184E+02
 21
-6.63756714E+01
  0
LINE
  8
0
 62
7
 10
-2.37810184E+02
 20
-6.88756774E+01
 11
-2.38310182E+02
 21
-6.93756753E+01
  0
LINE
  8
0
 62
7
 10
-2.45010185E+02
 20
-6.93756714E+01
 11
-2.37610184E+02
 21
-6.93756714E+01
  0
LINE
  8
0
 62
7
 10
-2.37310184E+02
 20
-7.03756714E+01
 11
-2.37310184E+02
 21
-6.96756744E+01
  0
LINE
  8
0
 62
7
 10
-2.45310184E+02
 20
-7.03756714E+01
 11
-2.45310184E+02
 21
-6.96756744E+01
  0
LINE
  8
0
 62
7
 10
-2.45310178E+02
 20
-6.96756799E+01
 11
-2.45010179E+02
 21
-6.93756807E+01
  0
LINE
  8
0
 62
7
 10
-2.37610180E+02
 20
-6.93756807E+01
 11
-2.37310186E+02
 21
-6.96756745E+01
  0
LINE
  8
0
 62
7
 10
-2.45310184E+02
 20
-6.96756744E+01
 11
-2.37310184E+02
 21
-6.96756744E+01
  0
LINE
  8
0
  6
CENTER
 62
2
 10
-2.41310184E+02
 20
-5.48893890E+01
 11
-2.41310184E+02
 21
-7.18532257E+01
  0
LINE
  8
0
  6
CENTER
 62
6
 10
-2.47060181E+02
 20
-7.88756714E+01
 11
-2.42060184E+02
 21
-7.88756714E+01
  0
LINE
  8
0
  6
CENTER
 62
6
 10
-2.40060184E+02
 20
-7.88756714E+01
 11
-2.35060184E+02
 21
-7.88756714E+01
  0
LINE
  8
0
  6
CENTER
 62
6
 10
-2.37560184E+02
 20
-8.13756714E+01
 11
-2.37560184E+02
 21
-7.63756714E+01
  0
LINE
  8
0
  6
CENTER
 62
6
 10
-2.44560184E+02
 20
-8.13756714E+01
 11
-2.44560184E+02
 21
-7.63756714E+01
  0
LINE
  8
0
  6
CENTER
 62
6
 10
-2.34160183E+02
 20
-1.39375675E+02
 11
-2.34160183E+02
 21
-1.34375675E+02
  0
LINE
  8
0
  6
CENTER
 62
6
 10
-2.41160183E+02
 20
-1.39375675E+02
 11
-2.41160183E+02
 21
-1.34375675E+02
  0
LINE
  8
0
  6
CENTER
 62
6
 10
-2.36660183E+02
 20
-1.36875675E+02
 11
-2.31660183E+02
 21
-1.36875675E+02
  0
LINE
  8
0
  6
CENTER
 62
6
 10
-2.43660183E+02
 20
-1.36875675E+02
 11
-2.38660183E+02
 21
-1.36875675E+02
  0
LINE
  8
0
 62
6
 10
-2.46860184E+02
 20
-1.45872936E+02
 11
-2.31860184E+02
 21
-1.45872936E+02
  0
LINE
  8
0
 62
6
 10
-2.46860184E+02
 20
-1.69872934E+02
 11
-2.31860184E+02
 21
-1.69872934E+02
  0
LINE
  8
0
 62
6
 10
-2.46860184E+02
 20
-1.69872934E+02
 11
-2.46860184E+02
 21
-1.45872936E+02
  0
LINE
  8
0
 62
6
 10
-2.31860184E+02
 20
-1.69872934E+02
 11
-2.31860184E+02
 21
-1.45872936E+02
  0
LINE
  8
0
 62
2
 10
-1.98860184E+02
 20
-6.88659515E+01
 11
-1.98860184E+02
 21
-6.68659515E+01
  0
LINE
  8
0
 62
6
 10
-1.93860184E+02
 20
-8.48659592E+01
 11
-2.03860184E+02
 21
-8.48659592E+01
  0
LINE
  8
0
 62
6
 10
-1.93860184E+02
 20
-8.47659607E+01
 11
-2.03860184E+02
 21
-8.47659607E+01
  0
LINE
  8
0
 62
6
 10
-2.03860184E+02
 20
-8.42678833E+01
 11
-1.93860184E+02
 21
-8.42678833E+01
  0
LINE
  8
0
  6
CENTER
 62
6
 10
-1.95960184E+02
 20
-8.63578796E+01
 11
-1.95960184E+02
 21
-9.19026642E+01
  0
LINE
  8
0
  6
CENTER
 62
6
 10
-2.01760183E+02
 20
-8.63578796E+01
 11
-2.01760183E+02
 21
-9.19026642E+01
  0
LINE
  8
0
 62
6
 10
-1.95960184E+02
 20
-9.10659561E+01
 11
-2.01760183E+02
 21
-9.10659561E+01
  0
LINE
  8
0
 62
6
 10
-1.95960184E+02
 20
-8.70659561E+01
 11
-2.01760183E+02
 21
-8.70659561E+01
  0
LINE
  8
0
  6
CENTER
 62
6
 10
-1.93449694E+02
 20
-8.90659561E+01
 11
-2.04272066E+02
 21
-8.90659561E+01
  0
LINE
  8
0
 62
6
 10
-1.93860184E+02
 20
-1.30875671E+02
 11
-2.03860184E+02
 21
-1.30875671E+02
  0
LINE
  8
0
 62
6
 10
-1.93860184E+02
 20
-1.30975677E+02
 11
-2.03860184E+02
 21
-1.30975677E+02
  0
LINE
  8
0
  6
CENTER
 62
6
 10
-1.95960184E+02
 20
-1.29383751E+02
 11
-1.95960184E+02
 21
-1.23838974E+02
  0
LINE
  8
0
  6
CENTER
 62
6
 10
-2.01760183E+02
 20
-1.29383751E+02
 11
-2.01760183E+02
 21
-1.23838974E+02
  0
LINE
  8
0
 62
6
 10
-1.95960184E+02
 20
-1.24675674E+02
 11
-2.01760183E+02
 21
-1.24675674E+02
  0
LINE
  8
0
 62
6
 10
-1.95960184E+02
 20
-1.28675674E+02
 11
-2.01760183E+02
 21
-1.28675674E+02
  0
LINE
  8
0
  6
CENTER
 62
6
 10
-1.93449694E+02
 20
-1.26675674E+02
 11
-2.04272066E+02
 21
-1.26675674E+02
  0
LINE
  8
0
 62
6
 10
-1.94160184E+02
 20
-1.13375671E+02
 11
-2.03560184E+02
 21
-1.13375671E+02
  0
LINE
  8
0
 62
6
 10
-1.97360184E+02
 20
-1.18375671E+02
 11
-1.97360184E+02
 21
-1.13375671E+02
  0
LINE
  8
0
 62
6
 10
-2.00360184E+02
 20
-1.18375671E+02
 11
-1.97360184E+02
 21
-1.18375671E+02
  0
LINE
  8
0
 62
6
 10
-2.00360184E+02
 20
-1.18375671E+02
 11
-2.00360184E+02
 21
-1.13375671E+02
  0
LINE
  8
0
 62
6
 10
-2.01254555E+02
 20
-1.39416493E+02
 11
-2.01510185E+02
 21
-1.38975676E+02
  0
LINE
  8
0
 62
6
 10
-1.96210182E+02
 20
-1.38975676E+02
 11
-1.96465812E+02
 21
-1.39416493E+02
  0
LINE
  8
0
 62
6
 10
-2.00004554E+02
 20
-1.38166494E+02
 11
-2.00260184E+02
 21
-1.37725677E+02
  0
LINE
  8
0
 62
6
 10
-2.01510184E+02
 20
-1.38975674E+02
 11
-2.00260184E+02
 21
-1.37725674E+02
  0
LINE
  8
0
 62
6
 10
-2.00004554E+02
 20
-1.38166491E+02
 11
-2.01254554E+02
 21
-1.39416491E+02
  0
LINE
  8
0
 62
6
 10
-1.97715812E+02
 20
-1.38166490E+02
 11
-1.97460183E+02
 21
-1.37725672E+02
  0
LINE
  8
0
 62
6
 10
-1.93860184E+02
 20
-1.32284859E+02
 11
-2.03860184E+02
 21
-1.32284859E+02
  0
LINE
  8
0
 62
6
 10
-1.97715813E+02
 20
-1.38166492E+02
 11
-1.96465812E+02
 21
-1.39416494E+02
  0
LINE
  8
0
 62
6
 10
-1.93860184E+02
 20
-1.39416492E+02
 11
-1.96465814E+02
 21
-1.39416492E+02
  0
LINE
  8
0
 62
6
 10
-2.01254555E+02
 20
-1.39416492E+02
 11
-2.03860184E+02
 21
-1.39416492E+02
  0
LINE
  8
0
 62
6
 10
-2.00004555E+02
 20
-1.38166492E+02
 11
-1.97715814E+02
 21
-1.38166492E+02
  0
LINE
  8
0
 62
6
 10
-1.93860184E+02
 20
-1.38975674E+02
 11
-1.96210184E+02
 21
-1.38975674E+02
  0
LINE
  8
0
 62
6
 10
-1.96210182E+02
 20
-1.38975677E+02
 11
-1.97460184E+02
 21
-1.37725676E+02
  0
LINE
  8
0
 62
6
 10
-2.00260183E+02
 20
-1.37725674E+02
 11
-1.97460184E+02
 21
-1.37725674E+02
  0
LINE
  8
0
 62
6
 10
-2.01510183E+02
 20
-1.38975674E+02
 11
-2.03860184E+02
 21
-1.38975674E+02
  0
LINE
  8
0
 62
6
 10
-2.03860184E+02
 20
-1.31473755E+02
 11
-1.93860184E+02
 21
-1.31473755E+02
  0
LINE
  8
0
 62
6
 10
-1.95360184E+02
 20
-1.35275673E+02
 11
-1.93860184E+02
 21
-1.35275673E+02
  0
LINE
  8
0
 62
6
 10
-1.93860184E+02
 20
-1.38475674E+02
 11
-1.95360184E+02
 21
-1.38475674E+02
  0
LINE
  8
0
 62
6
 10
-2.02360184E+02
 20
-1.38475674E+02
 11
-2.03860184E+02
 21
-1.38475674E+02
  0
LINE
  8
0
 62
6
 10
-2.03860184E+02
 20
-1.35275673E+02
 11
-2.02360184E+02
 21
-1.35275673E+02
  0
LINE
  8
0
 62
6
 10
-1.97034670E+02
 20
-1.35425674E+02
 11
-2.00685698E+02
 21
-1.35425674E+02
  0
LINE
  8
0
 62
6
 10
-1.98860184E+02
 20
-1.34825676E+02
 11
-2.00685698E+02
 21
-1.34825676E+02
  0
LINE
  8
0
 62
6
 10
-1.97034670E+02
 20
-1.34825676E+02
 11
-1.98860184E+02
 21
-1.34825676E+02
  0
LINE
  8
0
 62
6
 10
-2.03067291E+02
 20
-1.37582782E+02
 11
-2.01653077E+02
 21
-1.36168569E+02
  0
LINE
  8
0
 62
6
 10
-2.03067291E+02
 20
-1.36168569E+02
 11
-2.01653077E+02
 21
-1.37582782E+02
  0
LINE
  8
0
 62
6
 10
-1.94653077E+02
 20
-1.36168570E+02
 11
-1.96067290E+02
 21
-1.37582784E+02
  0
LINE
  8
0
 62
6
 10
-1.94653077E+02
 20
-1.37582784E+02
 11
-1.96067290E+02
 21
-1.36168570E+02
  0
LINE
  8
0
 62
6
 10
-1.94160184E+02
 20
-1.02365959E+02
 11
-2.03560184E+02
 21
-1.02365959E+02
  0
LINE
  8
0
 62
6
 10
-1.97360184E+02
 20
-9.73659592E+01
 11
-1.97360184E+02
 21
-1.02365959E+02
  0
LINE
  8
0
 62
6
 10
-2.00360184E+02
 20
-9.73659592E+01
 11
-1.97360184E+02
 21
-9.73659592E+01
  0
LINE
  8
0
 62
6
 10
-2.00360184E+02
 20
-9.73659592E+01
 11
-2.00360184E+02
 21
-1.02365959E+02
  0
LINE
  8
0
 62
6
 10
-2.01254552E+02
 20
-7.63251381E+01
 11
-2.01510181E+02
 21
-7.67659556E+01
  0
LINE
  8
0
 62
6
 10
-1.96210187E+02
 20
-7.67659565E+01
 11
-1.96465817E+02
 21
-7.63251390E+01
  0
LINE
  8
0
 62
6
 10
-2.00004549E+02
 20
-7.75751383E+01
 11
-2.00260179E+02
 21
-7.80159558E+01
  0
LINE
  8
0
 62
6
 10
-2.01510184E+02
 20
-7.67659558E+01
 11
-2.00260183E+02
 21
-7.80159571E+01
  0
LINE
  8
0
 62
6
 10
-2.00004550E+02
 20
-7.75751429E+01
 11
-2.01254552E+02
 21
-7.63251416E+01
  0
LINE
  8
0
 62
6
 10
-1.97715815E+02
 20
-7.75751458E+01
 11
-1.97460186E+02
 21
-7.80159633E+01
  0
LINE
  8
0
 62
6
 10
-1.93860184E+02
 20
-8.34567795E+01
 11
-2.03860184E+02
 21
-8.34567795E+01
  0
LINE
  8
0
 62
6
 10
-1.97715808E+02
 20
-7.75751429E+01
 11
-1.96465812E+02
 21
-7.63251470E+01
  0
LINE
  8
0
 62
6
 10
-1.93860184E+02
 20
-7.63251419E+01
 11
-1.96465814E+02
 21
-7.63251419E+01
  0
LINE
  8
0
 62
6
 10
-2.01254555E+02
 20
-7.63251419E+01
 11
-2.03860184E+02
 21
-7.63251419E+01
  0
LINE
  8
0
 62
6
 10
-2.00004555E+02
 20
-7.75751419E+01
 11
-1.97715814E+02
 21
-7.75751419E+01
  0
LINE
  8
0
 62
6
 10
-1.93860184E+02
 20
-7.67659607E+01
 11
-1.96210184E+02
 21
-7.67659607E+01
  0
LINE
  8
0
 62
6
 10
-1.96210180E+02
 20
-7.67659612E+01
 11
-1.97460181E+02
 21
-7.80159625E+01
  0
LINE
  8
0
 62
6
 10
-2.00260183E+02
 20
-7.80159607E+01
 11
-1.97460184E+02
 21
-7.80159607E+01
  0
LINE
  8
0
 62
6
 10
-2.01510183E+02
 20
-7.67659607E+01
 11
-2.03860184E+02
 21
-7.67659607E+01
  0
LINE
  8
0
 62
6
 10
-1.95360184E+02
 20
-8.04659576E+01
 11
-1.93860184E+02
 21
-8.04659576E+01
  0
LINE
  8
0
 62
6
 10
-1.93860184E+02
 20
-7.72659607E+01
 11
-1.95360184E+02
 21
-7.72659607E+01
  0
LINE
  8
0
 62
6
 10
-2.02360184E+02
 20
-7.72659607E+01
 11
-2.03860184E+02
 21
-7.72659607E+01
  0
LINE
  8
0
 62
6
 10
-2.03860184E+02
 20
-8.04659576E+01
 11
-2.02360184E+02
 21
-8.04659576E+01
  0
LINE
  8
0
 62
6
 10
-2.03860184E+02
 20
-1.02065956E+02
 11
-2.03860184E+02
 21
-7.03659592E+01
  0
LINE
  8
0
 62
6
 10
-1.93860184E+02
 20
-1.02065956E+02
 11
-1.93860184E+02
 21
-7.03659592E+01
  0
LINE
  8
0
 62
6
 10
-1.97034670E+02
 20
-8.03159561E+01
 11
-2.00685698E+02
 21
-8.03159561E+01
  0
LINE
  8
0
 62
6
 10
-1.98860184E+02
 20
-8.09159546E+01
 11
-2.00685698E+02
 21
-8.09159546E+01
  0
LINE
  8
0
 62
6
 10
-1.97034670E+02
 20
-8.09159546E+01
 11
-1.98860184E+02
 21
-8.09159546E+01
  0
LINE
  8
0
 62
6
 10
-2.03067290E+02
 20
-7.81588545E+01
 11
-2.01653076E+02
 21
-7.95730680E+01
  0
LINE
  8
0
 62
6
 10
-2.03067290E+02
 20
-7.95730680E+01
 11
-2.01653076E+02
 21
-7.81588545E+01
  0
LINE
  8
0
 62
6
 10
-1.94653079E+02
 20
-7.95730680E+01
 11
-1.96067293E+02
 21
-7.81588545E+01
  0
LINE
  8
0
 62
6
 10
-1.94653079E+02
 20
-7.81588545E+01
 11
-1.96067293E+02
 21
-7.95730680E+01
  0
LINE
  8
0
 62
6
 10
-2.03860184E+02
 20
-7.03659592E+01
 11
-1.93860184E+02
 21
-7.03659592E+01
  0
LINE
  8
0
  6
PHANTOM
 62
2
 10
-1.93760183E+02
 20
-1.65372934E+02
 11
-2.03960184E+02
 21
-1.65372934E+02
  0
LINE
  8
0
  6
PHANTOM
 62
2
 10
-1.93760183E+02
 20
-1.65372934E+02
 11
-1.93760183E+02
 21
-1.45375675E+02
  0
LINE
  8
0
  6
PHANTOM
 62
2
 10
-2.03960184E+02
 20
-1.65372934E+02
 11
-2.03960184E+02
 21
-1.45375675E+02
  0
LINE
  8
0
  6
CENTER
 62
2
 10
-2.00960184E+02
 20
-1.45375675E+02
 11
-2.00960184E+02
 21
-1.64127453E+02
  0
LINE
  8
0
  6
CENTER
 62
2
 10
-2.03616390E+02
 20
-1.61274303E+02
 11
-1.98304562E+02
 21
-1.61274303E+02
  0
LINE
  8
0
  6
CENTER
 62
2
 10
-2.03616390E+02
 20
-1.53474304E+02
 11
-1.98339739E+02
 21
-1.53474304E+02
  0
LINE
  8
0
  6
CENTER
 62
2
 10
-2.04601364E+02
 20
-1.48124306E+02
 11
-1.97184271E+02
 21
-1.48124306E+02
  0
LINE
  8
0
 62
6
 10
-1.93860184E+02
 20
-1.45375675E+02
 11
-2.03860184E+02
 21
-1.45375675E+02
  0
LINE
  8
0
 62
7
 10
-2.03360184E+02
 20
-1.65372934E+02
 11
-1.94360184E+02
 21
-1.65372934E+02
  0
LINE
  8
0
 62
7
 10
-1.93610184E+02
 20
-1.88372934E+02
 11
-2.04110184E+02
 21
-1.88372934E+02
  0
LINE
  8
0
 62
7
 10
-1.93860184E+02
 20
-1.65872934E+02
 11
-1.93860184E+02
 21
-1.87872934E+02
  0
LINE
  8
0
 62
7
 10
-2.03860184E+02
 20
-1.65872934E+02
 11
-2.03860184E+02
 21
-1.87872934E+02
  0
LINE
  8
0
 62
7
 10
-1.93610184E+02
 20
-7.03659592E+01
 11
-1.93610184E+02
 21
-1.88372934E+02
  0
LINE
  8
0
 62
7
 10
-2.04110184E+02
 20
-7.03659592E+01
 11
-2.04110184E+02
 21
-1.88372934E+02
  0
LINE
  8
0
  6
CENTER
 62
2
 10
-1.98860184E+02
 20
-6.87943573E+01
 11
-1.98860184E+02
 21
-1.89432271E+02
  0
LINE
  8
0
 62
7
 10
-1.93860184E+02
 20
-1.13675674E+02
 11
-1.93860184E+02
 21
-1.02065956E+02
  0
LINE
  8
0
 62
7
 10
-2.03860184E+02
 20
-1.02065956E+02
 11
-2.03860184E+02
 21
-1.13675674E+02
  0
LINE
  8
0
  6
CENTER
 62
6
 10
-2.02360184E+02
 20
-8.13659592E+01
 11
-2.02360184E+02
 21
-7.63659592E+01
  0
LINE
  8
0
  6
CENTER
 62
6
 10
-1.95360184E+02
 20
-8.13659592E+01
 11
-1.95360184E+02
 21
-7.63659592E+01
  0
LINE
  8
0
  6
CENTER
 62
6
 10
-1.97860184E+02
 20
-7.88659592E+01
 11
-1.92860184E+02
 21
-7.88659592E+01
  0
LINE
  8
0
  6
CENTER
 62
6
 10
-2.02360184E+02
 20
-1.39375675E+02
 11
-2.02360184E+02
 21
-1.34375675E+02
  0
LINE
  8
0
  6
CENTER
 62
6
 10
-1.95360184E+02
 20
-1.39375675E+02
 11
-1.95360184E+02
 21
-1.34375675E+02
  0
LINE
  8
0
  6
CENTER
 62
6
 10
-1.97860184E+02
 20
-1.36875675E+02
 11
-1.92860184E+02
 21
-1.36875675E+02
  0
LINE
  8
0
  6
CENTER
 62
2
 10
-1.99810184E+02
 20
-5.48796844E+01
 11
-1.99810184E+02
 21
-7.18435059E+01
  0
LINE
  8
0
 62
7
 10
-2.03810184E+02
 20
-6.96659546E+01
 11
-1.95810184E+02
 21
-6.96659546E+01
  0
LINE
  8
0
 62
7
 10
-1.96110182E+02
 20
-6.93659619E+01
 11
-1.95810182E+02
 21
-6.96659612E+01
  0
LINE
  8
0
 62
7
 10
-2.03810180E+02
 20
-6.96659612E+01
 11
-2.03510181E+02
 21
-6.93659619E+01
  0
LINE
  8
0
 62
7
 10
-2.03810184E+02
 20
-7.03659592E+01
 11
-2.03810184E+02
 21
-6.96659546E+01
  0
LINE
  8
0
 62
7
 10
-1.95810184E+02
 20
-7.03659592E+01
 11
-1.95810184E+02
 21
-6.96659546E+01
  0
LINE
  8
0
 62
7
 10
-2.03510183E+02
 20
-6.93659515E+01
 11
-1.96110184E+02
 21
-6.93659515E+01
  0
LINE
  8
0
 62
7
 10
-1.96310183E+02
 20
-6.88659560E+01
 11
-1.96810183E+02
 21
-6.93659565E+01
  0
LINE
  8
0
 62
7
 10
-2.01060184E+02
 20
-6.36609650E+01
 11
-2.01060184E+02
 21
-6.63659515E+01
  0
LINE
  8
0
 62
7
 10
-2.03310184E+02
 20
-6.88659515E+01
 11
-2.03310184E+02
 21
-6.68659515E+01
  0
LINE
  8
0
 62
7
 10
-2.02310184E+02
 20
-5.91609650E+01
 11
-2.02310184E+02
 21
-6.31609650E+01
  0
LINE
  8
0
 62
7
 10
-2.01810183E+02
 20
-6.36609646E+01
 11
-2.02310184E+02
 21
-6.31609641E+01
  0
LINE
  8
0
 62
7
 10
-2.02310184E+02
 20
-5.91609599E+01
 11
-2.01810183E+02
 21
-5.86609593E+01
  0
LINE
  8
0
 62
7
 10
-2.03310185E+02
 20
-6.68659593E+01
 11
-2.02810184E+02
 21
-6.63659588E+01
  0
LINE
  8
0
 62
7
 10
-2.03310185E+02
 20
-6.88659614E+01
 11
-2.02810184E+02
 21
-6.93659619E+01
  0
LINE
  8
0
 62
7
 10
-1.97310184E+02
 20
-5.91609650E+01
 11
-1.97310184E+02
 21
-6.31609650E+01
  0
LINE
  8
0
 62
7
 10
-1.97310184E+02
 20
-5.91609652E+01
 11
-1.97810184E+02
 21
-5.86609647E+01
  0
LINE
  8
0
 62
7
 10
-1.97310184E+02
 20
-6.31609587E+01
 11
-1.97810184E+02
 21
-6.36609592E+01
  0
LINE
  8
0
 62
7
 10
-1.96310183E+02
 20
-6.68659647E+01
 11
-1.96810183E+02
 21
-6.63659642E+01
  0
LINE
  8
0
 62
7
 10
-1.98560184E+02
 20
-6.36609650E+01
 11
-1.98560184E+02
 21
-6.63659515E+01
  0
LINE
  8
0
 62
7
 10
-1.96310184E+02
 20
-6.88659515E+01
 11
-1.96310184E+02
 21
-6.68659515E+01
  0
LINE
  8
0
 62
7
 10
-1.96810184E+02
 20
-6.63659515E+01
 11
-2.02810184E+02
 21
-6.63659515E+01
  0
LINE
  8
0
 62
7
 10
-2.01810184E+02
 20
-6.36609650E+01
 11
-1.97810184E+02
 21
-6.36609650E+01
  0
LINE
  8
0
 62
7
 10
-1.97810184E+02
 20
-5.86609650E+01
 11
-2.01810184E+02
 21
-5.86609650E+01
  0
LINE
  8
0
 62
7
 10
-2.04110184E+02
 20
-7.03659592E+01
 11
-1.93610184E+02
 21
-7.03659592E+01
  0
LINE
  8
0
 62
7
 10
-1.93860184E+02
 20
-1.45375675E+02
 11
-1.93610184E+02
 21
-1.45375675E+02
  0
LINE
  8
0
 62
7
 10
-2.03860184E+02
 20
-1.45375675E+02
 11
-2.04110184E+02
 21
-1.45375675E+02
  0
LINE
  8
0
 62
6
 10
-2.03860184E+02
 20
-1.65372934E+02
 11
-1.93860184E+02
 21
-1.65372934E+02
  0
LINE
  8
0
 62
6
 10
-2.03860184E+02
 20
-1.45372936E+02
 11
-1.93860184E+02
 21
-1.45372936E+02
  0
LINE
  8
0
  6
PHANTOM
 62
2
 10
-2.03960184E+02
 20
-1.45375675E+02
 11
-1.93760183E+02
 21
-1.45375675E+02
  0
LINE
  8
0
 62
2
 10
-2.09860184E+02
 20
-6.88659515E+01
 11
-2.09860184E+02
 21
-6.68659515E+01
  0
LINE
  8
0
 62
6
 10
-2.04860184E+02
 20
-8.48659592E+01
 11
-2.14860184E+02
 21
-8.48659592E+01
  0
LINE
  8
0
 62
6
 10
-2.04860184E+02
 20
-8.47659607E+01
 11
-2.14860184E+02
 21
-8.47659607E+01
  0
LINE
  8
0
 62
6
 10
-2.14860184E+02
 20
-8.42678833E+01
 11
-2.04860184E+02
 21
-8.42678833E+01
  0
LINE
  8
0
  6
CENTER
 62
6
 10
-2.06960184E+02
 20
-8.63578796E+01
 11
-2.06960184E+02
 21
-9.19026642E+01
  0
LINE
  8
0
  6
CENTER
 62
6
 10
-2.12760183E+02
 20
-8.63578796E+01
 11
-2.12760183E+02
 21
-9.19026642E+01
  0
LINE
  8
0
 62
6
 10
-2.06960184E+02
 20
-9.10659561E+01
 11
-2.12760183E+02
 21
-9.10659561E+01
  0
LINE
  8
0
 62
6
 10
-2.06960184E+02
 20
-8.70659561E+01
 11
-2.12760183E+02
 21
-8.70659561E+01
  0
LINE
  8
0
  6
CENTER
 62
6
 10
-2.04449694E+02
 20
-8.90659561E+01
 11
-2.15272068E+02
 21
-8.90659561E+01
  0
LINE
  8
0
 62
6
 10
-2.04860184E+02
 20
-1.30875671E+02
 11
-2.14860184E+02
 21
-1.30875671E+02
  0
LINE
  8
0
 62
6
 10
-2.04860184E+02
 20
-1.30975677E+02
 11
-2.14860184E+02
 21
-1.30975677E+02
  0
LINE
  8
0
  6
CENTER
 62
6
 10
-2.06960184E+02
 20
-1.29383751E+02
 11
-2.06960184E+02
 21
-1.23838974E+02
  0
LINE
  8
0
  6
CENTER
 62
6
 10
-2.12760183E+02
 20
-1.29383751E+02
 11
-2.12760183E+02
 21
-1.23838974E+02
  0
LINE
  8
0
 62
6
 10
-2.06960184E+02
 20
-1.24675674E+02
 11
-2.12760183E+02
 21
-1.24675674E+02
  0
LINE
  8
0
 62
6
 10
-2.06960184E+02
 20
-1.28675674E+02
 11
-2.12760183E+02
 21
-1.28675674E+02
  0
LINE
  8
0
  6
CENTER
 62
6
 10
-2.04449694E+02
 20
-1.26675674E+02
 11
-2.15272068E+02
 21
-1.26675674E+02
  0
LINE
  8
0
 62
6
 10
-2.05160183E+02
 20
-1.13375671E+02
 11
-2.14560184E+02
 21
-1.13375671E+02
  0
LINE
  8
0
 62
6
 10
-2.08360184E+02
 20
-1.18375671E+02
 11
-2.08360184E+02
 21
-1.13375671E+02
  0
LINE
  8
0
 62
6
 10
-2.11360184E+02
 20
-1.18375671E+02
 11
-2.08360184E+02
 21
-1.18375671E+02
  0
LINE
  8
0
 62
6
 10
-2.11360184E+02
 20
-1.18375671E+02
 11
-2.11360184E+02
 21
-1.13375671E+02
  0
LINE
  8
0
 62
6
 10
-2.12254554E+02
 20
-1.39416496E+02
 11
-2.12510183E+02
 21
-1.38975678E+02
  0
LINE
  8
0
 62
6
 10
-2.07210183E+02
 20
-1.38975672E+02
 11
-2.07465812E+02
 21
-1.39416490E+02
  0
LINE
  8
0
 62
6
 10
-2.11004557E+02
 20
-1.38166490E+02
 11
-2.11260186E+02
 21
-1.37725673E+02
  0
LINE
  8
0
 62
6
 10
-2.12510182E+02
 20
-1.38975677E+02
 11
-2.11260182E+02
 21
-1.37725677E+02
  0
LINE
  8
0
 62
6
 10
-2.11004553E+02
 20
-1.38166494E+02
 11
-2.12254553E+02
 21
-1.39416494E+02
  0
LINE
  8
0
 62
6
 10
-2.08715811E+02
 20
-1.38166491E+02
 11
-2.08460182E+02
 21
-1.37725674E+02
  0
LINE
  8
0
 62
6
 10
-2.04860184E+02
 20
-1.32284859E+02
 11
-2.14860184E+02
 21
-1.32284859E+02
  0
LINE
  8
0
 62
6
 10
-2.08715814E+02
 20
-1.38166492E+02
 11
-2.07465813E+02
 21
-1.39416494E+02
  0
LINE
  8
0
 62
6
 10
-2.04860184E+02
 20
-1.39416492E+02
 11
-2.07465813E+02
 21
-1.39416492E+02
  0
LINE
  8
0
 62
6
 10
-2.12254555E+02
 20
-1.39416492E+02
 11
-2.14860184E+02
 21
-1.39416492E+02
  0
LINE
  8
0
 62
6
 10
-2.11004555E+02
 20
-1.38166492E+02
 11
-2.08715813E+02
 21
-1.38166492E+02
  0
LINE
  8
0
 62
6
 10
-2.04860184E+02
 20
-1.38975674E+02
 11
-2.07210184E+02
 21
-1.38975674E+02
  0
LINE
  8
0
 62
6
 10
-2.07210183E+02
 20
-1.38975677E+02
 11
-2.08460184E+02
 21
-1.37725676E+02
  0
LINE
  8
0
 62
6
 10
-2.11260183E+02
 20
-1.37725674E+02
 11
-2.08460184E+02
 21
-1.37725674E+02
  0
LINE
  8
0
 62
6
 10
-2.12510183E+02
 20
-1.38975674E+02
 11
-2.14860184E+02
 21
-1.38975674E+02
  0
LINE
  8
0
 62
6
 10
-2.14860184E+02
 20
-1.31473755E+02
 11
-2.04860184E+02
 21
-1.31473755E+02
  0
LINE
  8
0
 62
6
 10
-2.06360184E+02
 20
-1.35275673E+02
 11
-2.04860184E+02
 21
-1.35275673E+02
  0
LINE
  8
0
 62
6
 10
-2.04860184E+02
 20
-1.38475674E+02
 11
-2.06360184E+02
 21
-1.38475674E+02
  0
LINE
  8
0
 62
6
 10
-2.13360184E+02
 20
-1.38475674E+02
 11
-2.14860184E+02
 21
-1.38475674E+02
  0
LINE
  8
0
 62
6
 10
-2.14860184E+02
 20
-1.35275673E+02
 11
-2.13360184E+02
 21
-1.35275673E+02
  0
LINE
  8
0
 62
6
 10
-2.08034670E+02
 20
-1.35425674E+02
 11
-2.11685698E+02
 21
-1.35425674E+02
  0
LINE
  8
0
 62
6
 10
-2.09860184E+02
 20
-1.34825676E+02
 11
-2.11685698E+02
 21
-1.34825676E+02
  0
LINE
  8
0
 62
6
 10
-2.08034670E+02
 20
-1.34825676E+02
 11
-2.09860184E+02
 21
-1.34825676E+02
  0
LINE
  8
0
 62
6
 10
-2.14067288E+02
 20
-1.37582784E+02
 11
-2.12653074E+02
 21
-1.36168570E+02
  0
LINE
  8
0
 62
6
 10
-2.14067288E+02
 20
-1.36168570E+02
 11
-2.12653077E+02
 21
-1.37582781E+02
  0
LINE
  8
0
 62
6
 10
-2.05653076E+02
 20
-1.36168569E+02
 11
-2.07067290E+02
 21
-1.37582782E+02
  0
LINE
  8
0
 62
6
 10
-2.05653076E+02
 20
-1.37582782E+02
 11
-2.07067290E+02
 21
-1.36168569E+02
  0
LINE
  8
0
 62
6
 10
-2.05160183E+02
 20
-1.02365959E+02
 11
-2.14560184E+02
 21
-1.02365959E+02
  0
LINE
  8
0
 62
6
 10
-2.08360184E+02
 20
-9.73659592E+01
 11
-2.08360184E+02
 21
-1.02365959E+02
  0
LINE
  8
0
 62
6
 10
-2.11360184E+02
 20
-9.73659592E+01
 11
-2.08360184E+02
 21
-9.73659592E+01
  0
LINE
  8
0
 62
6
 10
-2.11360184E+02
 20
-9.73659592E+01
 11
-2.11360184E+02
 21
-1.02365959E+02
  0
LINE
  8
0
 62
6
 10
-2.12254548E+02
 20
-7.63251416E+01
 11
-2.12510177E+02
 21
-7.67659590E+01
  0
LINE
  8
0
 62
6
 10
-2.07210185E+02
 20
-7.67659635E+01
 11
-2.07465815E+02
 21
-7.63251460E+01
  0
LINE
  8
0
 62
6
 10
-2.11004552E+02
 20
-7.75751379E+01
 11
-2.11260181E+02
 21
-7.80159554E+01
  0
LINE
  8
0
 62
6
 10
-2.12510180E+02
 20
-7.67659612E+01
 11
-2.11260184E+02
 21
-7.80159571E+01
  0
LINE
  8
0
 62
6
 10
-2.11004551E+02
 20
-7.75751429E+01
 11
-2.12254553E+02
 21
-7.63251416E+01
  0
LINE
  8
0
 62
6
 10
-2.08715814E+02
 20
-7.75751443E+01
 11
-2.08460185E+02
 21
-7.80159617E+01
  0
LINE
  8
0
 62
6
 10
-2.04860184E+02
 20
-8.34567795E+01
 11
-2.14860184E+02
 21
-8.34567795E+01
  0
LINE
  8
0
 62
6
 10
-2.08715809E+02
 20
-7.75751429E+01
 11
-2.07465813E+02
 21
-7.63251470E+01
  0
LINE
  8
0
 62
6
 10
-2.04860184E+02
 20
-7.63251419E+01
 11
-2.07465813E+02
 21
-7.63251419E+01
  0
LINE
  8
0
 62
6
 10
-2.12254555E+02
 20
-7.63251419E+01
 11
-2.14860184E+02
 21
-7.63251419E+01
  0
LINE
  8
0
 62
6
 10
-2.11004555E+02
 20
-7.75751419E+01
 11
-2.08715813E+02
 21
-7.75751419E+01
  0
LINE
  8
0
 62
6
 10
-2.04860184E+02
 20
-7.67659607E+01
 11
-2.07210184E+02
 21
-7.67659607E+01
  0
LINE
  8
0
 62
6
 10
-2.07210180E+02
 20
-7.67659612E+01
 11
-2.08460182E+02
 21
-7.80159625E+01
  0
LINE
  8
0
 62
6
 10
-2.11260183E+02
 20
-7.80159607E+01
 11
-2.08460184E+02
 21
-7.80159607E+01
  0
LINE
  8
0
 62
6
 10
-2.12510183E+02
 20
-7.67659607E+01
 11
-2.14860184E+02
 21
-7.67659607E+01
  0
LINE
  8
0
 62
6
 10
-2.06360184E+02
 20
-8.04659576E+01
 11
-2.04860184E+02
 21
-8.04659576E+01
  0
LINE
  8
0
 62
6
 10
-2.04860184E+02
 20
-7.72659607E+01
 11
-2.06360184E+02
 21
-7.72659607E+01
  0
LINE
  8
0
 62
6
 10
-2.13360184E+02
 20
-7.72659607E+01
 11
-2.14860184E+02
 21
-7.72659607E+01
  0
LINE
  8
0
 62
6
 10
-2.14860184E+02
 20
-8.04659576E+01
 11
-2.13360184E+02
 21
-8.04659576E+01
  0
LINE
  8
0
 62
6
 10
-2.14860184E+02
 20
-1.02065956E+02
 11
-2.14860184E+02
 21
-7.03659592E+01
  0
LINE
  8
0
 62
6
 10
-2.04860184E+02
 20
-1.02065956E+02
 11
-2.04860184E+02
 21
-7.03659592E+01
  0
LINE
  8
0
 62
6
 10
-2.08034670E+02
 20
-8.03159561E+01
 11
-2.11685698E+02
 21
-8.03159561E+01
  0
LINE
  8
0
 62
6
 10
-2.09860184E+02
 20
-8.09159546E+01
 11
-2.11685698E+02
 21
-8.09159546E+01
  0
LINE
  8
0
 62
6
 10
-2.08034670E+02
 20
-8.09159546E+01
 11
-2.09860184E+02
 21
-8.09159546E+01
  0
LINE
  8
0
 62
6
 10
-2.14067290E+02
 20
-7.81588545E+01
 11
-2.12653077E+02
 21
-7.95730680E+01
  0
LINE
  8
0
 62
6
 10
-2.14067290E+02
 20
-7.95730680E+01
 11
-2.12653077E+02
 21
-7.81588545E+01
  0
LINE
  8
0
 62
6
 10
-2.05653080E+02
 20
-7.95730680E+01
 11
-2.07067294E+02
 21
-7.81588545E+01
  0
LINE
  8
0
 62
6
 10
-2.05653080E+02
 20
-7.81588545E+01
 11
-2.07067294E+02
 21
-7.95730680E+01
  0
LINE
  8
0
 62
6
 10
-2.14860184E+02
 20
-7.03659592E+01
 11
-2.04860184E+02
 21
-7.03659592E+01
  0
LINE
  8
0
  6
PHANTOM
 62
2
 10
-2.04760183E+02
 20
-1.65372934E+02
 11
-2.14960182E+02
 21
-1.65372934E+02
  0
LINE
  8
0
  6
PHANTOM
 62
2
 10
-2.04760183E+02
 20
-1.65372934E+02
 11
-2.04760183E+02
 21
-1.45375675E+02
  0
LINE
  8
0
  6
PHANTOM
 62
2
 10
-2.14960182E+02
 20
-1.65372934E+02
 11
-2.14960182E+02
 21
-1.45375675E+02
  0
LINE
  8
0
  6
CENTER
 62
2
 10
-2.11960184E+02
 20
-1.45375675E+02
 11
-2.11960184E+02
 21
-1.64127453E+02
  0
LINE
  8
0
  6
CENTER
 62
2
 10
-2.14616390E+02
 20
-1.61274303E+02
 11
-2.09304562E+02
 21
-1.61274303E+02
  0
LINE
  8
0
  6
CENTER
 62
2
 10
-2.14616390E+02
 20
-1.53474304E+02
 11
-2.09339739E+02
 21
-1.53474304E+02
  0
LINE
  8
0
  6
CENTER
 62
2
 10
-2.15601364E+02
 20
-1.48124306E+02
 11
-2.08184271E+02
 21
-1.48124306E+02
  0
LINE
  8
0
 62
6
 10
-2.04860184E+02
 20
-1.45375675E+02
 11
-2.14860184E+02
 21
-1.45375675E+02
  0
LINE
  8
0
 62
7
 10
-2.14360184E+02
 20
-1.65372934E+02
 11
-2.05360184E+02
 21
-1.65372934E+02
  0
LINE
  8
0
 62
7
 10
-2.04610184E+02
 20
-1.88372934E+02
 11
-2.15110184E+02
 21
-1.88372934E+02
  0
LINE
  8
0
 62
7
 10
-2.04860184E+02
 20
-1.65872934E+02
 11
-2.04860184E+02
 21
-1.87872934E+02
  0
LINE
  8
0
 62
7
 10
-2.14860184E+02
 20
-1.65872934E+02
 11
-2.14860184E+02
 21
-1.87872934E+02
  0
LINE
  8
0
 62
7
 10
-2.04610184E+02
 20
-7.03659592E+01
 11
-2.04610184E+02
 21
-1.88372934E+02
  0
LINE
  8
0
 62
7
 10
-2.15110184E+02
 20
-7.03659592E+01
 11
-2.15110184E+02
 21
-1.88372934E+02
  0
LINE
  8
0
  6
CENTER
 62
2
 10
-2.09860184E+02
 20
-6.87943573E+01
 11
-2.09860184E+02
 21
-1.89432271E+02
  0
LINE
  8
0
 62
7
 10
-2.04860184E+02
 20
-1.13675674E+02
 11
-2.04860184E+02
 21
-1.02065956E+02
  0
LINE
  8
0
 62
7
 10
-2.14860184E+02
 20
-1.02065956E+02
 11
-2.14860184E+02
 21
-1.13675674E+02
  0
LINE
  8
0
  6
CENTER
 62
6
 10
-2.13360184E+02
 20
-8.13659592E+01
 11
-2.13360184E+02
 21
-7.63659592E+01
  0
LINE
  8
0
  6
CENTER
 62
6
 10
-2.15860184E+02
 20
-7.88659592E+01
 11
-2.10860184E+02
 21
-7.88659592E+01
  0
LINE
  8
0
  6
CENTER
 62
6
 10
-2.06360184E+02
 20
-8.13659592E+01
 11
-2.06360184E+02
 21
-7.63659592E+01
  0
LINE
  8
0
  6
CENTER
 62
6
 10
-2.13360184E+02
 20
-1.39375675E+02
 11
-2.13360184E+02
 21
-1.34375675E+02
  0
LINE
  8
0
  6
CENTER
 62
6
 10
-2.06360184E+02
 20
-1.39375675E+02
 11
-2.06360184E+02
 21
-1.34375675E+02
  0
LINE
  8
0
  6
CENTER
 62
2
 10
-2.10810184E+02
 20
-5.48796844E+01
 11
-2.10810184E+02
 21
-7.18435059E+01
  0
LINE
  8
0
 62
7
 10
-2.14810184E+02
 20
-6.96659546E+01
 11
-2.06810184E+02
 21
-6.96659546E+01
  0
LINE
  8
0
 62
7
 10
-2.07110182E+02
 20
-6.93659619E+01
 11
-2.06810183E+02
 21
-6.96659612E+01
  0
LINE
  8
0
 62
7
 10
-2.14810181E+02
 20
-6.96659612E+01
 11
-2.14510182E+02
 21
-6.93659619E+01
  0
LINE
  8
0
 62
7
 10
-2.14810184E+02
 20
-7.03659592E+01
 11
-2.14810184E+02
 21
-6.96659546E+01
  0
LINE
  8
0
 62
7
 10
-2.06810184E+02
 20
-7.03659592E+01
 11
-2.06810184E+02
 21
-6.96659546E+01
  0
LINE
  8
0
 62
7
 10
-2.14510183E+02
 20
-6.93659515E+01
 11
-2.07110184E+02
 21
-6.93659515E+01
  0
LINE
  8
0
 62
7
 10
-2.07310184E+02
 20
-6.88659560E+01
 11
-2.07810184E+02
 21
-6.93659565E+01
  0
LINE
  8
0
 62
7
 10
-2.12060184E+02
 20
-6.36609650E+01
 11
-2.12060184E+02
 21
-6.63659515E+01
  0
LINE
  8
0
 62
7
 10
-2.14310184E+02
 20
-6.88659515E+01
 11
-2.14310184E+02
 21
-6.68659515E+01
  0
LINE
  8
0
 62
7
 10
-2.13310184E+02
 20
-5.91609650E+01
 11
-2.13310184E+02
 21
-6.31609650E+01
  0
LINE
  8
0
 62
7
 10
-2.12810184E+02
 20
-6.36609646E+01
 11
-2.13310185E+02
 21
-6.31609641E+01
  0
LINE
  8
0
 62
7
 10
-2.13310185E+02
 20
-5.91609599E+01
 11
-2.12810184E+02
 21
-5.86609593E+01
  0
LINE
  8
0
 62
7
 10
-2.14310186E+02
 20
-6.68659593E+01
 11
-2.13810185E+02
 21
-6.63659588E+01
  0
LINE
  8
0
 62
7
 10
-2.14310186E+02
 20
-6.88659614E+01
 11
-2.13810185E+02
 21
-6.93659619E+01
  0
LINE
  8
0
 62
7
 10
-2.08310184E+02
 20
-5.91609650E+01
 11
-2.08310184E+02
 21
-6.31609650E+01
  0
LINE
  8
0
 62
7
 10
-2.08310179E+02
 20
-5.91609599E+01
 11
-2.08810180E+02
 21
-5.86609593E+01
  0
LINE
  8
0
 62
7
 10
-2.08310185E+02
 20
-6.31609587E+01
 11
-2.08810185E+02
 21
-6.36609592E+01
  0
LINE
  8
0
 62
7
 10
-2.07310184E+02
 20
-6.68659647E+01
 11
-2.07810184E+02
 21
-6.63659642E+01
  0
LINE
  8
0
 62
7
 10
-2.09560184E+02
 20
-6.36609650E+01
 11
-2.09560184E+02
 21
-6.63659515E+01
  0
LINE
  8
0
 62
7
 10
-2.07310184E+02
 20
-6.88659515E+01
 11
-2.07310184E+02
 21
-6.68659515E+01
  0
LINE
  8
0
 62
7
 10
-2.07810184E+02
 20
-6.63659515E+01
 11
-2.13810184E+02
 21
-6.63659515E+01
  0
LINE
  8
0
 62
7
 10
-2.12810184E+02
 20
-6.36609650E+01
 11
-2.08810184E+02
 21
-6.36609650E+01
  0
LINE
  8
0
 62
7
 10
-2.08810184E+02
 20
-5.86609650E+01
 11
-2.12810184E+02
 21
-5.86609650E+01
  0
LINE
  8
0
 62
7
 10
-2.15110184E+02
 20
-7.03659592E+01
 11
-2.04610184E+02
 21
-7.03659592E+01
  0
LINE
  8
0
 62
7
 10
-2.04860184E+02
 20
-1.45375675E+02
 11
-2.04610184E+02
 21
-1.45375675E+02
  0
LINE
  8
0
 62
7
 10
-2.14860184E+02
 20
-1.45375675E+02
 11
-2.15110184E+02
 21
-1.45375675E+02
  0
LINE
  8
0
 62
6
 10
-2.14860184E+02
 20
-1.65372934E+02
 11
-2.04860184E+02
 21
-1.65372934E+02
  0
LINE
  8
0
 62
6
 10
-2.14860184E+02
 20
-1.45372936E+02
 11
-2.04860184E+02
 21
-1.45372936E+02
  0
LINE
  8
0
  6
PHANTOM
 62
2
 10
-2.14960182E+02
 20
-1.45375675E+02
 11
-2.04760183E+02
 21
-1.45375675E+02
  0
LINE
  8
0
 62
6
 10
-2.14860184E+02
 20
-1.65372934E+02
 11
-2.14860184E+02
 21
-1.13675674E+02
  0
LINE
  8
0
 62
6
 10
-2.04860184E+02
 20
-1.65372934E+02
 11
-2.04860184E+02
 21
-1.13675674E+02
  0
LINE
  8
0
  6
CENTER
 62
6
 10
-2.08860184E+02
 20
-1.36875675E+02
 11
-1.99860184E+02
 21
-1.36875675E+02
  0
LINE
  8
0
  6
CENTER
 62
6
 10
-2.20660183E+02
 20
-1.36875675E+02
 11
-2.10860184E+02
 21
-1.36875675E+02
  0
LINE
  8
0
  6
CENTER
 62
6
 10
-2.08860184E+02
 20
-7.88659592E+01
 11
-1.99860184E+02
 21
-7.88659592E+01
  0
LINE
  8
0
  6
CENTER
 62
2
 10
-2.16609047E+02
 20
-1.81372934E+02
 11
-1.92279344E+02
 21
-1.81372934E+02
  0
LINE
  8
0
 62
6
 10
-2.03860184E+02
 20
-1.65372934E+02
 11
-2.03860184E+02
 21
-1.13675674E+02
  0
LINE
  8
0
 62
6
 10
-1.93860184E+02
 20
-1.65372934E+02
 11
-1.93860184E+02
 21
-1.13675674E+02
  0
LINE
  8
0
  6
CENTER
 62
2
 10
-2.49360184E+02
 20
-1.41872936E+02
 11
-1.91360184E+02
 21
-1.41872936E+02
  0
LINE
  8
0
  6
CENTER
 62
2
 10
-2.69360184E+02
 20
-7.43756714E+01
 11
-1.91360184E+02
 21
-7.43756714E+01
  0
LINE
  8
0
 62
7
 10
-2.47610184E+02
 20
-8.03714371E+01
 11
-2.47360184E+02
 21
-8.03714371E+01
  0
LINE
  8
0
 62
7
 10
-2.47610184E+02
 20
-9.13714371E+01
 11
-2.47360184E+02
 21
-9.13714371E+01
  0
LINE
  8
0
 62
7
 10
-2.47610184E+02
 20
-9.66714401E+01
 11
-2.47360184E+02
 21
-9.66714401E+01
  0
LINE
  8
0
 62
7
 10
-2.47610184E+02
 20
-1.37671436E+02
 11
-2.47360184E+02
 21
-1.37671436E+02
  0
LINE
  8
0
 62
7
 10
-2.47360184E+02
 20
-8.03714371E+01
 11
-2.47110184E+02
 21
-8.03714371E+01
  0
LINE
  8
0
 62
7
 10
-2.47360184E+02
 20
-9.13714371E+01
 11
-2.47110184E+02
 21
-9.13714371E+01
  0
LINE
  8
0
 62
7
 10
-2.47360184E+02
 20
-9.66714401E+01
 11
-2.47110184E+02
 21
-9.66714401E+01
  0
LINE
  8
0
 62
7
 10
-2.47360184E+02
 20
-1.37671436E+02
 11
-2.47110184E+02
 21
-1.37671436E+02
  0
LINE
  8
0
 62
7
 10
-2.31610184E+02
 20
-8.03714371E+01
 11
-2.31360184E+02
 21
-8.03714371E+01
  0
LINE
  8
0
 62
7
 10
-2.31610184E+02
 20
-9.13714371E+01
 11
-2.31360184E+02
 21
-9.13714371E+01
  0
LINE
  8
0
 62
7
 10
-2.31610184E+02
 20
-9.66714401E+01
 11
-2.31360184E+02
 21
-9.66714401E+01
  0
LINE
  8
0
 62
7
 10
-2.31610184E+02
 20
-1.37671436E+02
 11
-2.31360184E+02
 21
-1.37671436E+02
  0
LINE
  8
0
 62
7
 10
-2.31360184E+02
 20
-8.03714371E+01
 11
-2.31110184E+02
 21
-8.03714371E+01
  0
LINE
  8
0
 62
7
 10
-2.31360184E+02
 20
-9.13714371E+01
 11
-2.31110184E+02
 21
-9.13714371E+01
  0
LINE
  8
0
 62
7
 10
-2.31360184E+02
 20
-9.66714401E+01
 11
-2.31110184E+02
 21
-9.66714401E+01
  0
LINE
  8
0
 62
7
 10
-2.31360184E+02
 20
-1.37671436E+02
 11
-2.31110184E+02
 21
-1.37671436E+02
  0
LINE
  8
0
 62
7
 10
-2.15610184E+02
 20
-8.03714371E+01
 11
-2.15360184E+02
 21
-8.03714371E+01
  0
LINE
  8
0
 62
7
 10
-2.15610184E+02
 20
-9.13714371E+01
 11
-2.15360184E+02
 21
-9.13714371E+01
  0
LINE
  8
0
 62
7
 10
-2.15610184E+02
 20
-9.66714401E+01
 11
-2.15360184E+02
 21
-9.66714401E+01
  0
LINE
  8
0
 62
7
 10
-2.15610184E+02
 20
-1.37671436E+02
 11
-2.15360184E+02
 21
-1.37671436E+02
  0
LINE
  8
0
 62
7
 10
-2.15360184E+02
 20
-8.03714371E+01
 11
-2.15110184E+02
 21
-8.03714371E+01
  0
LINE
  8
0
 62
7
 10
-2.15360184E+02
 20
-9.13714371E+01
 11
-2.15110184E+02
 21
-9.13714371E+01
  0
LINE
  8
0
 62
7
 10
-2.15360184E+02
 20
-9.66714401E+01
 11
-2.15110184E+02
 21
-9.66714401E+01
  0
LINE
  8
0
 62
7
 10
-2.15360184E+02
 20
-1.37671436E+02
 11
-2.15110184E+02
 21
-1.37671436E+02
  0
LINE
  8
0
 62
7
 10
-2.04610184E+02
 20
-8.03714371E+01
 11
-2.04360184E+02
 21
-8.03714371E+01
  0
LINE
  8
0
 62
7
 10
-2.04610184E+02
 20
-9.13714371E+01
 11
-2.04360184E+02
 21
-9.13714371E+01
  0
LINE
  8
0
 62
7
 10
-2.04610184E+02
 20
-9.66714401E+01
 11
-2.04360184E+02
 21
-9.66714401E+01
  0
LINE
  8
0
 62
7
 10
-2.04610184E+02
 20
-1.37671436E+02
 11
-2.04360184E+02
 21
-1.37671436E+02
  0
LINE
  8
0
 62
7
 10
-2.04360184E+02
 20
-8.03714371E+01
 11
-2.04110184E+02
 21
-8.03714371E+01
  0
LINE
  8
0
 62
7
 10
-2.04360184E+02
 20
-9.13714371E+01
 11
-2.04110184E+02
 21
-9.13714371E+01
  0
LINE
  8
0
 62
7
 10
-2.04360184E+02
 20
-9.66714401E+01
 11
-2.04110184E+02
 21
-9.66714401E+01
  0
LINE
  8
0
 62
7
 10
-2.04360184E+02
 20
-1.37671436E+02
 11
-2.04110184E+02
 21
-1.37671436E+02
  0
LINE
  8
0
 62
7
 10
-1.93610184E+02
 20
-8.03714371E+01
 11
-1.93360184E+02
 21
-8.03714371E+01
  0
LINE
  8
0
 62
7
 10
-1.93610184E+02
 20
-9.13714371E+01
 11
-1.93360184E+02
 21
-9.13714371E+01
  0
LINE
  8
0
 62
7
 10
-1.93610184E+02
 20
-9.66714401E+01
 11
-1.93360184E+02
 21
-9.66714401E+01
  0
LINE
  8
0
 62
7
 10
-1.93610184E+02
 20
-1.37671436E+02
 11
-1.93360184E+02
 21
-1.37671436E+02
  0
LINE
  8
0
  6
CENTER
 62
2
 10
-1.82860184E+02
 20
-1.83613788E+02
 11
-1.82860184E+02
 21
-2.02138285E+02
  0
LINE
  8
0
  6
CENTER
 62
2
 10
-2.76860184E+02
 20
-1.83613788E+02
 11
-2.76860184E+02
 21
-2.02138285E+02
  0
LINE
  8
0
 62
6
 10
-2.64360184E+02
 20
-1.45872936E+02
 11
-2.49360184E+02
 21
-1.45872936E+02
  0
LINE
  8
0
 62
6
 10
-2.49360184E+02
 20
-1.69872934E+02
 11
-2.49360184E+02
 21
-1.45872936E+02
  0
LINE
  8
0
 62
6
 10
-2.64360184E+02
 20
-1.69872934E+02
 11
-2.64360184E+02
 21
-1.45872936E+02
  0
LINE
  8
0
 62
6
 10
-2.64360184E+02
 20
-1.69872934E+02
 11
-2.49360184E+02
 21
-1.69872934E+02
  0
LINE
  8
0
 62
7
 10
-1.77860184E+02
 20
-9.45686951E+01
 11
-1.78860184E+02
 21
-9.45686951E+01
  0
LINE
  8
0
 62
7
 10
-1.52260183E+02
 20
-9.61186981E+01
 11
-1.52260183E+02
 21
-1.01618698E+02
  0
LINE
  8
0
 62
7
 10
-1.55260183E+02
 20
-9.61186981E+01
 11
-1.52260183E+02
 21
-9.61186981E+01
  0
LINE
  8
0
 62
7
 10
-1.55260183E+02
 20
-1.01618698E+02
 11
-1.52260183E+02
 21
-1.01618698E+02
  0
LINE
  8
0
  6
CENTER
 62
2
 10
-1.55650024E+02
 20
-9.88686981E+01
 11
-1.51854715E+02
 21
-9.88686981E+01
  0
LINE
  8
0
 62
7
 10
-1.55260183E+02
 20
-9.58686981E+01
 11
-1.78860184E+02
 21
-9.58686981E+01
  0
LINE
  8
0
 62
7
 10
-1.77860184E+02
 20
-7.03686981E+01
 11
-1.77860184E+02
 21
-9.45686951E+01
  0
LINE
  8
0
 62
7
 10
-1.77860184E+02
 20
-1.20568695E+02
 11
-1.78860184E+02
 21
-1.20568695E+02
  0
LINE
  8
0
 62
7
 10
-1.52260183E+02
 20
-1.60118698E+02
 11
-1.52260183E+02
 21
-1.65618698E+02
  0
LINE
  8
0
 62
7
 10
-1.55260183E+02
 20
-1.60118698E+02
 11
-1.52260183E+02
 21
-1.60118698E+02
  0
LINE
  8
0
 62
7
 10
-1.55260183E+02
 20
-1.65618698E+02
 11
-1.52260183E+02
 21
-1.65618698E+02
  0
LINE
  8
0
  6
CENTER
 62
2
 10
-1.55650024E+02
 20
-1.62868698E+02
 11
-1.51854715E+02
 21
-1.62868698E+02
  0
LINE
  8
0
 62
7
 10
-1.52260183E+02
 20
-1.05118698E+02
 11
-1.52260183E+02
 21
-1.10618698E+02
  0
LINE
  8
0
 62
7
 10
-1.55260183E+02
 20
-1.05118698E+02
 11
-1.52260183E+02
 21
-1.05118698E+02
  0
LINE
  8
0
 62
7
 10
-1.55260183E+02
 20
-1.10618698E+02
 11
-1.52260183E+02
 21
-1.10618698E+02
  0
LINE
  8
0
  6
CENTER
 62
2
 10
-1.55650024E+02
 20
-1.07868698E+02
 11
-1.51854715E+02
 21
-1.07868698E+02
  0
LINE
  8
0
 62
7
 10
-1.55260183E+02
 20
-1.65868698E+02
 11
-1.77860184E+02
 21
-1.65868698E+02
  0
LINE
  8
0
 62
7
 10
-1.78860184E+02
 20
-1.19868698E+02
 11
-1.77860184E+02
 21
-1.19868698E+02
  0
LINE
  8
0
 62
7
 10
-1.56860184E+02
 20
-1.65868698E+02
 11
-1.56860184E+02
 21
-9.58686981E+01
  0
LINE
  8
0
 62
7
 10
-1.55260183E+02
 20
-1.65868698E+02
 11
-1.55260183E+02
 21
-9.58686981E+01
  0
LINE
  8
0
 62
7
 10
-1.78860184E+02
 20
-9.45686951E+01
 11
-1.78860184E+02
 21
-1.20568695E+02
  0
LINE
  8
0
 62
7
 10
-1.77860184E+02
 20
-1.19868698E+02
 11
-1.77860184E+02
 21
-1.97368698E+02
  0
LINE
  8
0
 62
7
 10
-2.82460182E+02
 20
-9.45686951E+01
 11
-2.80860184E+02
 21
-9.45686951E+01
  0
LINE
  8
0
 62
7
 10
-2.80860184E+02
 20
-9.45686951E+01
 11
-2.80860184E+02
 21
-1.20568695E+02
  0
LINE
  8
0
 62
7
 10
-2.82460182E+02
 20
-1.20568695E+02
 11
-2.80860184E+02
 21
-1.20568695E+02
  0
LINE
  8
0
 62
7
 10
-2.82460182E+02
 20
-9.45686951E+01
 11
-2.82460182E+02
 21
-1.20568695E+02
  0
LINE
  8
0
 62
7
 10
-2.85460182E+02
 20
-9.61186981E+01
 11
-2.85460182E+02
 21
-1.01618698E+02
  0
LINE
  8
0
 62
7
 10
-2.82460182E+02
 20
-9.61186981E+01
 11
-2.85460182E+02
 21
-9.61186981E+01
  0
LINE
  8
0
 62
7
 10
-2.82460182E+02
 20
-1.01618698E+02
 11
-2.85460182E+02
 21
-1.01618698E+02
  0
LINE
  8
0
 62
7
 10
-2.85460182E+02
 20
-1.05118698E+02
 11
-2.85460182E+02
 21
-1.10618698E+02
  0
LINE
  8
0
 62
7
 10
-2.82460182E+02
 20
-1.05118698E+02
 11
-2.85460182E+02
 21
-1.05118698E+02
  0
LINE
  8
0
 62
7
 10
-2.82460182E+02
 20
-1.10618698E+02
 11
-2.85460182E+02
 21
-1.10618698E+02
  0
LINE
  8
0
 62
7
 10
-2.85460182E+02
 20
-1.14118698E+02
 11
-2.85460182E+02
 21
-1.19618698E+02
  0
LINE
  8
0
 62
7
 10
-2.82460182E+02
 20
-1.14118698E+02
 11
-2.85460182E+02
 21
-1.14118698E+02
  0
LINE
  8
0
 62
7
 10
-2.82460182E+02
 20
-1.19618698E+02
 11
-2.85460182E+02
 21
-1.19618698E+02
  0
LINE
  8
0
  6
CENTER
 62
2
 10
-2.77960182E+02
 20
-9.88686981E+01
 11
-2.88076546E+02
 21
-9.88686981E+01
  0
LINE
  8
0
  6
CENTER
 62
2
 10
-2.77960182E+02
 20
-1.07868698E+02
 11
-2.88076546E+02
 21
-1.07868698E+02
  0
LINE
  8
0
  6
CENTER
 62
2
 10
-2.77960182E+02
 20
-1.16868698E+02
 11
-2.88076546E+02
 21
-1.16868698E+02
  0
LINE
  8
0
 62
7
 10
-2.81860184E+02
 20
-7.03659592E+01
 11
-2.81860184E+02
 21
-9.45659561E+01
  0
LINE
  8
0
 62
7
 10
-2.81860184E+02
 20
-1.20568695E+02
 11
-2.81860184E+02
 21
-1.97375958E+02
  0
LINE
  8
0
  6
CENTER
 62
2
 10
-2.34760185E+02
 20
-1.70376093E+02
 11
-2.34760185E+02
 21
-1.62638451E+02
  0
LINE
  8
0
  6
CENTER
 62
2
 10
-2.37597122E+02
 20
-1.66285391E+02
 11
-2.31795422E+02
 21
-1.66285391E+02
  0
LINE
  8
0
  6
CENTER
 62
2
 10
-2.18760185E+02
 20
-1.70376093E+02
 11
-2.18760185E+02
 21
-1.62638451E+02
  0
LINE
  8
0
  6
CENTER
 62
2
 10
-2.21597122E+02
 20
-1.66285391E+02
 11
-2.15795422E+02
 21
-1.66285391E+02
  0
CIRCLE
  8
0
 62
6
 10
-2.52260185E+02
 20
-1.26678413E+02
 40
8.75000000E-01
  0
ARC
  8
0
 62
6
 10
-2.52260185E+02
 20
-1.26678413E+02
 40
2.00000000E+00
 50
2.70000000E+02
 51
9.00000002E+01
  0
CIRCLE
  8
0
 62
6
 10
-2.58060181E+02
 20
-1.26678413E+02
 40
8.75000000E-01
  0
ARC
  8
0
 62
6
 10
-2.58060181E+02
 20
-1.26678413E+02
 40
2.00000000E+00
 50
9.00000002E+01
 51
2.70000000E+02
  0
CIRCLE
  8
0
 62
6
 10
-2.55660187E+02
 20
-7.90784149E+01
 40
8.75000000E-01
  0
ARC
  8
0
 62
6
 10
-2.55660187E+02
 20
-7.90784149E+01
 40
2.00000000E+00
 50
2.70000000E+02
 51
9.00000002E+01
  0
ARC
  8
0
 62
6
 10
-2.61460182E+02
 20
-7.90784149E+01
 40
2.00000000E+00
 50
9.00000002E+01
 51
2.70000000E+02
  0
CIRCLE
  8
0
 62
6
 10
-2.61460182E+02
 20
-7.90784149E+01
 40
8.75000000E-01
  0
ARC
  8
0
 62
7
 10
-2.64055183E+02
 20
-1.42878414E+02
 40
2.50000000E+00
 50
2.33130097E+02
 51
3.06869898E+02
  0
ARC
  8
0
 62
7
 10
-2.63360184E+02
 20
-9.23784180E+01
 40
2.70000005E+00
 50
2.70000000E+02
 51
6.03127398E-13
  0
CIRCLE
  8
0
 62
6
 10
-2.58560181E+02
 20
-7.06284180E+01
 40
2.04999995E+00
  0
ARC
  8
0
 62
6
 10
-2.55060181E+02
 20
-6.88784180E+01
 40
1.60000002E+00
 50
9.00000002E+01
 51
2.70000000E+02
  0
ARC
  8
0
 62
6
 10
-2.62060181E+02
 20
-6.88784180E+01
 40
1.60000002E+00
 50
2.70000000E+02
 51
9.00000002E+01
  0
CIRCLE
  8
0
 62
6
 10
-2.58560181E+02
 20
-7.06284180E+01
 40
1.85000002E+00
  0
ARC
  8
0
 62
6
 10
-2.58560181E+02
 20
-7.06284180E+01
 40
8.00000012E-01
 50
2.02024309E+02
 51
3.37975688E+02
  0
ARC
  8
0
 62
6
 10
-2.58560181E+02
 20
-7.06284180E+01
 40
8.00000012E-01
 50
2.20243121E+01
 51
1.57975691E+02
  0
CIRCLE
  8
0
 62
6
 10
-2.55060181E+02
 20
-6.88784180E+01
 40
1.50000000E+00
  0
CIRCLE
  8
0
 62
6
 10
-2.62060181E+02
 20
-6.88784180E+01
 40
1.50000000E+00
  0
ARC
  8
0
 62
6
 10
-2.53860184E+02
 20
-9.20784149E+01
 40
3.00000012E-01
 50
2.70000000E+02
 51
0.00000000E+00
  0
ARC
  8
0
 62
6
 10
-2.63260185E+02
 20
-9.20784149E+01
 40
3.00000012E-01
 50
1.79999995E+02
 51
2.70000000E+02
  0
ARC
  8
0
 62
7
 10
-2.63360184E+02
 20
-9.23784180E+01
 40
2.50000000E+00
 50
9.45885648E+01
 51
1.00179126E-05
  0
ARC
  8
0
 62
7
 10
-2.49665184E+02
 20
-6.28784180E+01
 40
2.50000000E+00
 50
5.31301018E+01
 51
1.26869903E+02
  0
ARC
  8
0
 62
7
 10
-2.50360184E+02
 20
-1.14878418E+02
 40
2.50000000E+00
 50
2.74588566E+02
 51
1.43130097E+02
  0
CIRCLE
  8
0
  6
PHANTOM
 62
2
 10
-2.52760185E+02
 20
-1.65975674E+02
 40
3.00000012E-01
  0
CIRCLE
  8
0
  6
PHANTOM
 62
2
 10
-2.52760185E+02
 20
-1.66975674E+02
 40
3.00000012E-01
  0
CIRCLE
  8
0
  6
PHANTOM
 62
2
 10
-2.51760185E+02
 20
-1.66975674E+02
 40
3.00000012E-01
  0
CIRCLE
  8
0
  6
PHANTOM
 62
2
 10
-2.51760185E+02
 20
-1.65975674E+02
 40
3.00000012E-01
  0
CIRCLE
  8
0
  6
PHANTOM
 62
2
 10
-2.52260185E+02
 20
-1.66475674E+02
 40
1.20000005E+00
  0
ARC
  8
0
 62
7
 10
-2.50360184E+02
 20
-1.14878418E+02
 40
2.70000005E+00
 50
9.00000002E+01
 51
1.46251016E+02
  0
ARC
  8
0
 62
7
 10
-2.51260185E+02
 20
-6.11784210E+01
 40
2.00000003E-01
 50
1.79999995E+02
 51
2.70000000E+02
  0
ARC
  8
0
 62
7
 10
-2.62460182E+02
 20
-1.44578415E+02
 40
2.00000003E-01
 50
3.54080197E+02
 51
9.00000002E+01
  0
CIRCLE
  8
0
 62
7
 10
-2.56860184E+02
 20
-1.82875674E+02
 40
4.94999981E+00
  0
CIRCLE
  8
0
  6
PHANTOM
 62
2
 10
-2.52260185E+02
 20
-1.66475674E+02
 40
1.89999998E+00
  0
ARC
  8
0
  6
PHANTOM
 62
2
 10
-2.49960182E+02
 20
-1.69885391E+02
 40
5.00000000E-01
 50
2.70000000E+02
 51
0.00000000E+00
  0
ARC
  8
0
  6
PHANTOM
 62
2
 10
-2.54560181E+02
 20
-1.69885391E+02
 40
5.00000000E-01
 50
1.79999995E+02
 51
2.70000000E+02
  0
ARC
  8
0
  6
PHANTOM
 62
2
 10
-2.49960182E+02
 20
-1.63285389E+02
 40
5.00000000E-01
 50
0.00000000E+00
 51
9.00000002E+01
  0
ARC
  8
0
  6
PHANTOM
 62
2
 10
-2.54560181E+02
 20
-1.63285389E+02
 40
5.00000000E-01
 50
9.00000002E+01
 51
1.80000005E+02
  0
CIRCLE
  8
0
  6
PHANTOM
 62
2
 10
-2.61360184E+02
 20
-1.63688129E+02
 40
1.75000000E+00
  0
CIRCLE
  8
0
  6
PHANTOM
 62
2
 10
-2.61360184E+02
 20
-1.55688129E+02
 40
1.75000000E+00
  0
ARC
  8
0
  6
PHANTOM
 62
2
 10
-2.63860184E+02
 20
-1.52375675E+02
 40
5.00000000E-01
 50
1.79999995E+02
 51
2.70000000E+02
  0
ARC
  8
0
  6
PHANTOM
 62
2
 10
-2.49860184E+02
 20
-1.52375675E+02
 40
5.00000000E-01
 50
2.70000000E+02
 51
0.00000000E+00
  0
ARC
  8
0
  6
PHANTOM
 62
2
 10
-2.62110184E+02
 20
-1.50075676E+02
 40
5.00000000E-01
 50
1.79999995E+02
 51
2.70000000E+02
  0
ARC
  8
0
  6
PHANTOM
 62
2
 10
-2.51610184E+02
 20
-1.50075676E+02
 40
5.00000000E-01
 50
2.70000000E+02
 51
0.00000000E+00
  0
ARC
  8
0
  6
PHANTOM
 62
2
 10
-2.62110184E+02
 20
-1.45075676E+02
 40
5.00000000E-01
 50
9.00000002E+01
 51
1.80000005E+02
  0
ARC
  8
0
  6
PHANTOM
 62
2
 10
-2.51610184E+02
 20
-1.45075676E+02
 40
5.00000000E-01
 50
0.00000000E+00
 51
9.00000002E+01
  0
ARC
  8
0
  6
PHANTOM
 62
2
 10
-2.63860184E+02
 20
-1.46075676E+02
 40
5.00000000E-01
 50
9.00000002E+01
 51
1.80000005E+02
  0
ARC
  8
0
  6
PHANTOM
 62
2
 10
-2.63860184E+02
 20
-1.69875675E+02
 40
5.00000000E-01
 50
1.79999995E+02
 51
2.70000000E+02
  0
ARC
  8
0
  6
PHANTOM
 62
2
 10
-2.49860184E+02
 20
-1.69875675E+02
 40
5.00000000E-01
 50
2.70000000E+02
 51
0.00000000E+00
  0
ARC
  8
0
  6
PHANTOM
 62
2
 10
-2.49860184E+02
 20
-1.46075676E+02
 40
5.00000000E-01
 50
0.00000000E+00
 51
9.00000002E+01
  0
ARC
  8
0
 62
7
 10
-2.63860184E+02
 20
-1.87885391E+02
 40
5.00000000E-01
 50
1.79999995E+02
 51
2.70000000E+02
  0
ARC
  8
0
 62
7
 10
-2.49860184E+02
 20
-1.87885391E+02
 40
5.00000000E-01
 50
2.70000000E+02
 51
0.00000000E+00
  0
ARC
  8
0
 62
7
 10
-2.49860184E+02
 20
-1.70885391E+02
 40
5.00000000E-01
 50
0.00000000E+00
 51
9.00000002E+01
  0
ARC
  8
0
 62
7
 10
-2.63860184E+02
 20
-1.70885391E+02
 40
5.00000000E-01
 50
9.00000002E+01
 51
1.80000005E+02
  0
ARC
  8
0
 62
6
 10
-2.59860184E+02
 20
-1.13678413E+02
 40
3.00000012E-01
 50
9.00000002E+01
 51
1.80000005E+02
  0
ARC
  8
0
 62
6
 10
-2.50460182E+02
 20
-1.13678413E+02
 40
3.00000012E-01
 50
0.00000000E+00
 51
9.00000002E+01
  0
CIRCLE
  8
0
 62
6
 10
-2.55160187E+02
 20
-1.35128414E+02
 40
2.04999995E+00
  0
ARC
  8
0
 62
6
 10
-2.58660187E+02
 20
-1.36878414E+02
 40
1.60000002E+00
 50
2.70000000E+02
 51
9.00000002E+01
  0
ARC
  8
0
 62
6
 10
-2.51660187E+02
 20
-1.36878414E+02
 40
1.60000002E+00
 50
9.00000002E+01
 51
2.70000000E+02
  0
CIRCLE
  8
0
 62
6
 10
-2.55160187E+02
 20
-1.35128414E+02
 40
1.85000002E+00
  0
ARC
  8
0
 62
6
 10
-2.55160187E+02
 20
-1.35128414E+02
 40
8.00000012E-01
 50
2.20243121E+01
 51
1.57975691E+02
  0
ARC
  8
0
 62
6
 10
-2.55160187E+02
 20
-1.35128414E+02
 40
8.00000012E-01
 50
2.02024309E+02
 51
3.37975688E+02
  0
CIRCLE
  8
0
 62
6
 10
-2.58660187E+02
 20
-1.36878414E+02
 40
1.50000000E+00
  0
CIRCLE
  8
0
 62
6
 10
-2.51660187E+02
 20
-1.36878414E+02
 40
1.50000000E+00
  0
CIRCLE
  8
0
 62
6
 10
-2.18760185E+02
 20
-1.26675674E+02
 40
8.75000000E-01
  0
ARC
  8
0
 62
6
 10
-2.18760185E+02
 20
-1.26675674E+02
 40
2.00000000E+00
 50
2.70000000E+02
 51
9.00000002E+01
  0
CIRCLE
  8
0
 62
6
 10
-2.24560184E+02
 20
-1.26675674E+02
 40
8.75000000E-01
  0
ARC
  8
0
 62
6
 10
-2.24560184E+02
 20
-1.26675674E+02
 40
2.00000000E+00
 50
9.00000002E+01
 51
2.70000000E+02
  0
CIRCLE
  8
0
 62
6
 10
-2.27960182E+02
 20
-8.90756760E+01
 40
8.75000000E-01
  0
ARC
  8
0
 62
6
 10
-2.27960182E+02
 20
-8.90756760E+01
 40
2.00000000E+00
 50
9.00000002E+01
 51
2.70000000E+02
  0
CIRCLE
  8
0
 62
6
 10
-2.22160183E+02
 20
-8.90756760E+01
 40
8.75000000E-01
  0
ARC
  8
0
 62
6
 10
-2.22160183E+02
 20
-8.90756760E+01
 40
2.00000000E+00
 50
2.70000000E+02
 51
9.00000002E+01
  0
ARC
  8
0
 62
7
 10
-2.29055183E+02
 20
-1.42875675E+02
 40
2.50000000E+00
 50
2.33130097E+02
 51
3.06869898E+02
  0
ARC
  8
0
 62
7
 10
-2.27460182E+02
 20
-1.44575676E+02
 40
2.00000003E-01
 50
0.00000000E+00
 51
9.00000002E+01
  0
ARC
  8
0
 62
7
 10
-2.17665184E+02
 20
-7.28756714E+01
 40
2.50000000E+00
 50
5.31301018E+01
 51
1.26869903E+02
  0
ARC
  8
0
 62
7
 10
-2.19260185E+02
 20
-7.11756744E+01
 40
2.00000003E-01
 50
1.79999995E+02
 51
2.70000000E+02
  0
ARC
  8
0
 62
7
 10
-2.28360184E+02
 20
-1.00375671E+02
 40
2.70000005E+00
 50
2.70000000E+02
 51
3.12205447E+02
  0
ARC
  8
0
 62
7
 10
-2.18360184E+02
 20
-1.14875671E+02
 40
2.70000005E+00
 50
9.00000002E+01
 51
1.46251016E+02
  0
ARC
  8
0
 62
7
 10
-2.18360184E+02
 20
-1.14875671E+02
 40
2.50000000E+00
 50
3.12843643E+02
 51
1.43130097E+02
  0
ARC
  8
0
 62
7
 10
-2.28360184E+02
 20
-1.00375671E+02
 40
2.50000000E+00
 50
1.32843641E+02
 51
3.06869908E+02
  0
CIRCLE
  8
0
  6
PHANTOM
 62
2
 10
-2.18760185E+02
 20
-1.66285391E+02
 40
1.89999998E+00
  0
ARC
  8
0
  6
PHANTOM
 62
2
 10
-2.16460182E+02
 20
-1.69585390E+02
 40
5.00000000E-01
 50
2.70000000E+02
 51
0.00000000E+00
  0
ARC
  8
0
  6
PHANTOM
 62
2
 10
-2.21060184E+02
 20
-1.69585390E+02
 40
5.00000000E-01
 50
1.79999995E+02
 51
2.70000000E+02
  0
ARC
  8
0
  6
PHANTOM
 62
2
 10
-2.16460182E+02
 20
-1.62985390E+02
 40
5.00000000E-01
 50
0.00000000E+00
 51
9.00000002E+01
  0
ARC
  8
0
  6
PHANTOM
 62
2
 10
-2.21060184E+02
 20
-1.62985390E+02
 40
5.00000000E-01
 50
9.00000002E+01
 51
1.80000005E+02
  0
CIRCLE
  8
0
  6
PHANTOM
 62
2
 10
-2.27860184E+02
 20
-1.63685390E+02
 40
1.75000000E+00
  0
CIRCLE
  8
0
  6
PHANTOM
 62
2
 10
-2.27860184E+02
 20
-1.55685390E+02
 40
1.75000000E+00
  0
ARC
  8
0
  6
PHANTOM
 62
2
 10
-2.30360184E+02
 20
-1.52185390E+02
 40
5.00000000E-01
 50
1.79999995E+02
 51
2.70000000E+02
  0
ARC
  8
0
  6
PHANTOM
 62
2
 10
-2.16360184E+02
 20
-1.52185390E+02
 40
5.00000000E-01
 50
2.70000000E+02
 51
0.00000000E+00
  0
ARC
  8
0
  6
PHANTOM
 62
2
 10
-2.28610184E+02
 20
-1.49885391E+02
 40
5.00000000E-01
 50
1.79999995E+02
 51
2.70000000E+02
  0
ARC
  8
0
  6
PHANTOM
 62
2
 10
-2.18110184E+02
 20
-1.49885391E+02
 40
5.00000000E-01
 50
2.70000000E+02
 51
0.00000000E+00
  0
ARC
  8
0
  6
PHANTOM
 62
2
 10
-2.28610184E+02
 20
-1.44885391E+02
 40
5.00000000E-01
 50
9.00000002E+01
 51
1.80000005E+02
  0
ARC
  8
0
  6
PHANTOM
 62
2
 10
-2.18110184E+02
 20
-1.44885391E+02
 40
5.00000000E-01
 50
0.00000000E+00
 51
9.00000002E+01
  0
ARC
  8
0
  6
PHANTOM
 62
2
 10
-2.30360184E+02
 20
-1.45885391E+02
 40
5.00000000E-01
 50
9.00000002E+01
 51
1.80000005E+02
  0
ARC
  8
0
  6
PHANTOM
 62
2
 10
-2.30360184E+02
 20
-1.69685390E+02
 40
5.00000000E-01
 50
1.79999995E+02
 51
2.70000000E+02
  0
ARC
  8
0
  6
PHANTOM
 62
2
 10
-2.16360184E+02
 20
-1.69685390E+02
 40
5.00000000E-01
 50
2.70000000E+02
 51
0.00000000E+00
  0
ARC
  8
0
  6
PHANTOM
 62
2
 10
-2.16360184E+02
 20
-1.45885391E+02
 40
5.00000000E-01
 50
0.00000000E+00
 51
9.00000002E+01
  0
CIRCLE
  8
0
 62
7
 10
-2.23360184E+02
 20
-1.82672935E+02
 40
4.94999981E+00
  0
ARC
  8
0
 62
7
 10
-2.30360184E+02
 20
-1.87882651E+02
 40
5.00000000E-01
 50
1.79999995E+02
 51
2.70000000E+02
  0
ARC
  8
0
 62
7
 10
-2.16360184E+02
 20
-1.87882651E+02
 40
5.00000000E-01
 50
2.70000000E+02
 51
0.00000000E+00
  0
ARC
  8
0
 62
7
 10
-2.16360184E+02
 20
-1.70882650E+02
 40
5.00000000E-01
 50
0.00000000E+00
 51
9.00000002E+01
  0
ARC
  8
0
 62
7
 10
-2.30360184E+02
 20
-1.70882650E+02
 40
5.00000000E-01
 50
9.00000002E+01
 51
1.80000005E+02
  0
ARC
  8
0
 62
7
 10
-2.29760185E+02
 20
-1.02075676E+02
 40
3.00000012E-01
 50
1.79999995E+02
 51
2.70000000E+02
  0
ARC
  8
0
 62
6
 10
-2.20360184E+02
 20
-1.02075676E+02
 40
3.00000012E-01
 50
2.70000000E+02
 51
0.00000000E+00
  0
CIRCLE
  8
0
 62
6
 10
-2.25060184E+02
 20
-8.06256714E+01
 40
2.04999995E+00
  0
ARC
  8
0
 62
6
 10
-2.28560184E+02
 20
-7.88756714E+01
 40
1.60000002E+00
 50
2.70000000E+02
 51
9.00000002E+01
  0
ARC
  8
0
 62
6
 10
-2.21560184E+02
 20
-7.88756714E+01
 40
1.60000002E+00
 50
9.00000002E+01
 51
2.70000000E+02
  0
CIRCLE
  8
0
 62
6
 10
-2.25060184E+02
 20
-8.06256714E+01
 40
1.85000002E+00
  0
ARC
  8
0
 62
6
 10
-2.25060184E+02
 20
-8.06256714E+01
 40
8.00000012E-01
 50
2.02024309E+02
 51
3.37975688E+02
  0
ARC
  8
0
 62
6
 10
-2.25060184E+02
 20
-8.06256714E+01
 40
8.00000012E-01
 50
2.20243121E+01
 51
1.57975691E+02
  0
CIRCLE
  8
0
 62
6
 10
-2.28560184E+02
 20
-7.88756714E+01
 40
1.50000000E+00
  0
CIRCLE
  8
0
 62
6
 10
-2.21560184E+02
 20
-7.88756714E+01
 40
1.50000000E+00
  0
ARC
  8
0
 62
6
 10
-2.26360184E+02
 20
-1.13675674E+02
 40
3.00000012E-01
 50
9.00000002E+01
 51
1.80000005E+02
  0
ARC
  8
0
 62
6
 10
-2.16960182E+02
 20
-1.13675674E+02
 40
3.00000012E-01
 50
0.00000000E+00
 51
9.00000002E+01
  0
CIRCLE
  8
0
 62
6
 10
-2.21660183E+02
 20
-1.35125675E+02
 40
2.04999995E+00
  0
ARC
  8
0
 62
6
 10
-2.25160183E+02
 20
-1.36875675E+02
 40
1.60000002E+00
 50
2.70000000E+02
 51
9.00000002E+01
  0
ARC
  8
0
 62
6
 10
-2.18160183E+02
 20
-1.36875675E+02
 40
1.60000002E+00
 50
9.00000002E+01
 51
2.70000000E+02
  0
CIRCLE
  8
0
 62
6
 10
-2.21660183E+02
 20
-1.35125675E+02
 40
1.85000002E+00
  0
ARC
  8
0
 62
6
 10
-2.21660183E+02
 20
-1.35125675E+02
 40
8.00000012E-01
 50
2.20243121E+01
 51
1.57975691E+02
  0
ARC
  8
0
 62
6
 10
-2.21660183E+02
 20
-1.35125675E+02
 40
8.00000012E-01
 50
2.02024309E+02
 51
3.37975688E+02
  0
CIRCLE
  8
0
 62
6
 10
-2.25160183E+02
 20
-1.36875675E+02
 40
1.50000000E+00
  0
CIRCLE
  8
0
 62
6
 10
-2.18160183E+02
 20
-1.36875675E+02
 40
1.50000000E+00
  0
CIRCLE
  8
0
 62
6
 10
-2.34760185E+02
 20
-1.26675674E+02
 40
8.75000000E-01
  0
ARC
  8
0
 62
6
 10
-2.34760185E+02
 20
-1.26675674E+02
 40
2.00000000E+00
 50
2.70000000E+02
 51
9.00000002E+01
  0
CIRCLE
  8
0
 62
6
 10
-2.40560184E+02
 20
-1.26675674E+02
 40
8.75000000E-01
  0
ARC
  8
0
 62
6
 10
-2.40560184E+02
 20
-1.26675674E+02
 40
2.00000000E+00
 50
9.00000002E+01
 51
2.70000000E+02
  0
CIRCLE
  8
0
 62
6
 10
-2.43960182E+02
 20
-8.90756760E+01
 40
8.75000000E-01
  0
ARC
  8
0
 62
6
 10
-2.43960182E+02
 20
-8.90756760E+01
 40
2.00000000E+00
 50
9.00000002E+01
 51
2.70000000E+02
  0
CIRCLE
  8
0
 62
6
 10
-2.38160183E+02
 20
-8.90756760E+01
 40
8.75000000E-01
  0
ARC
  8
0
 62
6
 10
-2.38160183E+02
 20
-8.90756760E+01
 40
2.00000000E+00
 50
2.70000000E+02
 51
9.00000002E+01
  0
ARC
  8
0
 62
7
 10
-2.45055183E+02
 20
-1.42875675E+02
 40
2.50000000E+00
 50
2.33130097E+02
 51
3.06869898E+02
  0
ARC
  8
0
 62
7
 10
-2.43460182E+02
 20
-1.44575676E+02
 40
2.00000003E-01
 50
0.00000000E+00
 51
9.00000002E+01
  0
ARC
  8
0
 62
7
 10
-2.33665184E+02
 20
-7.28756714E+01
 40
2.50000000E+00
 50
5.31301018E+01
 51
1.26869903E+02
  0
ARC
  8
0
 62
7
 10
-2.35260185E+02
 20
-7.11756744E+01
 40
2.00000003E-01
 50
1.79999995E+02
 51
2.70000000E+02
  0
ARC
  8
0
 62
7
 10
-2.44360184E+02
 20
-1.00375671E+02
 40
2.70000005E+00
 50
2.70000000E+02
 51
3.12205447E+02
  0
ARC
  8
0
 62
7
 10
-2.34360184E+02
 20
-1.14875671E+02
 40
2.70000005E+00
 50
9.00000002E+01
 51
1.46251016E+02
  0
ARC
  8
0
 62
7
 10
-2.34360184E+02
 20
-1.14875671E+02
 40
2.50000000E+00
 50
3.12843643E+02
 51
1.43130097E+02
  0
ARC
  8
0
 62
7
 10
-2.44360184E+02
 20
-1.00375671E+02
 40
2.50000000E+00
 50
1.32843641E+02
 51
3.06869908E+02
  0
CIRCLE
  8
0
  6
PHANTOM
 62
2
 10
-2.34760185E+02
 20
-1.66285391E+02
 40
1.89999998E+00
  0
ARC
  8
0
  6
PHANTOM
 62
2
 10
-2.32460182E+02
 20
-1.69585390E+02
 40
5.00000000E-01
 50
2.70000000E+02
 51
0.00000000E+00
  0
ARC
  8
0
  6
PHANTOM
 62
2
 10
-2.37060184E+02
 20
-1.69585390E+02
 40
5.00000000E-01
 50
1.79999995E+02
 51
2.70000000E+02
  0
ARC
  8
0
  6
PHANTOM
 62
2
 10
-2.32460182E+02
 20
-1.62985390E+02
 40
5.00000000E-01
 50
0.00000000E+00
 51
9.00000002E+01
  0
ARC
  8
0
  6
PHANTOM
 62
2
 10
-2.37060184E+02
 20
-1.62985390E+02
 40
5.00000000E-01
 50
9.00000002E+01
 51
1.80000005E+02
  0
CIRCLE
  8
0
  6
PHANTOM
 62
2
 10
-2.43860184E+02
 20
-1.63685390E+02
 40
1.75000000E+00
  0
CIRCLE
  8
0
  6
PHANTOM
 62
2
 10
-2.43860184E+02
 20
-1.55685390E+02
 40
1.75000000E+00
  0
ARC
  8
0
  6
PHANTOM
 62
2
 10
-2.46360184E+02
 20
-1.52185390E+02
 40
5.00000000E-01
 50
1.79999995E+02
 51
2.70000000E+02
  0
ARC
  8
0
  6
PHANTOM
 62
2
 10
-2.32360184E+02
 20
-1.52185390E+02
 40
5.00000000E-01
 50
2.70000000E+02
 51
0.00000000E+00
  0
ARC
  8
0
  6
PHANTOM
 62
2
 10
-2.44610184E+02
 20
-1.49885391E+02
 40
5.00000000E-01
 50
1.79999995E+02
 51
2.70000000E+02
  0
ARC
  8
0
  6
PHANTOM
 62
2
 10
-2.34110184E+02
 20
-1.49885391E+02
 40
5.00000000E-01
 50
2.70000000E+02
 51
0.00000000E+00
  0
ARC
  8
0
  6
PHANTOM
 62
2
 10
-2.44610184E+02
 20
-1.44885391E+02
 40
5.00000000E-01
 50
9.00000002E+01
 51
1.80000005E+02
  0
ARC
  8
0
  6
PHANTOM
 62
2
 10
-2.34110184E+02
 20
-1.44885391E+02
 40
5.00000000E-01
 50
0.00000000E+00
 51
9.00000002E+01
  0
ARC
  8
0
  6
PHANTOM
 62
2
 10
-2.46360184E+02
 20
-1.45885391E+02
 40
5.00000000E-01
 50
9.00000002E+01
 51
1.80000005E+02
  0
ARC
  8
0
  6
PHANTOM
 62
2
 10
-2.46360184E+02
 20
-1.69685390E+02
 40
5.00000000E-01
 50
1.79999995E+02
 51
2.70000000E+02
  0
ARC
  8
0
  6
PHANTOM
 62
2
 10
-2.32360184E+02
 20
-1.69685390E+02
 40
5.00000000E-01
 50
2.70000000E+02
 51
0.00000000E+00
  0
ARC
  8
0
  6
PHANTOM
 62
2
 10
-2.32360184E+02
 20
-1.45885391E+02
 40
5.00000000E-01
 50
0.00000000E+00
 51
9.00000002E+01
  0
CIRCLE
  8
0
 62
7
 10
-2.39360184E+02
 20
-1.82672935E+02
 40
4.94999981E+00
  0
ARC
  8
0
 62
7
 10
-2.46360184E+02
 20
-1.87882651E+02
 40
5.00000000E-01
 50
1.79999995E+02
 51
2.70000000E+02
  0
ARC
  8
0
 62
7
 10
-2.32360184E+02
 20
-1.87882651E+02
 40
5.00000000E-01
 50
2.70000000E+02
 51
0.00000000E+00
  0
ARC
  8
0
 62
7
 10
-2.32360184E+02
 20
-1.70882650E+02
 40
5.00000000E-01
 50
0.00000000E+00
 51
9.00000002E+01
  0
ARC
  8
0
 62
7
 10
-2.46360184E+02
 20
-1.70882650E+02
 40
5.00000000E-01
 50
9.00000002E+01
 51
1.80000005E+02
  0
ARC
  8
0
 62
7
 10
-2.45760185E+02
 20
-1.02075676E+02
 40
3.00000012E-01
 50
1.79999995E+02
 51
2.70000000E+02
  0
ARC
  8
0
 62
6
 10
-2.36360184E+02
 20
-1.02075676E+02
 40
3.00000012E-01
 50
2.70000000E+02
 51
0.00000000E+00
  0
CIRCLE
  8
0
 62
6
 10
-2.41060184E+02
 20
-8.06256714E+01
 40
2.04999995E+00
  0
ARC
  8
0
 62
6
 10
-2.44560184E+02
 20
-7.88756714E+01
 40
1.60000002E+00
 50
2.70000000E+02
 51
9.00000002E+01
  0
ARC
  8
0
 62
6
 10
-2.37560184E+02
 20
-7.88756714E+01
 40
1.60000002E+00
 50
9.00000002E+01
 51
2.70000000E+02
  0
CIRCLE
  8
0
 62
6
 10
-2.41060184E+02
 20
-8.06256714E+01
 40
1.85000002E+00
  0
ARC
  8
0
 62
6
 10
-2.41060184E+02
 20
-8.06256714E+01
 40
8.00000012E-01
 50
2.02024309E+02
 51
3.37975688E+02
  0
ARC
  8
0
 62
6
 10
-2.41060184E+02
 20
-8.06256714E+01
 40
8.00000012E-01
 50
2.20243121E+01
 51
1.57975691E+02
  0
CIRCLE
  8
0
 62
6
 10
-2.44560184E+02
 20
-7.88756714E+01
 40
1.50000000E+00
  0
CIRCLE
  8
0
 62
6
 10
-2.37560184E+02
 20
-7.88756714E+01
 40
1.50000000E+00
  0
ARC
  8
0
 62
6
 10
-2.42360184E+02
 20
-1.13675674E+02
 40
3.00000012E-01
 50
9.00000002E+01
 51
1.80000005E+02
  0
ARC
  8
0
 62
6
 10
-2.32960182E+02
 20
-1.13675674E+02
 40
3.00000012E-01
 50
0.00000000E+00
 51
9.00000002E+01
  0
CIRCLE
  8
0
 62
6
 10
-2.37660183E+02
 20
-1.35125675E+02
 40
2.04999995E+00
  0
ARC
  8
0
 62
6
 10
-2.41160183E+02
 20
-1.36875675E+02
 40
1.60000002E+00
 50
2.70000000E+02
 51
9.00000002E+01
  0
ARC
  8
0
 62
6
 10
-2.34160183E+02
 20
-1.36875675E+02
 40
1.60000002E+00
 50
9.00000002E+01
 51
2.70000000E+02
  0
CIRCLE
  8
0
 62
6
 10
-2.37660183E+02
 20
-1.35125675E+02
 40
1.85000002E+00
  0
ARC
  8
0
 62
6
 10
-2.37660183E+02
 20
-1.35125675E+02
 40
8.00000012E-01
 50
2.20243121E+01
 51
1.57975691E+02
  0
ARC
  8
0
 62
6
 10
-2.37660183E+02
 20
-1.35125675E+02
 40
8.00000012E-01
 50
2.02024309E+02
 51
3.37975688E+02
  0
CIRCLE
  8
0
 62
6
 10
-2.41160183E+02
 20
-1.36875675E+02
 40
1.50000000E+00
  0
CIRCLE
  8
0
 62
6
 10
-2.34160183E+02
 20
-1.36875675E+02
 40
1.50000000E+00
  0
CIRCLE
  8
0
 62
6
 10
-1.95960184E+02
 20
-8.90659561E+01
 40
8.75000000E-01
  0
ARC
  8
0
 62
6
 10
-1.95960184E+02
 20
-8.90659561E+01
 40
2.00000000E+00
 50
2.70000000E+02
 51
9.00000002E+01
  0
CIRCLE
  8
0
 62
6
 10
-2.01760183E+02
 20
-8.90659561E+01
 40
8.75000000E-01
  0
ARC
  8
0
 62
6
 10
-2.01760183E+02
 20
-8.90659561E+01
 40
2.00000000E+00
 50
9.00000002E+01
 51
2.70000000E+02
  0
CIRCLE
  8
0
 62
6
 10
-1.95960184E+02
 20
-1.26675674E+02
 40
8.75000000E-01
  0
ARC
  8
0
 62
6
 10
-1.95960184E+02
 20
-1.26675674E+02
 40
2.00000000E+00
 50
2.70000000E+02
 51
9.00000002E+01
  0
CIRCLE
  8
0
 62
6
 10
-2.01760183E+02
 20
-1.26675674E+02
 40
8.75000000E-01
  0
ARC
  8
0
 62
6
 10
-2.01760183E+02
 20
-1.26675674E+02
 40
2.00000000E+00
 50
9.00000002E+01
 51
2.70000000E+02
  0
ARC
  8
0
 62
6
 10
-2.03560184E+02
 20
-1.13675674E+02
 40
3.00000012E-01
 50
9.00000002E+01
 51
1.80000005E+02
  0
ARC
  8
0
 62
6
 10
-1.94160184E+02
 20
-1.13675674E+02
 40
3.00000012E-01
 50
0.00000000E+00
 51
9.00000002E+01
  0
CIRCLE
  8
0
 62
6
 10
-1.98860184E+02
 20
-1.35125675E+02
 40
2.04999995E+00
  0
ARC
  8
0
 62
6
 10
-2.02360184E+02
 20
-1.36875675E+02
 40
1.60000002E+00
 50
2.70000000E+02
 51
9.00000002E+01
  0
ARC
  8
0
 62
6
 10
-1.95360184E+02
 20
-1.36875675E+02
 40
1.60000002E+00
 50
9.00000002E+01
 51
2.70000000E+02
  0
CIRCLE
  8
0
 62
6
 10
-1.98860184E+02
 20
-1.35125675E+02
 40
1.85000002E+00
  0
ARC
  8
0
 62
6
 10
-1.98860184E+02
 20
-1.35125675E+02
 40
8.00000012E-01
 50
2.20243121E+01
 51
1.57975691E+02
  0
ARC
  8
0
 62
6
 10
-1.98860184E+02
 20
-1.35125675E+02
 40
8.00000012E-01
 50
2.02024309E+02
 51
3.37975688E+02
  0
CIRCLE
  8
0
 62
6
 10
-2.02360184E+02
 20
-1.36875675E+02
 40
1.50000000E+00
  0
CIRCLE
  8
0
 62
6
 10
-1.95360184E+02
 20
-1.36875675E+02
 40
1.50000000E+00
  0
ARC
  8
0
 62
6
 10
-2.03560184E+02
 20
-1.02065956E+02
 40
3.00000012E-01
 50
1.79999995E+02
 51
2.70000000E+02
  0
ARC
  8
0
 62
6
 10
-1.94160184E+02
 20
-1.02065956E+02
 40
3.00000012E-01
 50
2.70000000E+02
 51
0.00000000E+00
  0
CIRCLE
  8
0
 62
6
 10
-1.98860184E+02
 20
-8.06159592E+01
 40
2.04999995E+00
  0
ARC
  8
0
 62
6
 10
-2.02360184E+02
 20
-7.88659592E+01
 40
1.60000002E+00
 50
2.70000000E+02
 51
9.00000002E+01
  0
ARC
  8
0
 62
6
 10
-1.95360184E+02
 20
-7.88659592E+01
 40
1.60000002E+00
 50
9.00000002E+01
 51
2.70000000E+02
  0
CIRCLE
  8
0
 62
6
 10
-1.98860184E+02
 20
-8.06159592E+01
 40
1.89999998E+00
  0
CIRCLE
  8
0
 62
6
 10
-1.98860184E+02
 20
-8.06159592E+01
 40
1.85000002E+00
  0
ARC
  8
0
 62
6
 10
-1.98860184E+02
 20
-8.06159592E+01
 40
8.00000012E-01
 50
2.02024309E+02
 51
3.37975688E+02
  0
ARC
  8
0
 62
6
 10
-1.98860184E+02
 20
-8.06159592E+01
 40
8.00000012E-01
 50
2.20243121E+01
 51
1.57975691E+02
  0
CIRCLE
  8
0
 62
6
 10
-2.02360184E+02
 20
-7.88659592E+01
 40
1.50000000E+00
  0
CIRCLE
  8
0
 62
6
 10
-1.95360184E+02
 20
-7.88659592E+01
 40
1.50000000E+00
  0
CIRCLE
  8
0
  6
PHANTOM
 62
2
 10
-2.00460184E+02
 20
-1.48624306E+02
 40
3.00000012E-01
  0
CIRCLE
  8
0
  6
PHANTOM
 62
2
 10
-2.00960184E+02
 20
-1.48124306E+02
 40
1.89999998E+00
  0
CIRCLE
  8
0
  6
PHANTOM
 62
2
 10
-2.00960184E+02
 20
-1.53474304E+02
 40
1.89999998E+00
  0
CIRCLE
  8
0
  6
PHANTOM
 62
2
 10
-2.00960184E+02
 20
-1.61274303E+02
 40
1.89999998E+00
  0
CIRCLE
  8
0
  6
PHANTOM
 62
2
 10
-2.00960184E+02
 20
-1.48124306E+02
 40
2.40000010E+00
  0
CIRCLE
  8
0
  6
PHANTOM
 62
2
 10
-2.00960184E+02
 20
-1.48124306E+02
 40
1.20000005E+00
  0
CIRCLE
  8
0
  6
PHANTOM
 62
2
 10
-2.00460184E+02
 20
-1.47624306E+02
 40
3.00000012E-01
  0
CIRCLE
  8
0
  6
PHANTOM
 62
2
 10
-2.01460184E+02
 20
-1.47624306E+02
 40
3.00000012E-01
  0
CIRCLE
  8
0
  6
PHANTOM
 62
2
 10
-2.01460184E+02
 20
-1.48624306E+02
 40
3.00000012E-01
  0
CIRCLE
  8
0
 62
7
 10
-1.98860184E+02
 20
-1.81372934E+02
 40
4.94999981E+00
  0
CIRCLE
  8
0
 62
2
 10
-1.98860184E+02
 20
-1.69772934E+02
 40
1.00000000E+00
  0
ARC
  8
0
 62
7
 10
-1.94360184E+02
 20
-1.65872934E+02
 40
5.00000000E-01
 50
0.00000000E+00
 51
9.00000002E+01
  0
ARC
  8
0
 62
7
 10
-2.03360184E+02
 20
-1.65872934E+02
 40
5.00000000E-01
 50
9.00000002E+01
 51
1.80000005E+02
  0
ARC
  8
0
 62
7
 10
-2.03360184E+02
 20
-1.87872934E+02
 40
5.00000000E-01
 50
1.79999995E+02
 51
2.70000000E+02
  0
ARC
  8
0
 62
7
 10
-1.94360184E+02
 20
-1.87872934E+02
 40
5.00000000E-01
 50
2.70000000E+02
 51
0.00000000E+00
  0
ARC
  8
0
 62
7
 10
-1.95360184E+02
 20
-7.88659592E+01
 40
1.70000005E+00
 50
3.31927512E+02
 51
2.80724873E+01
  0
ARC
  8
0
 62
7
 10
-2.02360184E+02
 20
-7.88659592E+01
 40
1.70000005E+00
 50
1.51927518E+02
 51
2.08072492E+02
  0
CIRCLE
  8
0
 62
6
 10
-2.06960184E+02
 20
-8.90659561E+01
 40
8.75000000E-01
  0
ARC
  8
0
 62
6
 10
-2.06960184E+02
 20
-8.90659561E+01
 40
2.00000000E+00
 50
2.70000000E+02
 51
9.00000002E+01
  0
CIRCLE
  8
0
 62
6
 10
-2.12760183E+02
 20
-8.90659561E+01
 40
8.75000000E-01
  0
ARC
  8
0
 62
6
 10
-2.12760183E+02
 20
-8.90659561E+01
 40
2.00000000E+00
 50
9.00000002E+01
 51
2.70000000E+02
  0
CIRCLE
  8
0
 62
6
 10
-2.06960184E+02
 20
-1.26675674E+02
 40
8.75000000E-01
  0
ARC
  8
0
 62
6
 10
-2.06960184E+02
 20
-1.26675674E+02
 40
2.00000000E+00
 50
2.70000000E+02
 51
9.00000002E+01
  0
CIRCLE
  8
0
 62
6
 10
-2.12760183E+02
 20
-1.26675674E+02
 40
8.75000000E-01
  0
ARC
  8
0
 62
6
 10
-2.12760183E+02
 20
-1.26675674E+02
 40
2.00000000E+00
 50
9.00000002E+01
 51
2.70000000E+02
  0
ARC
  8
0
 62
6
 10
-2.14560184E+02
 20
-1.13675674E+02
 40
3.00000012E-01
 50
9.00000002E+01
 51
1.80000005E+02
  0
ARC
  8
0
 62
6
 10
-2.05160183E+02
 20
-1.13675674E+02
 40
3.00000012E-01
 50
0.00000000E+00
 51
9.00000002E+01
  0
CIRCLE
  8
0
 62
6
 10
-2.09860184E+02
 20
-1.35125675E+02
 40
2.04999995E+00
  0
ARC
  8
0
 62
6
 10
-2.13360184E+02
 20
-1.36875675E+02
 40
1.60000002E+00
 50
2.70000000E+02
 51
9.00000002E+01
  0
ARC
  8
0
 62
6
 10
-2.06360184E+02
 20
-1.36875675E+02
 40
1.60000002E+00
 50
9.00000002E+01
 51
2.70000000E+02
  0
CIRCLE
  8
0
 62
6
 10
-2.09860184E+02
 20
-1.35125675E+02
 40
1.85000002E+00
  0
ARC
  8
0
 62
6
 10
-2.09860184E+02
 20
-1.35125675E+02
 40
8.00000012E-01
 50
2.20243121E+01
 51
1.57975691E+02
  0
ARC
  8
0
 62
6
 10
-2.09860184E+02
 20
-1.35125675E+02
 40
8.00000012E-01
 50
2.02024309E+02
 51
3.37975688E+02
  0
CIRCLE
  8
0
 62
6
 10
-2.13360184E+02
 20
-1.36875675E+02
 40
1.50000000E+00
  0
CIRCLE
  8
0
 62
6
 10
-2.06360184E+02
 20
-1.36875675E+02
 40
1.50000000E+00
  0
ARC
  8
0
 62
6
 10
-2.14560184E+02
 20
-1.02065956E+02
 40
3.00000012E-01
 50
1.79999995E+02
 51
2.70000000E+02
  0
ARC
  8
0
 62
6
 10
-2.05160183E+02
 20
-1.02065956E+02
 40
3.00000012E-01
 50
2.70000000E+02
 51
0.00000000E+00
  0
CIRCLE
  8
0
 62
6
 10
-2.09860184E+02
 20
-8.06159592E+01
 40
2.04999995E+00
  0
ARC
  8
0
 62
6
 10
-2.13360184E+02
 20
-7.88659592E+01
 40
1.60000002E+00
 50
2.70000000E+02
 51
9.00000002E+01
  0
ARC
  8
0
 62
6
 10
-2.06360184E+02
 20
-7.88659592E+01
 40
1.60000002E+00
 50
9.00000002E+01
 51
2.70000000E+02
  0
CIRCLE
  8
0
 62
6
 10
-2.09860184E+02
 20
-8.06159592E+01
 40
1.89999998E+00
  0
CIRCLE
  8
0
 62
6
 10
-2.09860184E+02
 20
-8.06159592E+01
 40
1.85000002E+00
  0
ARC
  8
0
 62
6
 10
-2.09860184E+02
 20
-8.06159592E+01
 40
8.00000012E-01
 50
2.02024309E+02
 51
3.37975688E+02
  0
ARC
  8
0
 62
6
 10
-2.09860184E+02
 20
-8.06159592E+01
 40
8.00000012E-01
 50
2.20243121E+01
 51
1.57975691E+02
  0
CIRCLE
  8
0
 62
6
 10
-2.13360184E+02
 20
-7.88659592E+01
 40
1.50000000E+00
  0
CIRCLE
  8
0
 62
6
 10
-2.06360184E+02
 20
-7.88659592E+01
 40
1.50000000E+00
  0
CIRCLE
  8
0
  6
PHANTOM
 62
2
 10
-2.11460184E+02
 20
-1.48624306E+02
 40
3.00000012E-01
  0
CIRCLE
  8
0
  6
PHANTOM
 62
2
 10
-2.11960184E+02
 20
-1.48124306E+02
 40
1.89999998E+00
  0
CIRCLE
  8
0
  6
PHANTOM
 62
2
 10
-2.11960184E+02
 20
-1.53474304E+02
 40
1.89999998E+00
  0
CIRCLE
  8
0
  6
PHANTOM
 62
2
 10
-2.11960184E+02
 20
-1.61274303E+02
 40
1.89999998E+00
  0
CIRCLE
  8
0
  6
PHANTOM
 62
2
 10
-2.11960184E+02
 20
-1.48124306E+02
 40
2.40000010E+00
  0
CIRCLE
  8
0
  6
PHANTOM
 62
2
 10
-2.11960184E+02
 20
-1.48124306E+02
 40
1.20000005E+00
  0
CIRCLE
  8
0
  6
PHANTOM
 62
2
 10
-2.11460184E+02
 20
-1.47624306E+02
 40
3.00000012E-01
  0
CIRCLE
  8
0
  6
PHANTOM
 62
2
 10
-2.12460184E+02
 20
-1.47624306E+02
 40
3.00000012E-01
  0
CIRCLE
  8
0
  6
PHANTOM
 62
2
 10
-2.12460184E+02
 20
-1.48624306E+02
 40
3.00000012E-01
  0
CIRCLE
  8
0
 62
7
 10
-2.09860184E+02
 20
-1.81372934E+02
 40
4.94999981E+00
  0
CIRCLE
  8
0
 62
2
 10
-2.09860184E+02
 20
-1.69772934E+02
 40
1.00000000E+00
  0
ARC
  8
0
 62
7
 10
-2.05360184E+02
 20
-1.65872934E+02
 40
5.00000000E-01
 50
0.00000000E+00
 51
9.00000002E+01
  0
ARC
  8
0
 62
7
 10
-2.14360184E+02
 20
-1.65872934E+02
 40
5.00000000E-01
 50
9.00000002E+01
 51
1.80000005E+02
  0
ARC
  8
0
 62
7
 10
-2.14360184E+02
 20
-1.87872934E+02
 40
5.00000000E-01
 50
1.79999995E+02
 51
2.70000000E+02
  0
ARC
  8
0
 62
7
 10
-2.05360184E+02
 20
-1.87872934E+02
 40
5.00000000E-01
 50
2.70000000E+02
 51
0.00000000E+00
  0
ARC
  8
0
 62
7
 10
-2.06360184E+02
 20
-7.88659592E+01
 40
1.70000005E+00
 50
3.31927512E+02
 51
2.80724873E+01
  0
ARC
  8
0
 62
7
 10
-2.13360184E+02
 20
-7.88659592E+01
 40
1.70000005E+00
 50
1.51927518E+02
 51
2.08072492E+02
  0
CIRCLE
  8
0
  6
PHANTOM
 62
2
 10
-2.35260185E+02
 20
-1.65785391E+02
 40
3.00000012E-01
  0
CIRCLE
  8
0
  6
PHANTOM
 62
2
 10
-2.35260185E+02
 20
-1.66785391E+02
 40
3.00000012E-01
  0
CIRCLE
  8
0
  6
PHANTOM
 62
2
 10
-2.34260185E+02
 20
-1.66785391E+02
 40
3.00000012E-01
  0
CIRCLE
  8
0
  6
PHANTOM
 62
2
 10
-2.34260185E+02
 20
-1.65785391E+02
 40
3.00000012E-01
  0
CIRCLE
  8
0
  6
PHANTOM
 62
2
 10
-2.34760185E+02
 20
-1.66285391E+02
 40
1.20000005E+00
  0
CIRCLE
  8
0
  6
PHANTOM
 62
2
 10
-2.19260185E+02
 20
-1.65785391E+02
 40
3.00000012E-01
  0
CIRCLE
  8
0
  6
PHANTOM
 62
2
 10
-2.19260185E+02
 20
-1.66785391E+02
 40
3.00000012E-01
  0
CIRCLE
  8
0
  6
PHANTOM
 62
2
 10
-2.18260185E+02
 20
-1.66785391E+02
 40
3.00000012E-01
  0
CIRCLE
  8
0
  6
PHANTOM
 62
2
 10
-2.18260185E+02
 20
-1.65785391E+02
 40
3.00000012E-01
  0
CIRCLE
  8
0
  6
PHANTOM
 62
2
 10
-2.18760185E+02
 20
-1.66285391E+02
 40
1.20000005E+00
  0
LINE
  8
0
 62
7
 10
1.63639816E+02
 20
8.40340405E+01
 11
1.63889816E+02
 21
8.40340405E+01
  0
LINE
  8
0
 62
7
 10
1.63639816E+02
 20
9.50340405E+01
 11
1.63889816E+02
 21
9.50340405E+01
  0
LINE
  8
0
 62
7
 10
2.36639816E+02
 20
9.50340405E+01
 11
2.36389816E+02
 21
9.50340405E+01
  0
LINE
  8
0
 62
7
 10
2.36639816E+02
 20
8.40340405E+01
 11
2.36389816E+02
 21
8.40340405E+01
  0
LINE
  8
0
  6
CENTER
 62
2
 10
1.69139816E+02
 20
7.94734650E+01
 11
1.69139816E+02
 21
1.62901474E+02
  0
LINE
  8
0
  6
CENTER
 62
2
 10
1.65714816E+02
 20
9.96340408E+01
 11
1.74464817E+02
 21
9.96340408E+01
  0
LINE
  8
0
 62
7
 10
1.63939816E+02
 20
1.26634041E+02
 11
1.74339817E+02
 21
1.26634041E+02
  0
LINE
  8
0
 62
7
 10
1.74139816E+02
 20
1.08134041E+02
 11
1.74139816E+02
 21
1.26634041E+02
  0
LINE
  8
0
 62
7
 10
1.64139816E+02
 20
1.26634041E+02
 11
1.64139816E+02
 21
1.08134041E+02
  0
LINE
  8
0
 62
7
 10
1.66139816E+02
 20
1.12634041E+02
 11
1.64139816E+02
 21
1.12634041E+02
  0
LINE
  8
0
 62
7
 10
1.72439816E+02
 20
1.18334041E+02
 11
1.74139816E+02
 21
1.18334041E+02
  0
LINE
  8
0
 62
7
 10
1.72439816E+02
 20
1.21534040E+02
 11
1.74139816E+02
 21
1.21534040E+02
  0
LINE
  8
0
 62
7
 10
1.74339817E+02
 20
1.19934041E+02
 11
1.74339817E+02
 21
1.26634041E+02
  0
LINE
  8
0
 62
7
 10
1.63939816E+02
 20
1.26634041E+02
 11
1.63939816E+02
 21
1.19934041E+02
  0
LINE
  8
0
 62
7
 10
1.74339817E+02
 20
1.19934041E+02
 11
1.74139816E+02
 21
1.19934041E+02
  0
LINE
  8
0
 62
7
 10
1.64139816E+02
 20
1.19934041E+02
 11
1.63939816E+02
 21
1.19934041E+02
  0
LINE
  8
0
 62
7
 10
1.66139816E+02
 20
1.09434041E+02
 11
1.64139816E+02
 21
1.09434041E+02
  0
LINE
  8
0
  6
CENTER
 62
2
 10
1.70089817E+02
 20
9.52590408E+01
 11
1.70089817E+02
 21
1.04009041E+02
  0
LINE
  8
0
 62
7
 10
1.63889816E+02
 20
8.21340408E+01
 11
1.74389816E+02
 21
8.21340408E+01
  0
LINE
  8
0
 62
7
 10
1.74389816E+02
 20
8.21340408E+01
 11
1.74389816E+02
 21
1.08134041E+02
  0
LINE
  8
0
 62
7
 10
1.63889816E+02
 20
8.21340408E+01
 11
1.63889816E+02
 21
1.08134041E+02
  0
LINE
  8
0
 62
7
 10
1.73940924E+02
 20
1.53134041E+02
 11
1.72689816E+02
 21
1.53134041E+02
  0
LINE
  8
0
 62
7
 10
1.64189816E+02
 20
1.53434040E+02
 11
1.64189816E+02
 21
1.59634041E+02
  0
LINE
  8
0
 62
7
 10
1.72589817E+02
 20
1.61134041E+02
 11
1.65689816E+02
 21
1.61134041E+02
  0
LINE
  8
0
 62
7
 10
1.64189816E+02
 20
1.53434039E+02
 11
1.64489815E+02
 21
1.53134040E+02
  0
LINE
  8
0
 62
7
 10
1.74140922E+02
 20
1.52935152E+02
 11
1.74287039E+02
 21
1.26634041E+02
  0
LINE
  8
0
 62
7
 10
1.63955372E+02
 20
1.19934041E+02
 11
1.63889816E+02
 21
1.08134041E+02
  0
LINE
  8
0
 62
7
 10
1.63889816E+02
 20
1.08134041E+02
 11
1.74389816E+02
 21
1.08134041E+02
  0
LINE
  8
0
 62
7
 10
1.66917634E+02
 20
1.11811858E+02
 11
1.65361999E+02
 21
1.10256223E+02
  0
LINE
  8
0
 62
7
 10
1.65361999E+02
 20
1.11811858E+02
 11
1.66917633E+02
 21
1.10256223E+02
  0
LINE
  8
0
 62
7
 10
1.73217633E+02
 20
1.20711858E+02
 11
1.71661999E+02
 21
1.19156224E+02
  0
LINE
  8
0
 62
7
 10
1.71661998E+02
 20
1.20711858E+02
 11
1.73217633E+02
 21
1.19156223E+02
  0
LINE
  8
0
  6
PHANTOM
 62
2
 10
1.69991627E+02
 20
1.59243105E+02
 11
1.62615999E+02
 21
1.61225305E+02
  0
LINE
  8
0
  6
PHANTOM
 62
2
 10
1.69991627E+02
 20
1.58213104E+02
 11
1.62615999E+02
 21
1.60195304E+02
  0
LINE
  8
0
  6
CENTER
 62
2
 10
1.66639264E+02
 20
1.50440895E+02
 11
1.66639264E+02
 21
1.70295181E+02
  0
LINE
  8
0
  6
PHANTOM
 62
2
 10
1.64939263E+02
 20
1.66589107E+02
 11
1.65139263E+02
 21
1.66725053E+02
  0
LINE
  8
0
  6
PHANTOM
 62
2
 10
1.64939263E+02
 20
1.65715168E+02
 11
1.64939263E+02
 21
1.66589111E+02
  0
LINE
  8
0
  6
PHANTOM
 62
2
 10
1.65139264E+02
 20
1.65715168E+02
 11
1.65139264E+02
 21
1.66725056E+02
  0
LINE
  8
0
  6
PHANTOM
 62
2
 10
1.65939265E+02
 20
1.66589107E+02
 11
1.66139264E+02
 21
1.66725054E+02
  0
LINE
  8
0
  6
PHANTOM
 62
2
 10
1.65939263E+02
 20
1.65715168E+02
 11
1.65939263E+02
 21
1.66589111E+02
  0
LINE
  8
0
  6
PHANTOM
 62
2
 10
1.66139264E+02
 20
1.65715168E+02
 11
1.66139264E+02
 21
1.66725056E+02
  0
LINE
  8
0
  6
PHANTOM
 62
2
 10
1.66939264E+02
 20
1.66589110E+02
 11
1.67139264E+02
 21
1.66725057E+02
  0
LINE
  8
0
  6
PHANTOM
 62
2
 10
1.66939263E+02
 20
1.65715168E+02
 11
1.66939263E+02
 21
1.66589111E+02
  0
LINE
  8
0
  6
PHANTOM
 62
2
 10
1.67139264E+02
 20
1.65715168E+02
 11
1.67139264E+02
 21
1.66725056E+02
  0
LINE
  8
0
  6
PHANTOM
 62
2
 10
1.67939263E+02
 20
1.66589108E+02
 11
1.68139262E+02
 21
1.66725055E+02
  0
LINE
  8
0
  6
PHANTOM
 62
2
 10
1.67939263E+02
 20
1.65715168E+02
 11
1.67939263E+02
 21
1.66589111E+02
  0
LINE
  8
0
  6
PHANTOM
 62
2
 10
1.68139264E+02
 20
1.65715168E+02
 11
1.68139264E+02
 21
1.66725056E+02
  0
LINE
  8
0
  6
PHANTOM
 62
2
 10
1.65289264E+02
 20
1.65715168E+02
 11
1.64789264E+02
 21
1.65715168E+02
  0
LINE
  8
0
  6
PHANTOM
 62
2
 10
1.66289264E+02
 20
1.65715168E+02
 11
1.65789264E+02
 21
1.65715168E+02
  0
LINE
  8
0
  6
PHANTOM
 62
2
 10
1.67289264E+02
 20
1.65715168E+02
 11
1.66789264E+02
 21
1.65715168E+02
  0
LINE
  8
0
  6
PHANTOM
 62
2
 10
1.68289264E+02
 20
1.65715168E+02
 11
1.67789264E+02
 21
1.65715168E+02
  0
LINE
  8
0
  6
PHANTOM
 62
2
 10
1.64789264E+02
 20
1.63834595E+02
 11
1.64789264E+02
 21
1.65715168E+02
  0
LINE
  8
0
  6
PHANTOM
 62
2
 10
1.65289264E+02
 20
1.63834595E+02
 11
1.65289264E+02
 21
1.65715168E+02
  0
LINE
  8
0
  6
PHANTOM
 62
2
 10
1.65789264E+02
 20
1.63834595E+02
 11
1.65789264E+02
 21
1.65715168E+02
  0
LINE
  8
0
  6
PHANTOM
 62
2
 10
1.66289264E+02
 20
1.63834595E+02
 11
1.66289264E+02
 21
1.65715168E+02
  0
LINE
  8
0
  6
PHANTOM
 62
2
 10
1.66789264E+02
 20
1.63834595E+02
 11
1.66789264E+02
 21
1.65715168E+02
  0
LINE
  8
0
  6
PHANTOM
 62
2
 10
1.67289264E+02
 20
1.63834595E+02
 11
1.67289264E+02
 21
1.65715168E+02
  0
LINE
  8
0
  6
PHANTOM
 62
2
 10
1.67789264E+02
 20
1.63834595E+02
 11
1.67789264E+02
 21
1.65715168E+02
  0
LINE
  8
0
  6
PHANTOM
 62
2
 10
1.68289264E+02
 20
1.63834595E+02
 11
1.68289264E+02
 21
1.65715168E+02
  0
LINE
  8
0
  6
PHANTOM
 62
2
 10
1.68639264E+02
 20
1.63834595E+02
 11
1.64639264E+02
 21
1.63834595E+02
  0
LINE
  8
0
  6
PHANTOM
 62
2
 10
1.64639264E+02
 20
1.54034595E+02
 11
1.64639264E+02
 21
1.63834595E+02
  0
LINE
  8
0
  6
PHANTOM
 62
2
 10
1.68639264E+02
 20
1.54034595E+02
 11
1.68639264E+02
 21
1.63834595E+02
  0
LINE
  8
0
  6
PHANTOM
 62
2
 10
1.69039264E+02
 20
1.54034595E+02
 11
1.67688711E+02
 21
1.54034595E+02
  0
LINE
  8
0
  6
PHANTOM
 62
2
 10
1.64239264E+02
 20
1.54034595E+02
 11
1.64239264E+02
 21
1.53134041E+02
  0
LINE
  8
0
  6
PHANTOM
 62
2
 10
1.69039264E+02
 20
1.54034595E+02
 11
1.69039264E+02
 21
1.53107567E+02
  0
LINE
  8
0
 62
7
 10
1.74089817E+02
 20
1.53434040E+02
 11
1.74089817E+02
 21
1.59634041E+02
  0
LINE
  8
0
 62
7
 10
1.74324262E+02
 20
1.19933821E+02
 11
1.74389817E+02
 21
1.08134041E+02
  0
LINE
  8
0
 62
7
 10
1.64138712E+02
 20
1.52935154E+02
 11
1.63992594E+02
 21
1.26634041E+02
  0
LINE
  8
0
 62
6
 10
1.64139816E+02
 20
1.47234039E+02
 11
1.74139816E+02
 21
1.47234039E+02
  0
LINE
  8
0
 62
6
 10
1.65589816E+02
 20
1.47234039E+02
 11
1.65589816E+02
 21
1.55434040E+02
  0
LINE
  8
0
 62
6
 10
1.66889816E+02
 20
1.47234039E+02
 11
1.66889816E+02
 21
1.55434040E+02
  0
LINE
  8
0
 62
6
 10
1.66889816E+02
 20
1.55434040E+02
 11
1.65589816E+02
 21
1.55434040E+02
  0
LINE
  8
0
 62
6
 10
1.66489817E+02
 20
1.59434040E+02
 11
1.65989817E+02
 21
1.59434040E+02
  0
LINE
  8
0
 62
6
 10
1.66489817E+02
 20
1.55434040E+02
 11
1.66489817E+02
 21
1.59434040E+02
  0
LINE
  8
0
 62
6
 10
1.65989817E+02
 20
1.55434040E+02
 11
1.65989817E+02
 21
1.59434040E+02
  0
LINE
  8
0
 62
6
 10
1.71789816E+02
 20
1.55434040E+02
 11
1.71789816E+02
 21
1.59434040E+02
  0
LINE
  8
0
 62
6
 10
1.72289816E+02
 20
1.55434040E+02
 11
1.72289816E+02
 21
1.59434040E+02
  0
LINE
  8
0
 62
6
 10
1.72289816E+02
 20
1.59434040E+02
 11
1.71789816E+02
 21
1.59434040E+02
  0
LINE
  8
0
 62
6
 10
1.72689816E+02
 20
1.55434040E+02
 11
1.71389816E+02
 21
1.55434040E+02
  0
LINE
  8
0
 62
6
 10
1.72689816E+02
 20
1.47234039E+02
 11
1.72689816E+02
 21
1.55434040E+02
  0
LINE
  8
0
 62
6
 10
1.71389816E+02
 20
1.47234039E+02
 11
1.71389816E+02
 21
1.55434040E+02
  0
LINE
  8
0
 62
6
 10
1.64139816E+02
 20
1.26634041E+02
 11
1.64139816E+02
 21
1.46234039E+02
  0
LINE
  8
0
 62
6
 10
1.64139816E+02
 20
1.46234039E+02
 11
1.64139816E+02
 21
1.47234039E+02
  0
LINE
  8
0
 62
6
 10
1.74139816E+02
 20
1.46234039E+02
 11
1.74139816E+02
 21
1.47234039E+02
  0
LINE
  8
0
 62
6
 10
1.74139816E+02
 20
1.26634041E+02
 11
1.74139816E+02
 21
1.46234039E+02
  0
LINE
  8
0
 62
6
 10
1.74139816E+02
 20
1.30634041E+02
 11
1.64139816E+02
 21
1.30634041E+02
  0
LINE
  8
0
 62
7
 10
1.65589816E+02
 20
1.53134041E+02
 11
1.64338708E+02
 21
1.53134041E+02
  0
LINE
  8
0
 62
7
 10
1.71389816E+02
 20
1.53134041E+02
 11
1.66889816E+02
 21
1.53134041E+02
  0
LINE
  8
0
  6
PHANTOM
 62
2
 10
1.66388711E+02
 20
1.54034595E+02
 11
1.64239264E+02
 21
1.54034595E+02
  0
LINE
  8
0
 62
6
 10
1.64139816E+02
 20
1.46234039E+02
 11
1.74139816E+02
 21
1.46234039E+02
  0
LINE
  8
0
 62
6
 10
1.64139816E+02
 20
1.38134041E+02
 11
1.74139816E+02
 21
1.38134041E+02
  0
LINE
  8
0
 62
6
 10
1.64139816E+02
 20
1.41634041E+02
 11
1.74139816E+02
 21
1.41634041E+02
  0
LINE
  8
0
 62
7
 10
1.74089817E+02
 20
1.53434041E+02
 11
1.73789815E+02
 21
1.53134039E+02
  0
LINE
  8
0
 62
7
 10
2.08189816E+02
 20
1.61134041E+02
 11
2.06189816E+02
 21
1.61134041E+02
  0
LINE
  8
0
 62
7
 10
2.13589817E+02
 20
1.54134041E+02
 11
2.11489815E+02
 21
1.54134041E+02
  0
LINE
  8
0
 62
7
 10
2.13589817E+02
 20
1.52134041E+02
 11
2.11489815E+02
 21
1.52134041E+02
  0
LINE
  8
0
 62
7
 10
2.07789818E+02
 20
1.52134041E+02
 11
2.05689816E+02
 21
1.52134041E+02
  0
LINE
  8
0
 62
7
 10
2.07789818E+02
 20
1.54134041E+02
 11
2.05689816E+02
 21
1.54134041E+02
  0
LINE
  8
0
  6
PHANTOM
 62
2
 10
2.05239815E+02
 20
2.04035263E+02
 11
2.05839817E+02
 21
2.04035263E+02
  0
LINE
  8
0
  6
PHANTOM
 62
2
 10
2.04839817E+02
 20
2.04035263E+02
 11
2.04239815E+02
 21
2.04035263E+02
  0
LINE
  8
0
  6
PHANTOM
 62
2
 10
2.06239815E+02
 20
1.83868042E+02
 11
2.03839817E+02
 21
1.83868042E+02
  0
LINE
  8
0
  6
PHANTOM
 62
2
 10
2.05839817E+02
 20
1.83868042E+02
 11
2.05839817E+02
 21
2.04035263E+02
  0
LINE
  8
0
  6
PHANTOM
 62
2
 10
2.05239815E+02
 20
1.83868042E+02
 11
2.05239815E+02
 21
2.04035263E+02
  0
LINE
  8
0
  6
PHANTOM
 62
2
 10
2.04839817E+02
 20
1.83868042E+02
 11
2.04839817E+02
 21
2.04035263E+02
  0
LINE
  8
0
  6
PHANTOM
 62
2
 10
2.04239815E+02
 20
1.83868042E+02
 11
2.04239815E+02
 21
2.04035263E+02
  0
LINE
  8
0
  6
PHANTOM
 62
2
 10
2.06239815E+02
 20
1.78334038E+02
 11
2.06239815E+02
 21
1.83868042E+02
  0
LINE
  8
0
  6
PHANTOM
 62
2
 10
2.03839817E+02
 20
1.78334038E+02
 11
2.03839817E+02
 21
1.83868042E+02
  0
LINE
  8
0
  6
PHANTOM
 62
2
 10
2.02939816E+02
 20
1.49634041E+02
 11
2.02139816E+02
 21
1.49634041E+02
  0
LINE
  8
0
  6
PHANTOM
 62
2
 10
2.15389816E+02
 20
1.51257328E+02
 11
2.14889816E+02
 21
1.51257328E+02
  0
LINE
  8
0
  6
PHANTOM
 62
2
 10
2.15389816E+02
 20
1.49734039E+02
 11
2.15389816E+02
 21
1.54138962E+02
  0
LINE
  8
0
  6
PHANTOM
 62
2
 10
2.03889816E+02
 20
1.49734039E+02
 11
2.03889816E+02
 21
1.54134041E+02
  0
LINE
  8
0
  6
PHANTOM
 62
2
 10
2.17139816E+02
 20
1.49634041E+02
 11
2.16339817E+02
 21
1.49634041E+02
  0
LINE
  8
0
  6
PHANTOM
 62
2
 10
2.17139816E+02
 20
1.53134041E+02
 11
2.14889816E+02
 21
1.53134041E+02
  0
LINE
  8
0
  6
PHANTOM
 62
2
 10
2.17139816E+02
 20
1.29134041E+02
 11
2.17139816E+02
 21
1.53134041E+02
  0
LINE
  8
0
  6
PHANTOM
 62
2
 10
2.02139816E+02
 20
1.29134041E+02
 11
2.02139816E+02
 21
1.53134041E+02
  0
LINE
  8
0
  6
PHANTOM
 62
2
 10
2.06939816E+02
 20
1.65939144E+02
 11
2.06939816E+02
 21
1.78334038E+02
  0
LINE
  8
0
  6
PHANTOM
 62
2
 10
2.03139816E+02
 20
1.68133076E+02
 11
2.03139816E+02
 21
1.78334038E+02
  0
LINE
  8
0
  6
PHANTOM
 62
2
 10
2.08978964E+02
 20
1.64761841E+02
 11
2.00622080E+02
 21
1.69586691E+02
  0
LINE
  8
0
  6
PHANTOM
 62
2
 10
2.08770529E+02
 20
1.61995430E+02
 11
2.00435502E+02
 21
1.66807660E+02
  0
LINE
  8
0
  6
PHANTOM
 62
2
 10
2.06939816E+02
 20
1.78334038E+02
 11
2.03139816E+02
 21
1.78334038E+02
  0
LINE
  8
0
  6
PHANTOM
 62
2
 10
2.06939816E+02
 20
1.54134041E+02
 11
2.06939816E+02
 21
1.63052391E+02
  0
LINE
  8
0
  6
PHANTOM
 62
2
 10
2.03139816E+02
 20
1.54134041E+02
 11
2.03139816E+02
 21
1.65246323E+02
  0
LINE
  8
0
  6
PHANTOM
 62
2
 10
2.02239815E+02
 20
1.53134041E+02
 11
2.02239815E+02
 21
1.54134041E+02
  0
LINE
  8
0
  6
PHANTOM
 62
2
 10
2.03889816E+02
 20
1.54134041E+02
 11
2.02239815E+02
 21
1.54134041E+02
  0
LINE
  8
0
  6
PHANTOM
 62
2
 10
2.03889816E+02
 20
1.54138962E+02
 11
2.04389816E+02
 21
1.54138962E+02
  0
LINE
  8
0
  6
CENTER
 62
6
 10
2.11339817E+02
 20
1.26738373E+02
 11
2.11339817E+02
 21
1.50957352E+02
  0
LINE
  8
0
  6
CENTER
 62
6
 10
2.07939816E+02
 20
1.26738373E+02
 11
2.07939816E+02
 21
1.50957352E+02
  0
LINE
  8
0
 62
7
 10
2.17046482E+02
 20
1.29134041E+02
 11
2.16940700E+02
 21
1.52934927E+02
  0
LINE
  8
0
 62
7
 10
2.02233151E+02
 20
1.29134041E+02
 11
2.02338932E+02
 21
1.52934930E+02
  0
LINE
  8
0
 62
7
 10
2.13089817E+02
 20
1.61134041E+02
 11
2.11089817E+02
 21
1.61134041E+02
  0
LINE
  8
0
 62
7
 10
2.04689816E+02
 20
1.57934040E+02
 11
2.04689816E+02
 21
1.59634041E+02
  0
LINE
  8
0
 62
7
 10
2.14589817E+02
 20
1.57934040E+02
 11
2.14589817E+02
 21
1.59634041E+02
  0
LINE
  8
0
 62
7
 10
2.16740704E+02
 20
1.53134041E+02
 11
2.15389816E+02
 21
1.53134041E+02
  0
LINE
  8
0
  6
CENTER
 62
2
 10
2.09639816E+02
 20
7.86930389E+01
 11
2.09639816E+02
 21
1.66109509E+02
  0
LINE
  8
0
 62
7
 10
2.14361998E+02
 20
1.10911857E+02
 11
2.15917631E+02
 21
1.09356224E+02
  0
LINE
  8
0
 62
7
 10
2.15917634E+02
 20
1.10911859E+02
 11
2.14361998E+02
 21
1.09356224E+02
  0
LINE
  8
0
 62
7
 10
2.04917631E+02
 20
1.27911857E+02
 11
2.03361999E+02
 21
1.26356224E+02
  0
LINE
  8
0
 62
7
 10
2.03361997E+02
 20
1.27911859E+02
 11
2.04917633E+02
 21
1.26356223E+02
  0
LINE
  8
0
 62
7
 10
2.02139816E+02
 20
1.29134041E+02
 11
2.02139816E+02
 21
1.08134041E+02
  0
LINE
  8
0
 62
7
 10
2.17139816E+02
 20
1.29134041E+02
 11
2.17139816E+02
 21
1.08134041E+02
  0
LINE
  8
0
 62
7
 10
2.02139816E+02
 20
1.29134041E+02
 11
2.17139816E+02
 21
1.29134041E+02
  0
LINE
  8
0
 62
7
 10
2.15139816E+02
 20
1.11734041E+02
 11
2.17139816E+02
 21
1.11734041E+02
  0
LINE
  8
0
 62
7
 10
2.13539818E+02
 20
1.10134041E+02
 11
2.13539818E+02
 21
1.08134041E+02
  0
LINE
  8
0
 62
7
 10
2.05739815E+02
 20
1.27134041E+02
 11
2.05739815E+02
 21
1.29134041E+02
  0
LINE
  8
0
 62
7
 10
2.04139816E+02
 20
1.25534040E+02
 11
2.02139816E+02
 21
1.25534040E+02
  0
LINE
  8
0
 62
7
 10
2.01889816E+02
 20
8.21340408E+01
 11
2.17389816E+02
 21
8.21340408E+01
  0
LINE
  8
0
 62
7
 10
2.17389816E+02
 20
1.08134041E+02
 11
2.01889816E+02
 21
1.08134041E+02
  0
LINE
  8
0
 62
7
 10
2.17389816E+02
 20
8.21340408E+01
 11
2.17389816E+02
 21
1.08134041E+02
  0
LINE
  8
0
 62
7
 10
2.01889816E+02
 20
8.21340408E+01
 11
2.01889816E+02
 21
1.08134041E+02
  0
LINE
  8
0
 62
7
 10
2.15389816E+02
 20
1.54134041E+02
 11
2.14889816E+02
 21
1.54134041E+02
  0
LINE
  8
0
 62
7
 10
2.15389816E+02
 20
1.52134041E+02
 11
2.14889816E+02
 21
1.52134041E+02
  0
LINE
  8
0
 62
7
 10
2.15389816E+02
 20
1.54134041E+02
 11
2.15389816E+02
 21
1.52134041E+02
  0
LINE
  8
0
 62
7
 10
2.03889816E+02
 20
1.54134041E+02
 11
2.03889816E+02
 21
1.52134041E+02
  0
LINE
  8
0
 62
7
 10
2.03889816E+02
 20
1.53134041E+02
 11
2.02538929E+02
 21
1.53134041E+02
  0
LINE
  8
0
 62
7
 10
2.04389816E+02
 20
1.54134041E+02
 11
2.03889816E+02
 21
1.54134041E+02
  0
LINE
  8
0
 62
7
 10
2.04389816E+02
 20
1.52134041E+02
 11
2.03889816E+02
 21
1.52134041E+02
  0
LINE
  8
0
 62
7
 10
2.10189816E+02
 20
1.54134041E+02
 11
2.09089817E+02
 21
1.54134041E+02
  0
LINE
  8
0
 62
7
 10
2.10189816E+02
 20
1.52134041E+02
 11
2.09089817E+02
 21
1.52134041E+02
  0
LINE
  8
0
 62
7
 10
2.10589817E+02
 20
1.61134041E+02
 11
2.08689816E+02
 21
1.61134041E+02
  0
LINE
  8
0
 62
6
 10
2.02939816E+02
 20
1.48734039E+02
 11
2.02939816E+02
 21
1.49734039E+02
  0
LINE
  8
0
 62
6
 10
2.04389816E+02
 20
1.49734039E+02
 11
2.04389816E+02
 21
1.57934040E+02
  0
LINE
  8
0
 62
6
 10
2.05689816E+02
 20
1.49734039E+02
 11
2.05689816E+02
 21
1.57934040E+02
  0
LINE
  8
0
 62
6
 10
2.05689816E+02
 20
1.57934040E+02
 11
2.04389816E+02
 21
1.57934040E+02
  0
LINE
  8
0
 62
6
 10
2.05289818E+02
 20
1.61934040E+02
 11
2.04789818E+02
 21
1.61934040E+02
  0
LINE
  8
0
 62
6
 10
2.05289818E+02
 20
1.57934040E+02
 11
2.05289818E+02
 21
1.61934040E+02
  0
LINE
  8
0
 62
6
 10
2.04789818E+02
 20
1.57934040E+02
 11
2.04789818E+02
 21
1.61934040E+02
  0
LINE
  8
0
 62
6
 10
2.10589817E+02
 20
1.57934040E+02
 11
2.10589817E+02
 21
1.61934040E+02
  0
LINE
  8
0
 62
6
 10
2.11089817E+02
 20
1.57934040E+02
 11
2.11089817E+02
 21
1.61934040E+02
  0
LINE
  8
0
 62
6
 10
2.11089817E+02
 20
1.61934040E+02
 11
2.10589817E+02
 21
1.61934040E+02
  0
LINE
  8
0
 62
6
 10
2.11489815E+02
 20
1.57934040E+02
 11
2.10189816E+02
 21
1.57934040E+02
  0
LINE
  8
0
 62
6
 10
2.11489815E+02
 20
1.49734039E+02
 11
2.11489815E+02
 21
1.57934040E+02
  0
LINE
  8
0
 62
6
 10
2.10189816E+02
 20
1.49734039E+02
 11
2.10189816E+02
 21
1.57934040E+02
  0
LINE
  8
0
 62
6
 10
2.02939816E+02
 20
1.49734039E+02
 11
2.06339817E+02
 21
1.49734039E+02
  0
LINE
  8
0
 62
6
 10
2.16339817E+02
 20
1.33134041E+02
 11
2.06339817E+02
 21
1.33134041E+02
  0
LINE
  8
0
 62
6
 10
2.02939816E+02
 20
1.29134041E+02
 11
2.02939816E+02
 21
1.48734039E+02
  0
LINE
  8
0
 62
6
 10
2.16339817E+02
 20
1.29134041E+02
 11
2.16339817E+02
 21
1.48734039E+02
  0
LINE
  8
0
 62
6
 10
2.16339817E+02
 20
1.48734039E+02
 11
2.16339817E+02
 21
1.49734039E+02
  0
LINE
  8
0
 62
6
 10
2.06339817E+02
 20
1.48734039E+02
 11
2.06339817E+02
 21
1.49734039E+02
  0
LINE
  8
0
 62
6
 10
2.06339817E+02
 20
1.29134041E+02
 11
2.06339817E+02
 21
1.48734039E+02
  0
LINE
  8
0
 62
6
 10
2.13589817E+02
 20
1.49734039E+02
 11
2.13589817E+02
 21
1.57934040E+02
  0
LINE
  8
0
 62
6
 10
2.14889816E+02
 20
1.49734039E+02
 11
2.14889816E+02
 21
1.57934040E+02
  0
LINE
  8
0
 62
6
 10
2.14889816E+02
 20
1.57934040E+02
 11
2.13589817E+02
 21
1.57934040E+02
  0
LINE
  8
0
 62
6
 10
2.14489815E+02
 20
1.61934040E+02
 11
2.13989815E+02
 21
1.61934040E+02
  0
LINE
  8
0
 62
6
 10
2.14489815E+02
 20
1.57934040E+02
 11
2.14489815E+02
 21
1.61934040E+02
  0
LINE
  8
0
 62
6
 10
2.13989815E+02
 20
1.57934040E+02
 11
2.13989815E+02
 21
1.61934040E+02
  0
LINE
  8
0
 62
6
 10
2.08189816E+02
 20
1.57934040E+02
 11
2.08189816E+02
 21
1.61934040E+02
  0
LINE
  8
0
 62
6
 10
2.08689816E+02
 20
1.57934040E+02
 11
2.08689816E+02
 21
1.61934040E+02
  0
LINE
  8
0
 62
6
 10
2.08689816E+02
 20
1.61934040E+02
 11
2.08189816E+02
 21
1.61934040E+02
  0
LINE
  8
0
 62
6
 10
2.09089817E+02
 20
1.57934040E+02
 11
2.07789818E+02
 21
1.57934040E+02
  0
LINE
  8
0
 62
6
 10
2.09089817E+02
 20
1.49734039E+02
 11
2.09089817E+02
 21
1.57934040E+02
  0
LINE
  8
0
 62
6
 10
2.07789818E+02
 20
1.49734039E+02
 11
2.07789818E+02
 21
1.57934040E+02
  0
LINE
  8
0
 62
6
 10
2.06339817E+02
 20
1.44134041E+02
 11
2.16339817E+02
 21
1.44134041E+02
  0
LINE
  8
0
 62
6
 10
2.06339817E+02
 20
1.40634041E+02
 11
2.16339817E+02
 21
1.40634041E+02
  0
LINE
  8
0
 62
6
 10
2.06339817E+02
 20
1.48734039E+02
 11
2.16339817E+02
 21
1.48734039E+02
  0
LINE
  8
0
 62
6
 10
2.06339817E+02
 20
1.49734039E+02
 11
2.16339817E+02
 21
1.49734039E+02
  0
LINE
  8
0
 62
6
 10
2.06339817E+02
 20
1.48734039E+02
 11
2.02939816E+02
 21
1.48734039E+02
  0
LINE
  8
0
 62
6
 10
2.06339817E+02
 20
1.30334042E+02
 11
2.02939816E+02
 21
1.30334042E+02
  0
LINE
  8
0
  6
PHANTOM
 62
2
 10
2.04389816E+02
 20
1.54134041E+02
 11
2.03889816E+02
 21
1.54134041E+02
  0
LINE
  8
0
  6
PHANTOM
 62
2
 10
2.04389816E+02
 20
1.53134041E+02
 11
2.02139816E+02
 21
1.53134041E+02
  0
LINE
  8
0
  6
PHANTOM
 62
2
 10
2.04389816E+02
 20
1.51257328E+02
 11
2.03889816E+02
 21
1.51257328E+02
  0
LINE
  8
0
  6
PHANTOM
 62
2
 10
2.07789818E+02
 20
1.51257328E+02
 11
2.05689816E+02
 21
1.51257328E+02
  0
LINE
  8
0
  6
PHANTOM
 62
2
 10
2.07789818E+02
 20
1.54134041E+02
 11
2.05689816E+02
 21
1.54134041E+02
  0
LINE
  8
0
  6
PHANTOM
 62
2
 10
2.07789818E+02
 20
1.53134041E+02
 11
2.05689816E+02
 21
1.53134041E+02
  0
LINE
  8
0
  6
PHANTOM
 62
2
 10
2.10189816E+02
 20
1.54134041E+02
 11
2.09089817E+02
 21
1.54134041E+02
  0
LINE
  8
0
  6
PHANTOM
 62
2
 10
2.10189816E+02
 20
1.53134041E+02
 11
2.09089817E+02
 21
1.53134041E+02
  0
LINE
  8
0
  6
PHANTOM
 62
2
 10
2.10189816E+02
 20
1.51257328E+02
 11
2.09089817E+02
 21
1.51257328E+02
  0
LINE
  8
0
  6
PHANTOM
 62
2
 10
2.13589817E+02
 20
1.51257328E+02
 11
2.11489815E+02
 21
1.51257328E+02
  0
LINE
  8
0
  6
PHANTOM
 62
2
 10
2.13589817E+02
 20
1.53134041E+02
 11
2.11489815E+02
 21
1.53134041E+02
  0
LINE
  8
0
  6
PHANTOM
 62
2
 10
2.14889816E+02
 20
1.54138962E+02
 11
2.15389816E+02
 21
1.54138962E+02
  0
LINE
  8
0
  6
PHANTOM
 62
2
 10
2.11489815E+02
 20
1.54138962E+02
 11
2.13589817E+02
 21
1.54138962E+02
  0
LINE
  8
0
 62
7
 10
2.28589813E+02
 20
1.61134041E+02
 11
2.30589813E+02
 21
1.61134041E+02
  0
LINE
  8
0
 62
7
 10
2.28989815E+02
 20
1.54138962E+02
 11
2.31089813E+02
 21
1.54138962E+02
  0
LINE
  8
0
 62
7
 10
2.27689819E+02
 20
1.52138962E+02
 11
2.26589813E+02
 21
1.52138962E+02
  0
LINE
  8
0
 62
7
 10
2.21889816E+02
 20
1.52138962E+02
 11
2.21389816E+02
 21
1.52138962E+02
  0
LINE
  8
0
 62
7
 10
2.23189819E+02
 20
1.54138962E+02
 11
2.25289818E+02
 21
1.54138962E+02
  0
LINE
  8
0
 62
6
 10
2.20439819E+02
 20
1.48734039E+02
 11
2.20439819E+02
 21
1.49734039E+02
  0
LINE
  8
0
 62
6
 10
2.21889816E+02
 20
1.49734039E+02
 11
2.21889816E+02
 21
1.57934040E+02
  0
LINE
  8
0
 62
6
 10
2.23189819E+02
 20
1.49734039E+02
 11
2.23189819E+02
 21
1.57934040E+02
  0
LINE
  8
0
 62
6
 10
2.23189819E+02
 20
1.57934040E+02
 11
2.21889816E+02
 21
1.57934040E+02
  0
LINE
  8
0
 62
6
 10
2.22789818E+02
 20
1.61934040E+02
 11
2.22289818E+02
 21
1.61934040E+02
  0
LINE
  8
0
 62
6
 10
2.22789818E+02
 20
1.57934040E+02
 11
2.22789818E+02
 21
1.61934040E+02
  0
LINE
  8
0
 62
6
 10
2.22289818E+02
 20
1.57934040E+02
 11
2.22289818E+02
 21
1.61934040E+02
  0
LINE
  8
0
 62
6
 10
2.28089813E+02
 20
1.57934040E+02
 11
2.28089813E+02
 21
1.61934040E+02
  0
LINE
  8
0
 62
6
 10
2.28589813E+02
 20
1.57934040E+02
 11
2.28589813E+02
 21
1.61934040E+02
  0
LINE
  8
0
 62
6
 10
2.28589813E+02
 20
1.61934040E+02
 11
2.28089813E+02
 21
1.61934040E+02
  0
LINE
  8
0
 62
6
 10
2.28989815E+02
 20
1.57934040E+02
 11
2.27689819E+02
 21
1.57934040E+02
  0
LINE
  8
0
 62
6
 10
2.28989815E+02
 20
1.49734039E+02
 11
2.28989815E+02
 21
1.57934040E+02
  0
LINE
  8
0
 62
6
 10
2.27689819E+02
 20
1.49734039E+02
 11
2.27689819E+02
 21
1.57934040E+02
  0
LINE
  8
0
 62
6
 10
2.20439819E+02
 20
1.49734039E+02
 11
2.23839813E+02
 21
1.49734039E+02
  0
LINE
  8
0
  6
CENTER
 62
6
 10
2.25439819E+02
 20
1.26738373E+02
 11
2.25439819E+02
 21
1.50957352E+02
  0
LINE
  8
0
 62
6
 10
2.33839813E+02
 20
1.33134041E+02
 11
2.23839813E+02
 21
1.33134041E+02
  0
LINE
  8
0
  6
CENTER
 62
6
 10
2.28839813E+02
 20
1.26738373E+02
 11
2.28839813E+02
 21
1.50957352E+02
  0
LINE
  8
0
 62
7
 10
2.32889816E+02
 20
1.53138962E+02
 11
2.35741142E+02
 21
1.53138962E+02
  0
LINE
  8
0
 62
7
 10
2.19639816E+02
 20
1.53138962E+02
 11
2.19639816E+02
 21
1.29134041E+02
  0
LINE
  8
0
 62
7
 10
2.34639816E+02
 20
1.53138962E+02
 11
2.34639816E+02
 21
1.29134041E+02
  0
LINE
  8
0
 62
7
 10
2.32889816E+02
 20
1.54138962E+02
 11
2.32889816E+02
 21
1.52138962E+02
  0
LINE
  8
0
 62
7
 10
2.21389816E+02
 20
1.54138962E+02
 11
2.21389816E+02
 21
1.52138962E+02
  0
LINE
  8
0
 62
7
 10
2.21389816E+02
 20
1.54138962E+02
 11
2.21889816E+02
 21
1.54138962E+02
  0
LINE
  8
0
 62
7
 10
2.32889816E+02
 20
1.52138962E+02
 11
2.32389816E+02
 21
1.52138962E+02
  0
LINE
  8
0
 62
7
 10
2.34917632E+02
 20
1.10911859E+02
 11
2.33361997E+02
 21
1.09356224E+02
  0
LINE
  8
0
 62
7
 10
2.33361997E+02
 20
1.10911857E+02
 11
2.34917632E+02
 21
1.09356221E+02
  0
LINE
  8
0
 62
7
 10
2.19361998E+02
 20
1.27911859E+02
 11
2.20917634E+02
 21
1.26356223E+02
  0
LINE
  8
0
 62
7
 10
2.20917631E+02
 20
1.27911859E+02
 11
2.19361996E+02
 21
1.26356223E+02
  0
LINE
  8
0
 62
7
 10
2.18139816E+02
 20
1.08134041E+02
 11
2.18139816E+02
 21
1.29134041E+02
  0
LINE
  8
0
 62
7
 10
2.36139816E+02
 20
1.29134041E+02
 11
2.36139816E+02
 21
1.08134041E+02
  0
LINE
  8
0
 62
7
 10
2.34139816E+02
 20
1.11734041E+02
 11
2.36139816E+02
 21
1.11734041E+02
  0
LINE
  8
0
 62
7
 10
2.20139816E+02
 20
1.25534040E+02
 11
2.18139816E+02
 21
1.25534040E+02
  0
LINE
  8
0
 62
7
 10
2.21739815E+02
 20
1.27134041E+02
 11
2.21739815E+02
 21
1.29134041E+02
  0
LINE
  8
0
 62
7
 10
2.32539818E+02
 20
1.10134041E+02
 11
2.32539818E+02
 21
1.08134041E+02
  0
LINE
  8
0
 62
7
 10
2.17889816E+02
 20
8.21340408E+01
 11
2.17889816E+02
 21
1.08134041E+02
  0
LINE
  8
0
 62
7
 10
2.36389816E+02
 20
1.08134041E+02
 11
2.36389816E+02
 21
8.21340408E+01
  0
LINE
  8
0
 62
7
 10
2.17889816E+02
 20
1.08134041E+02
 11
2.36389816E+02
 21
1.08134041E+02
  0
LINE
  8
0
 62
7
 10
2.17889816E+02
 20
8.21340408E+01
 11
2.36389816E+02
 21
8.21340408E+01
  0
LINE
  8
0
 62
7
 10
2.22189819E+02
 20
1.57934040E+02
 11
2.22189819E+02
 21
1.59634041E+02
  0
LINE
  8
0
 62
7
 10
2.32089813E+02
 20
1.57934040E+02
 11
2.32089813E+02
 21
1.59634041E+02
  0
LINE
  8
0
 62
7
 10
2.23689819E+02
 20
1.61134041E+02
 11
2.25689819E+02
 21
1.61134041E+02
  0
LINE
  8
0
 62
7
 10
2.35941136E+02
 20
1.52940298E+02
 11
2.36139812E+02
 21
1.23138963E+02
  0
LINE
  8
0
 62
7
 10
2.18338488E+02
 20
1.52940298E+02
 11
2.18139812E+02
 21
1.23138963E+02
  0
LINE
  8
0
 62
7
 10
2.36139816E+02
 20
1.29134041E+02
 11
2.18139816E+02
 21
1.29134041E+02
  0
LINE
  8
0
 62
6
 10
2.20439819E+02
 20
1.29134041E+02
 11
2.20439819E+02
 21
1.48734039E+02
  0
LINE
  8
0
 62
7
 10
2.18538490E+02
 20
1.53138962E+02
 11
2.21389816E+02
 21
1.53138962E+02
  0
LINE
  8
0
  6
CENTER
 62
2
 10
2.27139816E+02
 20
7.89593124E+01
 11
2.27139816E+02
 21
1.63689785E+02
  0
LINE
  8
0
 62
6
 10
2.33839813E+02
 20
1.29134041E+02
 11
2.33839813E+02
 21
1.48734039E+02
  0
LINE
  8
0
 62
6
 10
2.33839813E+02
 20
1.48734039E+02
 11
2.33839813E+02
 21
1.49734039E+02
  0
LINE
  8
0
 62
6
 10
2.23839813E+02
 20
1.48734039E+02
 11
2.23839813E+02
 21
1.49734039E+02
  0
LINE
  8
0
 62
6
 10
2.23839813E+02
 20
1.29134041E+02
 11
2.23839813E+02
 21
1.48734039E+02
  0
LINE
  8
0
 62
6
 10
2.31089813E+02
 20
1.49734039E+02
 11
2.31089813E+02
 21
1.57934040E+02
  0
LINE
  8
0
 62
6
 10
2.32389816E+02
 20
1.49734039E+02
 11
2.32389816E+02
 21
1.57934040E+02
  0
LINE
  8
0
 62
6
 10
2.32389816E+02
 20
1.57934040E+02
 11
2.31089813E+02
 21
1.57934040E+02
  0
LINE
  8
0
 62
6
 10
2.31989815E+02
 20
1.61934040E+02
 11
2.31489815E+02
 21
1.61934040E+02
  0
LINE
  8
0
 62
6
 10
2.31989815E+02
 20
1.57934040E+02
 11
2.31989815E+02
 21
1.61934040E+02
  0
LINE
  8
0
 62
6
 10
2.31489815E+02
 20
1.57934040E+02
 11
2.31489815E+02
 21
1.61934040E+02
  0
LINE
  8
0
 62
6
 10
2.25689819E+02
 20
1.57934040E+02
 11
2.25689819E+02
 21
1.61934040E+02
  0
LINE
  8
0
 62
6
 10
2.26189819E+02
 20
1.57934040E+02
 11
2.26189819E+02
 21
1.61934040E+02
  0
LINE
  8
0
 62
6
 10
2.26189819E+02
 20
1.61934040E+02
 11
2.25689819E+02
 21
1.61934040E+02
  0
LINE
  8
0
 62
6
 10
2.26589813E+02
 20
1.57934040E+02
 11
2.25289818E+02
 21
1.57934040E+02
  0
LINE
  8
0
 62
6
 10
2.26589813E+02
 20
1.49734039E+02
 11
2.26589813E+02
 21
1.57934040E+02
  0
LINE
  8
0
 62
6
 10
2.25289818E+02
 20
1.49734039E+02
 11
2.25289818E+02
 21
1.57934040E+02
  0
LINE
  8
0
 62
6
 10
2.23839813E+02
 20
1.44134041E+02
 11
2.33839813E+02
 21
1.44134041E+02
  0
LINE
  8
0
 62
6
 10
2.23839813E+02
 20
1.40634041E+02
 11
2.33839813E+02
 21
1.40634041E+02
  0
LINE
  8
0
 62
7
 10
2.26589813E+02
 20
1.54138962E+02
 11
2.27689819E+02
 21
1.54138962E+02
  0
LINE
  8
0
 62
7
 10
2.25289818E+02
 20
1.52138962E+02
 11
2.23189819E+02
 21
1.52138962E+02
  0
LINE
  8
0
 62
7
 10
2.31089813E+02
 20
1.52138962E+02
 11
2.28989815E+02
 21
1.52138962E+02
  0
LINE
  8
0
 62
7
 10
2.32389816E+02
 20
1.54138962E+02
 11
2.32889816E+02
 21
1.54138962E+02
  0
LINE
  8
0
 62
7
 10
2.26189819E+02
 20
1.61134041E+02
 11
2.28089813E+02
 21
1.61134041E+02
  0
LINE
  8
0
 62
6
 10
2.23839813E+02
 20
1.48734039E+02
 11
2.33839813E+02
 21
1.48734039E+02
  0
LINE
  8
0
 62
6
 10
2.23839813E+02
 20
1.49734039E+02
 11
2.33839813E+02
 21
1.49734039E+02
  0
LINE
  8
0
 62
6
 10
2.23839813E+02
 20
1.48734039E+02
 11
2.20439819E+02
 21
1.48734039E+02
  0
LINE
  8
0
 62
6
 10
2.23839813E+02
 20
1.30334042E+02
 11
2.20439819E+02
 21
1.30334042E+02
  0
LINE
  8
0
  6
PHANTOM
 62
2
 10
2.22739815E+02
 20
2.04035263E+02
 11
2.23339813E+02
 21
2.04035263E+02
  0
LINE
  8
0
  6
PHANTOM
 62
2
 10
2.22339813E+02
 20
2.04035263E+02
 11
2.21739815E+02
 21
2.04035263E+02
  0
LINE
  8
0
  6
PHANTOM
 62
2
 10
2.23739815E+02
 20
1.83868042E+02
 11
2.21339813E+02
 21
1.83868042E+02
  0
LINE
  8
0
  6
PHANTOM
 62
2
 10
2.23339813E+02
 20
1.83868042E+02
 11
2.23339813E+02
 21
2.04035263E+02
  0
LINE
  8
0
  6
PHANTOM
 62
2
 10
2.22739815E+02
 20
1.83868042E+02
 11
2.22739815E+02
 21
2.04035263E+02
  0
LINE
  8
0
  6
PHANTOM
 62
2
 10
2.22339813E+02
 20
1.83868042E+02
 11
2.22339813E+02
 21
2.04035263E+02
  0
LINE
  8
0
  6
PHANTOM
 62
2
 10
2.21739815E+02
 20
1.83868042E+02
 11
2.21739815E+02
 21
2.04035263E+02
  0
LINE
  8
0
  6
PHANTOM
 62
2
 10
2.23739815E+02
 20
1.78334038E+02
 11
2.23739815E+02
 21
1.83868042E+02
  0
LINE
  8
0
  6
PHANTOM
 62
2
 10
2.21339813E+02
 20
1.78334038E+02
 11
2.21339813E+02
 21
1.83868042E+02
  0
LINE
  8
0
  6
PHANTOM
 62
2
 10
2.20439819E+02
 20
1.49634041E+02
 11
2.19639816E+02
 21
1.49634041E+02
  0
LINE
  8
0
  6
PHANTOM
 62
2
 10
2.32889816E+02
 20
1.51257328E+02
 11
2.32389816E+02
 21
1.51257328E+02
  0
LINE
  8
0
  6
PHANTOM
 62
2
 10
2.32889816E+02
 20
1.54134041E+02
 11
2.32389816E+02
 21
1.54134041E+02
  0
LINE
  8
0
  6
PHANTOM
 62
2
 10
2.32889816E+02
 20
1.49734039E+02
 11
2.32889816E+02
 21
1.54138962E+02
  0
LINE
  8
0
  6
PHANTOM
 62
2
 10
2.21389816E+02
 20
1.49734039E+02
 11
2.21389816E+02
 21
1.54134041E+02
  0
LINE
  8
0
  6
PHANTOM
 62
2
 10
2.34639816E+02
 20
1.49634041E+02
 11
2.33839813E+02
 21
1.49634041E+02
  0
LINE
  8
0
  6
PHANTOM
 62
2
 10
2.34639816E+02
 20
1.53134041E+02
 11
2.32389816E+02
 21
1.53134041E+02
  0
LINE
  8
0
  6
PHANTOM
 62
2
 10
2.34639816E+02
 20
1.29134041E+02
 11
2.34639816E+02
 21
1.53134041E+02
  0
LINE
  8
0
  6
PHANTOM
 62
2
 10
2.19639816E+02
 20
1.29134041E+02
 11
2.19639816E+02
 21
1.53134041E+02
  0
LINE
  8
0
  6
PHANTOM
 62
2
 10
2.24439819E+02
 20
1.65939144E+02
 11
2.24439819E+02
 21
1.78334038E+02
  0
LINE
  8
0
  6
PHANTOM
 62
2
 10
2.20639816E+02
 20
1.68133076E+02
 11
2.20639816E+02
 21
1.78334038E+02
  0
LINE
  8
0
  6
PHANTOM
 62
2
 10
2.26478964E+02
 20
1.64761841E+02
 11
2.18122079E+02
 21
1.69586691E+02
  0
LINE
  8
0
  6
PHANTOM
 62
2
 10
2.26270528E+02
 20
1.61995431E+02
 11
2.17935503E+02
 21
1.66807660E+02
  0
LINE
  8
0
  6
PHANTOM
 62
2
 10
2.24439819E+02
 20
1.78334038E+02
 11
2.20639816E+02
 21
1.78334038E+02
  0
LINE
  8
0
  6
PHANTOM
 62
2
 10
2.24439819E+02
 20
1.54134041E+02
 11
2.24439819E+02
 21
1.63052391E+02
  0
LINE
  8
0
  6
PHANTOM
 62
2
 10
2.20639816E+02
 20
1.54134041E+02
 11
2.20639816E+02
 21
1.65246323E+02
  0
LINE
  8
0
  6
PHANTOM
 62
2
 10
2.19739815E+02
 20
1.53134041E+02
 11
2.19739815E+02
 21
1.54134041E+02
  0
LINE
  8
0
  6
PHANTOM
 62
2
 10
2.21389816E+02
 20
1.54134041E+02
 11
2.19739815E+02
 21
1.54134041E+02
  0
LINE
  8
0
  6
PHANTOM
 62
2
 10
2.21389816E+02
 20
1.54138962E+02
 11
2.21889816E+02
 21
1.54138962E+02
  0
LINE
  8
0
  6
PHANTOM
 62
2
 10
2.28989815E+02
 20
1.54138962E+02
 11
2.31089813E+02
 21
1.54138962E+02
  0
LINE
  8
0
  6
PHANTOM
 62
2
 10
2.21889816E+02
 20
1.54134041E+02
 11
2.21389816E+02
 21
1.54134041E+02
  0
LINE
  8
0
  6
PHANTOM
 62
2
 10
2.21889816E+02
 20
1.53134041E+02
 11
2.19639816E+02
 21
1.53134041E+02
  0
LINE
  8
0
  6
PHANTOM
 62
2
 10
2.21889816E+02
 20
1.51257328E+02
 11
2.21389816E+02
 21
1.51257328E+02
  0
LINE
  8
0
  6
PHANTOM
 62
2
 10
2.25289818E+02
 20
1.51257328E+02
 11
2.23189819E+02
 21
1.51257328E+02
  0
LINE
  8
0
  6
PHANTOM
 62
2
 10
2.25289818E+02
 20
1.53134041E+02
 11
2.23189819E+02
 21
1.53134041E+02
  0
LINE
  8
0
  6
PHANTOM
 62
2
 10
2.25289818E+02
 20
1.54134041E+02
 11
2.23189819E+02
 21
1.54134041E+02
  0
LINE
  8
0
  6
PHANTOM
 62
2
 10
2.27689819E+02
 20
1.54134041E+02
 11
2.26589813E+02
 21
1.54134041E+02
  0
LINE
  8
0
  6
PHANTOM
 62
2
 10
2.27689819E+02
 20
1.53134041E+02
 11
2.26589813E+02
 21
1.53134041E+02
  0
LINE
  8
0
  6
PHANTOM
 62
2
 10
2.27689819E+02
 20
1.51257328E+02
 11
2.26589813E+02
 21
1.51257328E+02
  0
LINE
  8
0
  6
PHANTOM
 62
2
 10
2.31089813E+02
 20
1.51257328E+02
 11
2.28989815E+02
 21
1.51257328E+02
  0
LINE
  8
0
  6
PHANTOM
 62
2
 10
2.31089813E+02
 20
1.53134041E+02
 11
2.28989815E+02
 21
1.53134041E+02
  0
LINE
  8
0
  6
PHANTOM
 62
2
 10
2.31089813E+02
 20
1.54134041E+02
 11
2.28989815E+02
 21
1.54134041E+02
  0
LINE
  8
0
 62
7
 10
1.92189816E+02
 20
1.61134041E+02
 11
1.90189816E+02
 21
1.61134041E+02
  0
LINE
  8
0
 62
7
 10
1.97589817E+02
 20
1.54134041E+02
 11
1.95489815E+02
 21
1.54134041E+02
  0
LINE
  8
0
 62
7
 10
1.97589817E+02
 20
1.52134041E+02
 11
1.95489815E+02
 21
1.52134041E+02
  0
LINE
  8
0
 62
7
 10
1.91789818E+02
 20
1.52134041E+02
 11
1.89689816E+02
 21
1.52134041E+02
  0
LINE
  8
0
 62
7
 10
1.91789818E+02
 20
1.54134041E+02
 11
1.89689816E+02
 21
1.54134041E+02
  0
LINE
  8
0
  6
PHANTOM
 62
2
 10
1.89239815E+02
 20
2.04035263E+02
 11
1.89839817E+02
 21
2.04035263E+02
  0
LINE
  8
0
  6
PHANTOM
 62
2
 10
1.88839817E+02
 20
2.04035263E+02
 11
1.88239815E+02
 21
2.04035263E+02
  0
LINE
  8
0
  6
PHANTOM
 62
2
 10
1.90239815E+02
 20
1.83868042E+02
 11
1.87839817E+02
 21
1.83868042E+02
  0
LINE
  8
0
  6
PHANTOM
 62
2
 10
1.89839817E+02
 20
1.83868042E+02
 11
1.89839817E+02
 21
2.04035263E+02
  0
LINE
  8
0
  6
PHANTOM
 62
2
 10
1.89239815E+02
 20
1.83868042E+02
 11
1.89239815E+02
 21
2.04035263E+02
  0
LINE
  8
0
  6
PHANTOM
 62
2
 10
1.88839817E+02
 20
1.83868042E+02
 11
1.88839817E+02
 21
2.04035263E+02
  0
LINE
  8
0
  6
PHANTOM
 62
2
 10
1.88239815E+02
 20
1.83868042E+02
 11
1.88239815E+02
 21
2.04035263E+02
  0
LINE
  8
0
  6
PHANTOM
 62
2
 10
1.90239815E+02
 20
1.78334038E+02
 11
1.90239815E+02
 21
1.83868042E+02
  0
LINE
  8
0
  6
PHANTOM
 62
2
 10
1.87839817E+02
 20
1.78334038E+02
 11
1.87839817E+02
 21
1.83868042E+02
  0
LINE
  8
0
  6
PHANTOM
 62
2
 10
1.86939816E+02
 20
1.49634041E+02
 11
1.86139816E+02
 21
1.49634041E+02
  0
LINE
  8
0
  6
PHANTOM
 62
2
 10
1.99389816E+02
 20
1.51257328E+02
 11
1.98889816E+02
 21
1.51257328E+02
  0
LINE
  8
0
  6
PHANTOM
 62
2
 10
1.99389816E+02
 20
1.49734039E+02
 11
1.99389816E+02
 21
1.54138962E+02
  0
LINE
  8
0
  6
PHANTOM
 62
2
 10
1.87889816E+02
 20
1.49734039E+02
 11
1.87889816E+02
 21
1.54134041E+02
  0
LINE
  8
0
  6
PHANTOM
 62
2
 10
2.01139816E+02
 20
1.49634041E+02
 11
2.00339817E+02
 21
1.49634041E+02
  0
LINE
  8
0
  6
PHANTOM
 62
2
 10
2.01139816E+02
 20
1.53134041E+02
 11
1.98889816E+02
 21
1.53134041E+02
  0
LINE
  8
0
  6
PHANTOM
 62
2
 10
2.01139816E+02
 20
1.29134041E+02
 11
2.01139816E+02
 21
1.53134041E+02
  0
LINE
  8
0
  6
PHANTOM
 62
2
 10
1.86139816E+02
 20
1.29134041E+02
 11
1.86139816E+02
 21
1.53134041E+02
  0
LINE
  8
0
  6
PHANTOM
 62
2
 10
1.90939816E+02
 20
1.65939144E+02
 11
1.90939816E+02
 21
1.78334038E+02
  0
LINE
  8
0
  6
PHANTOM
 62
2
 10
1.87139816E+02
 20
1.68133076E+02
 11
1.87139816E+02
 21
1.78334038E+02
  0
LINE
  8
0
  6
PHANTOM
 62
2
 10
1.92978964E+02
 20
1.64761842E+02
 11
1.84622080E+02
 21
1.69586691E+02
  0
LINE
  8
0
  6
PHANTOM
 62
2
 10
1.92770527E+02
 20
1.61995427E+02
 11
1.84435501E+02
 21
1.66807657E+02
  0
LINE
  8
0
  6
PHANTOM
 62
2
 10
1.90939816E+02
 20
1.78334038E+02
 11
1.87139816E+02
 21
1.78334038E+02
  0
LINE
  8
0
  6
PHANTOM
 62
2
 10
1.90939816E+02
 20
1.54134041E+02
 11
1.90939816E+02
 21
1.63052391E+02
  0
LINE
  8
0
  6
PHANTOM
 62
2
 10
1.87139816E+02
 20
1.54134041E+02
 11
1.87139816E+02
 21
1.65246323E+02
  0
LINE
  8
0
  6
PHANTOM
 62
2
 10
1.86239815E+02
 20
1.53134041E+02
 11
1.86239815E+02
 21
1.54134041E+02
  0
LINE
  8
0
  6
PHANTOM
 62
2
 10
1.87889816E+02
 20
1.54134041E+02
 11
1.86239815E+02
 21
1.54134041E+02
  0
LINE
  8
0
  6
PHANTOM
 62
2
 10
1.87889816E+02
 20
1.54138962E+02
 11
1.88389816E+02
 21
1.54138962E+02
  0
LINE
  8
0
  6
CENTER
 62
6
 10
1.95339817E+02
 20
1.26738373E+02
 11
1.95339817E+02
 21
1.50957352E+02
  0
LINE
  8
0
  6
CENTER
 62
6
 10
1.91939816E+02
 20
1.26738373E+02
 11
1.91939816E+02
 21
1.50957352E+02
  0
LINE
  8
0
 62
7
 10
2.01046481E+02
 20
1.29134040E+02
 11
2.00940699E+02
 21
1.52934930E+02
  0
LINE
  8
0
 62
7
 10
1.86233149E+02
 20
1.29134040E+02
 11
1.86338931E+02
 21
1.52934931E+02
  0
LINE
  8
0
 62
7
 10
1.97089817E+02
 20
1.61134041E+02
 11
1.95089817E+02
 21
1.61134041E+02
  0
LINE
  8
0
 62
7
 10
1.88689816E+02
 20
1.57934040E+02
 11
1.88689816E+02
 21
1.59634041E+02
  0
LINE
  8
0
 62
7
 10
1.98589817E+02
 20
1.57934040E+02
 11
1.98589817E+02
 21
1.59634041E+02
  0
LINE
  8
0
 62
7
 10
2.00740704E+02
 20
1.53134041E+02
 11
1.99389816E+02
 21
1.53134041E+02
  0
LINE
  8
0
  6
CENTER
 62
2
 10
1.93639816E+02
 20
7.86930389E+01
 11
1.93639816E+02
 21
1.66109509E+02
  0
LINE
  8
0
 62
7
 10
1.98361999E+02
 20
1.10911858E+02
 11
1.99917634E+02
 21
1.09356223E+02
  0
LINE
  8
0
 62
7
 10
1.99917633E+02
 20
1.10911859E+02
 11
1.98361997E+02
 21
1.09356224E+02
  0
LINE
  8
0
 62
7
 10
1.88917634E+02
 20
1.27911859E+02
 11
1.87361999E+02
 21
1.26356224E+02
  0
LINE
  8
0
 62
7
 10
1.87361998E+02
 20
1.27911857E+02
 11
1.88917633E+02
 21
1.26356222E+02
  0
LINE
  8
0
 62
7
 10
1.86139816E+02
 20
1.29134041E+02
 11
1.86139816E+02
 21
1.08134041E+02
  0
LINE
  8
0
 62
7
 10
2.01139816E+02
 20
1.29134041E+02
 11
2.01139816E+02
 21
1.08134041E+02
  0
LINE
  8
0
 62
7
 10
1.86139816E+02
 20
1.29134041E+02
 11
2.01139816E+02
 21
1.29134041E+02
  0
LINE
  8
0
 62
7
 10
1.99139816E+02
 20
1.11734041E+02
 11
2.01139816E+02
 21
1.11734041E+02
  0
LINE
  8
0
 62
7
 10
1.97539818E+02
 20
1.10134041E+02
 11
1.97539818E+02
 21
1.08134041E+02
  0
LINE
  8
0
 62
7
 10
1.89739815E+02
 20
1.27134041E+02
 11
1.89739815E+02
 21
1.29134041E+02
  0
LINE
  8
0
 62
7
 10
1.88139816E+02
 20
1.25534040E+02
 11
1.86139816E+02
 21
1.25534040E+02
  0
LINE
  8
0
 62
7
 10
1.85889816E+02
 20
8.21340408E+01
 11
2.01389816E+02
 21
8.21340408E+01
  0
LINE
  8
0
 62
7
 10
2.01389816E+02
 20
1.08134041E+02
 11
1.85889816E+02
 21
1.08134041E+02
  0
LINE
  8
0
 62
7
 10
2.01389816E+02
 20
8.21340408E+01
 11
2.01389816E+02
 21
1.08134041E+02
  0
LINE
  8
0
 62
7
 10
1.85889816E+02
 20
8.21340408E+01
 11
1.85889816E+02
 21
1.08134041E+02
  0
LINE
  8
0
 62
7
 10
1.99389816E+02
 20
1.54134041E+02
 11
1.98889816E+02
 21
1.54134041E+02
  0
LINE
  8
0
 62
7
 10
1.99389816E+02
 20
1.52134041E+02
 11
1.98889816E+02
 21
1.52134041E+02
  0
LINE
  8
0
 62
7
 10
1.99389816E+02
 20
1.54134041E+02
 11
1.99389816E+02
 21
1.52134041E+02
  0
LINE
  8
0
 62
7
 10
1.87889816E+02
 20
1.54134041E+02
 11
1.87889816E+02
 21
1.52134041E+02
  0
LINE
  8
0
 62
7
 10
1.87889816E+02
 20
1.53134041E+02
 11
1.86538929E+02
 21
1.53134041E+02
  0
LINE
  8
0
 62
7
 10
1.88389816E+02
 20
1.54134041E+02
 11
1.87889816E+02
 21
1.54134041E+02
  0
LINE
  8
0
 62
7
 10
1.88389816E+02
 20
1.52134041E+02
 11
1.87889816E+02
 21
1.52134041E+02
  0
LINE
  8
0
 62
7
 10
1.94189816E+02
 20
1.54134041E+02
 11
1.93089817E+02
 21
1.54134041E+02
  0
LINE
  8
0
 62
7
 10
1.94189816E+02
 20
1.52134041E+02
 11
1.93089817E+02
 21
1.52134041E+02
  0
LINE
  8
0
 62
7
 10
1.94589817E+02
 20
1.61134041E+02
 11
1.92689816E+02
 21
1.61134041E+02
  0
LINE
  8
0
 62
6
 10
1.86939816E+02
 20
1.48734039E+02
 11
1.86939816E+02
 21
1.49734039E+02
  0
LINE
  8
0
 62
6
 10
1.88389816E+02
 20
1.49734039E+02
 11
1.88389816E+02
 21
1.57934040E+02
  0
LINE
  8
0
 62
6
 10
1.89689816E+02
 20
1.49734039E+02
 11
1.89689816E+02
 21
1.57934040E+02
  0
LINE
  8
0
 62
6
 10
1.89689816E+02
 20
1.57934040E+02
 11
1.88389816E+02
 21
1.57934040E+02
  0
LINE
  8
0
 62
6
 10
1.89289818E+02
 20
1.61934040E+02
 11
1.88789818E+02
 21
1.61934040E+02
  0
LINE
  8
0
 62
6
 10
1.89289818E+02
 20
1.57934040E+02
 11
1.89289818E+02
 21
1.61934040E+02
  0
LINE
  8
0
 62
6
 10
1.88789818E+02
 20
1.57934040E+02
 11
1.88789818E+02
 21
1.61934040E+02
  0
LINE
  8
0
 62
6
 10
1.94589817E+02
 20
1.57934040E+02
 11
1.94589817E+02
 21
1.61934040E+02
  0
LINE
  8
0
 62
6
 10
1.95089817E+02
 20
1.57934040E+02
 11
1.95089817E+02
 21
1.61934040E+02
  0
LINE
  8
0
 62
6
 10
1.95089817E+02
 20
1.61934040E+02
 11
1.94589817E+02
 21
1.61934040E+02
  0
LINE
  8
0
 62
6
 10
1.95489815E+02
 20
1.57934040E+02
 11
1.94189816E+02
 21
1.57934040E+02
  0
LINE
  8
0
 62
6
 10
1.95489815E+02
 20
1.49734039E+02
 11
1.95489815E+02
 21
1.57934040E+02
  0
LINE
  8
0
 62
6
 10
1.94189816E+02
 20
1.49734039E+02
 11
1.94189816E+02
 21
1.57934040E+02
  0
LINE
  8
0
 62
6
 10
1.86939816E+02
 20
1.49734039E+02
 11
1.90339817E+02
 21
1.49734039E+02
  0
LINE
  8
0
 62
6
 10
2.00339817E+02
 20
1.33134041E+02
 11
1.90339817E+02
 21
1.33134041E+02
  0
LINE
  8
0
 62
6
 10
1.86939816E+02
 20
1.29134041E+02
 11
1.86939816E+02
 21
1.48734039E+02
  0
LINE
  8
0
 62
6
 10
2.00339817E+02
 20
1.29134041E+02
 11
2.00339817E+02
 21
1.48734039E+02
  0
LINE
  8
0
 62
6
 10
2.00339817E+02
 20
1.48734039E+02
 11
2.00339817E+02
 21
1.49734039E+02
  0
LINE
  8
0
 62
6
 10
1.90339817E+02
 20
1.48734039E+02
 11
1.90339817E+02
 21
1.49734039E+02
  0
LINE
  8
0
 62
6
 10
1.90339817E+02
 20
1.29134041E+02
 11
1.90339817E+02
 21
1.48734039E+02
  0
LINE
  8
0
 62
6
 10
1.97589817E+02
 20
1.49734039E+02
 11
1.97589817E+02
 21
1.57934040E+02
  0
LINE
  8
0
 62
6
 10
1.98889816E+02
 20
1.49734039E+02
 11
1.98889816E+02
 21
1.57934040E+02
  0
LINE
  8
0
 62
6
 10
1.98889816E+02
 20
1.57934040E+02
 11
1.97589817E+02
 21
1.57934040E+02
  0
LINE
  8
0
 62
6
 10
1.98489815E+02
 20
1.61934040E+02
 11
1.97989815E+02
 21
1.61934040E+02
  0
LINE
  8
0
 62
6
 10
1.98489815E+02
 20
1.57934040E+02
 11
1.98489815E+02
 21
1.61934040E+02
  0
LINE
  8
0
 62
6
 10
1.97989815E+02
 20
1.57934040E+02
 11
1.97989815E+02
 21
1.61934040E+02
  0
LINE
  8
0
 62
6
 10
1.92189816E+02
 20
1.57934040E+02
 11
1.92189816E+02
 21
1.61934040E+02
  0
LINE
  8
0
 62
6
 10
1.92689816E+02
 20
1.57934040E+02
 11
1.92689816E+02
 21
1.61934040E+02
  0
LINE
  8
0
 62
6
 10
1.92689816E+02
 20
1.61934040E+02
 11
1.92189816E+02
 21
1.61934040E+02
  0
LINE
  8
0
 62
6
 10
1.93089817E+02
 20
1.57934040E+02
 11
1.91789818E+02
 21
1.57934040E+02
  0
LINE
  8
0
 62
6
 10
1.93089817E+02
 20
1.49734039E+02
 11
1.93089817E+02
 21
1.57934040E+02
  0
LINE
  8
0
 62
6
 10
1.91789818E+02
 20
1.49734039E+02
 11
1.91789818E+02
 21
1.57934040E+02
  0
LINE
  8
0
 62
6
 10
1.90339817E+02
 20
1.44134041E+02
 11
2.00339817E+02
 21
1.44134041E+02
  0
LINE
  8
0
 62
6
 10
1.90339817E+02
 20
1.40634041E+02
 11
2.00339817E+02
 21
1.40634041E+02
  0
LINE
  8
0
 62
6
 10
1.90339817E+02
 20
1.48734039E+02
 11
2.00339817E+02
 21
1.48734039E+02
  0
LINE
  8
0
 62
6
 10
1.90339817E+02
 20
1.49734039E+02
 11
2.00339817E+02
 21
1.49734039E+02
  0
LINE
  8
0
 62
6
 10
1.90339817E+02
 20
1.48734039E+02
 11
1.86939816E+02
 21
1.48734039E+02
  0
LINE
  8
0
 62
6
 10
1.90339817E+02
 20
1.30334042E+02
 11
1.86939816E+02
 21
1.30334042E+02
  0
LINE
  8
0
  6
PHANTOM
 62
2
 10
1.88389816E+02
 20
1.54134041E+02
 11
1.87889816E+02
 21
1.54134041E+02
  0
LINE
  8
0
  6
PHANTOM
 62
2
 10
1.88389816E+02
 20
1.53134041E+02
 11
1.86139816E+02
 21
1.53134041E+02
  0
LINE
  8
0
  6
PHANTOM
 62
2
 10
1.88389816E+02
 20
1.51257328E+02
 11
1.87889816E+02
 21
1.51257328E+02
  0
LINE
  8
0
  6
PHANTOM
 62
2
 10
1.91789818E+02
 20
1.51257328E+02
 11
1.89689816E+02
 21
1.51257328E+02
  0
LINE
  8
0
  6
PHANTOM
 62
2
 10
1.91789818E+02
 20
1.54134041E+02
 11
1.89689816E+02
 21
1.54134041E+02
  0
LINE
  8
0
  6
PHANTOM
 62
2
 10
1.91789818E+02
 20
1.53134041E+02
 11
1.89689816E+02
 21
1.53134041E+02
  0
LINE
  8
0
  6
PHANTOM
 62
2
 10
1.94189816E+02
 20
1.54134041E+02
 11
1.93089817E+02
 21
1.54134041E+02
  0
LINE
  8
0
  6
PHANTOM
 62
2
 10
1.94189816E+02
 20
1.53134041E+02
 11
1.93089817E+02
 21
1.53134041E+02
  0
LINE
  8
0
  6
PHANTOM
 62
2
 10
1.94189816E+02
 20
1.51257328E+02
 11
1.93089817E+02
 21
1.51257328E+02
  0
LINE
  8
0
  6
PHANTOM
 62
2
 10
1.97589817E+02
 20
1.51257328E+02
 11
1.95489815E+02
 21
1.51257328E+02
  0
LINE
  8
0
  6
PHANTOM
 62
2
 10
1.97589817E+02
 20
1.53134041E+02
 11
1.95489815E+02
 21
1.53134041E+02
  0
LINE
  8
0
  6
PHANTOM
 62
2
 10
1.98889816E+02
 20
1.54138962E+02
 11
1.99389816E+02
 21
1.54138962E+02
  0
LINE
  8
0
  6
PHANTOM
 62
2
 10
1.95489815E+02
 20
1.54138962E+02
 11
1.97589817E+02
 21
1.54138962E+02
  0
LINE
  8
0
  6
CENTER
 62
2
 10
1.80139816E+02
 20
7.94734650E+01
 11
1.80139816E+02
 21
1.62901474E+02
  0
LINE
  8
0
 62
7
 10
1.74939816E+02
 20
1.26634041E+02
 11
1.85339817E+02
 21
1.26634041E+02
  0
LINE
  8
0
 62
7
 10
1.85139816E+02
 20
1.08134041E+02
 11
1.85139816E+02
 21
1.26634041E+02
  0
LINE
  8
0
 62
7
 10
1.75139816E+02
 20
1.26634041E+02
 11
1.75139816E+02
 21
1.08134041E+02
  0
LINE
  8
0
 62
7
 10
1.77139816E+02
 20
1.12634041E+02
 11
1.75139816E+02
 21
1.12634041E+02
  0
LINE
  8
0
 62
7
 10
1.83439816E+02
 20
1.18334041E+02
 11
1.85139816E+02
 21
1.18334041E+02
  0
LINE
  8
0
 62
7
 10
1.83439816E+02
 20
1.21534040E+02
 11
1.85139816E+02
 21
1.21534040E+02
  0
LINE
  8
0
 62
7
 10
1.85339817E+02
 20
1.19934041E+02
 11
1.85339817E+02
 21
1.26634041E+02
  0
LINE
  8
0
 62
7
 10
1.74939816E+02
 20
1.26634041E+02
 11
1.74939816E+02
 21
1.19934041E+02
  0
LINE
  8
0
 62
7
 10
1.85339817E+02
 20
1.19934041E+02
 11
1.85139816E+02
 21
1.19934041E+02
  0
LINE
  8
0
 62
7
 10
1.75139816E+02
 20
1.19934041E+02
 11
1.74939816E+02
 21
1.19934041E+02
  0
LINE
  8
0
 62
7
 10
1.77139816E+02
 20
1.09434041E+02
 11
1.75139816E+02
 21
1.09434041E+02
  0
LINE
  8
0
 62
7
 10
1.74889816E+02
 20
8.21340408E+01
 11
1.85389816E+02
 21
8.21340408E+01
  0
LINE
  8
0
 62
7
 10
1.85389816E+02
 20
8.21340408E+01
 11
1.85389816E+02
 21
1.08134041E+02
  0
LINE
  8
0
 62
7
 10
1.74889816E+02
 20
8.21340408E+01
 11
1.74889816E+02
 21
1.08134041E+02
  0
LINE
  8
0
 62
7
 10
1.84940924E+02
 20
1.53134041E+02
 11
1.83689816E+02
 21
1.53134041E+02
  0
LINE
  8
0
 62
7
 10
1.75189816E+02
 20
1.53434040E+02
 11
1.75189816E+02
 21
1.59634041E+02
  0
LINE
  8
0
 62
7
 10
1.83589817E+02
 20
1.61134041E+02
 11
1.76689816E+02
 21
1.61134041E+02
  0
LINE
  8
0
 62
7
 10
1.75189816E+02
 20
1.53434040E+02
 11
1.75489816E+02
 21
1.53134040E+02
  0
LINE
  8
0
 62
7
 10
1.85140922E+02
 20
1.52935151E+02
 11
1.85287039E+02
 21
1.26634040E+02
  0
LINE
  8
0
 62
7
 10
1.74955371E+02
 20
1.19934041E+02
 11
1.74889815E+02
 21
1.08134041E+02
  0
LINE
  8
0
 62
7
 10
1.74889816E+02
 20
1.08134041E+02
 11
1.85389816E+02
 21
1.08134041E+02
  0
LINE
  8
0
 62
7
 10
1.77917633E+02
 20
1.11811858E+02
 11
1.76361998E+02
 21
1.10256224E+02
  0
LINE
  8
0
 62
7
 10
1.76361999E+02
 20
1.11811858E+02
 11
1.77917633E+02
 21
1.10256224E+02
  0
LINE
  8
0
 62
7
 10
1.84217634E+02
 20
1.20711858E+02
 11
1.82661999E+02
 21
1.19156223E+02
  0
LINE
  8
0
 62
7
 10
1.82661999E+02
 20
1.20711858E+02
 11
1.84217633E+02
 21
1.19156224E+02
  0
LINE
  8
0
  6
PHANTOM
 62
2
 10
1.80991627E+02
 20
1.59243102E+02
 11
1.73615999E+02
 21
1.61225302E+02
  0
LINE
  8
0
  6
PHANTOM
 62
2
 10
1.80991627E+02
 20
1.58213104E+02
 11
1.73615999E+02
 21
1.60195304E+02
  0
LINE
  8
0
  6
CENTER
 62
2
 10
1.77639263E+02
 20
1.50440895E+02
 11
1.77639263E+02
 21
1.70295181E+02
  0
LINE
  8
0
  6
PHANTOM
 62
2
 10
1.75939263E+02
 20
1.66589108E+02
 11
1.76139263E+02
 21
1.66725054E+02
  0
LINE
  8
0
  6
PHANTOM
 62
2
 10
1.75939264E+02
 20
1.65715168E+02
 11
1.75939264E+02
 21
1.66589111E+02
  0
LINE
  8
0
  6
PHANTOM
 62
2
 10
1.76139263E+02
 20
1.65715168E+02
 11
1.76139263E+02
 21
1.66725056E+02
  0
LINE
  8
0
  6
PHANTOM
 62
2
 10
1.76939264E+02
 20
1.66589110E+02
 11
1.77139263E+02
 21
1.66725056E+02
  0
LINE
  8
0
  6
PHANTOM
 62
2
 10
1.76939264E+02
 20
1.65715168E+02
 11
1.76939264E+02
 21
1.66589111E+02
  0
LINE
  8
0
  6
PHANTOM
 62
2
 10
1.77139263E+02
 20
1.65715168E+02
 11
1.77139263E+02
 21
1.66725056E+02
  0
LINE
  8
0
  6
PHANTOM
 62
2
 10
1.77939262E+02
 20
1.66589108E+02
 11
1.78139262E+02
 21
1.66725054E+02
  0
LINE
  8
0
  6
PHANTOM
 62
2
 10
1.77939264E+02
 20
1.65715168E+02
 11
1.77939264E+02
 21
1.66589111E+02
  0
LINE
  8
0
  6
PHANTOM
 62
2
 10
1.78139263E+02
 20
1.65715168E+02
 11
1.78139263E+02
 21
1.66725056E+02
  0
LINE
  8
0
  6
PHANTOM
 62
2
 10
1.78939264E+02
 20
1.66589108E+02
 11
1.79139264E+02
 21
1.66725054E+02
  0
LINE
  8
0
  6
PHANTOM
 62
2
 10
1.78939264E+02
 20
1.65715168E+02
 11
1.78939264E+02
 21
1.66589111E+02
  0
LINE
  8
0
  6
PHANTOM
 62
2
 10
1.79139263E+02
 20
1.65715168E+02
 11
1.79139263E+02
 21
1.66725056E+02
  0
LINE
  8
0
  6
PHANTOM
 62
2
 10
1.76289265E+02
 20
1.65715168E+02
 11
1.75789265E+02
 21
1.65715168E+02
  0
LINE
  8
0
  6
PHANTOM
 62
2
 10
1.77289265E+02
 20
1.65715168E+02
 11
1.76789265E+02
 21
1.65715168E+02
  0
LINE
  8
0
  6
PHANTOM
 62
2
 10
1.78289265E+02
 20
1.65715168E+02
 11
1.77789265E+02
 21
1.65715168E+02
  0
LINE
  8
0
  6
PHANTOM
 62
2
 10
1.79289265E+02
 20
1.65715168E+02
 11
1.78789265E+02
 21
1.65715168E+02
  0
LINE
  8
0
  6
PHANTOM
 62
2
 10
1.75789265E+02
 20
1.63834595E+02
 11
1.75789265E+02
 21
1.65715168E+02
  0
LINE
  8
0
  6
PHANTOM
 62
2
 10
1.76289265E+02
 20
1.63834595E+02
 11
1.76289265E+02
 21
1.65715168E+02
  0
LINE
  8
0
  6
PHANTOM
 62
2
 10
1.76789265E+02
 20
1.63834595E+02
 11
1.76789265E+02
 21
1.65715168E+02
  0
LINE
  8
0
  6
PHANTOM
 62
2
 10
1.77289265E+02
 20
1.63834595E+02
 11
1.77289265E+02
 21
1.65715168E+02
  0
LINE
  8
0
  6
PHANTOM
 62
2
 10
1.77789265E+02
 20
1.63834595E+02
 11
1.77789265E+02
 21
1.65715168E+02
  0
LINE
  8
0
  6
PHANTOM
 62
2
 10
1.78289265E+02
 20
1.63834595E+02
 11
1.78289265E+02
 21
1.65715168E+02
  0
LINE
  8
0
  6
PHANTOM
 62
2
 10
1.78789265E+02
 20
1.63834595E+02
 11
1.78789265E+02
 21
1.65715168E+02
  0
LINE
  8
0
  6
PHANTOM
 62
2
 10
1.79289265E+02
 20
1.63834595E+02
 11
1.79289265E+02
 21
1.65715168E+02
  0
LINE
  8
0
  6
PHANTOM
 62
2
 10
1.79639263E+02
 20
1.63834595E+02
 11
1.75639263E+02
 21
1.63834595E+02
  0
LINE
  8
0
  6
PHANTOM
 62
2
 10
1.75639263E+02
 20
1.54034595E+02
 11
1.75639263E+02
 21
1.63834595E+02
  0
LINE
  8
0
  6
PHANTOM
 62
2
 10
1.79639263E+02
 20
1.54034595E+02
 11
1.79639263E+02
 21
1.63834595E+02
  0
LINE
  8
0
  6
PHANTOM
 62
2
 10
1.80039265E+02
 20
1.54034595E+02
 11
1.78688711E+02
 21
1.54034595E+02
  0
LINE
  8
0
  6
PHANTOM
 62
2
 10
1.75239264E+02
 20
1.54034595E+02
 11
1.75239264E+02
 21
1.53134041E+02
  0
LINE
  8
0
  6
PHANTOM
 62
2
 10
1.80039265E+02
 20
1.54034595E+02
 11
1.80039265E+02
 21
1.53107567E+02
  0
LINE
  8
0
 62
7
 10
1.85089817E+02
 20
1.53434040E+02
 11
1.85089817E+02
 21
1.59634041E+02
  0
LINE
  8
0
 62
7
 10
1.85324262E+02
 20
1.19933820E+02
 11
1.85389817E+02
 21
1.08134041E+02
  0
LINE
  8
0
 62
7
 10
1.75138711E+02
 20
1.52935151E+02
 11
1.74992593E+02
 21
1.26634041E+02
  0
LINE
  8
0
 62
6
 10
1.75139816E+02
 20
1.47234039E+02
 11
1.85139816E+02
 21
1.47234039E+02
  0
LINE
  8
0
 62
6
 10
1.76589817E+02
 20
1.47234039E+02
 11
1.76589817E+02
 21
1.55434040E+02
  0
LINE
  8
0
 62
6
 10
1.77889816E+02
 20
1.47234039E+02
 11
1.77889816E+02
 21
1.55434040E+02
  0
LINE
  8
0
 62
6
 10
1.77889816E+02
 20
1.55434040E+02
 11
1.76589817E+02
 21
1.55434040E+02
  0
LINE
  8
0
 62
6
 10
1.77489817E+02
 20
1.59434040E+02
 11
1.76989817E+02
 21
1.59434040E+02
  0
LINE
  8
0
 62
6
 10
1.77489817E+02
 20
1.55434040E+02
 11
1.77489817E+02
 21
1.59434040E+02
  0
LINE
  8
0
 62
6
 10
1.76989817E+02
 20
1.55434040E+02
 11
1.76989817E+02
 21
1.59434040E+02
  0
LINE
  8
0
 62
6
 10
1.82789816E+02
 20
1.55434040E+02
 11
1.82789816E+02
 21
1.59434040E+02
  0
LINE
  8
0
 62
6
 10
1.83289816E+02
 20
1.55434040E+02
 11
1.83289816E+02
 21
1.59434040E+02
  0
LINE
  8
0
 62
6
 10
1.83289816E+02
 20
1.59434040E+02
 11
1.82789816E+02
 21
1.59434040E+02
  0
LINE
  8
0
 62
6
 10
1.83689816E+02
 20
1.55434040E+02
 11
1.82389816E+02
 21
1.55434040E+02
  0
LINE
  8
0
 62
6
 10
1.83689816E+02
 20
1.47234039E+02
 11
1.83689816E+02
 21
1.55434040E+02
  0
LINE
  8
0
 62
6
 10
1.82389816E+02
 20
1.47234039E+02
 11
1.82389816E+02
 21
1.55434040E+02
  0
LINE
  8
0
 62
6
 10
1.75139816E+02
 20
1.26634041E+02
 11
1.75139816E+02
 21
1.46234039E+02
  0
LINE
  8
0
 62
6
 10
1.75139816E+02
 20
1.46234039E+02
 11
1.75139816E+02
 21
1.47234039E+02
  0
LINE
  8
0
 62
6
 10
1.85139816E+02
 20
1.46234039E+02
 11
1.85139816E+02
 21
1.47234039E+02
  0
LINE
  8
0
 62
6
 10
1.85139816E+02
 20
1.26634041E+02
 11
1.85139816E+02
 21
1.46234039E+02
  0
LINE
  8
0
 62
6
 10
1.85139816E+02
 20
1.30634041E+02
 11
1.75139816E+02
 21
1.30634041E+02
  0
LINE
  8
0
 62
7
 10
1.76589817E+02
 20
1.53134041E+02
 11
1.75338709E+02
 21
1.53134041E+02
  0
LINE
  8
0
 62
7
 10
1.82389816E+02
 20
1.53134041E+02
 11
1.77889816E+02
 21
1.53134041E+02
  0
LINE
  8
0
  6
PHANTOM
 62
2
 10
1.77388712E+02
 20
1.54034595E+02
 11
1.75239264E+02
 21
1.54034595E+02
  0
LINE
  8
0
 62
6
 10
1.75139816E+02
 20
1.46234039E+02
 11
1.85139816E+02
 21
1.46234039E+02
  0
LINE
  8
0
 62
6
 10
1.75139816E+02
 20
1.38134041E+02
 11
1.85139816E+02
 21
1.38134041E+02
  0
LINE
  8
0
 62
6
 10
1.75139816E+02
 20
1.41634041E+02
 11
1.85139816E+02
 21
1.41634041E+02
  0
LINE
  8
0
 62
7
 10
1.85089817E+02
 20
1.53434041E+02
 11
1.84789815E+02
 21
1.53134039E+02
  0
LINE
  8
0
  6
CENTER
 62
2
 10
2.39639816E+02
 20
9.00340405E+01
 11
1.61639816E+02
 21
9.00340405E+01
  0
LINE
  8
0
  6
CENTER
 62
2
 10
2.39639816E+02
 20
9.20340405E+01
 11
1.61639816E+02
 21
9.20340405E+01
  0
LINE
  8
0
 62
7
 10
1.74389816E+02
 20
9.50340405E+01
 11
1.74639816E+02
 21
9.50340405E+01
  0
LINE
  8
0
  6
CENTER
 62
2
 10
1.81089817E+02
 20
9.52590408E+01
 11
1.81089817E+02
 21
1.04009041E+02
  0
LINE
  8
0
  6
CENTER
 62
2
 10
1.76714817E+02
 20
9.96340408E+01
 11
1.85464817E+02
 21
9.96340408E+01
  0
LINE
  8
0
  6
CENTER
 62
2
 10
1.95639816E+02
 20
9.62590408E+01
 11
1.95639816E+02
 21
1.05009041E+02
  0
LINE
  8
0
  6
CENTER
 62
2
 10
1.91264816E+02
 20
1.00634041E+02
 11
2.00014816E+02
 21
1.00634041E+02
  0
LINE
  8
0
  6
CENTER
 62
2
 10
2.11639816E+02
 20
9.62590408E+01
 11
2.11639816E+02
 21
1.05009041E+02
  0
LINE
  8
0
  6
CENTER
 62
2
 10
2.07264816E+02
 20
1.00634041E+02
 11
2.16014816E+02
 21
1.00634041E+02
  0
LINE
  8
0
  6
CENTER
 62
2
 10
2.22764816E+02
 20
1.00634041E+02
 11
2.31514816E+02
 21
1.00634041E+02
  0
LINE
  8
0
 62
7
 10
1.74639816E+02
 20
9.50340405E+01
 11
1.74889816E+02
 21
9.50340405E+01
  0
LINE
  8
0
 62
7
 10
1.74389816E+02
 20
8.40340405E+01
 11
1.74639816E+02
 21
8.40340405E+01
  0
LINE
  8
0
 62
7
 10
1.74639816E+02
 20
8.40340405E+01
 11
1.74889816E+02
 21
8.40340405E+01
  0
LINE
  8
0
 62
7
 10
1.85389816E+02
 20
9.50340405E+01
 11
1.85639816E+02
 21
9.50340405E+01
  0
LINE
  8
0
 62
7
 10
1.85639816E+02
 20
9.50340405E+01
 11
1.85889816E+02
 21
9.50340405E+01
  0
LINE
  8
0
 62
7
 10
1.85389816E+02
 20
8.40340405E+01
 11
1.85639816E+02
 21
8.40340405E+01
  0
LINE
  8
0
 62
7
 10
1.85639816E+02
 20
8.40340405E+01
 11
1.85889816E+02
 21
8.40340405E+01
  0
LINE
  8
0
 62
7
 10
2.01389816E+02
 20
9.50340405E+01
 11
2.01639816E+02
 21
9.50340405E+01
  0
LINE
  8
0
 62
7
 10
2.01639816E+02
 20
9.50340405E+01
 11
2.01889816E+02
 21
9.50340405E+01
  0
LINE
  8
0
 62
7
 10
2.01389816E+02
 20
8.40340405E+01
 11
2.01639816E+02
 21
8.40340405E+01
  0
LINE
  8
0
 62
7
 10
2.01639816E+02
 20
8.40340405E+01
 11
2.01889816E+02
 21
8.40340405E+01
  0
LINE
  8
0
 62
7
 10
2.17389816E+02
 20
9.50340405E+01
 11
2.17639816E+02
 21
9.50340405E+01
  0
LINE
  8
0
 62
7
 10
2.17639816E+02
 20
9.50340405E+01
 11
2.17889816E+02
 21
9.50340405E+01
  0
LINE
  8
0
 62
7
 10
2.17389816E+02
 20
8.40340405E+01
 11
2.17639816E+02
 21
8.40340405E+01
  0
LINE
  8
0
 62
7
 10
2.17639816E+02
 20
8.40340405E+01
 11
2.17889816E+02
 21
8.40340405E+01
  0
LINE
  8
0
 62
7
 10
2.52139816E+02
 20
1.19134041E+02
 11
2.52139816E+02
 21
6.31340408E+01
  0
LINE
  8
0
 62
7
 10
2.52139816E+02
 20
6.31340408E+01
 11
2.43139816E+02
 21
6.31340408E+01
  0
LINE
  8
0
 62
7
 10
2.52739815E+02
 20
7.41340408E+01
 11
2.36639816E+02
 21
7.41340408E+01
  0
LINE
  8
0
 62
7
 10
2.52739815E+02
 20
1.08134041E+02
 11
2.36639816E+02
 21
1.08134041E+02
  0
LINE
  8
0
 62
7
 10
2.52739815E+02
 20
1.08684041E+02
 11
2.52739815E+02
 21
7.41340408E+01
  0
LINE
  8
0
  6
CENTER
 62
2
 10
2.47139816E+02
 20
6.44579468E+01
 11
2.47139816E+02
 21
7.35498962E+01
  0
LINE
  8
0
  6
CENTER
 62
2
 10
2.51745522E+02
 20
6.91340408E+01
 11
2.42286636E+02
 21
6.91340408E+01
  0
LINE
  8
0
 62
7
 10
2.43139816E+02
 20
6.72340393E+01
 11
2.43139816E+02
 21
6.31340408E+01
  0
LINE
  8
0
 62
7
 10
1.63639816E+02
 20
7.43340416E+01
 11
1.63639816E+02
 21
1.08134041E+02
  0
LINE
  8
0
 62
7
 10
1.27139816E+02
 20
7.41340408E+01
 11
1.63439816E+02
 21
7.41340408E+01
  0
LINE
  8
0
 62
7
 10
2.36639816E+02
 20
7.41340408E+01
 11
2.36639816E+02
 21
1.08134041E+02
  0
LINE
  8
0
 62
7
 10
1.27139816E+02
 20
1.08134041E+02
 11
1.63639816E+02
 21
1.08134041E+02
  0
LINE
  8
0
 62
7
 10
2.47139816E+02
 20
7.31340408E+01
 11
2.43139816E+02
 21
7.31340408E+01
  0
LINE
  8
0
 62
7
 10
2.47139816E+02
 20
6.51340408E+01
 11
2.43139816E+02
 21
6.51340408E+01
  0
LINE
  8
0
  6
CENTER
 62
2
 10
2.51745522E+02
 20
1.13134041E+02
 11
2.42286636E+02
 21
1.13134041E+02
  0
LINE
  8
0
 62
7
 10
2.47139816E+02
 20
1.17134041E+02
 11
2.43139816E+02
 21
1.17134041E+02
  0
LINE
  8
0
 62
7
 10
2.47139816E+02
 20
1.09134041E+02
 11
2.43139816E+02
 21
1.09134041E+02
  0
LINE
  8
0
  6
CENTER
 62
2
 10
2.47139816E+02
 20
1.17810137E+02
 11
2.47139816E+02
 21
1.08718185E+02
  0
LINE
  8
0
 62
7
 10
2.43139816E+02
 20
1.19134041E+02
 11
2.52139816E+02
 21
1.19134041E+02
  0
LINE
  8
0
 62
7
 10
1.48139816E+02
 20
1.19134041E+02
 11
1.48139816E+02
 21
6.31340408E+01
  0
LINE
  8
0
  6
CENTER
 62
2
 10
1.48534109E+02
 20
6.91340408E+01
 11
1.57993000E+02
 21
6.91340408E+01
  0
LINE
  8
0
 62
7
 10
1.57139816E+02
 20
7.41340408E+01
 11
1.57139816E+02
 21
7.10340424E+01
  0
LINE
  8
0
 62
7
 10
1.53139816E+02
 20
6.51340408E+01
 11
1.57139816E+02
 21
6.51340408E+01
  0
LINE
  8
0
 62
7
 10
1.53139816E+02
 20
7.31340408E+01
 11
1.57139816E+02
 21
7.31340408E+01
  0
LINE
  8
0
  6
CENTER
 62
2
 10
1.53139816E+02
 20
6.44579468E+01
 11
1.53139816E+02
 21
7.35498962E+01
  0
LINE
  8
0
 62
7
 10
1.48139816E+02
 20
6.31340408E+01
 11
1.57139816E+02
 21
6.31340408E+01
  0
LINE
  8
0
 62
7
 10
1.57139816E+02
 20
1.08134041E+02
 11
1.57139816E+02
 21
1.11234041E+02
  0
LINE
  8
0
  6
CENTER
 62
2
 10
1.53139816E+02
 20
1.17810137E+02
 11
1.53139816E+02
 21
1.08718185E+02
  0
LINE
  8
0
 62
7
 10
1.48139816E+02
 20
1.19134041E+02
 11
1.57139816E+02
 21
1.19134041E+02
  0
LINE
  8
0
 62
7
 10
1.53139816E+02
 20
1.09134041E+02
 11
1.57139816E+02
 21
1.09134041E+02
  0
LINE
  8
0
 62
7
 10
1.53139816E+02
 20
1.17134041E+02
 11
1.57139816E+02
 21
1.17134041E+02
  0
LINE
  8
0
  6
CENTER
 62
2
 10
1.48534109E+02
 20
1.13134041E+02
 11
1.57993000E+02
 21
1.13134041E+02
  0
LINE
  8
0
 62
7
 10
1.22539816E+02
 20
7.98840408E+01
 11
1.22539816E+02
 21
7.43840408E+01
  0
LINE
  8
0
 62
7
 10
1.25539816E+02
 20
7.98840408E+01
 11
1.22539816E+02
 21
7.98840408E+01
  0
LINE
  8
0
 62
7
 10
1.25539816E+02
 20
7.43840408E+01
 11
1.22539816E+02
 21
7.43840408E+01
  0
LINE
  8
0
  6
CENTER
 62
2
 10
1.25929657E+02
 20
7.71340408E+01
 11
1.22134348E+02
 21
7.71340408E+01
  0
LINE
  8
0
 62
7
 10
1.22539816E+02
 20
1.08384041E+02
 11
1.22539816E+02
 21
1.02884041E+02
  0
LINE
  8
0
 62
7
 10
1.25539816E+02
 20
1.08384041E+02
 11
1.22539816E+02
 21
1.08384041E+02
  0
LINE
  8
0
 62
7
 10
1.25539816E+02
 20
1.02884041E+02
 11
1.22539816E+02
 21
1.02884041E+02
  0
LINE
  8
0
  6
CENTER
 62
2
 10
1.25929657E+02
 20
1.05634041E+02
 11
1.22134348E+02
 21
1.05634041E+02
  0
LINE
  8
0
 62
7
 10
1.25539816E+02
 20
7.41340408E+01
 11
1.25539816E+02
 21
1.08384041E+02
  0
LINE
  8
0
 62
7
 10
1.27139816E+02
 20
8.41340408E+01
 11
1.32139816E+02
 21
8.41340408E+01
  0
LINE
  8
0
 62
7
 10
1.27139816E+02
 20
1.00134041E+02
 11
1.32139816E+02
 21
1.00134041E+02
  0
LINE
  8
0
 62
7
 10
1.32139816E+02
 20
8.41340408E+01
 11
1.32139816E+02
 21
1.00134041E+02
  0
LINE
  8
0
 62
7
 10
1.27139816E+02
 20
7.41340408E+01
 11
1.27139816E+02
 21
1.08134041E+02
  0
LINE
  8
0
 62
7
 10
1.25539816E+02
 20
1.08134041E+02
 11
1.27139816E+02
 21
1.08134041E+02
  0
LINE
  8
0
 62
7
 10
1.25539816E+02
 20
7.41340408E+01
 11
1.27139816E+02
 21
7.41340408E+01
  0
LINE
  8
0
 62
7
 10
2.55739815E+02
 20
7.44840393E+01
 11
2.55739815E+02
 21
7.99840393E+01
  0
LINE
  8
0
 62
7
 10
2.52739815E+02
 20
7.44840393E+01
 11
2.55739815E+02
 21
7.44840393E+01
  0
LINE
  8
0
 62
7
 10
2.52739815E+02
 20
7.99840393E+01
 11
2.55739815E+02
 21
7.99840393E+01
  0
LINE
  8
0
  6
CENTER
 62
2
 10
2.52349976E+02
 20
7.72340393E+01
 11
2.56145287E+02
 21
7.72340393E+01
  0
LINE
  8
0
 62
7
 10
2.55739815E+02
 20
1.03284040E+02
 11
2.55739815E+02
 21
1.08784041E+02
  0
LINE
  8
0
 62
7
 10
2.52739815E+02
 20
1.03284040E+02
 11
2.55739815E+02
 21
1.03284040E+02
  0
LINE
  8
0
 62
7
 10
2.52739815E+02
 20
1.08784041E+02
 11
2.55739815E+02
 21
1.08784041E+02
  0
LINE
  8
0
  6
CENTER
 62
2
 10
2.52349976E+02
 20
1.06034041E+02
 11
2.56145287E+02
 21
1.06034041E+02
  0
LINE
  8
0
 62
7
 10
1.53139816E+02
 20
7.10340424E+01
 11
1.57139816E+02
 21
7.10340424E+01
  0
LINE
  8
0
 62
7
 10
1.53139816E+02
 20
6.72340393E+01
 11
1.57139816E+02
 21
6.72340393E+01
  0
LINE
  8
0
 62
7
 10
1.57139816E+02
 20
6.72340393E+01
 11
1.57139816E+02
 21
6.31340408E+01
  0
LINE
  8
0
 62
7
 10
1.53139816E+02
 20
1.15034041E+02
 11
1.57139816E+02
 21
1.15034041E+02
  0
LINE
  8
0
 62
7
 10
1.53139816E+02
 20
1.11234041E+02
 11
1.57139816E+02
 21
1.11234041E+02
  0
LINE
  8
0
 62
7
 10
1.57139816E+02
 20
1.15034041E+02
 11
1.57139816E+02
 21
1.19134041E+02
  0
LINE
  8
0
 62
7
 10
2.47139816E+02
 20
7.10340424E+01
 11
2.43139816E+02
 21
7.10340424E+01
  0
LINE
  8
0
 62
7
 10
2.47139816E+02
 20
6.72340393E+01
 11
2.43139816E+02
 21
6.72340393E+01
  0
LINE
  8
0
 62
7
 10
2.43139816E+02
 20
7.10340424E+01
 11
2.43139816E+02
 21
7.41340408E+01
  0
LINE
  8
0
 62
7
 10
2.47139816E+02
 20
1.15034041E+02
 11
2.43139816E+02
 21
1.15034041E+02
  0
LINE
  8
0
 62
7
 10
2.47139816E+02
 20
1.11234041E+02
 11
2.43139816E+02
 21
1.11234041E+02
  0
LINE
  8
0
 62
7
 10
2.43139816E+02
 20
1.15034041E+02
 11
2.43139816E+02
 21
1.19134041E+02
  0
LINE
  8
0
 62
7
 10
2.43139816E+02
 20
1.11234041E+02
 11
2.43139816E+02
 21
1.08134041E+02
  0
ARC
  8
0
 62
7
 10
1.66139816E+02
 20
1.11034041E+02
 40
1.60000002E+00
 50
2.70000000E+02
 51
9.00000002E+01
  0
ARC
  8
0
 62
7
 10
1.72439816E+02
 20
1.19934041E+02
 40
1.60000002E+00
 50
9.00000002E+01
 51
2.70000000E+02
  0
CIRCLE
  8
0
 62
7
 10
1.70089817E+02
 20
9.96340408E+01
 40
2.50000000E+00
  0
ARC
  8
0
 62
7
 10
1.65689816E+02
 20
1.59634041E+02
 40
1.50000000E+00
 50
9.00000002E+01
 51
1.80000005E+02
  0
ARC
  8
0
 62
7
 10
1.73940924E+02
 20
1.52934040E+02
 40
2.00000003E-01
 50
3.18306612E-01
 51
9.00000002E+01
  0
ARC
  8
0
 62
7
 10
1.64338708E+02
 20
1.52934040E+02
 40
2.00000003E-01
 50
9.00000002E+01
 51
1.79681691E+02
  0
CIRCLE
  8
0
 62
7
 10
1.66139816E+02
 20
1.11034041E+02
 40
1.50000000E+00
  0
CIRCLE
  8
0
 62
7
 10
1.72439816E+02
 20
1.19934041E+02
 40
1.50000000E+00
  0
ARC
  8
0
 62
7
 10
1.72589817E+02
 20
1.59634041E+02
 40
1.50000000E+00
 50
0.00000000E+00
 51
9.00000002E+01
  0
ARC
  8
0
 62
7
 10
2.13089817E+02
 20
1.59634041E+02
 40
1.50000000E+00
 50
0.00000000E+00
 51
2.10394706E+01
  0
ARC
  8
0
 62
7
 10
2.02538929E+02
 20
1.52934040E+02
 40
2.00000003E-01
 50
9.00000002E+01
 51
1.79745348E+02
  0
ARC
  8
0
 62
7
 10
2.16740704E+02
 20
1.52934040E+02
 40
2.00000003E-01
 50
2.54646235E-01
 51
9.00000002E+01
  0
ARC
  8
0
 62
7
 10
2.06189816E+02
 20
1.59634041E+02
 40
1.50000000E+00
 50
9.00000002E+01
 51
1.26869903E+02
  0
ARC
  8
0
 62
7
 10
2.13089817E+02
 20
1.59634041E+02
 40
1.50000000E+00
 50
5.31301018E+01
 51
9.00000002E+01
  0
CIRCLE
  8
0
 62
7
 10
2.15139816E+02
 20
1.10134041E+02
 40
1.50000000E+00
  0
CIRCLE
  8
0
 62
7
 10
2.04139816E+02
 20
1.27134041E+02
 40
1.50000000E+00
  0
ARC
  8
0
 62
7
 10
2.15139816E+02
 20
1.10134041E+02
 40
1.60000002E+00
 50
9.00000002E+01
 51
1.80000005E+02
  0
ARC
  8
0
 62
7
 10
2.04139816E+02
 20
1.27134041E+02
 40
1.60000002E+00
 50
2.70000000E+02
 51
0.00000000E+00
  0
ARC
  8
0
 62
7
 10
2.06189816E+02
 20
1.59634041E+02
 40
1.50000000E+00
 50
1.58960536E+02
 51
1.80000005E+02
  0
ARC
  8
0
 62
7
 10
2.23689819E+02
 20
1.59634041E+02
 40
1.50000000E+00
 50
1.58960536E+02
 51
1.80000005E+02
  0
CIRCLE
  8
0
 62
7
 10
2.34139816E+02
 20
1.10134041E+02
 40
1.50000000E+00
  0
CIRCLE
  8
0
 62
7
 10
2.20139816E+02
 20
1.27134041E+02
 40
1.50000000E+00
  0
ARC
  8
0
 62
7
 10
2.20139816E+02
 20
1.27134041E+02
 40
1.60000002E+00
 50
2.70000000E+02
 51
0.00000000E+00
  0
ARC
  8
0
 62
7
 10
2.34139816E+02
 20
1.10134041E+02
 40
1.60000002E+00
 50
9.00000002E+01
 51
1.80000005E+02
  0
ARC
  8
0
 62
7
 10
2.23689819E+02
 20
1.59634041E+02
 40
1.50000000E+00
 50
9.00000002E+01
 51
1.26869903E+02
  0
ARC
  8
0
 62
7
 10
2.30589813E+02
 20
1.59634041E+02
 40
1.50000000E+00
 50
5.31301018E+01
 51
9.00000002E+01
  0
ARC
  8
0
 62
7
 10
2.35741142E+02
 20
1.52938965E+02
 40
2.00000003E-01
 50
3.81966217E-01
 51
9.00000002E+01
  0
ARC
  8
0
 62
7
 10
2.18538490E+02
 20
1.52938965E+02
 40
2.00000003E-01
 50
9.00000002E+01
 51
1.79618033E+02
  0
ARC
  8
0
 62
7
 10
2.30589813E+02
 20
1.59634041E+02
 40
1.50000000E+00
 50
0.00000000E+00
 51
2.10394706E+01
  0
ARC
  8
0
 62
7
 10
1.97089817E+02
 20
1.59634041E+02
 40
1.50000000E+00
 50
0.00000000E+00
 51
2.10394706E+01
  0
ARC
  8
0
 62
7
 10
1.86538929E+02
 20
1.52934040E+02
 40
2.00000003E-01
 50
9.00000002E+01
 51
1.79745348E+02
  0
ARC
  8
0
 62
7
 10
2.00740704E+02
 20
1.52934040E+02
 40
2.00000003E-01
 50
2.54646235E-01
 51
9.00000002E+01
  0
ARC
  8
0
 62
7
 10
1.90189816E+02
 20
1.59634041E+02
 40
1.50000000E+00
 50
9.00000002E+01
 51
1.26869903E+02
  0
ARC
  8
0
 62
7
 10
1.97089817E+02
 20
1.59634041E+02
 40
1.50000000E+00
 50
5.31301018E+01
 51
9.00000002E+01
  0
CIRCLE
  8
0
 62
7
 10
1.99139816E+02
 20
1.10134041E+02
 40
1.50000000E+00
  0
CIRCLE
  8
0
 62
7
 10
1.88139816E+02
 20
1.27134041E+02
 40
1.50000000E+00
  0
ARC
  8
0
 62
7
 10
1.99139816E+02
 20
1.10134041E+02
 40
1.60000002E+00
 50
9.00000002E+01
 51
1.80000005E+02
  0
ARC
  8
0
 62
7
 10
1.88139816E+02
 20
1.27134041E+02
 40
1.60000002E+00
 50
2.70000000E+02
 51
0.00000000E+00
  0
ARC
  8
0
 62
7
 10
1.90189816E+02
 20
1.59634041E+02
 40
1.50000000E+00
 50
1.58960536E+02
 51
1.80000005E+02
  0
ARC
  8
0
 62
7
 10
1.77139816E+02
 20
1.11034041E+02
 40
1.60000002E+00
 50
2.70000000E+02
 51
9.00000002E+01
  0
ARC
  8
0
 62
7
 10
1.83439816E+02
 20
1.19934041E+02
 40
1.60000002E+00
 50
9.00000002E+01
 51
2.70000000E+02
  0
ARC
  8
0
 62
7
 10
1.76689816E+02
 20
1.59634041E+02
 40
1.50000000E+00
 50
9.00000002E+01
 51
1.80000005E+02
  0
ARC
  8
0
 62
7
 10
1.84940924E+02
 20
1.52934040E+02
 40
2.00000003E-01
 50
3.18306612E-01
 51
9.00000002E+01
  0
ARC
  8
0
 62
7
 10
1.75338709E+02
 20
1.52934040E+02
 40
2.00000003E-01
 50
9.00000002E+01
 51
1.79681691E+02
  0
CIRCLE
  8
0
 62
7
 10
1.77139816E+02
 20
1.11034041E+02
 40
1.50000000E+00
  0
CIRCLE
  8
0
 62
7
 10
1.83439816E+02
 20
1.19934041E+02
 40
1.50000000E+00
  0
ARC
  8
0
 62
7
 10
1.83589817E+02
 20
1.59634041E+02
 40
1.50000000E+00
 50
0.00000000E+00
 51
9.00000002E+01
  0
CIRCLE
  8
0
 62
7
 10
1.70089817E+02
 20
9.96340408E+01
 40
3.50000000E+00
  0
CIRCLE
  8
0
 62
7
 10
1.70089817E+02
 20
9.96340408E+01
 40
4.00000000E+00
  0
CIRCLE
  8
0
 62
7
 10
1.81089817E+02
 20
9.96340408E+01
 40
2.50000000E+00
  0
CIRCLE
  8
0
 62
7
 10
1.81089817E+02
 20
9.96340408E+01
 40
3.50000000E+00
  0
CIRCLE
  8
0
 62
7
 10
1.81089817E+02
 20
9.96340408E+01
 40
4.00000000E+00
  0
CIRCLE
  8
0
 62
7
 10
1.95639816E+02
 20
1.00634041E+02
 40
2.50000000E+00
  0
CIRCLE
  8
0
 62
7
 10
1.95639816E+02
 20
1.00634041E+02
 40
3.50000000E+00
  0
CIRCLE
  8
0
 62
7
 10
1.95639816E+02
 20
1.00634041E+02
 40
4.00000000E+00
  0
CIRCLE
  8
0
 62
7
 10
2.11639816E+02
 20
1.00634041E+02
 40
2.50000000E+00
  0
CIRCLE
  8
0
 62
7
 10
2.11639816E+02
 20
1.00634041E+02
 40
3.50000000E+00
  0
CIRCLE
  8
0
 62
7
 10
2.11639816E+02
 20
1.00634041E+02
 40
4.00000000E+00
  0
CIRCLE
  8
0
 62
7
 10
2.27139816E+02
 20
1.00634041E+02
 40
2.50000000E+00
  0
CIRCLE
  8
0
 62
7
 10
2.27139816E+02
 20
1.00634041E+02
 40
3.50000000E+00
  0
CIRCLE
  8
0
 62
7
 10
2.27139816E+02
 20
1.00634041E+02
 40
4.00000000E+00
  0
ARC
  8
0
 62
7
 10
2.47139816E+02
 20
6.91340408E+01
 40
4.00000000E+00
 50
2.70000000E+02
 51
9.00000002E+01
  0
ARC
  8
0
 62
7
 10
1.63439816E+02
 20
7.43340416E+01
 40
2.00000003E-01
 50
2.70000000E+02
 51
0.00000000E+00
  0
ARC
  8
0
 62
7
 10
2.47139816E+02
 20
1.13134041E+02
 40
4.00000000E+00
 50
2.70000000E+02
 51
9.00000002E+01
  0
ARC
  8
0
 62
7
 10
1.53139816E+02
 20
6.91340408E+01
 40
4.00000000E+00
 50
9.00000002E+01
 51
2.70000000E+02
  0
ARC
  8
0
 62
7
 10
1.53139816E+02
 20
1.13134041E+02
 40
4.00000000E+00
 50
9.00000002E+01
 51
2.70000000E+02
  0
ARC
  8
0
 62
7
 10
1.53139816E+02
 20
6.91340408E+01
 40
1.89999998E+00
 50
9.00000002E+01
 51
2.70000000E+02
  0
ARC
  8
0
 62
7
 10
1.53139816E+02
 20
1.13134041E+02
 40
1.89999998E+00
 50
9.00000002E+01
 51
2.70000000E+02
  0
ARC
  8
0
 62
7
 10
2.47139816E+02
 20
6.91340408E+01
 40
1.89999998E+00
 50
2.70000000E+02
 51
9.00000002E+01
  0
ARC
  8
0
 62
7
 10
2.47139816E+02
 20
1.13134041E+02
 40
1.89999998E+00
 50
2.70000000E+02
 51
9.00000002E+01
  0
LINE
  8
0
 62
7
 10
2.57782459E+01
 20
-7.03732147E+01
 11
2.57782459E+01
 21
-1.88373215E+02
  0
LINE
  8
0
 62
7
 10
-2.82175255E+00
 20
-5.93759613E+01
 11
-4.02175331E+00
 21
-5.93759613E+01
  0
LINE
  8
0
 62
7
 10
-2.82175255E+00
 20
-5.96759491E+01
 11
-4.32175255E+00
 21
-5.96759491E+01
  0
LINE
  8
0
 62
7
 10
-2.82175255E+00
 20
-6.03759613E+01
 11
-7.82175255E+00
 21
-6.03759613E+01
  0
LINE
  8
0
 62
7
 10
1.81782455E+01
 20
-6.03759613E+01
 11
3.17824554E+00
 21
-6.03759613E+01
  0
LINE
  8
0
 62
7
 10
1.81782455E+01
 20
-6.03759613E+01
 11
1.81782455E+01
 21
-7.03732147E+01
  0
LINE
  8
0
 62
6
 10
-4.84217510E+01
 20
-1.13375954E+02
 11
-4.59217510E+01
 21
-1.13375954E+02
  0
LINE
  8
0
 62
7
 10
-7.82175255E+00
 20
-6.03759613E+01
 11
-7.82175255E+00
 21
-7.03732147E+01
  0
LINE
  8
0
 62
6
 10
-5.39570675E+01
 20
-8.97232132E+01
 11
-5.76217556E+01
 21
-8.97232132E+01
  0
LINE
  8
0
 62
6
 10
-5.43064404E+01
 20
-8.84232178E+01
 11
-5.76217556E+01
 21
-8.84232178E+01
  0
LINE
  8
0
 62
6
 10
-4.84217510E+01
 20
-8.97160492E+01
 11
-4.84217510E+01
 21
-1.02373215E+02
  0
LINE
  8
0
 62
6
 10
-4.94217510E+01
 20
-8.97232132E+01
 11
-4.94217510E+01
 21
-9.08732147E+01
  0
LINE
  8
0
 62
6
 10
-4.94217510E+01
 20
-1.26023216E+02
 11
-4.94217510E+01
 21
-1.24874863E+02
  0
LINE
  8
0
  6
PHANTOM
 62
2
 10
-5.37223096E+01
 20
-1.50363062E+02
 11
-5.38217540E+01
 21
-1.50570475E+02
  0
LINE
  8
0
  6
CENTER
 62
6
 10
-1.84130497E+01
 20
-1.36874859E+02
 11
-4.62982311E+01
 21
-1.36874859E+02
  0
LINE
  8
0
  6
CENTER
 62
6
 10
-1.84130497E+01
 20
-7.88732147E+01
 11
-4.62982311E+01
 21
-7.88732147E+01
  0
LINE
  8
0
 62
7
 10
-3.32175255E+00
 20
-6.96732178E+01
 11
-4.32175255E+00
 21
-6.96732178E+01
  0
LINE
  8
0
 62
7
 10
-4.02175217E+00
 20
-6.93732191E+01
 11
-4.32175141E+00
 21
-6.96732183E+01
  0
LINE
  8
0
 62
7
 10
-4.32175255E+00
 20
-7.03732147E+01
 11
-4.32175255E+00
 21
-6.96732178E+01
  0
LINE
  8
0
 62
7
 10
-3.02175331E+00
 20
-6.93732147E+01
 11
-4.02175331E+00
 21
-6.93732147E+01
  0
LINE
  8
0
 62
7
 10
-3.82175628E+00
 20
-6.88732186E+01
 11
-3.32175575E+00
 21
-6.93732191E+01
  0
LINE
  8
0
 62
7
 10
-2.82175255E+00
 20
-5.91682129E+01
 11
-2.82175255E+00
 21
-6.31682129E+01
  0
LINE
  8
0
 62
7
 10
-2.82175522E+00
 20
-5.91682170E+01
 11
-2.32175469E+00
 21
-5.86682165E+01
  0
LINE
  8
0
 62
7
 10
-2.82174982E+00
 20
-6.31682159E+01
 11
-2.32174929E+00
 21
-6.36682164E+01
  0
LINE
  8
0
 62
7
 10
-3.82175628E+00
 20
-6.68732164E+01
 11
-3.32175575E+00
 21
-6.63732159E+01
  0
LINE
  8
0
 62
7
 10
-1.57175255E+00
 20
-6.36682129E+01
 11
-1.57175255E+00
 21
-6.63732147E+01
  0
LINE
  8
0
 62
7
 10
-3.82175255E+00
 20
-6.88732147E+01
 11
-3.82175255E+00
 21
-6.68732147E+01
  0
LINE
  8
0
 62
7
 10
-3.32175255E+00
 20
-6.63732147E+01
 11
-2.32175255E+00
 21
-6.63732147E+01
  0
LINE
  8
0
 62
7
 10
-1.32175255E+00
 20
-6.36682129E+01
 11
-2.32175255E+00
 21
-6.36682129E+01
  0
LINE
  8
0
 62
7
 10
-2.32175255E+00
 20
-5.86682129E+01
 11
-1.32175255E+00
 21
-5.86682129E+01
  0
LINE
  8
0
 62
7
 10
-5.31217536E+01
 20
-1.87620475E+02
 11
-5.28217543E+01
 21
-1.87320475E+02
  0
LINE
  8
0
 62
7
 10
-6.08217525E+01
 20
-1.84820475E+02
 11
-6.08217525E+01
 21
-1.86120475E+02
  0
LINE
  8
0
 62
7
 10
-5.31217556E+01
 20
-1.87620475E+02
 11
-5.93217525E+01
 21
-1.87620475E+02
  0
LINE
  8
0
  6
PHANTOM
 62
2
 10
-8.58465418E+01
 20
-1.67152082E+02
 11
-1.03722972E+02
 21
-1.68088946E+02
  0
LINE
  8
0
  6
PHANTOM
 62
2
 10
-8.38465466E+01
 20
-1.65152083E+02
 11
-1.03722978E+02
 21
-1.64110403E+02
  0
LINE
  8
0
  6
PHANTOM
 62
2
 10
-1.03722975E+02
 20
-1.65152081E+02
 11
-1.03722975E+02
 21
-1.64110401E+02
  0
LINE
  8
0
  6
PHANTOM
 62
2
 10
-1.03722975E+02
 20
-1.67152082E+02
 11
-1.03722975E+02
 21
-1.65152081E+02
  0
LINE
  8
0
  6
PHANTOM
 62
2
 10
-9.67229748E+01
 20
-1.67722092E+02
 11
-9.67229748E+01
 21
-1.64477257E+02
  0
LINE
  8
0
  6
PHANTOM
 62
2
 10
-1.03722975E+02
 20
-1.68088945E+02
 11
-1.03722975E+02
 21
-1.67152082E+02
  0
LINE
  8
0
  6
PHANTOM
 62
2
 10
-8.38465481E+01
 20
-1.65152081E+02
 11
-1.03722975E+02
 21
-1.65152081E+02
  0
LINE
  8
0
  6
PHANTOM
 62
2
 10
-8.48465481E+01
 20
-1.66152082E+02
 11
-1.03722975E+02
 21
-1.66152082E+02
  0
LINE
  8
0
  6
PHANTOM
 62
2
 10
-8.58465481E+01
 20
-1.67152082E+02
 11
-1.03722975E+02
 21
-1.67152082E+02
  0
LINE
  8
0
  6
PHANTOM
 62
2
 10
-1.03447887E+02
 20
-1.71661092E+02
 11
-1.03795183E+02
 21
-1.70706903E+02
  0
LINE
  8
0
  6
PHANTOM
 62
2
 10
-8.35649356E+01
 20
-1.64870477E+02
 11
-8.63200204E+01
 21
-1.67625562E+02
  0
LINE
  8
0
  6
PHANTOM
 62
2
 10
-8.63200197E+01
 20
-1.67625560E+02
 11
-1.03795188E+02
 21
-1.70706903E+02
  0
LINE
  8
0
  6
PHANTOM
 62
2
 10
-8.61463715E+01
 20
-1.68610367E+02
 11
-1.03447888E+02
 21
-1.71661092E+02
  0
LINE
  8
0
  6
PHANTOM
 62
2
 10
-7.78217574E+01
 20
-1.67883493E+02
 11
-8.62990346E+01
 21
-1.68625159E+02
  0
LINE
  8
0
  6
PHANTOM
 62
2
 10
-8.35557537E+01
 20
-1.64870476E+02
 11
-7.78217525E+01
 21
-1.64870476E+02
  0
LINE
  8
0
  6
PHANTOM
 62
2
 10
-6.54268551E+01
 20
-1.68370476E+02
 11
-7.78217525E+01
 21
-1.68370476E+02
  0
LINE
  8
0
  6
PHANTOM
 62
2
 10
-6.76207867E+01
 20
-1.64570477E+02
 11
-7.78217525E+01
 21
-1.64570477E+02
  0
LINE
  8
0
  6
PHANTOM
 62
2
 10
-6.42495518E+01
 20
-1.70409619E+02
 11
-6.90744000E+01
 21
-1.62052737E+02
  0
LINE
  8
0
  6
PHANTOM
 62
2
 10
-6.14831395E+01
 20
-1.70201186E+02
 11
-6.62953686E+01
 21
-1.61866161E+02
  0
LINE
  8
0
  6
PHANTOM
 62
2
 10
-7.78217525E+01
 20
-1.68370476E+02
 11
-7.78217525E+01
 21
-1.64570477E+02
  0
LINE
  8
0
  6
PHANTOM
 62
2
 10
-5.36217556E+01
 20
-1.64570477E+02
 11
-6.47340374E+01
 21
-1.64570477E+02
  0
LINE
  8
0
  6
PHANTOM
 62
2
 10
-5.36217556E+01
 20
-1.68370476E+02
 11
-6.25401058E+01
 21
-1.68370476E+02
  0
LINE
  8
0
  6
PHANTOM
 62
2
 10
-5.28217525E+01
 20
-1.62770473E+02
 11
-5.34217510E+01
 21
-1.62770473E+02
  0
LINE
  8
0
  6
PHANTOM
 62
2
 10
-4.49450406E+01
 20
-1.45570473E+02
 11
-4.54450408E+01
 21
-1.44570473E+02
  0
LINE
  8
0
  6
PHANTOM
 62
2
 10
-5.09450418E+01
 20
-1.44570475E+02
 11
-5.13299170E+01
 21
-1.45373215E+02
  0
LINE
  8
0
  6
PHANTOM
 62
2
 10
-5.38217525E+01
 20
-1.50570477E+02
 11
-5.38217525E+01
 21
-1.53570477E+02
  0
LINE
  8
0
  6
PHANTOM
 62
2
 10
-5.38217525E+01
 20
-1.53570477E+02
 11
-5.28217525E+01
 21
-1.53570477E+02
  0
LINE
  8
0
  6
PHANTOM
 62
2
 10
-5.36217556E+01
 20
-1.70170475E+02
 11
-5.36217556E+01
 21
-1.62970474E+02
  0
LINE
  8
0
  6
PHANTOM
 62
2
 10
-4.54450436E+01
 20
-1.44570477E+02
 11
-5.09450436E+01
 21
-1.44570477E+02
  0
LINE
  8
0
  6
PHANTOM
 62
2
 10
-5.28217525E+01
 20
-1.70370476E+02
 11
-5.34217510E+01
 21
-1.70370476E+02
  0
LINE
  8
0
 62
7
 10
-2.88217525E+01
 20
-1.02366051E+02
 11
-2.88217525E+01
 21
-1.13373215E+02
  0
LINE
  8
0
 62
6
 10
-4.38217525E+01
 20
-1.38974861E+02
 11
-4.38217525E+01
 21
-1.32284042E+02
  0
LINE
  8
0
 62
6
 10
-5.43117504E+01
 20
-1.26024864E+02
 11
-5.76217556E+01
 21
-1.26024864E+02
  0
LINE
  8
0
 62
6
 10
-5.39617519E+01
 20
-1.27324860E+02
 11
-5.76217556E+01
 21
-1.27324860E+02
  0
LINE
  8
0
 62
6
 10
-5.76217556E+01
 20
-1.26924858E+02
 11
-6.16217556E+01
 21
-1.26924858E+02
  0
LINE
  8
0
 62
6
 10
-5.76217556E+01
 20
-1.26424858E+02
 11
-6.16217556E+01
 21
-1.26424858E+02
  0
LINE
  8
0
 62
6
 10
-5.76217556E+01
 20
-1.26024864E+02
 11
-5.76217556E+01
 21
-1.27324860E+02
  0
LINE
  8
0
 62
6
 10
-6.16217556E+01
 20
-1.26424858E+02
 11
-6.16217556E+01
 21
-1.26924858E+02
  0
LINE
  8
0
 62
6
 10
-5.26717535E+01
 20
-1.28274856E+02
 11
-5.35317528E+01
 21
-1.25074859E+02
  0
LINE
  8
0
 62
6
 10
-5.37017544E+01
 20
-1.28274857E+02
 11
-5.45617537E+01
 21
-1.25074860E+02
  0
LINE
  8
0
 62
6
 10
-4.59217510E+01
 20
-1.30874863E+02
 11
-4.84217510E+01
 21
-1.30874863E+02
  0
LINE
  8
0
 62
6
 10
-4.92217541E+01
 20
-1.24674858E+02
 11
-4.84217510E+01
 21
-1.24674858E+02
  0
LINE
  8
0
 62
6
 10
-4.94217510E+01
 20
-1.28474861E+02
 11
-4.94217510E+01
 21
-1.27323212E+02
  0
LINE
  8
0
 62
6
 10
-4.92217541E+01
 20
-1.28674858E+02
 11
-4.84217510E+01
 21
-1.28674858E+02
  0
LINE
  8
0
 62
6
 10
-4.59217510E+01
 20
-1.30974861E+02
 11
-4.84217510E+01
 21
-1.30974861E+02
  0
LINE
  8
0
 62
6
 10
-4.38217494E+01
 20
-1.32284044E+02
 11
-4.84217539E+01
 21
-1.31472939E+02
  0
LINE
  8
0
 62
6
 10
-4.84217510E+01
 20
-1.31472939E+02
 11
-4.84217510E+01
 21
-1.30974861E+02
  0
LINE
  8
0
 62
6
 10
-4.78217525E+01
 20
-1.30874863E+02
 11
-4.78217525E+01
 21
-1.30974861E+02
  0
LINE
  8
0
  6
CENTER
 62
6
 10
-6.30382442E+01
 20
-1.26674858E+02
 11
-4.46050167E+01
 21
-1.26674858E+02
  0
LINE
  8
0
 62
6
 10
-4.03217525E+01
 20
-1.45374859E+02
 11
-4.03217525E+01
 21
-1.39592007E+02
  0
LINE
  8
0
 62
6
 10
-4.34217510E+01
 20
-1.37874859E+02
 11
-4.34217510E+01
 21
-1.35874859E+02
  0
LINE
  8
0
 62
6
 10
-4.29217510E+01
 20
-1.35374859E+02
 11
-4.28217525E+01
 21
-1.35374859E+02
  0
LINE
  8
0
 62
6
 10
-4.29217510E+01
 20
-1.38374859E+02
 11
-4.28217525E+01
 21
-1.38374859E+02
  0
LINE
  8
0
 62
6
 10
-4.38217525E+01
 20
-1.38474861E+02
 11
-4.28217525E+01
 21
-1.38474861E+02
  0
LINE
  8
0
 62
6
 10
-4.38217525E+01
 20
-1.35274860E+02
 11
-4.28217525E+01
 21
-1.35274860E+02
  0
LINE
  8
0
 62
6
 10
-4.28217525E+01
 20
-1.38474861E+02
 11
-4.28217525E+01
 21
-1.35274860E+02
  0
LINE
  8
0
 62
6
 10
-4.03217552E+01
 20
-1.39592004E+02
 11
-4.38217552E+01
 21
-1.38974860E+02
  0
LINE
  8
0
 62
6
 10
-3.96217556E+01
 20
-1.43874859E+02
 11
-3.96217556E+01
 21
-1.44674862E+02
  0
LINE
  8
0
 62
6
 10
-3.96217556E+01
 20
-1.43874859E+02
 11
-3.78217525E+01
 21
-1.43874859E+02
  0
LINE
  8
0
 62
6
 10
-3.96217556E+01
 20
-1.44674862E+02
 11
-3.78217525E+01
 21
-1.44674862E+02
  0
LINE
  8
0
 62
6
 10
-4.84217510E+01
 20
-8.48732147E+01
 11
-4.84217510E+01
 21
-8.84160538E+01
  0
LINE
  8
0
  6
CENTER
 62
6
 10
-6.30382442E+01
 20
-8.90732117E+01
 11
-4.46050167E+01
 21
-8.90732117E+01
  0
LINE
  8
0
 62
6
 10
-3.96217556E+01
 20
-7.10732117E+01
 11
-3.78217525E+01
 21
-7.10732117E+01
  0
LINE
  8
0
 62
6
 10
-3.96217556E+01
 20
-7.18732147E+01
 11
-3.78217525E+01
 21
-7.18732147E+01
  0
LINE
  8
0
 62
6
 10
-3.96217556E+01
 20
-7.18732147E+01
 11
-3.96217556E+01
 21
-7.10732117E+01
  0
LINE
  8
0
 62
6
 10
-4.03217525E+01
 20
-7.03732147E+01
 11
-4.03217525E+01
 21
-7.61560669E+01
  0
LINE
  8
0
 62
6
 10
-4.78217525E+01
 20
-8.48732147E+01
 11
-4.78217525E+01
 21
-8.47732162E+01
  0
LINE
  8
0
 62
6
 10
-4.84217510E+01
 20
-8.42751389E+01
 11
-4.84217510E+01
 21
-8.47732162E+01
  0
LINE
  8
0
 62
6
 10
-4.38217509E+01
 20
-8.34640378E+01
 11
-4.84217517E+01
 21
-8.42751420E+01
  0
LINE
  8
0
 62
6
 10
-4.59217510E+01
 20
-8.47732162E+01
 11
-4.84217510E+01
 21
-8.47732162E+01
  0
LINE
  8
0
 62
6
 10
-4.38217525E+01
 20
-7.67732162E+01
 11
-4.38217525E+01
 21
-8.34640350E+01
  0
LINE
  8
0
 62
6
 10
-4.92217541E+01
 20
-8.70732117E+01
 11
-4.84217510E+01
 21
-8.70732117E+01
  0
LINE
  8
0
 62
6
 10
-4.94217510E+01
 20
-8.72732162E+01
 11
-4.94217510E+01
 21
-8.84160538E+01
  0
LINE
  8
0
 62
6
 10
-4.92217541E+01
 20
-9.10732117E+01
 11
-4.84217510E+01
 21
-9.10732117E+01
  0
LINE
  8
0
 62
6
 10
-4.59217510E+01
 20
-8.48732147E+01
 11
-4.84217510E+01
 21
-8.48732147E+01
  0
LINE
  8
0
 62
6
 10
-4.28217525E+01
 20
-7.72732162E+01
 11
-4.28217525E+01
 21
-8.04732132E+01
  0
LINE
  8
0
 62
6
 10
-4.38217525E+01
 20
-8.04732132E+01
 11
-4.28217525E+01
 21
-8.04732132E+01
  0
LINE
  8
0
 62
6
 10
-4.38217525E+01
 20
-7.72732162E+01
 11
-4.28217525E+01
 21
-7.72732162E+01
  0
LINE
  8
0
 62
6
 10
-4.29217510E+01
 20
-7.73732147E+01
 11
-4.28217525E+01
 21
-7.73732147E+01
  0
LINE
  8
0
 62
6
 10
-4.29217510E+01
 20
-8.03732147E+01
 11
-4.28217525E+01
 21
-8.03732147E+01
  0
LINE
  8
0
 62
6
 10
-4.34217510E+01
 20
-7.78732147E+01
 11
-4.34217510E+01
 21
-7.98732147E+01
  0
LINE
  8
0
 62
6
 10
-5.37017532E+01
 20
-9.06732136E+01
 11
-5.45617525E+01
 21
-8.74732163E+01
  0
LINE
  8
0
 62
6
 10
-5.26717523E+01
 20
-9.06732130E+01
 11
-5.35317536E+01
 21
-8.74732083E+01
  0
LINE
  8
0
 62
6
 10
-6.16217556E+01
 20
-8.93232117E+01
 11
-6.16217556E+01
 21
-8.88232117E+01
  0
LINE
  8
0
 62
6
 10
-5.76217556E+01
 20
-8.84232178E+01
 11
-5.76217556E+01
 21
-8.97232132E+01
  0
LINE
  8
0
 62
6
 10
-5.76217556E+01
 20
-8.88232117E+01
 11
-6.16217556E+01
 21
-8.88232117E+01
  0
LINE
  8
0
 62
6
 10
-5.76217556E+01
 20
-8.93232117E+01
 11
-6.16217556E+01
 21
-8.93232117E+01
  0
LINE
  8
0
 62
6
 10
-4.69217510E+01
 20
-8.97232132E+01
 11
-5.29270687E+01
 21
-8.97232132E+01
  0
LINE
  8
0
 62
6
 10
-4.69217510E+01
 20
-8.84232178E+01
 11
-5.32764416E+01
 21
-8.84232178E+01
  0
LINE
  8
0
 62
6
 10
-4.03217536E+01
 20
-7.61560730E+01
 11
-4.38217536E+01
 21
-7.67732174E+01
  0
LINE
  8
0
 62
6
 10
-3.78217525E+01
 20
-7.03732147E+01
 11
-4.03217525E+01
 21
-7.03732147E+01
  0
LINE
  8
0
 62
6
 10
-4.59217510E+01
 20
-1.02373215E+02
 11
-4.84217510E+01
 21
-1.02373215E+02
  0
LINE
  8
0
 62
6
 10
-1.63217525E+01
 20
-1.65370476E+02
 11
-8.22175407E+00
 21
-1.65370476E+02
  0
LINE
  8
0
 62
6
 10
-1.63217525E+01
 20
-1.45370476E+02
 11
-1.63217525E+01
 21
-1.65370476E+02
  0
LINE
  8
0
  6
PHANTOM
 62
2
 10
-5.92942638E+01
 20
-1.50121845E+02
 11
-6.35223064E+01
 21
-1.50121845E+02
  0
LINE
  8
0
  6
PHANTOM
 62
2
 10
-6.03692608E+01
 20
-1.46121845E+02
 11
-6.35223064E+01
 21
-1.46121845E+02
  0
LINE
  8
0
 62
7
 10
-1.32175255E+00
 20
-5.86682129E+01
 11
2.67824554E+00
 21
-5.86682129E+01
  0
LINE
  8
0
 62
7
 10
2.67824554E+00
 20
-6.36682129E+01
 11
-1.32175255E+00
 21
-6.36682129E+01
  0
LINE
  8
0
 62
7
 10
-2.32175255E+00
 20
-6.63732147E+01
 11
3.67824554E+00
 21
-6.63732147E+01
  0
LINE
  8
0
 62
7
 10
-2.82175255E+00
 20
-6.88732147E+01
 11
-2.82175255E+00
 21
-6.68732147E+01
  0
LINE
  8
0
 62
7
 10
-5.71754456E-01
 20
-6.36682129E+01
 11
-5.71754456E-01
 21
-6.63732147E+01
  0
LINE
  8
0
 62
7
 10
-2.82175522E+00
 20
-6.68732164E+01
 11
-2.32175469E+00
 21
-6.63732159E+01
  0
LINE
  8
0
 62
7
 10
-1.82175416E+00
 20
-6.31682213E+01
 11
-1.32175362E+00
 21
-6.36682218E+01
  0
LINE
  8
0
 62
7
 10
-1.82175416E+00
 20
-5.91682170E+01
 11
-1.32175362E+00
 21
-5.86682165E+01
  0
LINE
  8
0
 62
7
 10
-1.82175255E+00
 20
-5.91682129E+01
 11
-1.82175255E+00
 21
-6.31682129E+01
  0
LINE
  8
0
 62
7
 10
4.17824682E+00
 20
-6.88732132E+01
 11
3.67824629E+00
 21
-6.93732137E+01
  0
LINE
  8
0
 62
7
 10
4.17824682E+00
 20
-6.68732218E+01
 11
3.67824629E+00
 21
-6.63732213E+01
  0
LINE
  8
0
 62
7
 10
3.17825115E+00
 20
-5.91682170E+01
 11
2.67825062E+00
 21
-5.86682165E+01
  0
LINE
  8
0
 62
7
 10
2.67824523E+00
 20
-6.36682164E+01
 11
3.17824576E+00
 21
-6.31682159E+01
  0
LINE
  8
0
 62
7
 10
3.17824554E+00
 20
-5.91682129E+01
 11
3.17824554E+00
 21
-6.31682129E+01
  0
LINE
  8
0
 62
7
 10
4.17824554E+00
 20
-6.88732147E+01
 11
4.17824554E+00
 21
-6.68732147E+01
  0
LINE
  8
0
 62
7
 10
1.92824554E+00
 20
-6.36682129E+01
 11
1.92824554E+00
 21
-6.63732147E+01
  0
LINE
  8
0
 62
7
 10
-2.82175522E+00
 20
-6.88732186E+01
 11
-2.32175469E+00
 21
-6.93732191E+01
  0
LINE
  8
0
 62
7
 10
4.37824631E+00
 20
-6.93732147E+01
 11
-3.02175331E+00
 21
-6.93732147E+01
  0
LINE
  8
0
 62
7
 10
-3.32175255E+00
 20
-7.03732147E+01
 11
-3.32175255E+00
 21
-6.96732178E+01
  0
LINE
  8
0
 62
7
 10
4.67824554E+00
 20
-7.03732147E+01
 11
4.67824554E+00
 21
-6.96732178E+01
  0
LINE
  8
0
 62
7
 10
4.67824735E+00
 20
-6.96732183E+01
 11
4.37824811E+00
 21
-6.93732191E+01
  0
LINE
  8
0
 62
7
 10
-3.02175111E+00
 20
-6.93732191E+01
 11
-3.32175035E+00
 21
-6.96732183E+01
  0
LINE
  8
0
 62
7
 10
4.67824554E+00
 20
-6.96732178E+01
 11
-3.32175255E+00
 21
-6.96732178E+01
  0
LINE
  8
0
  6
CENTER
 62
2
 10
6.78245544E-01
 20
-5.48869324E+01
 11
6.78245544E-01
 21
-7.18507614E+01
  0
LINE
  8
0
  6
PHANTOM
 62
2
 10
-5.01286068E+01
 20
-1.48121845E+02
 11
-6.99828930E+01
 21
-1.48121845E+02
  0
LINE
  8
0
  6
PHANTOM
 62
2
 10
-6.62768197E+01
 20
-1.49821845E+02
 11
-6.64127661E+01
 21
-1.49621846E+02
  0
LINE
  8
0
  6
PHANTOM
 62
2
 10
-6.54028759E+01
 20
-1.49821846E+02
 11
-6.62768230E+01
 21
-1.49821846E+02
  0
LINE
  8
0
  6
PHANTOM
 62
2
 10
-6.54028759E+01
 20
-1.49621845E+02
 11
-6.64127712E+01
 21
-1.49621845E+02
  0
LINE
  8
0
  6
PHANTOM
 62
2
 10
-6.62768177E+01
 20
-1.48821847E+02
 11
-6.64127641E+01
 21
-1.48621847E+02
  0
LINE
  8
0
  6
PHANTOM
 62
2
 10
-6.54028759E+01
 20
-1.48821846E+02
 11
-6.62768230E+01
 21
-1.48821846E+02
  0
LINE
  8
0
  6
PHANTOM
 62
2
 10
-6.54028759E+01
 20
-1.48621845E+02
 11
-6.64127712E+01
 21
-1.48621845E+02
  0
LINE
  8
0
  6
PHANTOM
 62
2
 10
-6.62768231E+01
 20
-1.47821844E+02
 11
-6.64127696E+01
 21
-1.47621845E+02
  0
LINE
  8
0
  6
PHANTOM
 62
2
 10
-6.54028759E+01
 20
-1.47821846E+02
 11
-6.62768230E+01
 21
-1.47821846E+02
  0
LINE
  8
0
  6
PHANTOM
 62
2
 10
-6.54028759E+01
 20
-1.47621845E+02
 11
-6.64127712E+01
 21
-1.47621845E+02
  0
LINE
  8
0
  6
PHANTOM
 62
2
 10
-6.62768211E+01
 20
-1.46821846E+02
 11
-6.64127676E+01
 21
-1.46621846E+02
  0
LINE
  8
0
  6
PHANTOM
 62
2
 10
-6.54028759E+01
 20
-1.46821846E+02
 11
-6.62768230E+01
 21
-1.46821846E+02
  0
LINE
  8
0
  6
PHANTOM
 62
2
 10
-6.54028759E+01
 20
-1.46621845E+02
 11
-6.64127712E+01
 21
-1.46621845E+02
  0
LINE
  8
0
  6
PHANTOM
 62
2
 10
-6.54028759E+01
 20
-1.49471844E+02
 11
-6.54028759E+01
 21
-1.49971844E+02
  0
LINE
  8
0
  6
PHANTOM
 62
2
 10
-6.54028759E+01
 20
-1.48471844E+02
 11
-6.54028759E+01
 21
-1.48971844E+02
  0
LINE
  8
0
  6
PHANTOM
 62
2
 10
-6.54028759E+01
 20
-1.47471844E+02
 11
-6.54028759E+01
 21
-1.47971844E+02
  0
LINE
  8
0
  6
PHANTOM
 62
2
 10
-6.54028759E+01
 20
-1.46471844E+02
 11
-6.54028759E+01
 21
-1.46971844E+02
  0
LINE
  8
0
  6
PHANTOM
 62
2
 10
-6.35223064E+01
 20
-1.49971844E+02
 11
-6.54028759E+01
 21
-1.49971844E+02
  0
LINE
  8
0
  6
PHANTOM
 62
2
 10
-6.35223064E+01
 20
-1.49471844E+02
 11
-6.54028759E+01
 21
-1.49471844E+02
  0
LINE
  8
0
  6
PHANTOM
 62
2
 10
-6.35223064E+01
 20
-1.48971844E+02
 11
-6.54028759E+01
 21
-1.48971844E+02
  0
LINE
  8
0
  6
PHANTOM
 62
2
 10
-6.35223064E+01
 20
-1.48471844E+02
 11
-6.54028759E+01
 21
-1.48471844E+02
  0
LINE
  8
0
  6
PHANTOM
 62
2
 10
-6.35223064E+01
 20
-1.47971844E+02
 11
-6.54028759E+01
 21
-1.47971844E+02
  0
LINE
  8
0
  6
PHANTOM
 62
2
 10
-6.35223064E+01
 20
-1.47471844E+02
 11
-6.54028759E+01
 21
-1.47471844E+02
  0
LINE
  8
0
  6
PHANTOM
 62
2
 10
-6.35223064E+01
 20
-1.46971844E+02
 11
-6.54028759E+01
 21
-1.46971844E+02
  0
LINE
  8
0
  6
PHANTOM
 62
2
 10
-6.35223064E+01
 20
-1.46471844E+02
 11
-6.54028759E+01
 21
-1.46471844E+02
  0
LINE
  8
0
  6
PHANTOM
 62
2
 10
-6.07327157E+01
 20
-1.44769479E+02
 11
-5.87505153E+01
 21
-1.52145108E+02
  0
LINE
  8
0
  6
PHANTOM
 62
2
 10
-5.97027148E+01
 20
-1.44769478E+02
 11
-5.77205144E+01
 21
-1.52145108E+02
  0
LINE
  8
0
  6
PHANTOM
 62
2
 10
-6.35223064E+01
 20
-1.46121845E+02
 11
-6.35223064E+01
 21
-1.50121845E+02
  0
LINE
  8
0
  6
PHANTOM
 62
2
 10
-5.37223110E+01
 20
-1.50121845E+02
 11
-5.82642651E+01
 21
-1.50121845E+02
  0
LINE
  8
0
  6
PHANTOM
 62
2
 10
-5.37223110E+01
 20
-1.46121845E+02
 11
-5.93392620E+01
 21
-1.46121845E+02
  0
LINE
  8
0
  6
PHANTOM
 62
2
 10
-5.37223110E+01
 20
-1.45721844E+02
 11
-5.37223110E+01
 21
-1.50521843E+02
  0
LINE
  8
0
  6
PHANTOM
 62
2
 10
-5.37223110E+01
 20
-1.50521843E+02
 11
-5.28217525E+01
 21
-1.50521843E+02
  0
LINE
  8
0
  6
PHANTOM
 62
2
 10
-5.37223110E+01
 20
-1.45721844E+02
 11
-5.28217525E+01
 21
-1.45721844E+02
  0
LINE
  8
0
  6
PHANTOM
 62
2
 10
-5.28217525E+01
 20
-1.45373215E+02
 11
-5.28217525E+01
 21
-1.65370476E+02
  0
LINE
  8
0
 62
7
 10
-5.31217509E+01
 20
-1.86320477E+02
 11
-5.28217517E+01
 21
-1.86020478E+02
  0
LINE
  8
0
 62
7
 10
-5.31217509E+01
 20
-1.76420475E+02
 11
-5.28217517E+01
 21
-1.76720474E+02
  0
LINE
  8
0
 62
7
 10
-6.08217525E+01
 20
-1.77920475E+02
 11
-6.08217525E+01
 21
-1.84820475E+02
  0
LINE
  8
0
 62
7
 10
-5.31217556E+01
 20
-1.86320475E+02
 11
-5.93217525E+01
 21
-1.86320475E+02
  0
LINE
  8
0
 62
7
 10
-5.31217556E+01
 20
-1.76420475E+02
 11
-5.93217525E+01
 21
-1.76420475E+02
  0
LINE
  8
0
 62
7
 10
-5.28217525E+01
 20
-1.65370476E+02
 11
-8.22175407E+00
 21
-1.65370476E+02
  0
LINE
  8
0
 62
7
 10
-5.28217525E+01
 20
-1.88370475E+02
 11
-8.22175407E+00
 21
-1.88370475E+02
  0
LINE
  8
0
 62
7
 10
-5.28217525E+01
 20
-1.65370476E+02
 11
-5.28217525E+01
 21
-1.88370475E+02
  0
LINE
  8
0
  6
PHANTOM
 62
2
 10
-3.78217525E+01
 20
-1.45373215E+02
 11
-5.28217525E+01
 21
-1.45373215E+02
  0
LINE
  8
0
 62
6
 10
-2.63217525E+01
 20
-7.03634949E+01
 11
-3.78217525E+01
 21
-7.03634949E+01
  0
LINE
  8
0
 62
7
 10
-2.63217525E+01
 20
-1.31868355E+02
 11
-8.22175407E+00
 21
-1.31868355E+02
  0
LINE
  8
0
 62
7
 10
-2.63217525E+01
 20
-7.03660507E+01
 11
-2.63217525E+01
 21
-1.45373215E+02
  0
LINE
  8
0
 62
7
 10
-7.82175255E+00
 20
-7.03660507E+01
 11
-2.63217525E+01
 21
-7.03660507E+01
  0
LINE
  8
0
 62
7
 10
-8.22175407E+00
 20
-1.45373215E+02
 11
-2.63217525E+01
 21
-1.45373215E+02
  0
LINE
  8
0
 62
6
 10
-4.69217510E+01
 20
-1.26023216E+02
 11
-5.32768841E+01
 21
-1.26023216E+02
  0
LINE
  8
0
 62
6
 10
-4.69217510E+01
 20
-1.27323212E+02
 11
-5.29275112E+01
 21
-1.27323212E+02
  0
LINE
  8
0
 62
6
 10
-3.78217525E+01
 20
-1.45373215E+02
 11
-3.78217525E+01
 21
-1.39590359E+02
  0
LINE
  8
0
 62
6
 10
-3.78217503E+01
 20
-1.39590359E+02
 11
-4.13217503E+01
 21
-1.38973215E+02
  0
LINE
  8
0
 62
6
 10
-4.00217571E+01
 20
-1.14873215E+02
 11
-2.75217533E+01
 21
-1.14873215E+02
  0
LINE
  8
0
 62
6
 10
-4.53217525E+01
 20
-1.30873215E+02
 11
-4.53217525E+01
 21
-1.30973213E+02
  0
LINE
  8
0
 62
6
 10
-4.59217510E+01
 20
-1.31471291E+02
 11
-4.59217510E+01
 21
-1.30973213E+02
  0
LINE
  8
0
 62
6
 10
-4.13217520E+01
 20
-1.32282397E+02
 11
-4.59217490E+01
 21
-1.31471294E+02
  0
LINE
  8
0
 62
6
 10
-4.00217571E+01
 20
-1.30973213E+02
 11
-4.59217510E+01
 21
-1.30973213E+02
  0
LINE
  8
0
 62
6
 10
-4.13217525E+01
 20
-1.38973213E+02
 11
-4.13217525E+01
 21
-1.32282394E+02
  0
LINE
  8
0
 62
6
 10
-4.67217541E+01
 20
-1.28673218E+02
 11
-4.59217510E+01
 21
-1.28673218E+02
  0
LINE
  8
0
 62
6
 10
-4.69217510E+01
 20
-1.28473213E+02
 11
-4.69217510E+01
 21
-1.24873215E+02
  0
LINE
  8
0
 62
6
 10
-4.67217541E+01
 20
-1.24673218E+02
 11
-4.59217510E+01
 21
-1.24673218E+02
  0
LINE
  8
0
 62
6
 10
-4.00217571E+01
 20
-1.30873215E+02
 11
-4.59217510E+01
 21
-1.30873215E+02
  0
LINE
  8
0
 62
6
 10
-2.75217533E+01
 20
-1.13373215E+02
 11
-2.75217533E+01
 21
-1.14873215E+02
  0
LINE
  8
0
 62
6
 10
-4.59217510E+01
 20
-1.30873215E+02
 11
-4.59217510E+01
 21
-1.13373215E+02
  0
LINE
  8
0
 62
6
 10
-4.00217571E+01
 20
-1.14873215E+02
 11
-4.00217571E+01
 21
-1.30973213E+02
  0
LINE
  8
0
 62
6
 10
-2.63217525E+01
 20
-1.13373215E+02
 11
-4.59217510E+01
 21
-1.13373215E+02
  0
LINE
  8
0
 62
6
 10
-4.03217525E+01
 20
-1.38473213E+02
 11
-4.03217525E+01
 21
-1.35273216E+02
  0
LINE
  8
0
 62
6
 10
-4.13217525E+01
 20
-1.35273216E+02
 11
-4.03217525E+01
 21
-1.35273216E+02
  0
LINE
  8
0
 62
6
 10
-4.13217525E+01
 20
-1.38473213E+02
 11
-4.03217525E+01
 21
-1.38473213E+02
  0
LINE
  8
0
 62
6
 10
-4.04217510E+01
 20
-1.38373215E+02
 11
-4.03217525E+01
 21
-1.38373215E+02
  0
LINE
  8
0
 62
6
 10
-4.04217510E+01
 20
-1.35373215E+02
 11
-4.03217525E+01
 21
-1.35373215E+02
  0
LINE
  8
0
 62
6
 10
-4.09217510E+01
 20
-1.37873215E+02
 11
-4.09217510E+01
 21
-1.35873215E+02
  0
LINE
  8
0
 62
6
 10
-3.71217556E+01
 20
-1.44673214E+02
 11
-2.95217533E+01
 21
-1.44673214E+02
  0
LINE
  8
0
 62
6
 10
-3.71217556E+01
 20
-1.43873215E+02
 11
-2.95217533E+01
 21
-1.43873215E+02
  0
LINE
  8
0
 62
6
 10
-3.71217556E+01
 20
-1.43873215E+02
 11
-3.71217556E+01
 21
-1.44673214E+02
  0
LINE
  8
0
 62
6
 10
-2.95217533E+01
 20
-1.44673214E+02
 11
-2.95217533E+01
 21
-1.43873215E+02
  0
LINE
  8
0
 62
6
 10
-2.63217525E+01
 20
-1.45373215E+02
 11
-3.78217525E+01
 21
-1.45373215E+02
  0
LINE
  8
0
 62
6
 10
-3.78217530E+01
 20
-7.61489065E+01
 11
-4.13217530E+01
 21
-7.67660510E+01
  0
LINE
  8
0
 62
6
 10
-4.00217571E+01
 20
-1.00866051E+02
 11
-2.75217533E+01
 21
-1.00866051E+02
  0
LINE
  8
0
 62
6
 10
-4.09217510E+01
 20
-7.78660507E+01
 11
-4.09217510E+01
 21
-7.98660507E+01
  0
LINE
  8
0
 62
6
 10
-4.04217510E+01
 20
-8.03660507E+01
 11
-4.03217525E+01
 21
-8.03660507E+01
  0
LINE
  8
0
 62
6
 10
-4.04217510E+01
 20
-7.73660507E+01
 11
-4.03217525E+01
 21
-7.73660507E+01
  0
LINE
  8
0
 62
6
 10
-4.13217525E+01
 20
-7.72660522E+01
 11
-4.03217525E+01
 21
-7.72660522E+01
  0
LINE
  8
0
 62
6
 10
-4.13217525E+01
 20
-8.04660492E+01
 11
-4.03217525E+01
 21
-8.04660492E+01
  0
LINE
  8
0
 62
6
 10
-4.03217525E+01
 20
-7.72660522E+01
 11
-4.03217525E+01
 21
-8.04660492E+01
  0
LINE
  8
0
 62
6
 10
-4.00217571E+01
 20
-1.00866051E+02
 11
-4.00217571E+01
 21
-8.47660522E+01
  0
LINE
  8
0
 62
6
 10
-4.59217510E+01
 20
-8.48660507E+01
 11
-4.59217510E+01
 21
-1.02366051E+02
  0
LINE
  8
0
 62
6
 10
-4.00217571E+01
 20
-8.48660507E+01
 11
-4.59217510E+01
 21
-8.48660507E+01
  0
LINE
  8
0
 62
6
 10
-4.67217541E+01
 20
-9.10660477E+01
 11
-4.59217510E+01
 21
-9.10660477E+01
  0
LINE
  8
0
 62
6
 10
-4.69217510E+01
 20
-8.72660522E+01
 11
-4.69217510E+01
 21
-9.08660507E+01
  0
LINE
  8
0
 62
6
 10
-4.67217541E+01
 20
-8.70660477E+01
 11
-4.59217510E+01
 21
-8.70660477E+01
  0
LINE
  8
0
 62
6
 10
-4.13217525E+01
 20
-7.67660522E+01
 11
-4.13217525E+01
 21
-8.34568710E+01
  0
LINE
  8
0
 62
6
 10
-4.00217571E+01
 20
-8.47660522E+01
 11
-4.59217510E+01
 21
-8.47660522E+01
  0
LINE
  8
0
 62
6
 10
-4.13217541E+01
 20
-8.34568720E+01
 11
-4.59217511E+01
 21
-8.42679756E+01
  0
LINE
  8
0
 62
6
 10
-4.59217510E+01
 20
-8.42679749E+01
 11
-4.59217510E+01
 21
-8.47660522E+01
  0
LINE
  8
0
 62
6
 10
-4.53217525E+01
 20
-8.48660507E+01
 11
-4.53217525E+01
 21
-8.47660522E+01
  0
LINE
  8
0
 62
6
 10
-3.78217525E+01
 20
-7.03660507E+01
 11
-3.78217525E+01
 21
-7.61489029E+01
  0
LINE
  8
0
 62
6
 10
-2.95217533E+01
 20
-7.10660477E+01
 11
-2.95217533E+01
 21
-7.18660507E+01
  0
LINE
  8
0
 62
6
 10
-3.71217556E+01
 20
-7.18660507E+01
 11
-3.71217556E+01
 21
-7.10660477E+01
  0
LINE
  8
0
 62
6
 10
-3.71217556E+01
 20
-7.18660507E+01
 11
-2.95217533E+01
 21
-7.18660507E+01
  0
LINE
  8
0
 62
6
 10
-3.71217556E+01
 20
-7.10660477E+01
 11
-2.95217533E+01
 21
-7.10660477E+01
  0
LINE
  8
0
 62
6
 10
-2.63217525E+01
 20
-1.02366051E+02
 11
-4.59217510E+01
 21
-1.02366051E+02
  0
LINE
  8
0
 62
6
 10
-2.75217533E+01
 20
-1.02366051E+02
 11
-2.75217533E+01
 21
-1.00866051E+02
  0
LINE
  8
0
 62
7
 10
-2.63217525E+01
 20
-9.92655258E+01
 11
-2.53217525E+01
 21
-9.92655258E+01
  0
LINE
  8
0
 62
7
 10
-2.63217525E+01
 20
-1.02465530E+02
 11
-2.53217525E+01
 21
-1.02465530E+02
  0
LINE
  8
0
 62
7
 10
-2.53217525E+01
 20
-9.92655258E+01
 11
-2.53217525E+01
 21
-1.02465530E+02
  0
LINE
  8
0
 62
7
 10
-2.63217525E+01
 20
-7.96720200E+01
 11
-1.96217556E+01
 21
-7.96720200E+01
  0
LINE
  8
0
 62
7
 10
-2.63217525E+01
 20
-7.80720215E+01
 11
-1.96217556E+01
 21
-7.80720215E+01
  0
LINE
  8
0
  6
CENTER
 62
2
 10
-1.96217556E+01
 20
-6.89792938E+01
 11
-1.96217556E+01
 21
-7.30575027E+01
  0
LINE
  8
0
 62
7
 10
-1.80217533E+01
 20
-7.03657150E+01
 11
-1.80217533E+01
 21
-7.13657150E+01
  0
LINE
  8
0
 62
7
 10
-2.12217541E+01
 20
-7.03657150E+01
 11
-2.12217541E+01
 21
-7.13657150E+01
  0
LINE
  8
0
 62
7
 10
-2.11217556E+01
 20
-7.08657150E+01
 11
-2.11217556E+01
 21
-7.13657150E+01
  0
LINE
  8
0
 62
7
 10
-1.81217556E+01
 20
-7.08657150E+01
 11
-1.81217556E+01
 21
-7.13657150E+01
  0
LINE
  8
0
 62
7
 10
-1.80217533E+01
 20
-7.13657150E+01
 11
-2.12217541E+01
 21
-7.13657150E+01
  0
LINE
  8
0
 62
7
 10
-1.96217556E+01
 20
-7.80720215E+01
 11
-1.96217556E+01
 21
-7.96720200E+01
  0
LINE
  8
0
 62
7
 10
-2.63217525E+01
 20
-1.37665668E+02
 11
-1.96217556E+01
 21
-1.37665668E+02
  0
LINE
  8
0
 62
7
 10
-2.63217525E+01
 20
-1.36065670E+02
 11
-1.96217556E+01
 21
-1.36065670E+02
  0
LINE
  8
0
 62
7
 10
-1.23217525E+01
 20
-1.45371975E+02
 11
-1.23217525E+01
 21
-1.44371975E+02
  0
LINE
  8
0
  6
CENTER
 62
2
 10
-1.07217541E+01
 20
-1.46758400E+02
 11
-1.07217541E+01
 21
-1.42680195E+02
  0
LINE
  8
0
 62
7
 10
-9.12175560E+00
 20
-1.44371975E+02
 11
-1.23217525E+01
 21
-1.44371975E+02
  0
LINE
  8
0
 62
7
 10
-1.22217541E+01
 20
-1.44871975E+02
 11
-1.22217541E+01
 21
-1.44371975E+02
  0
LINE
  8
0
 62
7
 10
-1.96217556E+01
 20
-1.37665668E+02
 11
-1.96217556E+01
 21
-1.36065670E+02
  0
LINE
  8
0
 62
7
 10
-9.12175560E+00
 20
-1.45371975E+02
 11
-9.12175560E+00
 21
-1.44371975E+02
  0
LINE
  8
0
 62
7
 10
-9.22175407E+00
 20
-1.44871975E+02
 11
-9.22175407E+00
 21
-1.44371975E+02
  0
LINE
  8
0
 62
7
 10
-2.58217525E+01
 20
-9.93655243E+01
 11
-2.53217525E+01
 21
-9.93655243E+01
  0
LINE
  8
0
 62
7
 10
-2.58217525E+01
 20
-1.02365524E+02
 11
-2.53217525E+01
 21
-1.02365524E+02
  0
LINE
  8
0
 62
7
 10
-1.13217525E+01
 20
-6.08759613E+01
 11
-1.13217525E+01
 21
-6.13759613E+01
  0
LINE
  8
0
 62
7
 10
-8.32175255E+00
 20
-6.08759613E+01
 11
-8.32175255E+00
 21
-6.13759613E+01
  0
LINE
  8
0
  6
CENTER
 62
2
 10
-9.82175255E+00
 20
-5.89282227E+01
 11
-9.82175255E+00
 21
-6.35016327E+01
  0
LINE
  8
0
 62
7
 10
-1.14217548E+01
 20
-6.13759613E+01
 11
-7.82175255E+00
 21
-6.13759613E+01
  0
LINE
  8
0
 62
7
 10
-1.14217548E+01
 20
-6.03759613E+01
 11
-1.14217548E+01
 21
-6.13759613E+01
  0
LINE
  8
0
 62
7
 10
-2.88217525E+01
 20
-6.03759613E+01
 11
-2.88217525E+01
 21
-7.03660507E+01
  0
LINE
  8
0
 62
6
 10
-4.84217510E+01
 20
-1.30875954E+02
 11
-4.84217510E+01
 21
-1.13375954E+02
  0
LINE
  8
0
 62
6
 10
-4.25217571E+01
 20
-7.65439911E+01
 11
-4.25217571E+01
 21
-7.47759552E+01
  0
LINE
  8
0
 62
6
 10
-4.84217510E+01
 20
-7.48759537E+01
 11
-4.84217510E+01
 21
-8.42751389E+01
  0
LINE
  8
0
  6
CENTER
 62
6
 10
-6.30382442E+01
 20
-7.90759583E+01
 11
-4.73097515E+01
 21
-7.90759583E+01
  0
LINE
  8
0
 62
6
 10
-3.96217556E+01
 20
-6.10759583E+01
 11
-3.20217533E+01
 21
-6.10759583E+01
  0
LINE
  8
0
 62
6
 10
-3.96217556E+01
 20
-6.18759613E+01
 11
-3.20217533E+01
 21
-6.18759613E+01
  0
LINE
  8
0
 62
6
 10
-3.96217556E+01
 20
-6.18759613E+01
 11
-3.96217556E+01
 21
-6.10759583E+01
  0
LINE
  8
0
 62
6
 10
-3.20217533E+01
 20
-6.10759583E+01
 11
-3.20217533E+01
 21
-6.18759613E+01
  0
LINE
  8
0
 62
6
 10
-4.03217525E+01
 20
-6.03759613E+01
 11
-4.03217525E+01
 21
-6.61588135E+01
  0
LINE
  8
0
 62
6
 10
-4.94217510E+01
 20
-7.84259567E+01
 11
-5.32717571E+01
 21
-7.84259567E+01
  0
LINE
  8
0
 62
6
 10
-4.94217510E+01
 20
-7.97259521E+01
 11
-5.29217510E+01
 21
-7.97259521E+01
  0
LINE
  8
0
 62
6
 10
-4.78217525E+01
 20
-7.48759537E+01
 11
-4.78217525E+01
 21
-7.47759552E+01
  0
LINE
  8
0
 62
6
 10
-4.84217510E+01
 20
-7.42778778E+01
 11
-4.84217510E+01
 21
-7.47759552E+01
  0
LINE
  8
0
 62
6
 10
-4.38217537E+01
 20
-7.34667749E+01
 11
-4.84217544E+01
 21
-7.42778791E+01
  0
LINE
  8
0
 62
6
 10
-4.25217571E+01
 20
-7.47759552E+01
 11
-4.84217510E+01
 21
-7.47759552E+01
  0
LINE
  8
0
 62
6
 10
-4.38217525E+01
 20
-6.67759552E+01
 11
-4.38217525E+01
 21
-7.34667740E+01
  0
LINE
  8
0
 62
6
 10
-4.92217541E+01
 20
-7.70759583E+01
 11
-4.84217510E+01
 21
-7.70759583E+01
  0
LINE
  8
0
 62
6
 10
-4.94217510E+01
 20
-7.72759552E+01
 11
-4.94217510E+01
 21
-8.08759537E+01
  0
LINE
  8
0
 62
6
 10
-4.92217541E+01
 20
-8.10759583E+01
 11
-4.84217510E+01
 21
-8.10759583E+01
  0
LINE
  8
0
 62
6
 10
-4.25217571E+01
 20
-7.48759537E+01
 11
-4.84217510E+01
 21
-7.48759537E+01
  0
LINE
  8
0
 62
6
 10
-4.28217525E+01
 20
-6.72759552E+01
 11
-4.28217525E+01
 21
-7.04759521E+01
  0
LINE
  8
0
 62
6
 10
-4.38217525E+01
 20
-7.04759521E+01
 11
-4.28217525E+01
 21
-7.04759521E+01
  0
LINE
  8
0
 62
6
 10
-4.38217525E+01
 20
-6.72759552E+01
 11
-4.28217525E+01
 21
-6.72759552E+01
  0
LINE
  8
0
 62
6
 10
-4.29217510E+01
 20
-6.73759613E+01
 11
-4.28217525E+01
 21
-6.73759613E+01
  0
LINE
  8
0
 62
6
 10
-4.29217510E+01
 20
-7.03759537E+01
 11
-4.28217525E+01
 21
-7.03759537E+01
  0
LINE
  8
0
 62
6
 10
-4.34217510E+01
 20
-6.78759613E+01
 11
-4.34217510E+01
 21
-6.98759537E+01
  0
LINE
  8
0
 62
6
 10
-5.37017537E+01
 20
-8.06759593E+01
 11
-5.45617549E+01
 21
-7.74759546E+01
  0
LINE
  8
0
 62
6
 10
-5.26717548E+01
 20
-8.06759513E+01
 11
-5.35317521E+01
 21
-7.74759613E+01
  0
LINE
  8
0
 62
6
 10
-6.16217556E+01
 20
-7.93259583E+01
 11
-6.16217556E+01
 21
-7.88259583E+01
  0
LINE
  8
0
 62
6
 10
-5.76217556E+01
 20
-7.84259567E+01
 11
-5.76217556E+01
 21
-7.97259521E+01
  0
LINE
  8
0
 62
6
 10
-5.76217556E+01
 20
-7.88259583E+01
 11
-6.16217556E+01
 21
-7.88259583E+01
  0
LINE
  8
0
 62
6
 10
-5.76217556E+01
 20
-7.93259583E+01
 11
-6.16217556E+01
 21
-7.93259583E+01
  0
LINE
  8
0
 62
6
 10
-5.39617519E+01
 20
-7.97259521E+01
 11
-5.76217556E+01
 21
-7.97259521E+01
  0
LINE
  8
0
 62
6
 10
-5.43117504E+01
 20
-7.84259567E+01
 11
-5.76217556E+01
 21
-7.84259567E+01
  0
LINE
  8
0
 62
6
 10
-4.03217526E+01
 20
-6.61588094E+01
 11
-4.38217526E+01
 21
-6.67759539E+01
  0
LINE
  8
0
 62
6
 10
-4.03217525E+01
 20
-6.03759613E+01
 11
-2.88217525E+01
 21
-6.03759613E+01
  0
LINE
  8
0
 62
7
 10
-2.32175255E+00
 20
-4.86709595E+01
 11
1.67824554E+00
 21
-4.86709595E+01
  0
LINE
  8
0
 62
7
 10
1.67824554E+00
 20
-5.36709595E+01
 11
-2.32175255E+00
 21
-5.36709595E+01
  0
LINE
  8
0
 62
7
 10
-3.32175255E+00
 20
-5.63759613E+01
 11
2.67824554E+00
 21
-5.63759613E+01
  0
LINE
  8
0
 62
7
 10
-3.82175255E+00
 20
-5.88759613E+01
 11
-3.82175255E+00
 21
-5.68759613E+01
  0
LINE
  8
0
 62
7
 10
-1.57175255E+00
 20
-5.36709595E+01
 11
-1.57175255E+00
 21
-5.63759613E+01
  0
LINE
  8
0
 62
7
 10
-3.82175628E+00
 20
-5.68759572E+01
 11
-3.32175575E+00
 21
-5.63759566E+01
  0
LINE
  8
0
 62
7
 10
-2.82174982E+00
 20
-5.31709566E+01
 11
-2.32174929E+00
 21
-5.36709571E+01
  0
LINE
  8
0
 62
7
 10
-2.82174982E+00
 20
-4.91709631E+01
 11
-2.32174929E+00
 21
-4.86709626E+01
  0
LINE
  8
0
 62
7
 10
-2.82175255E+00
 20
-4.91709595E+01
 11
-2.82175255E+00
 21
-5.31709595E+01
  0
LINE
  8
0
 62
7
 10
3.17824576E+00
 20
-5.88759539E+01
 11
3.03211690E+00
 21
-5.90220828E+01
  0
LINE
  8
0
 62
7
 10
3.17825115E+00
 20
-5.68759572E+01
 11
2.67825062E+00
 21
-5.63759566E+01
  0
LINE
  8
0
 62
7
 10
2.17825009E+00
 20
-4.91709577E+01
 11
1.67824956E+00
 21
-4.86709572E+01
  0
LINE
  8
0
 62
7
 10
1.67824417E+00
 20
-5.36709571E+01
 11
2.17824470E+00
 21
-5.31709566E+01
  0
LINE
  8
0
 62
7
 10
2.17824554E+00
 20
-4.91709595E+01
 11
2.17824554E+00
 21
-5.31709595E+01
  0
LINE
  8
0
 62
7
 10
3.17824554E+00
 20
-5.88759613E+01
 11
3.17824554E+00
 21
-5.68759613E+01
  0
LINE
  8
0
 62
7
 10
9.28245544E-01
 20
-5.36709595E+01
 11
9.28245544E-01
 21
-5.63759613E+01
  0
LINE
  8
0
 62
7
 10
-3.82175628E+00
 20
-5.88759593E+01
 11
-3.32175575E+00
 21
-5.93759598E+01
  0
LINE
  8
0
 62
7
 10
3.37824631E+00
 20
-5.93759613E+01
 11
3.17824554E+00
 21
-5.93759613E+01
  0
LINE
  8
0
 62
7
 10
-4.32175255E+00
 20
-6.03759613E+01
 11
-4.32175255E+00
 21
-5.96759491E+01
  0
LINE
  8
0
 62
7
 10
3.67824554E+00
 20
-6.03759613E+01
 11
3.67824554E+00
 21
-5.96759491E+01
  0
LINE
  8
0
 62
7
 10
3.67824629E+00
 20
-5.96759591E+01
 11
3.37824705E+00
 21
-5.93759598E+01
  0
LINE
  8
0
 62
7
 10
-4.02175217E+00
 20
-5.93759598E+01
 11
-4.32175141E+00
 21
-5.96759591E+01
  0
LINE
  8
0
 62
7
 10
3.67824554E+00
 20
-5.96759491E+01
 11
3.17824554E+00
 21
-5.96759491E+01
  0
LINE
  8
0
 62
7
 10
-2.88217525E+01
 20
-6.03759613E+01
 11
-7.82175255E+00
 21
-6.03759613E+01
  0
LINE
  8
0
  6
CENTER
 62
6
 10
-4.61295376E+01
 20
-6.88759613E+01
 11
-2.69385242E+01
 21
-6.88759613E+01
  0
LINE
  8
0
 62
7
 10
-8.22175407E+00
 20
-1.06764580E+02
 11
-8.22175407E+00
 21
-7.03732147E+01
  0
LINE
  8
0
 62
7
 10
-1.92217541E+01
 20
-1.88373215E+02
 11
-8.22175407E+00
 21
-1.88373215E+02
  0
LINE
  8
0
  6
CENTER
 62
2
 10
8.27824593E+00
 20
-7.86232147E+01
 11
8.27824593E+00
 21
-7.01232147E+01
  0
LINE
  8
0
 62
7
 10
8.27824693E+00
 20
-7.58082146E+01
 11
9.52824830E+00
 21
-7.50780010E+01
  0
LINE
  8
0
 62
7
 10
-8.22175407E+00
 20
-1.09215790E+02
 11
-8.22175407E+00
 21
-1.88373215E+02
  0
LINE
  8
0
 62
7
 10
8.27824156E+00
 20
-7.58082154E+01
 11
7.02824348E+00
 21
-7.50780037E+01
  0
LINE
  8
0
 62
7
 10
8.27824859E+00
 20
-7.29382142E+01
 11
7.02824721E+00
 21
-7.36684278E+01
  0
LINE
  8
0
 62
7
 10
8.27824320E+00
 20
-7.29382169E+01
 11
9.52824128E+00
 21
-7.36684286E+01
  0
LINE
  8
0
 62
7
 10
7.02824593E+00
 20
-7.50780029E+01
 11
7.02824593E+00
 21
-7.36684265E+01
  0
LINE
  8
0
 62
7
 10
9.52824593E+00
 20
-7.50780029E+01
 11
9.52824593E+00
 21
-7.36684265E+01
  0
LINE
  8
0
 62
7
 10
1.97704325E+01
 20
-1.42134232E+02
 11
1.97704325E+01
 21
-1.57931126E+02
  0
LINE
  8
0
 62
7
 10
-2.22956657E+00
 20
-1.45134232E+02
 11
-2.22956657E+00
 21
-1.55720016E+02
  0
LINE
  8
0
 62
7
 10
1.97704325E+01
 20
-1.24134232E+02
 11
1.97704325E+01
 21
-1.34720016E+02
  0
LINE
  8
0
 62
7
 10
-2.22956657E+00
 20
-1.27134232E+02
 11
-2.22956657E+00
 21
-1.37720016E+02
  0
LINE
  8
0
 62
7
 10
-1.37601348E+00
 20
-1.56073570E+02
 11
1.96239862E+01
 21
-1.35073570E+02
  0
LINE
  8
0
 62
7
 10
-1.37601449E+00
 20
-1.20073571E+02
 11
1.59168790E+01
 21
-1.02780677E+02
  0
LINE
  8
0
 62
7
 10
-1.37601584E+00
 20
-1.38073570E+02
 11
1.96239835E+01
 21
-1.17073570E+02
  0
LINE
  8
0
 62
7
 10
1.62398701E+00
 20
-1.59073571E+02
 11
1.89168795E+01
 21
-1.41780678E+02
  0
LINE
  8
0
 62
7
 10
-2.08312261E+00
 20
-1.26780674E+02
 11
1.89168768E+01
 21
-1.05780675E+02
  0
LINE
  8
0
 62
7
 10
-2.08312126E+00
 20
-1.44780676E+02
 11
1.89168795E+01
 21
-1.23780675E+02
  0
LINE
  8
0
 62
7
 10
-2.22956657E+00
 20
-1.12532555E+02
 11
-2.22956657E+00
 21
-1.19720016E+02
  0
LINE
  8
0
 62
7
 10
1.97753906E+00
 20
-1.59927124E+02
 11
1.77744341E+01
 21
-1.59927124E+02
  0
LINE
  8
0
 62
7
 10
1.97704325E+01
 20
-1.06134232E+02
 11
1.97704325E+01
 21
-1.16720016E+02
  0
LINE
  8
0
 62
7
 10
1.55633259E+01
 20
-1.01927124E+02
 11
-1.72956657E+00
 21
-1.01927124E+02
  0
LINE
  8
0
 62
7
 10
-2.22956657E+00
 20
-1.02427124E+02
 11
-2.22956657E+00
 21
-1.03321693E+02
  0
LINE
  8
0
 62
7
 10
2.52704325E+01
 20
-9.59271240E+01
 11
-7.72956657E+00
 21
-9.59271240E+01
  0
LINE
  8
0
 62
7
 10
-7.72956657E+00
 20
-1.65927122E+02
 11
2.52704325E+01
 21
-1.65927122E+02
  0
LINE
  8
0
  6
CENTER
 62
2
 10
2.27704325E+01
 20
-1.58568573E+02
 11
2.27704325E+01
 21
-1.67173700E+02
  0
LINE
  8
0
  6
CENTER
 62
2
 10
2.70936241E+01
 20
-1.62927124E+02
 11
1.85059853E+01
 21
-1.62927124E+02
  0
LINE
  8
0
 62
7
 10
-5.72957351E+00
 20
-1.09362122E+02
 11
-6.97957159E+00
 21
-1.08631910E+02
  0
LINE
  8
0
 62
7
 10
-5.72956718E+00
 20
-1.09362120E+02
 11
-4.47956745E+00
 21
-1.08631907E+02
  0
LINE
  8
0
 62
7
 10
-5.72956716E+00
 20
-1.06492120E+02
 11
-6.97956689E+00
 21
-1.07222333E+02
  0
LINE
  8
0
 62
7
 10
-5.72957188E+00
 20
-1.06492123E+02
 11
-4.47957380E+00
 21
-1.07222335E+02
  0
LINE
  8
0
 62
7
 10
-6.97956657E+00
 20
-1.08631912E+02
 11
-6.97956657E+00
 21
-1.07222336E+02
  0
LINE
  8
0
 62
7
 10
-4.47956657E+00
 20
-1.08631912E+02
 11
-4.47956657E+00
 21
-1.07222336E+02
  0
LINE
  8
0
  6
CENTER
 62
2
 10
-5.72956657E+00
 20
-1.04610123E+02
 11
-5.72956657E+00
 21
-1.11233574E+02
  0
LINE
  8
0
  6
CENTER
 62
2
 10
-9.11849785E+00
 20
-1.07927124E+02
 11
-2.41172981E+00
 21
-1.07927124E+02
  0
LINE
  8
0
 62
7
 10
2.27704312E+01
 20
-1.00362119E+02
 11
2.15204331E+01
 21
-9.96319076E+01
  0
LINE
  8
0
 62
7
 10
2.27704354E+01
 20
-1.00362125E+02
 11
2.40204367E+01
 21
-9.96319114E+01
  0
LINE
  8
0
 62
7
 10
2.27704332E+01
 20
-9.74921180E+01
 11
2.15204318E+01
 21
-9.82223316E+01
  0
LINE
  8
0
 62
7
 10
2.27704328E+01
 20
-9.74921207E+01
 11
2.40204309E+01
 21
-9.82223324E+01
  0
LINE
  8
0
 62
7
 10
2.15204325E+01
 20
-9.96319122E+01
 11
2.15204325E+01
 21
-9.82223358E+01
  0
LINE
  8
0
 62
7
 10
2.40204325E+01
 20
-9.96319122E+01
 11
2.40204325E+01
 21
-9.82223358E+01
  0
LINE
  8
0
  6
CENTER
 62
2
 10
2.27704325E+01
 20
-9.56101227E+01
 11
2.27704325E+01
 21
-1.02233574E+02
  0
LINE
  8
0
  6
CENTER
 62
2
 10
1.93815022E+01
 20
-9.89271240E+01
 11
2.60882683E+01
 21
-9.89271240E+01
  0
LINE
  8
0
 62
7
 10
2.27704318E+01
 20
-1.64362123E+02
 11
2.15204321E+01
 21
-1.63631911E+02
  0
LINE
  8
0
 62
2
 10
2.27704334E+01
 20
-1.64362123E+02
 11
2.40204332E+01
 21
-1.63631911E+02
  0
LINE
  8
0
 62
7
 10
2.27704334E+01
 20
-1.61492124E+02
 11
2.15204337E+01
 21
-1.62222336E+02
  0
LINE
  8
0
 62
7
 10
2.27704328E+01
 20
-1.61492122E+02
 11
2.40204325E+01
 21
-1.62222335E+02
  0
LINE
  8
0
 62
7
 10
2.15204325E+01
 20
-1.63631908E+02
 11
2.15204325E+01
 21
-1.62222336E+02
  0
LINE
  8
0
 62
7
 10
2.40204325E+01
 20
-1.63631908E+02
 11
2.40204325E+01
 21
-1.62222336E+02
  0
LINE
  8
0
 62
7
 10
2.57782459E+01
 20
-1.88373215E+02
 11
3.67782459E+01
 21
-1.88373215E+02
  0
LINE
  8
0
 62
7
 10
-1.92217541E+01
 20
-1.88373215E+02
 11
-1.92217541E+01
 21
-1.97373215E+02
  0
LINE
  8
0
 62
7
 10
3.67782459E+01
 20
-1.88373215E+02
 11
3.67782459E+01
 21
-1.97373215E+02
  0
LINE
  8
0
 62
7
 10
2.57782459E+01
 20
-9.43732147E+01
 11
-8.22175407E+00
 21
-9.43732147E+01
  0
LINE
  8
0
  6
CENTER
 62
2
 10
3.60541534E+00
 20
-8.58732147E+01
 11
1.75738134E+01
 21
-8.58732147E+01
  0
LINE
  8
0
  6
CENTER
 62
2
 10
1.07782459E+01
 20
-7.98527451E+01
 11
1.07782459E+01
 21
-9.23409271E+01
  0
LINE
  8
0
 62
7
 10
3.67782459E+01
 20
-1.97373215E+02
 11
2.57782459E+01
 21
-1.97373215E+02
  0
LINE
  8
0
 62
7
 10
-8.22175407E+00
 20
-1.97373215E+02
 11
-1.92217541E+01
 21
-1.97373215E+02
  0
LINE
  8
0
 62
7
 10
-8.22175407E+00
 20
-1.96370475E+02
 11
-8.22175407E+00
 21
-1.97373215E+02
  0
LINE
  8
0
 62
7
 10
2.57782459E+01
 20
-1.96370475E+02
 11
2.57782459E+01
 21
-1.97373215E+02
  0
LINE
  8
0
 62
7
 10
2.57782459E+01
 20
-7.03732147E+01
 11
-8.22175407E+00
 21
-7.03732147E+01
  0
LINE
  8
0
 62
7
 10
2.57782459E+01
 20
-1.96370475E+02
 11
-8.22175407E+00
 21
-1.96370475E+02
  0
LINE
  8
0
  6
CENTER
 62
2
 10
4.02824593E+00
 20
-7.43732147E+01
 11
1.25282459E+01
 21
-7.43732147E+01
  0
LINE
  8
0
  6
CENTER
 62
2
 10
-3.21754456E-01
 20
-4.48896790E+01
 11
-3.21754456E-01
 21
-7.18507614E+01
  0
LINE
  8
0
 62
6
 10
-3.78217525E+01
 20
-1.45373215E+02
 11
-4.03217525E+01
 21
-1.45373215E+02
  0
LINE
  8
0
  6
CENTER
 62
2
 10
-1.32217541E+01
 20
-2.02138281E+02
 11
-1.32217541E+01
 21
-1.83613784E+02
  0
LINE
  8
0
  6
CENTER
 62
2
 10
3.07782459E+01
 20
-2.02138281E+02
 11
3.07782459E+01
 21
-1.83613784E+02
  0
ARC
  8
0
 62
7
 10
-5.93217525E+01
 20
-1.86120475E+02
 40
1.50000000E+00
 50
1.79999995E+02
 51
2.70000000E+02
  0
ARC
  8
0
  6
PHANTOM
 62
2
 10
-5.34217510E+01
 20
-1.70170475E+02
 40
2.00000003E-01
 50
1.79999995E+02
 51
2.70000000E+02
  0
ARC
  8
0
  6
PHANTOM
 62
2
 10
-5.34217510E+01
 20
-1.62970474E+02
 40
2.00000003E-01
 50
9.00000002E+01
 51
1.80000005E+02
  0
ARC
  8
0
 62
6
 10
-4.92224636E+01
 20
-1.24874146E+02
 40
1.99289829E-01
 50
9.00000002E+01
 51
1.80204542E+02
  0
ARC
  8
0
 62
6
 10
-4.92224636E+01
 20
-1.28475571E+02
 40
1.99289829E-01
 50
1.79795468E+02
 51
2.70000000E+02
  0
ARC
  8
0
 62
6
 10
-4.29217510E+01
 20
-1.37874859E+02
 40
5.00000000E-01
 50
1.79999995E+02
 51
2.70000000E+02
  0
ARC
  8
0
 62
6
 10
-4.29217510E+01
 20
-1.35874859E+02
 40
5.00000000E-01
 50
9.00000002E+01
 51
1.80000005E+02
  0
ARC
  8
0
 62
6
 10
-4.92224636E+01
 20
-8.72725067E+01
 40
1.99289829E-01
 50
9.00000002E+01
 51
1.80204542E+02
  0
ARC
  8
0
 62
6
 10
-4.92224636E+01
 20
-9.08739243E+01
 40
1.99289829E-01
 50
1.79795468E+02
 51
2.70000000E+02
  0
ARC
  8
0
 62
6
 10
-4.29217510E+01
 20
-7.98732147E+01
 40
5.00000000E-01
 50
1.79999995E+02
 51
2.70000000E+02
  0
ARC
  8
0
 62
6
 10
-4.29217510E+01
 20
-7.78732147E+01
 40
5.00000000E-01
 50
9.00000002E+01
 51
1.80000005E+02
  0
CIRCLE
  8
0
  6
PHANTOM
 62
2
 10
-1.51443157E+01
 20
-1.60075592E+02
 40
1.39999998E+00
  0
CIRCLE
  8
0
  6
PHANTOM
 62
2
 10
-1.51443157E+01
 20
-1.50668098E+02
 40
1.39999998E+00
  0
ARC
  8
0
 62
7
 10
-5.93217525E+01
 20
-1.84820475E+02
 40
1.50000000E+00
 50
1.79999995E+02
 51
2.70000000E+02
  0
ARC
  8
0
 62
7
 10
-5.93217525E+01
 20
-1.77920475E+02
 40
1.50000000E+00
 50
9.00000002E+01
 51
1.80000005E+02
  0
ARC
  8
0
 62
6
 10
-4.67224636E+01
 20
-1.28473923E+02
 40
1.99289829E-01
 50
1.79795468E+02
 51
2.70000000E+02
  0
ARC
  8
0
 62
6
 10
-4.67224636E+01
 20
-1.24872505E+02
 40
1.99289829E-01
 50
9.00000002E+01
 51
1.80204542E+02
  0
ARC
  8
0
 62
6
 10
-4.04217510E+01
 20
-1.35873215E+02
 40
5.00000000E-01
 50
9.00000002E+01
 51
1.80000005E+02
  0
ARC
  8
0
 62
6
 10
-4.04217510E+01
 20
-1.37873215E+02
 40
5.00000000E-01
 50
1.79999995E+02
 51
2.70000000E+02
  0
ARC
  8
0
 62
6
 10
-4.04217510E+01
 20
-7.78660507E+01
 40
5.00000000E-01
 50
9.00000002E+01
 51
1.80000005E+02
  0
ARC
  8
0
 62
6
 10
-4.04217510E+01
 20
-7.98660507E+01
 40
5.00000000E-01
 50
1.79999995E+02
 51
2.70000000E+02
  0
ARC
  8
0
 62
6
 10
-4.67224636E+01
 20
-9.08667603E+01
 40
1.99289829E-01
 50
1.79795468E+02
 51
2.70000000E+02
  0
ARC
  8
0
 62
6
 10
-4.67224636E+01
 20
-8.72653427E+01
 40
1.99289829E-01
 50
9.00000002E+01
 51
1.80204542E+02
  0
ARC
  8
0
 62
7
 10
-1.96217556E+01
 20
-7.28657150E+01
 40
2.50000000E+00
 50
5.31301018E+01
 51
1.26869903E+02
  0
ARC
  8
0
 62
7
 10
-1.07217541E+01
 20
-1.42871975E+02
 40
2.50000000E+00
 50
2.33130097E+02
 51
3.06869898E+02
  0
ARC
  8
0
 62
7
 10
-2.38217525E+01
 20
-1.00865524E+02
 40
2.50000000E+00
 50
1.43130097E+02
 51
2.16869899E+02
  0
ARC
  8
0
 62
7
 10
-9.82175255E+00
 20
-6.28759613E+01
 40
2.50000000E+00
 50
5.31301018E+01
 51
1.26869903E+02
  0
ARC
  8
0
 62
6
 10
-4.92224636E+01
 20
-7.72752457E+01
 40
1.99289829E-01
 50
9.00000002E+01
 51
1.80204542E+02
  0
ARC
  8
0
 62
6
 10
-4.92224636E+01
 20
-8.08766632E+01
 40
1.99289829E-01
 50
1.79795468E+02
 51
2.70000000E+02
  0
ARC
  8
0
 62
6
 10
-4.29217510E+01
 20
-6.98759537E+01
 40
5.00000000E-01
 50
1.79999995E+02
 51
2.70000000E+02
  0
ARC
  8
0
 62
6
 10
-4.29217510E+01
 20
-6.78759613E+01
 40
5.00000000E-01
 50
9.00000002E+01
 51
1.80000005E+02
  0
CIRCLE
  8
0
 62
7
 10
8.27824593E+00
 20
-7.43732147E+01
 40
2.75000000E+00
  0
ARC
  8
0
 62
7
 10
1.97753906E+00
 20
-1.59427124E+02
 40
5.00000000E-01
 50
1.35000001E+02
 51
2.70000000E+02
  0
ARC
  8
0
 62
7
 10
1.92704325E+01
 20
-1.42134232E+02
 40
5.00000000E-01
 50
0.00000000E+00
 51
1.35000001E+02
  0
ARC
  8
0
 62
7
 10
1.92704325E+01
 20
-1.34720016E+02
 40
5.00000000E-01
 50
3.14999999E+02
 51
0.00000000E+00
  0
ARC
  8
0
 62
7
 10
-1.72956657E+00
 20
-1.55720016E+02
 40
5.00000000E-01
 50
1.79999995E+02
 51
3.14999999E+02
  0
ARC
  8
0
 62
7
 10
1.92704325E+01
 20
-1.24134232E+02
 40
5.00000000E-01
 50
0.00000000E+00
 51
1.35000001E+02
  0
ARC
  8
0
 62
7
 10
-1.72956657E+00
 20
-1.45134232E+02
 40
5.00000000E-01
 50
1.35000001E+02
 51
1.80000005E+02
  0
ARC
  8
0
 62
7
 10
-1.72956657E+00
 20
-1.37720016E+02
 40
5.00000000E-01
 50
1.79999995E+02
 51
3.14999999E+02
  0
ARC
  8
0
 62
7
 10
1.92704325E+01
 20
-1.16720016E+02
 40
5.00000000E-01
 50
3.14999999E+02
 51
0.00000000E+00
  0
ARC
  8
0
 62
7
 10
-1.72956657E+00
 20
-1.27134232E+02
 40
5.00000000E-01
 50
1.35000001E+02
 51
1.80000005E+02
  0
ARC
  8
0
 62
7
 10
-1.72956657E+00
 20
-1.19720016E+02
 40
5.00000000E-01
 50
1.79999995E+02
 51
3.14999999E+02
  0
ARC
  8
0
 62
7
 10
1.55633259E+01
 20
-1.02427124E+02
 40
5.00000000E-01
 50
3.14999999E+02
 51
9.00000002E+01
  0
ARC
  8
0
 62
7
 10
1.92704325E+01
 20
-1.06134232E+02
 40
5.00000000E-01
 50
0.00000000E+00
 51
1.35000001E+02
  0
ARC
  8
0
 62
7
 10
1.77744341E+01
 20
-1.59427124E+02
 40
5.00000000E-01
 50
2.70000000E+02
 51
3.24986425E+02
  0
ARC
  8
0
 62
7
 10
-1.72956657E+00
 20
-1.12532555E+02
 40
5.00000000E-01
 50
1.30975612E+02
 51
1.80000005E+02
  0
ARC
  8
0
 62
7
 10
1.92704325E+01
 20
-1.57931126E+02
 40
5.00000000E-01
 50
3.05013576E+02
 51
0.00000000E+00
  0
ARC
  8
0
 62
7
 10
-1.72956657E+00
 20
-1.03321693E+02
 40
5.00000000E-01
 50
1.79999995E+02
 51
2.29024388E+02
  0
ARC
  8
0
 62
7
 10
2.52704325E+01
 20
-1.65427122E+02
 40
5.00000000E-01
 50
2.70000000E+02
 51
0.00000000E+00
  0
ARC
  8
0
 62
7
 10
-7.72956657E+00
 20
-1.65427122E+02
 40
5.00000000E-01
 50
1.79999995E+02
 51
2.70000000E+02
  0
ARC
  8
0
 62
7
 10
-1.72956657E+00
 20
-1.02427124E+02
 40
5.00000000E-01
 50
9.00000002E+01
 51
1.80000005E+02
  0
ARC
  8
0
 62
7
 10
-7.72956657E+00
 20
-9.64271240E+01
 40
5.00000000E-01
 50
9.00000002E+01
 51
1.80000005E+02
  0
ARC
  8
0
 62
7
 10
2.52704325E+01
 20
-9.64271240E+01
 40
5.00000000E-01
 50
0.00000000E+00
 51
9.00000002E+01
  0
ARC
  8
0
 62
7
 10
2.27704325E+01
 20
-1.62927124E+02
 40
5.59999990E+00
 50
1.25013581E+02
 51
1.44986420E+02
  0
ARC
  8
0
 62
7
 10
-5.72956657E+00
 20
-1.07927124E+02
 40
5.59999990E+00
 50
3.10975610E+02
 51
4.90243897E+01
  0
CIRCLE
  8
0
 62
7
 10
-5.72956657E+00
 20
-1.07927124E+02
 40
2.75000000E+00
  0
CIRCLE
  8
0
 62
7
 10
2.27704325E+01
 20
-9.89271240E+01
 40
2.75000000E+00
  0
CIRCLE
  8
0
 62
7
 10
2.27704325E+01
 20
-1.62927124E+02
 40
2.75000000E+00
  0
CIRCLE
  8
0
 62
7
 10
8.27824593E+00
 20
-7.43732147E+01
 40
3.25000000E+00
  0
CIRCLE
  8
0
 62
7
 10
1.07782459E+01
 20
-8.58732147E+01
 40
4.04500008E+00
  0
CIRCLE
  8
0
 62
7
 10
1.07782459E+01
 20
-8.58732147E+01
 40
4.28299999E+00
  0
CIRCLE
  8
0
 62
7
 10
1.07782459E+01
 20
-8.58732147E+01
 40
4.86399984E+00
  0
LINE
  8
0
 62
7
 10
1.63639816E+02
 20
-8.03687057E+01
 11
1.63889816E+02
 21
-8.03687057E+01
  0
LINE
  8
0
 62
7
 10
1.63639816E+02
 20
-1.37668705E+02
 11
1.63889816E+02
 21
-1.37668705E+02
  0
LINE
  8
0
 62
7
 10
2.36639816E+02
 20
-9.66687088E+01
 11
2.36389816E+02
 21
-9.66687088E+01
  0
LINE
  8
0
 62
7
 10
2.36639816E+02
 20
-1.37668705E+02
 11
2.36389816E+02
 21
-1.37668705E+02
  0
LINE
  8
0
 62
7
 10
1.67246306E+02
 20
-1.57945623E+02
 11
1.70427108E+02
 21
-1.52436314E+02
  0
LINE
  8
0
 62
7
 10
1.67852524E+02
 20
-1.58295623E+02
 11
1.71033326E+02
 21
-1.52786314E+02
  0
LINE
  8
0
  6
CENTER
 62
2
 10
1.69139816E+02
 20
-6.68592834E+01
 11
1.69139816E+02
 21
-1.90619153E+02
  0
LINE
  8
0
  6
CENTER
 62
2
 10
1.67889816E+02
 20
-9.17563858E+01
 11
1.67889816E+02
 21
-8.32937164E+01
  0
LINE
  8
0
 62
7
 10
1.63889816E+02
 20
-7.03687057E+01
 11
1.74389816E+02
 21
-7.03687057E+01
  0
LINE
  8
0
 62
7
 10
1.74389816E+02
 20
-7.03687057E+01
 11
1.74389816E+02
 21
-1.45368706E+02
  0
LINE
  8
0
 62
7
 10
1.63889816E+02
 20
-7.03687057E+01
 11
1.63889816E+02
 21
-1.45368706E+02
  0
LINE
  8
0
 62
7
 10
1.63889816E+02
 20
-1.45368706E+02
 11
1.74389816E+02
 21
-1.45368706E+02
  0
LINE
  8
0
  6
CENTER
 62
2
 10
1.65884040E+02
 20
-1.74365967E+02
 11
1.73103401E+02
 21
-1.74365967E+02
  0
LINE
  8
0
 62
7
 10
1.74389816E+02
 20
-1.88365967E+02
 11
1.63889816E+02
 21
-1.88365967E+02
  0
LINE
  8
0
 62
7
 10
1.74389816E+02
 20
-1.45368706E+02
 11
1.74389816E+02
 21
-1.88365967E+02
  0
LINE
  8
0
 62
7
 10
1.63889816E+02
 20
-1.88365967E+02
 11
1.63889816E+02
 21
-1.45368706E+02
  0
LINE
  8
0
  6
CENTER
 62
2
 10
1.63883717E+02
 20
-8.78687057E+01
 11
1.72046394E+02
 21
-8.78687057E+01
  0
LINE
  8
0
  6
CENTER
 62
2
 10
1.70089817E+02
 20
-5.48824310E+01
 11
1.70089817E+02
 21
-7.18462601E+01
  0
LINE
  8
0
 62
7
 10
1.66089816E+02
 20
-6.96687088E+01
 11
1.74089817E+02
 21
-6.96687088E+01
  0
LINE
  8
0
 62
7
 10
1.73789819E+02
 20
-6.93687063E+01
 11
1.74089818E+02
 21
-6.96687056E+01
  0
LINE
  8
0
 62
7
 10
1.66089815E+02
 20
-6.96687110E+01
 11
1.66389814E+02
 21
-6.93687117E+01
  0
LINE
  8
0
 62
7
 10
1.66089816E+02
 20
-7.03687057E+01
 11
1.66089816E+02
 21
-6.96687088E+01
  0
LINE
  8
0
 62
7
 10
1.74089817E+02
 20
-7.03687057E+01
 11
1.74089817E+02
 21
-6.96687088E+01
  0
LINE
  8
0
 62
7
 10
1.66389816E+02
 20
-6.93687057E+01
 11
1.73789816E+02
 21
-6.93687057E+01
  0
LINE
  8
0
 62
7
 10
1.73589817E+02
 20
-6.88687112E+01
 11
1.73089817E+02
 21
-6.93687117E+01
  0
LINE
  8
0
 62
7
 10
1.68839816E+02
 20
-6.36637115E+01
 11
1.68839816E+02
 21
-6.63687134E+01
  0
LINE
  8
0
 62
7
 10
1.66589816E+02
 20
-6.88687134E+01
 11
1.66589816E+02
 21
-6.68687134E+01
  0
LINE
  8
0
 62
7
 10
1.67589816E+02
 20
-5.91637115E+01
 11
1.67589816E+02
 21
-6.31637115E+01
  0
LINE
  8
0
 62
7
 10
1.68089817E+02
 20
-6.36637090E+01
 11
1.67589817E+02
 21
-6.31637085E+01
  0
LINE
  8
0
 62
7
 10
1.67589817E+02
 20
-5.91637042E+01
 11
1.68089812E+02
 21
-5.86637091E+01
  0
LINE
  8
0
 62
7
 10
1.66589821E+02
 20
-6.68687091E+01
 11
1.67089816E+02
 21
-6.63687139E+01
  0
LINE
  8
0
 62
7
 10
1.66589815E+02
 20
-6.88687058E+01
 11
1.67089816E+02
 21
-6.93687063E+01
  0
LINE
  8
0
 62
7
 10
1.72589817E+02
 20
-5.91637115E+01
 11
1.72589817E+02
 21
-6.31637115E+01
  0
LINE
  8
0
 62
7
 10
1.72589816E+02
 20
-5.91637096E+01
 11
1.72089816E+02
 21
-5.86637091E+01
  0
LINE
  8
0
 62
7
 10
1.72589811E+02
 20
-6.31637085E+01
 11
1.72089816E+02
 21
-6.36637036E+01
  0
LINE
  8
0
 62
7
 10
1.73589817E+02
 20
-6.68687091E+01
 11
1.73089817E+02
 21
-6.63687085E+01
  0
LINE
  8
0
 62
7
 10
1.71339817E+02
 20
-6.36637115E+01
 11
1.71339817E+02
 21
-6.63687134E+01
  0
LINE
  8
0
 62
7
 10
1.73589817E+02
 20
-6.88687134E+01
 11
1.73589817E+02
 21
-6.68687134E+01
  0
LINE
  8
0
 62
7
 10
1.73089817E+02
 20
-6.63687134E+01
 11
1.67089816E+02
 21
-6.63687134E+01
  0
LINE
  8
0
 62
7
 10
1.68089816E+02
 20
-6.36637115E+01
 11
1.72089817E+02
 21
-6.36637115E+01
  0
LINE
  8
0
 62
7
 10
1.72089817E+02
 20
-5.86637115E+01
 11
1.68089816E+02
 21
-5.86637115E+01
  0
LINE
  8
0
 62
7
 10
1.78246306E+02
 20
-1.57945623E+02
 11
1.81427108E+02
 21
-1.52436314E+02
  0
LINE
  8
0
 62
7
 10
1.78852524E+02
 20
-1.58295623E+02
 11
1.82033325E+02
 21
-1.52786314E+02
  0
LINE
  8
0
  6
CENTER
 62
2
 10
1.80139816E+02
 20
-6.68592834E+01
 11
1.80139816E+02
 21
-1.90619153E+02
  0
LINE
  8
0
  6
CENTER
 62
2
 10
1.78889816E+02
 20
-9.17563858E+01
 11
1.78889816E+02
 21
-8.32937164E+01
  0
LINE
  8
0
 62
7
 10
1.74889816E+02
 20
-7.03687057E+01
 11
1.85389816E+02
 21
-7.03687057E+01
  0
LINE
  8
0
 62
7
 10
1.85389816E+02
 20
-7.03687057E+01
 11
1.85389816E+02
 21
-1.45368706E+02
  0
LINE
  8
0
 62
7
 10
1.74889816E+02
 20
-7.03687057E+01
 11
1.74889816E+02
 21
-1.45368706E+02
  0
LINE
  8
0
 62
7
 10
1.74889816E+02
 20
-1.45368706E+02
 11
1.85389816E+02
 21
-1.45368706E+02
  0
LINE
  8
0
  6
CENTER
 62
2
 10
1.76884041E+02
 20
-1.74365967E+02
 11
1.84103401E+02
 21
-1.74365967E+02
  0
LINE
  8
0
 62
7
 10
1.85389816E+02
 20
-1.88365967E+02
 11
1.74889816E+02
 21
-1.88365967E+02
  0
LINE
  8
0
 62
7
 10
1.85389816E+02
 20
-1.45368706E+02
 11
1.85389816E+02
 21
-1.88365967E+02
  0
LINE
  8
0
 62
7
 10
1.74889816E+02
 20
-1.88365967E+02
 11
1.74889816E+02
 21
-1.45368706E+02
  0
LINE
  8
0
  6
CENTER
 62
2
 10
1.74883717E+02
 20
-8.78687057E+01
 11
1.83046394E+02
 21
-8.78687057E+01
  0
LINE
  8
0
  6
CENTER
 62
2
 10
1.81089817E+02
 20
-5.48824310E+01
 11
1.81089817E+02
 21
-7.18462601E+01
  0
LINE
  8
0
 62
7
 10
1.77089817E+02
 20
-6.96687088E+01
 11
1.85089817E+02
 21
-6.96687088E+01
  0
LINE
  8
0
 62
7
 10
1.84789814E+02
 20
-6.93687117E+01
 11
1.85089814E+02
 21
-6.96687110E+01
  0
LINE
  8
0
 62
7
 10
1.77089816E+02
 20
-6.96687110E+01
 11
1.77389815E+02
 21
-6.93687117E+01
  0
LINE
  8
0
 62
7
 10
1.77089817E+02
 20
-7.03687057E+01
 11
1.77089817E+02
 21
-6.96687088E+01
  0
LINE
  8
0
 62
7
 10
1.85089817E+02
 20
-7.03687057E+01
 11
1.85089817E+02
 21
-6.96687088E+01
  0
LINE
  8
0
 62
7
 10
1.77389816E+02
 20
-6.93687057E+01
 11
1.84789816E+02
 21
-6.93687057E+01
  0
LINE
  8
0
 62
7
 10
1.84589818E+02
 20
-6.88687112E+01
 11
1.84089818E+02
 21
-6.93687117E+01
  0
LINE
  8
0
 62
7
 10
1.79839817E+02
 20
-6.36637115E+01
 11
1.79839817E+02
 21
-6.63687134E+01
  0
LINE
  8
0
 62
7
 10
1.77589817E+02
 20
-6.88687134E+01
 11
1.77589817E+02
 21
-6.68687134E+01
  0
LINE
  8
0
 62
7
 10
1.78589817E+02
 20
-5.91637115E+01
 11
1.78589817E+02
 21
-6.31637115E+01
  0
LINE
  8
0
 62
7
 10
1.79089818E+02
 20
-6.36637090E+01
 11
1.78589817E+02
 21
-6.31637085E+01
  0
LINE
  8
0
 62
7
 10
1.78589812E+02
 20
-5.91637096E+01
 11
1.79089813E+02
 21
-5.86637091E+01
  0
LINE
  8
0
 62
7
 10
1.77589811E+02
 20
-6.68687091E+01
 11
1.78089811E+02
 21
-6.63687085E+01
  0
LINE
  8
0
 62
7
 10
1.77589816E+02
 20
-6.88687058E+01
 11
1.78089817E+02
 21
-6.93687063E+01
  0
LINE
  8
0
 62
7
 10
1.83589817E+02
 20
-5.91637115E+01
 11
1.83589817E+02
 21
-6.31637115E+01
  0
LINE
  8
0
 62
7
 10
1.83589817E+02
 20
-5.91637096E+01
 11
1.83089817E+02
 21
-5.86637091E+01
  0
LINE
  8
0
 62
7
 10
1.83589812E+02
 20
-6.31637085E+01
 11
1.83089811E+02
 21
-6.36637090E+01
  0
LINE
  8
0
 62
7
 10
1.84589818E+02
 20
-6.68687091E+01
 11
1.84089818E+02
 21
-6.63687085E+01
  0
LINE
  8
0
 62
7
 10
1.82339817E+02
 20
-6.36637115E+01
 11
1.82339817E+02
 21
-6.63687134E+01
  0
LINE
  8
0
 62
7
 10
1.84589817E+02
 20
-6.88687134E+01
 11
1.84589817E+02
 21
-6.68687134E+01
  0
LINE
  8
0
 62
7
 10
1.84089817E+02
 20
-6.63687134E+01
 11
1.78089817E+02
 21
-6.63687134E+01
  0
LINE
  8
0
 62
7
 10
1.79089817E+02
 20
-6.36637115E+01
 11
1.83089817E+02
 21
-6.36637115E+01
  0
LINE
  8
0
 62
7
 10
1.83089817E+02
 20
-5.86637115E+01
 11
1.79089817E+02
 21
-5.86637115E+01
  0
LINE
  8
0
 62
7
 10
1.91850230E+02
 20
-1.61665621E+02
 11
1.96035620E+02
 21
-1.54416313E+02
  0
LINE
  8
0
 62
7
 10
1.91244012E+02
 20
-1.61315621E+02
 11
1.95429402E+02
 21
-1.54066313E+02
  0
LINE
  8
0
  6
CENTER
 62
2
 10
1.86938747E+02
 20
-1.80365967E+02
 11
2.00561058E+02
 21
-1.80365967E+02
  0
LINE
  8
0
  6
CENTER
 62
2
 10
1.86938747E+02
 20
-8.73687057E+01
 11
2.00451077E+02
 21
-8.73687057E+01
  0
LINE
  8
0
 62
7
 10
1.93639816E+02
 20
-8.53687057E+01
 11
1.89852459E+02
 21
-8.53687057E+01
  0
LINE
  8
0
 62
7
 10
1.93639816E+02
 20
-8.53687057E+01
 11
1.93639816E+02
 21
-8.98687057E+01
  0
LINE
  8
0
 62
7
 10
1.89639816E+02
 20
-8.58376617E+01
 11
1.89639816E+02
 21
-8.88997498E+01
  0
LINE
  8
0
 62
7
 10
1.90162159E+02
 20
-8.98687057E+01
 11
1.93639816E+02
 21
-8.98687057E+01
  0
LINE
  8
0
 62
7
 10
1.85889816E+02
 20
-7.03687057E+01
 11
2.01389816E+02
 21
-7.03687057E+01
  0
LINE
  8
0
 62
7
 10
1.85889816E+02
 20
-7.03687057E+01
 11
1.85889816E+02
 21
-1.45368706E+02
  0
LINE
  8
0
 62
7
 10
2.01389816E+02
 20
-7.03687057E+01
 11
2.01389816E+02
 21
-1.45368706E+02
  0
LINE
  8
0
 62
7
 10
1.85889816E+02
 20
-1.45368706E+02
 11
2.01389816E+02
 21
-1.45368706E+02
  0
LINE
  8
0
  6
CENTER
 62
2
 10
1.92383492E+02
 20
-1.82665967E+02
 11
1.94898621E+02
 21
-1.82665967E+02
  0
LINE
  8
0
 62
7
 10
1.91639816E+02
 20
-1.76615967E+02
 11
1.91639816E+02
 21
-1.84115967E+02
  0
LINE
  8
0
 62
7
 10
1.95639816E+02
 20
-1.76615967E+02
 11
1.95639816E+02
 21
-1.84115967E+02
  0
LINE
  8
0
 62
7
 10
1.91939816E+02
 20
-1.79865967E+02
 11
1.95339817E+02
 21
-1.79865967E+02
  0
LINE
  8
0
 62
7
 10
2.01389816E+02
 20
-1.88365967E+02
 11
1.85889816E+02
 21
-1.88365967E+02
  0
LINE
  8
0
 62
7
 10
2.01389816E+02
 20
-1.45368706E+02
 11
2.01389816E+02
 21
-1.88365967E+02
  0
LINE
  8
0
 62
7
 10
1.85889816E+02
 20
-1.88365967E+02
 11
1.85889816E+02
 21
-1.45368706E+02
  0
LINE
  8
0
  6
CENTER
 62
2
 10
1.93639816E+02
 20
-6.54435577E+01
 11
1.93639816E+02
 21
-1.90619153E+02
  0
LINE
  8
0
 62
7
 10
1.97639816E+02
 20
-5.86637115E+01
 11
1.93639816E+02
 21
-5.86637115E+01
  0
LINE
  8
0
 62
7
 10
1.93639816E+02
 20
-6.36637115E+01
 11
1.97639816E+02
 21
-6.36637115E+01
  0
LINE
  8
0
 62
7
 10
1.98639816E+02
 20
-6.63687134E+01
 11
1.92639816E+02
 21
-6.63687134E+01
  0
LINE
  8
0
 62
7
 10
1.99139816E+02
 20
-6.88687134E+01
 11
1.99139816E+02
 21
-6.68687134E+01
  0
LINE
  8
0
 62
7
 10
1.96889816E+02
 20
-6.36637115E+01
 11
1.96889816E+02
 21
-6.63687134E+01
  0
LINE
  8
0
 62
7
 10
1.99139814E+02
 20
-6.68687118E+01
 11
1.98639813E+02
 21
-6.63687112E+01
  0
LINE
  8
0
 62
7
 10
1.98139816E+02
 20
-6.31637085E+01
 11
1.97639815E+02
 21
-6.36637090E+01
  0
LINE
  8
0
 62
7
 10
1.98139816E+02
 20
-5.91637042E+01
 11
1.97639820E+02
 21
-5.86637091E+01
  0
LINE
  8
0
 62
7
 10
1.98139816E+02
 20
-5.91637115E+01
 11
1.98139816E+02
 21
-6.31637115E+01
  0
LINE
  8
0
 62
7
 10
1.92139815E+02
 20
-6.88687112E+01
 11
1.92639815E+02
 21
-6.93687117E+01
  0
LINE
  8
0
 62
7
 10
1.92139815E+02
 20
-6.68687091E+01
 11
1.92639815E+02
 21
-6.63687085E+01
  0
LINE
  8
0
 62
7
 10
1.93139816E+02
 20
-5.91637096E+01
 11
1.93639816E+02
 21
-5.86637091E+01
  0
LINE
  8
0
 62
7
 10
1.93639811E+02
 20
-6.36637090E+01
 11
1.93139816E+02
 21
-6.31637139E+01
  0
LINE
  8
0
 62
7
 10
1.93139816E+02
 20
-5.91637115E+01
 11
1.93139816E+02
 21
-6.31637115E+01
  0
LINE
  8
0
 62
7
 10
1.92139816E+02
 20
-6.88687134E+01
 11
1.92139816E+02
 21
-6.68687134E+01
  0
LINE
  8
0
 62
7
 10
1.94389816E+02
 20
-6.36637115E+01
 11
1.94389816E+02
 21
-6.63687134E+01
  0
LINE
  8
0
 62
7
 10
1.99139817E+02
 20
-6.88687058E+01
 11
1.98639816E+02
 21
-6.93687063E+01
  0
LINE
  8
0
 62
7
 10
1.91939816E+02
 20
-6.93687057E+01
 11
1.99339817E+02
 21
-6.93687057E+01
  0
LINE
  8
0
 62
7
 10
1.99639816E+02
 20
-7.03687057E+01
 11
1.99639816E+02
 21
-6.96687088E+01
  0
LINE
  8
0
 62
7
 10
1.91639816E+02
 20
-7.03687057E+01
 11
1.91639816E+02
 21
-6.96687088E+01
  0
LINE
  8
0
 62
7
 10
1.91639817E+02
 20
-6.96687083E+01
 11
1.91939816E+02
 21
-6.93687090E+01
  0
LINE
  8
0
 62
7
 10
1.99339815E+02
 20
-6.93687090E+01
 11
1.99639814E+02
 21
-6.96687083E+01
  0
LINE
  8
0
 62
7
 10
1.91639816E+02
 20
-6.96687088E+01
 11
1.99639816E+02
 21
-6.96687088E+01
  0
LINE
  8
0
  6
CENTER
 62
2
 10
1.95639816E+02
 20
-5.48824310E+01
 11
1.95639816E+02
 21
-7.18462601E+01
  0
LINE
  8
0
 62
7
 10
2.07850230E+02
 20
-1.61665622E+02
 11
2.12035620E+02
 21
-1.54416313E+02
  0
LINE
  8
0
 62
7
 10
2.07244012E+02
 20
-1.61315621E+02
 11
2.11429402E+02
 21
-1.54066313E+02
  0
LINE
  8
0
  6
CENTER
 62
2
 10
2.02938747E+02
 20
-1.80365967E+02
 11
2.16561058E+02
 21
-1.80365967E+02
  0
LINE
  8
0
  6
CENTER
 62
2
 10
2.02938747E+02
 20
-8.73687057E+01
 11
2.16451077E+02
 21
-8.73687057E+01
  0
LINE
  8
0
 62
7
 10
2.09639816E+02
 20
-8.53687057E+01
 11
2.05852459E+02
 21
-8.53687057E+01
  0
LINE
  8
0
 62
7
 10
2.09639816E+02
 20
-8.53687057E+01
 11
2.09639816E+02
 21
-8.98687057E+01
  0
LINE
  8
0
 62
7
 10
2.05639816E+02
 20
-8.58376617E+01
 11
2.05639816E+02
 21
-8.88997498E+01
  0
LINE
  8
0
 62
7
 10
2.06162159E+02
 20
-8.98687057E+01
 11
2.09639816E+02
 21
-8.98687057E+01
  0
LINE
  8
0
 62
7
 10
2.01889816E+02
 20
-7.03687057E+01
 11
2.17389816E+02
 21
-7.03687057E+01
  0
LINE
  8
0
 62
7
 10
2.01889816E+02
 20
-7.03687057E+01
 11
2.01889816E+02
 21
-1.45368706E+02
  0
LINE
  8
0
 62
7
 10
2.17389816E+02
 20
-7.03687057E+01
 11
2.17389816E+02
 21
-1.45368706E+02
  0
LINE
  8
0
 62
7
 10
2.01889816E+02
 20
-1.45368706E+02
 11
2.17389816E+02
 21
-1.45368706E+02
  0
LINE
  8
0
  6
CENTER
 62
2
 10
2.08383492E+02
 20
-1.82665967E+02
 11
2.10898621E+02
 21
-1.82665967E+02
  0
LINE
  8
0
 62
7
 10
2.07639816E+02
 20
-1.76615967E+02
 11
2.07639816E+02
 21
-1.84115967E+02
  0
LINE
  8
0
 62
7
 10
2.11639816E+02
 20
-1.76615967E+02
 11
2.11639816E+02
 21
-1.84115967E+02
  0
LINE
  8
0
 62
7
 10
2.07939816E+02
 20
-1.79865967E+02
 11
2.11339817E+02
 21
-1.79865967E+02
  0
LINE
  8
0
 62
7
 10
2.17389816E+02
 20
-1.88365967E+02
 11
2.01889816E+02
 21
-1.88365967E+02
  0
LINE
  8
0
 62
7
 10
2.17389816E+02
 20
-1.45368706E+02
 11
2.17389816E+02
 21
-1.88365967E+02
  0
LINE
  8
0
 62
7
 10
2.01889816E+02
 20
-1.88365967E+02
 11
2.01889816E+02
 21
-1.45368706E+02
  0
LINE
  8
0
  6
CENTER
 62
2
 10
2.09639816E+02
 20
-6.54435577E+01
 11
2.09639816E+02
 21
-1.90619153E+02
  0
LINE
  8
0
 62
7
 10
2.13639816E+02
 20
-5.86637115E+01
 11
2.09639816E+02
 21
-5.86637115E+01
  0
LINE
  8
0
 62
7
 10
2.09639816E+02
 20
-6.36637115E+01
 11
2.13639816E+02
 21
-6.36637115E+01
  0
LINE
  8
0
 62
7
 10
2.14639816E+02
 20
-6.63687134E+01
 11
2.08639816E+02
 21
-6.63687134E+01
  0
LINE
  8
0
 62
7
 10
2.15139816E+02
 20
-6.88687134E+01
 11
2.15139816E+02
 21
-6.68687134E+01
  0
LINE
  8
0
 62
7
 10
2.12889816E+02
 20
-6.36637115E+01
 11
2.12889816E+02
 21
-6.63687134E+01
  0
LINE
  8
0
 62
7
 10
2.15139817E+02
 20
-6.68687091E+01
 11
2.14639817E+02
 21
-6.63687085E+01
  0
LINE
  8
0
 62
7
 10
2.14139814E+02
 20
-6.31637112E+01
 11
2.13639813E+02
 21
-6.36637117E+01
  0
LINE
  8
0
 62
7
 10
2.14139816E+02
 20
-5.91637096E+01
 11
2.13639816E+02
 21
-5.86637091E+01
  0
LINE
  8
0
 62
7
 10
2.14139816E+02
 20
-5.91637115E+01
 11
2.14139816E+02
 21
-6.31637115E+01
  0
LINE
  8
0
 62
7
 10
2.08139813E+02
 20
-6.88687139E+01
 11
2.08639810E+02
 21
-6.93687117E+01
  0
LINE
  8
0
 62
7
 10
2.08139813E+02
 20
-6.68687118E+01
 11
2.08639813E+02
 21
-6.63687112E+01
  0
LINE
  8
0
 62
7
 10
2.09139814E+02
 20
-5.91637123E+01
 11
2.09639814E+02
 21
-5.86637118E+01
  0
LINE
  8
0
 62
7
 10
2.09639812E+02
 20
-6.36637144E+01
 11
2.09139811E+02
 21
-6.31637139E+01
  0
LINE
  8
0
 62
7
 10
2.09139816E+02
 20
-5.91637115E+01
 11
2.09139816E+02
 21
-6.31637115E+01
  0
LINE
  8
0
 62
7
 10
2.08139816E+02
 20
-6.88687134E+01
 11
2.08139816E+02
 21
-6.68687134E+01
  0
LINE
  8
0
 62
7
 10
2.10389816E+02
 20
-6.36637115E+01
 11
2.10389816E+02
 21
-6.63687134E+01
  0
LINE
  8
0
 62
7
 10
2.15139815E+02
 20
-6.88687085E+01
 11
2.14639814E+02
 21
-6.93687090E+01
  0
LINE
  8
0
 62
7
 10
2.07939816E+02
 20
-6.93687057E+01
 11
2.15339817E+02
 21
-6.93687057E+01
  0
LINE
  8
0
 62
7
 10
2.15639816E+02
 20
-7.03687057E+01
 11
2.15639816E+02
 21
-6.96687088E+01
  0
LINE
  8
0
 62
7
 10
2.07639816E+02
 20
-7.03687057E+01
 11
2.07639816E+02
 21
-6.96687088E+01
  0
LINE
  8
0
 62
7
 10
2.07639815E+02
 20
-6.96687110E+01
 11
2.07939819E+02
 21
-6.93687063E+01
  0
LINE
  8
0
 62
7
 10
2.15339819E+02
 20
-6.93687063E+01
 11
2.15639818E+02
 21
-6.96687056E+01
  0
LINE
  8
0
 62
7
 10
2.07639816E+02
 20
-6.96687088E+01
 11
2.15639816E+02
 21
-6.96687088E+01
  0
LINE
  8
0
  6
CENTER
 62
2
 10
2.11639816E+02
 20
-5.48824310E+01
 11
2.11639816E+02
 21
-7.18462601E+01
  0
LINE
  8
0
 62
7
 10
2.24744013E+02
 20
-1.61318362E+02
 11
2.28929404E+02
 21
-1.54069054E+02
  0
LINE
  8
0
 62
7
 10
2.25350228E+02
 20
-1.61668361E+02
 11
2.29535619E+02
 21
-1.54419052E+02
  0
LINE
  8
0
 62
7
 10
2.17889816E+02
 20
-6.03714447E+01
 11
2.36389816E+02
 21
-6.03714447E+01
  0
LINE
  8
0
 62
7
 10
2.17889816E+02
 20
-6.03714447E+01
 11
2.17889816E+02
 21
-1.88368707E+02
  0
LINE
  8
0
 62
7
 10
2.36389816E+02
 20
-6.03714447E+01
 11
2.36389816E+02
 21
-1.88368707E+02
  0
LINE
  8
0
 62
7
 10
2.17889816E+02
 20
-1.45371445E+02
 11
2.36389816E+02
 21
-1.45371445E+02
  0
LINE
  8
0
 62
7
 10
2.29139816E+02
 20
-8.88830414E+01
 11
2.29139816E+02
 21
-8.18511124E+01
  0
LINE
  8
0
 62
7
 10
2.25139816E+02
 20
-8.88830414E+01
 11
2.25139816E+02
 21
-8.18511124E+01
  0
LINE
  8
0
 62
7
 10
2.29853119E+02
 20
-8.83670807E+01
 11
2.29139816E+02
 21
-8.83670807E+01
  0
LINE
  8
0
 62
7
 10
2.24426514E+02
 20
-8.83670807E+01
 11
2.25139816E+02
 21
-8.83670807E+01
  0
LINE
  8
0
  6
CENTER
 62
2
 10
2.19672302E+02
 20
-8.53670807E+01
 11
2.34295586E+02
 21
-8.53670807E+01
  0
LINE
  8
0
 62
7
 10
2.36389816E+02
 20
-1.88368707E+02
 11
2.17889816E+02
 21
-1.88368707E+02
  0
LINE
  8
0
  6
CENTER
 62
2
 10
2.19860977E+02
 20
-1.80368706E+02
 11
2.34867409E+02
 21
-1.80368706E+02
  0
LINE
  8
0
 62
7
 10
2.23652695E+02
 20
-1.80868706E+02
 11
2.30626938E+02
 21
-1.80868706E+02
  0
LINE
  8
0
 62
7
 10
2.29139816E+02
 20
-4.86664429E+01
 11
2.25139816E+02
 21
-4.86664429E+01
  0
LINE
  8
0
 62
7
 10
2.25139816E+02
 20
-5.36664429E+01
 11
2.29139816E+02
 21
-5.36664429E+01
  0
LINE
  8
0
 62
7
 10
2.30139816E+02
 20
-5.63714447E+01
 11
2.24139816E+02
 21
-5.63714447E+01
  0
LINE
  8
0
 62
7
 10
2.30639816E+02
 20
-5.88714447E+01
 11
2.30639816E+02
 21
-5.68714447E+01
  0
LINE
  8
0
 62
7
 10
2.28389816E+02
 20
-5.36664429E+01
 11
2.28389816E+02
 21
-5.63714447E+01
  0
LINE
  8
0
 62
7
 10
2.30639812E+02
 20
-5.68714498E+01
 11
2.30139814E+02
 21
-5.63714520E+01
  0
LINE
  8
0
 62
7
 10
2.29639811E+02
 20
-5.31664546E+01
 11
2.29139811E+02
 21
-5.36664551E+01
  0
LINE
  8
0
 62
7
 10
2.29639811E+02
 20
-4.91664504E+01
 11
2.29139813E+02
 21
-4.86664525E+01
  0
LINE
  8
0
 62
7
 10
2.29639816E+02
 20
-4.91664429E+01
 11
2.29639816E+02
 21
-5.31664429E+01
  0
LINE
  8
0
 62
7
 10
2.23639818E+02
 20
-5.88714438E+01
 11
2.24139819E+02
 21
-5.93714444E+01
  0
LINE
  8
0
 62
7
 10
2.23639821E+02
 20
-5.68714444E+01
 11
2.24139811E+02
 21
-5.63714547E+01
  0
LINE
  8
0
 62
7
 10
2.24639809E+02
 20
-4.91664531E+01
 11
2.25139809E+02
 21
-4.86664525E+01
  0
LINE
  8
0
 62
7
 10
2.25139817E+02
 20
-5.36664444E+01
 11
2.24639819E+02
 21
-5.31664465E+01
  0
LINE
  8
0
 62
7
 10
2.24639816E+02
 20
-4.91664429E+01
 11
2.24639816E+02
 21
-5.31664429E+01
  0
LINE
  8
0
 62
7
 10
2.23639816E+02
 20
-5.88714447E+01
 11
2.23639816E+02
 21
-5.68714447E+01
  0
LINE
  8
0
 62
7
 10
2.25889816E+02
 20
-5.36664429E+01
 11
2.25889816E+02
 21
-5.63714447E+01
  0
LINE
  8
0
 62
7
 10
2.30639812E+02
 20
-5.88714519E+01
 11
2.30139812E+02
 21
-5.93714525E+01
  0
LINE
  8
0
 62
7
 10
2.23439819E+02
 20
-5.93714447E+01
 11
2.30839813E+02
 21
-5.93714447E+01
  0
LINE
  8
0
 62
7
 10
2.31139816E+02
 20
-6.03714447E+01
 11
2.31139816E+02
 21
-5.96714478E+01
  0
LINE
  8
0
 62
7
 10
2.23139816E+02
 20
-6.03714447E+01
 11
2.23139816E+02
 21
-5.96714478E+01
  0
LINE
  8
0
 62
7
 10
2.23139810E+02
 20
-5.96714517E+01
 11
2.23439814E+02
 21
-5.93714471E+01
  0
LINE
  8
0
 62
7
 10
2.30839816E+02
 20
-5.93714498E+01
 11
2.31139815E+02
 21
-5.96714490E+01
  0
LINE
  8
0
 62
7
 10
2.23139816E+02
 20
-5.96714478E+01
 11
2.31139816E+02
 21
-5.96714478E+01
  0
LINE
  8
0
  6
CENTER
 62
2
 10
2.27139816E+02
 20
-4.48851624E+01
 11
2.27139816E+02
 21
-1.92661745E+02
  0
LINE
  8
0
  6
CENTER
 62
2
 10
2.14639816E+02
 20
-1.41868706E+02
 11
2.39639816E+02
 21
-1.41868706E+02
  0
LINE
  8
0
  6
CENTER
 62
2
 10
1.61639816E+02
 20
-7.43687057E+01
 11
2.39639816E+02
 21
-7.43687057E+01
  0
LINE
  8
0
  6
CENTER
 62
2
 10
1.61639816E+02
 20
-1.41865967E+02
 11
2.19639816E+02
 21
-1.41865967E+02
  0
LINE
  8
0
 62
7
 10
1.74389816E+02
 20
-8.03687057E+01
 11
1.74639816E+02
 21
-8.03687057E+01
  0
LINE
  8
0
 62
7
 10
1.74639816E+02
 20
-9.13687057E+01
 11
1.74389816E+02
 21
-9.13687057E+01
  0
LINE
  8
0
 62
7
 10
1.74389816E+02
 20
-9.75687103E+01
 11
1.74639816E+02
 21
-9.75687103E+01
  0
LINE
  8
0
 62
7
 10
1.74389816E+02
 20
-1.37668705E+02
 11
1.74639816E+02
 21
-1.37668705E+02
  0
LINE
  8
0
 62
7
 10
1.74639816E+02
 20
-8.03687057E+01
 11
1.74889816E+02
 21
-8.03687057E+01
  0
LINE
  8
0
 62
7
 10
1.74889816E+02
 20
-9.13687057E+01
 11
1.74639816E+02
 21
-9.13687057E+01
  0
LINE
  8
0
 62
7
 10
1.74639816E+02
 20
-9.75687103E+01
 11
1.74889816E+02
 21
-9.75687103E+01
  0
LINE
  8
0
 62
7
 10
1.74639816E+02
 20
-1.37668705E+02
 11
1.74889816E+02
 21
-1.37668705E+02
  0
LINE
  8
0
 62
7
 10
1.85389816E+02
 20
-8.03687057E+01
 11
1.85639816E+02
 21
-8.03687057E+01
  0
LINE
  8
0
 62
7
 10
1.85639816E+02
 20
-9.13687057E+01
 11
1.85389816E+02
 21
-9.13687057E+01
  0
LINE
  8
0
 62
7
 10
1.85389816E+02
 20
-9.75687103E+01
 11
1.85639816E+02
 21
-9.75687103E+01
  0
LINE
  8
0
 62
7
 10
1.85389816E+02
 20
-1.37668705E+02
 11
1.85639816E+02
 21
-1.37668705E+02
  0
LINE
  8
0
 62
7
 10
1.85639816E+02
 20
-8.03687057E+01
 11
1.85889816E+02
 21
-8.03687057E+01
  0
LINE
  8
0
 62
7
 10
1.85889816E+02
 20
-9.13687057E+01
 11
1.85639816E+02
 21
-9.13687057E+01
  0
LINE
  8
0
 62
7
 10
1.85639816E+02
 20
-9.75687103E+01
 11
1.85889816E+02
 21
-9.75687103E+01
  0
LINE
  8
0
 62
7
 10
1.85639816E+02
 20
-1.37668705E+02
 11
1.85889816E+02
 21
-1.37668705E+02
  0
LINE
  8
0
 62
7
 10
2.01389816E+02
 20
-8.03687057E+01
 11
2.01639816E+02
 21
-8.03687057E+01
  0
LINE
  8
0
 62
7
 10
2.01639816E+02
 20
-9.13687057E+01
 11
2.01389816E+02
 21
-9.13687057E+01
  0
LINE
  8
0
 62
7
 10
2.01389816E+02
 20
-9.75687103E+01
 11
2.01639816E+02
 21
-9.75687103E+01
  0
LINE
  8
0
 62
7
 10
2.01389816E+02
 20
-1.37668705E+02
 11
2.01639816E+02
 21
-1.37668705E+02
  0
LINE
  8
0
 62
7
 10
2.01639816E+02
 20
-8.03687057E+01
 11
2.01889816E+02
 21
-8.03687057E+01
  0
LINE
  8
0
 62
7
 10
2.01889816E+02
 20
-9.13687057E+01
 11
2.01639816E+02
 21
-9.13687057E+01
  0
LINE
  8
0
 62
7
 10
2.01639816E+02
 20
-9.75687103E+01
 11
2.01889816E+02
 21
-9.75687103E+01
  0
LINE
  8
0
 62
7
 10
2.01639816E+02
 20
-1.37668705E+02
 11
2.01889816E+02
 21
-1.37668705E+02
  0
LINE
  8
0
 62
7
 10
2.17389816E+02
 20
-8.03687057E+01
 11
2.17639816E+02
 21
-8.03687057E+01
  0
LINE
  8
0
 62
7
 10
2.17639816E+02
 20
-9.13687057E+01
 11
2.17389816E+02
 21
-9.13687057E+01
  0
LINE
  8
0
 62
7
 10
2.17389816E+02
 20
-9.75687103E+01
 11
2.17639816E+02
 21
-9.75687103E+01
  0
LINE
  8
0
 62
7
 10
2.17389816E+02
 20
-1.37668705E+02
 11
2.17639816E+02
 21
-1.37668705E+02
  0
LINE
  8
0
 62
7
 10
2.17639816E+02
 20
-8.03687057E+01
 11
2.17889816E+02
 21
-8.03687057E+01
  0
LINE
  8
0
 62
7
 10
2.17889816E+02
 20
-9.13687057E+01
 11
2.17639816E+02
 21
-9.13687057E+01
  0
LINE
  8
0
 62
7
 10
2.17639816E+02
 20
-9.75687103E+01
 11
2.17889816E+02
 21
-9.75687103E+01
  0
LINE
  8
0
 62
7
 10
2.17639816E+02
 20
-1.37668705E+02
 11
2.17889816E+02
 21
-1.37668705E+02
  0
LINE
  8
0
 62
7
 10
1.48139816E+02
 20
-1.97365967E+02
 11
1.63639816E+02
 21
-1.97365967E+02
  0
LINE
  8
0
 62
7
 10
1.63639816E+02
 20
-7.03659668E+01
 11
1.63639816E+02
 21
-1.97365967E+02
  0
LINE
  8
0
 62
7
 10
1.48139816E+02
 20
-1.88365967E+02
 11
1.57139816E+02
 21
-1.88365967E+02
  0
LINE
  8
0
 62
7
 10
1.48139816E+02
 20
-1.19865967E+02
 11
1.48139816E+02
 21
-1.97365967E+02
  0
LINE
  8
0
 62
7
 10
1.48139816E+02
 20
-7.03659668E+01
 11
1.63639816E+02
 21
-7.03659668E+01
  0
LINE
  8
0
 62
7
 10
1.48139816E+02
 20
-1.20565964E+02
 11
1.49139816E+02
 21
-1.20565964E+02
  0
LINE
  8
0
 62
7
 10
1.48139816E+02
 20
-7.03659668E+01
 11
1.48139816E+02
 21
-9.45659637E+01
  0
LINE
  8
0
 62
7
 10
2.52139816E+02
 20
-1.20565964E+02
 11
2.52139816E+02
 21
-1.97373227E+02
  0
LINE
  8
0
 62
7
 10
2.52139816E+02
 20
-7.03632278E+01
 11
2.52139816E+02
 21
-9.45632248E+01
  0
LINE
  8
0
 62
7
 10
2.52139816E+02
 20
-7.03632278E+01
 11
2.36639816E+02
 21
-7.03632278E+01
  0
LINE
  8
0
 62
7
 10
2.52139816E+02
 20
-1.88363227E+02
 11
2.43139816E+02
 21
-1.88363227E+02
  0
LINE
  8
0
 62
7
 10
2.52139816E+02
 20
-1.97373227E+02
 11
2.36639816E+02
 21
-1.97373227E+02
  0
LINE
  8
0
 62
7
 10
2.52739815E+02
 20
-9.45659637E+01
 11
2.51139816E+02
 21
-9.45659637E+01
  0
LINE
  8
0
 62
7
 10
2.51139816E+02
 20
-9.45659637E+01
 11
2.51139816E+02
 21
-1.20565964E+02
  0
LINE
  8
0
 62
7
 10
2.52739815E+02
 20
-1.20565964E+02
 11
2.51139816E+02
 21
-1.20565964E+02
  0
LINE
  8
0
 62
7
 10
2.36639816E+02
 20
-7.03632278E+01
 11
2.36639816E+02
 21
-1.97373227E+02
  0
LINE
  8
0
 62
7
 10
2.52739815E+02
 20
-9.45659637E+01
 11
2.52739815E+02
 21
-1.20565964E+02
  0
LINE
  8
0
 62
7
 10
2.43139816E+02
 20
-1.97373227E+02
 11
2.43139816E+02
 21
-1.88363227E+02
  0
LINE
  8
0
 62
7
 10
1.57139816E+02
 20
-1.97365967E+02
 11
1.57139816E+02
 21
-1.88365967E+02
  0
LINE
  8
0
 62
7
 10
1.49139816E+02
 20
-9.45659637E+01
 11
1.49139816E+02
 21
-1.20565964E+02
  0
LINE
  8
0
 62
7
 10
1.48139816E+02
 20
-9.45659637E+01
 11
1.49139816E+02
 21
-9.45659637E+01
  0
LINE
  8
0
 62
7
 10
1.22539816E+02
 20
-1.60115967E+02
 11
1.22539816E+02
 21
-1.65615967E+02
  0
LINE
  8
0
 62
7
 10
1.25539816E+02
 20
-1.60115967E+02
 11
1.22539816E+02
 21
-1.60115967E+02
  0
LINE
  8
0
 62
7
 10
1.25539816E+02
 20
-1.65615967E+02
 11
1.22539816E+02
 21
-1.65615967E+02
  0
LINE
  8
0
  6
CENTER
 62
2
 10
1.25929657E+02
 20
-1.62865967E+02
 11
1.22134348E+02
 21
-1.62865967E+02
  0
LINE
  8
0
 62
7
 10
1.22539816E+02
 20
-1.05115967E+02
 11
1.22539816E+02
 21
-1.10615967E+02
  0
LINE
  8
0
 62
7
 10
1.25539816E+02
 20
-1.05115967E+02
 11
1.22539816E+02
 21
-1.05115967E+02
  0
LINE
  8
0
 62
7
 10
1.25539816E+02
 20
-1.10615967E+02
 11
1.22539816E+02
 21
-1.10615967E+02
  0
LINE
  8
0
  6
CENTER
 62
2
 10
1.25929657E+02
 20
-1.07865967E+02
 11
1.22134348E+02
 21
-1.07865967E+02
  0
LINE
  8
0
 62
7
 10
1.22539816E+02
 20
-9.61159668E+01
 11
1.22539816E+02
 21
-1.01615967E+02
  0
LINE
  8
0
 62
7
 10
1.25539816E+02
 20
-9.61159668E+01
 11
1.22539816E+02
 21
-9.61159668E+01
  0
LINE
  8
0
 62
7
 10
1.25539816E+02
 20
-1.01615967E+02
 11
1.22539816E+02
 21
-1.01615967E+02
  0
LINE
  8
0
  6
CENTER
 62
2
 10
1.25929657E+02
 20
-9.88659668E+01
 11
1.22134348E+02
 21
-9.88659668E+01
  0
LINE
  8
0
 62
7
 10
1.25539816E+02
 20
-1.65865967E+02
 11
1.25539816E+02
 21
-9.58659668E+01
  0
LINE
  8
0
 62
7
 10
1.25539816E+02
 20
-9.58659668E+01
 11
1.49139816E+02
 21
-9.58659668E+01
  0
LINE
  8
0
 62
7
 10
1.25539816E+02
 20
-1.65865967E+02
 11
1.48139816E+02
 21
-1.65865967E+02
  0
LINE
  8
0
 62
7
 10
1.49139816E+02
 20
-1.19865967E+02
 11
1.48139816E+02
 21
-1.19865967E+02
  0
LINE
  8
0
 62
7
 10
1.27139816E+02
 20
-1.65865967E+02
 11
1.27139816E+02
 21
-9.58659668E+01
  0
LINE
  8
0
 62
7
 10
2.36639816E+02
 20
-8.03687057E+01
 11
2.36389816E+02
 21
-8.03687057E+01
  0
LINE
  8
0
 62
7
 10
2.36639816E+02
 20
-9.13687057E+01
 11
2.36389816E+02
 21
-9.13687057E+01
  0
LINE
  8
0
 62
7
 10
2.36639816E+02
 20
-9.75687103E+01
 11
2.36389816E+02
 21
-9.75687103E+01
  0
LINE
  8
0
 62
7
 10
1.63639816E+02
 20
-9.75687103E+01
 11
1.63889816E+02
 21
-9.75687103E+01
  0
LINE
  8
0
 62
7
 10
1.63639816E+02
 20
-9.13687057E+01
 11
1.63889816E+02
 21
-9.13687057E+01
  0
LINE
  8
0
 62
7
 10
2.55739815E+02
 20
-9.61159668E+01
 11
2.55739815E+02
 21
-1.01615967E+02
  0
LINE
  8
0
 62
7
 10
2.52739815E+02
 20
-9.61159668E+01
 11
2.55739815E+02
 21
-9.61159668E+01
  0
LINE
  8
0
 62
7
 10
2.52739815E+02
 20
-1.01615967E+02
 11
2.55739815E+02
 21
-1.01615967E+02
  0
LINE
  8
0
 62
7
 10
2.55739815E+02
 20
-1.05115967E+02
 11
2.55739815E+02
 21
-1.10615967E+02
  0
LINE
  8
0
 62
7
 10
2.52739815E+02
 20
-1.05115967E+02
 11
2.55739815E+02
 21
-1.05115967E+02
  0
LINE
  8
0
 62
7
 10
2.52739815E+02
 20
-1.10615967E+02
 11
2.55739815E+02
 21
-1.10615967E+02
  0
LINE
  8
0
 62
7
 10
2.55739815E+02
 20
-1.14115967E+02
 11
2.55739815E+02
 21
-1.19615967E+02
  0
LINE
  8
0
 62
7
 10
2.52739815E+02
 20
-1.14115967E+02
 11
2.55739815E+02
 21
-1.14115967E+02
  0
LINE
  8
0
 62
7
 10
2.52739815E+02
 20
-1.19615967E+02
 11
2.55739815E+02
 21
-1.19615967E+02
  0
LINE
  8
0
  6
CENTER
 62
2
 10
2.48239815E+02
 20
-9.88659668E+01
 11
2.58356178E+02
 21
-9.88659668E+01
  0
LINE
  8
0
  6
CENTER
 62
2
 10
2.48239815E+02
 20
-1.07865967E+02
 11
2.58356178E+02
 21
-1.07865967E+02
  0
LINE
  8
0
  6
CENTER
 62
2
 10
2.48239815E+02
 20
-1.16865967E+02
 11
2.58356178E+02
 21
-1.16865967E+02
  0
LINE
  8
0
  6
CENTER
 62
2
 10
2.47139816E+02
 20
-2.02138293E+02
 11
2.47139816E+02
 21
-1.83613796E+02
  0
LINE
  8
0
  6
CENTER
 62
2
 10
1.53139816E+02
 20
-2.02138293E+02
 11
1.53139816E+02
 21
-1.83613796E+02
  0
CIRCLE
  8
0
 62
7
 10
1.69139816E+02
 20
-1.55365967E+02
 40
2.70000005E+00
  0
CIRCLE
  8
0
 62
7
 10
1.69139816E+02
 20
-1.55365967E+02
 40
3.25000000E+00
  0
CIRCLE
  8
0
 62
7
 10
1.69139816E+02
 20
-1.55365967E+02
 40
3.20000005E+00
  0
CIRCLE
  8
0
 62
2
 10
1.67889816E+02
 20
-8.78687057E+01
 40
2.50000000E+00
  0
CIRCLE
  8
0
 62
7
 10
1.67889816E+02
 20
-8.78687057E+01
 40
2.00000000E+00
  0
CIRCLE
  8
0
 62
7
 10
1.69139816E+02
 20
-1.74365967E+02
 40
2.00000000E+00
  0
CIRCLE
  8
0
 62
2
 10
1.69139816E+02
 20
-1.74365967E+02
 40
2.50000000E+00
  0
CIRCLE
  8
0
 62
7
 10
1.80139816E+02
 20
-1.55365967E+02
 40
2.70000005E+00
  0
CIRCLE
  8
0
 62
7
 10
1.80139816E+02
 20
-1.55365967E+02
 40
3.25000000E+00
  0
CIRCLE
  8
0
 62
7
 10
1.80139816E+02
 20
-1.55365967E+02
 40
3.20000005E+00
  0
CIRCLE
  8
0
 62
2
 10
1.78889816E+02
 20
-8.78687057E+01
 40
2.50000000E+00
  0
CIRCLE
  8
0
 62
7
 10
1.78889816E+02
 20
-8.78687057E+01
 40
2.00000000E+00
  0
CIRCLE
  8
0
 62
7
 10
1.80139816E+02
 20
-1.74365967E+02
 40
2.00000000E+00
  0
CIRCLE
  8
0
 62
2
 10
1.80139816E+02
 20
-1.74365967E+02
 40
2.50000000E+00
  0
CIRCLE
  8
0
 62
7
 10
1.93639816E+02
 20
-1.57865967E+02
 40
4.30000019E+00
  0
CIRCLE
  8
0
 62
7
 10
1.93639816E+02
 20
-1.57865967E+02
 40
4.19999981E+00
  0
CIRCLE
  8
0
 62
7
 10
1.93639816E+02
 20
-1.57865967E+02
 40
3.70000005E+00
  0
CIRCLE
  8
0
 62
2
 10
1.93639816E+02
 20
-8.73687057E+01
 40
4.86399984E+00
  0
CIRCLE
  8
0
 62
7
 10
1.93639816E+02
 20
-8.73687057E+01
 40
4.28299999E+00
  0
CIRCLE
  8
0
 62
7
 10
1.93639816E+02
 20
-1.82665967E+02
 40
8.00000012E-01
  0
CIRCLE
  8
0
 62
7
 10
1.93639816E+02
 20
-1.80365967E+02
 40
4.25000000E+00
  0
ARC
  8
0
 62
7
 10
1.91939816E+02
 20
-1.79565968E+02
 40
3.00000012E-01
 50
1.79999995E+02
 51
2.70000000E+02
  0
ARC
  8
0
 62
7
 10
1.95339817E+02
 20
-1.79565968E+02
 40
3.00000012E-01
 50
2.70000000E+02
 51
0.00000000E+00
  0
ARC
  8
0
 62
7
 10
1.93639816E+02
 20
-1.78365967E+02
 40
2.00000000E+00
 50
0.00000000E+00
 51
1.80000005E+02
  0
CIRCLE
  8
0
 62
2
 10
1.93639816E+02
 20
-1.80365967E+02
 40
4.86399984E+00
  0
CIRCLE
  8
0
 62
7
 10
2.09639816E+02
 20
-1.57865967E+02
 40
4.30000019E+00
  0
CIRCLE
  8
0
 62
7
 10
2.09639816E+02
 20
-1.57865967E+02
 40
4.19999981E+00
  0
CIRCLE
  8
0
 62
7
 10
2.09639816E+02
 20
-1.57865967E+02
 40
3.70000005E+00
  0
CIRCLE
  8
0
 62
2
 10
2.09639816E+02
 20
-8.73687057E+01
 40
4.86399984E+00
  0
CIRCLE
  8
0
 62
7
 10
2.09639816E+02
 20
-8.73687057E+01
 40
4.28299999E+00
  0
CIRCLE
  8
0
 62
7
 10
2.09639816E+02
 20
-1.82665967E+02
 40
8.00000012E-01
  0
CIRCLE
  8
0
 62
7
 10
2.09639816E+02
 20
-1.80365967E+02
 40
4.25000000E+00
  0
ARC
  8
0
 62
7
 10
2.07939816E+02
 20
-1.79565968E+02
 40
3.00000012E-01
 50
1.79999995E+02
 51
2.70000000E+02
  0
ARC
  8
0
 62
7
 10
2.11339817E+02
 20
-1.79565968E+02
 40
3.00000012E-01
 50
2.70000000E+02
 51
0.00000000E+00
  0
ARC
  8
0
 62
7
 10
2.09639816E+02
 20
-1.78365967E+02
 40
2.00000000E+00
 50
0.00000000E+00
 51
1.80000005E+02
  0
CIRCLE
  8
0
 62
2
 10
2.09639816E+02
 20
-1.80365967E+02
 40
4.86399984E+00
  0
CIRCLE
  8
0
 62
7
 10
2.27139816E+02
 20
-1.57868706E+02
 40
3.70000005E+00
  0
CIRCLE
  8
0
 62
7
 10
2.27139816E+02
 20
-1.57868706E+02
 40
4.19999981E+00
  0
CIRCLE
  8
0
 62
7
 10
2.27139816E+02
 20
-1.57868706E+02
 40
4.30000019E+00
  0
CIRCLE
  8
0
 62
2
 10
2.27139816E+02
 20
-8.53670807E+01
 40
4.86399984E+00
  0
CIRCLE
  8
0
 62
7
 10
2.27139816E+02
 20
-8.53670807E+01
 40
4.04500008E+00
  0
CIRCLE
  8
0
 62
2
 10
2.27139816E+02
 20
-1.80368706E+02
 40
4.86399984E+00
  0
CIRCLE
  8
0
 62
7
 10
2.27139816E+02
 20
-1.80368706E+02
 40
4.28299999E+00
  0
ARC
  8
0
 62
7
 10
2.27139816E+02
 20
-1.80868706E+02
 40
3.79999995E+00
 50
4.91710014E+00
 51
1.75082897E+02
  0
ARC
  8
0
 62
7
 10
2.23652695E+02
 20
-1.80568707E+02
 40
3.00000012E-01
 50
1.75082897E+02
 51
2.70000000E+02
  0
ARC
  8
0
 62
7
 10
2.30626938E+02
 20
-1.80568707E+02
 40
3.00000012E-01
 50
2.70000000E+02
 51
4.91710014E+00
  0
INSERT
  8
0
  2
ARROW
  6
BYBLOCK
 62
2
 10
1.53139816E+02
 20
2.81766968E+01
 41
1.00000000E+00
 42
1.00000000E+00
 50
0.00000000E+00
  0
LINE
  8
0
 62
2
 10
1.53139816E+02
 20
2.81766968E+01
 11
1.53639816E+02
 21
2.81766968E+01
  0
LINE
  8
0
 62
2
 10
2.44639816E+02
 20
2.81766968E+01
 11
1.53139816E+02
 21
2.81766968E+01
  0
TEXT
  8
0
 62
2
 10
1.57053878E+02
 20
2.91766968E+01
 40
6.30000019E+00
  1
P=(L
 41
1.00000000E+00
  7
MONOTXT
  0
TEXT
  8
0
 62
2
 10
1.81909347E+02
 20
2.81923221E+01
 40
3.15000010E+00
  1
1
 41
1.00000000E+00
  7
MONOTXT
  0
TEXT
  8
0
 62
2
 10
1.85403879E+02
 20
2.91766968E+01
 40
6.30000019E+00
  1
+L
 41
1.00000000E+00
  7
MONOTXT
  0
TEXT
  8
0
 62
2
 10
1.97659347E+02
 20
2.81923221E+01
 40
3.15000010E+00
  1
2
 41
1.00000000E+00
  7
MONOTXT
  0
TEXT
  8
0
 62
2
 10
2.01153879E+02
 20
2.91766968E+01
 40
6.30000019E+00
  1
+L
 41
1.00000000E+00
  7
MONOTXT
  0
TEXT
  8
0
 62
2
 10
2.13409348E+02
 20
2.81923221E+01
 40
3.15000010E+00
  1
3
 41
1.00000000E+00
  7
MONOTXT
  0
TEXT
  8
0
 62
2
 10
2.16903880E+02
 20
2.91766968E+01
 40
6.30000019E+00
  1
+21)
 41
1.00000000E+00
  7
MONOTXT
  0
DIMENSION
  8
0
  2
*D1
 10
2.47139816E+02
 20
2.81766968E+01
 11
2.56681550E+02
 21
3.39016969E+01
 13
2.52139816E+02
 23
6.18340416E+01
 14
2.47139816E+02
 24
6.76340408E+01
 50
1.80000000E+02
  0
DIMENSION
  8
0
  2
*D2
 10
1.48139816E+02
 20
2.81766968E+01
 11
1.29897479E+02
 21
3.39016969E+01
 13
1.53139816E+02
 23
6.76340408E+01
 14
1.48139816E+02
 24
6.18340416E+01
 50
1.80000000E+02
  0
DIMENSION
  8
0
  2
*D3
 10
1.63639816E+02
 20
-4.20582428E+01
 11
1.19474880E+02
 21
-3.63332427E+01
 13
1.48139816E+02
 23
-6.88659592E+01
 14
1.63639816E+02
 24
-6.88659592E+01
  0
DIMENSION
  8
0
  2
*D4
 10
1.85639816E+02
 20
-4.20582428E+01
 11
1.72178878E+02
 21
-3.63332427E+01
 13
1.63639816E+02
 23
-6.88659592E+01
 14
1.85639816E+02
 24
-7.88686981E+01
  0
DIMENSION
  8
0
  2
*D5
 10
2.17639816E+02
 20
-4.20582428E+01
 11
1.99178878E+02
 21
-3.63332427E+01
 13
1.85639816E+02
 23
-7.88686981E+01
 14
2.17639816E+02
 24
-7.88686981E+01
  0
DIMENSION
  8
0
  2
*D6
 10
2.36639816E+02
 20
-4.20582428E+01
 11
2.24678878E+02
 21
-3.63332427E+01
 13
2.17639816E+02
 23
-7.88686981E+01
 14
2.36639816E+02
 24
-6.88632202E+01
  0
DIMENSION
  8
0
  2
*D7
 10
2.52139816E+02
 20
-4.20582428E+01
 11
2.53283642E+02
 21
-3.63332427E+01
 13
2.36639816E+02
 23
-6.88632202E+01
 14
2.52139816E+02
 24
-6.88632202E+01
  0
LINE
  8
0
 62
2
 10
1.48139816E+02
 20
-3.03659592E+01
 11
1.48139816E+02
 21
-2.88659592E+01
  0
LINE
  8
0
 62
2
 10
1.48139816E+02
 20
-6.88659592E+01
 11
1.48139816E+02
 21
-3.03659592E+01
  0
LINE
  8
0
 62
2
 10
2.52139816E+02
 20
-3.03659592E+01
 11
2.52139816E+02
 21
-2.88659592E+01
  0
LINE
  8
0
 62
2
 10
2.52139816E+02
 20
-6.88632202E+01
 11
2.52139816E+02
 21
-3.03659592E+01
  0
INSERT
  8
0
  2
ARROW
  6
BYBLOCK
 62
2
 10
1.48139816E+02
 20
-3.03659592E+01
 41
1.00000000E+00
 42
1.00000000E+00
 50
0.00000000E+00
  0
LINE
  8
0
 62
2
 10
1.48139816E+02
 20
-3.03659592E+01
 11
1.48639816E+02
 21
-3.03659592E+01
  0
INSERT
  8
0
  2
ARROW
  6
BYBLOCK
 62
2
 10
2.52139816E+02
 20
-3.03659592E+01
 41
1.00000000E+00
 42
1.00000000E+00
 50
1.80000000E+02
  0
LINE
  8
0
 62
2
 10
2.52139816E+02
 20
-3.03659592E+01
 11
2.51639816E+02
 21
-3.03659592E+01
  0
LINE
  8
0
 62
2
 10
1.48139816E+02
 20
-3.03659592E+01
 11
2.52139816E+02
 21
-3.03659592E+01
  0
TEXT
  8
0
 62
2
 10
1.57639816E+02
 20
-2.93659591E+01
 40
6.40000010E+00
  1
L=(L
 41
1.00000000E+00
  7
MONOTXT
  0
TEXT
  8
0
 62
2
 10
1.82889816E+02
 20
-3.03659590E+01
 40
3.20000005E+00
  1
1
 41
1.00000000E+00
  7
MONOTXT
  0
TEXT
  8
0
 62
2
 10
1.86439816E+02
 20
-2.93659591E+01
 40
6.40000010E+00
  1
+L
 41
1.00000000E+00
  7
MONOTXT
  0
TEXT
  8
0
 62
2
 10
1.98889816E+02
 20
-3.03659590E+01
 40
3.20000005E+00
  1
2
 41
1.00000000E+00
  7
MONOTXT
  0
TEXT
  8
0
 62
2
 10
2.02439816E+02
 20
-2.93659591E+01
 40
6.40000010E+00
  1
+L
 41
1.00000000E+00
  7
MONOTXT
  0
TEXT
  8
0
 62
2
 10
2.14889816E+02
 20
-3.03659590E+01
 40
3.20000005E+00
  1
3
 41
1.00000000E+00
  7
MONOTXT
  0
TEXT
  8
0
 62
2
 10
2.18439817E+02
 20
-2.93659591E+01
 40
6.40000010E+00
  1
+31)
 41
1.00000000E+00
  7
MONOTXT
  0
TEXT
  8
0
 62
7
 10
-3.69850268E+02
 20
2.63100000E+02
 40
6.29999924E+00
  1
GME SERIES
 41
1.06382946E+00
  7
MONOTXT
  0
TEXT
  8
0
 62
7
 10
-3.85600561E+02
 20
2.38100000E+02
 40
6.29999924E+00
  1
MODEL:GMEM5A-KL
 41
9.99999697E-01
  7
MONOTXT
  0
TEXT
  8
0
 62
7
 10
3.15499656E+02
 20
2.63100000E+02
 40
6.29999924E+00
  1
Ver. 1.0
 41
1.08108075E+00
  7
MONOTXT
  0
TEXT
  8
0
 62
7
 10
2.87585227E+02
 20
-2.71250000E+02
 40
9.00000000E+00
  1
KOGANEI CORP.
 41
1.04838732E+00
  7
MONOTXT
  0
TEXT
  8
0
 62
7
 10
-6.76924233E+01
 20
8.79887176E+01
 40
6.30000019E+00
  1
95
 41
1.00000000E+00
  7
MONOTXT
  0
TEXT
  8
0
 62
7
 10
-6.76924233E+01
 20
9.79887179E+01
 40
6.30000019E+00
  1
76
 41
1.00000000E+00
  7
MONOTXT
  0
TEXT
  8
0
 62
7
 10
-6.76924233E+01
 20
1.07988718E+02
 40
6.30000019E+00
  1
57
 41
1.00000000E+00
  7
MONOTXT
  0
TEXT
  8
0
 62
7
 10
-6.76924233E+01
 20
1.17988718E+02
 40
6.30000019E+00
  1
38
 41
1.00000000E+00
  7
MONOTXT
  0
TEXT
  8
0
 62
7
 10
-6.76924233E+01
 20
1.27988718E+02
 40
6.30000019E+00
  1
19
 41
1.00000000E+00
  7
MONOTXT
  0
TEXT
  8
0
 62
7
 10
-1.25192427E+02
 20
8.80480895E+01
 40
6.30000019E+00
  1
80
 41
1.00000000E+00
  7
MONOTXT
  0
TEXT
  8
0
 62
7
 10
-1.25192427E+02
 20
9.80480899E+01
 40
6.30000019E+00
  1
64
 41
1.00000000E+00
  7
MONOTXT
  0
TEXT
  8
0
 62
7
 10
-1.25192427E+02
 20
1.08048090E+02
 40
6.30000019E+00
  1
48
 41
1.00000000E+00
  7
MONOTXT
  0
TEXT
  8
0
 62
7
 10
-1.25192427E+02
 20
1.18048090E+02
 40
6.30000019E+00
  1
32
 41
1.00000000E+00
  7
MONOTXT
  0
TEXT
  8
0
 62
7
 10
-1.25192427E+02
 20
1.28048090E+02
 40
6.30000019E+00
  1
16
 41
1.00000000E+00
  7
MONOTXT
  0
TEXT
  8
0
 62
7
 10
-1.85192419E+02
 20
8.80480895E+01
 40
6.30000019E+00
  1
55
 41
1.00000000E+00
  7
MONOTXT
  0
TEXT
  8
0
 62
7
 10
-1.85192419E+02
 20
9.80480899E+01
 40
6.30000019E+00
  1
44
 41
1.00000000E+00
  7
MONOTXT
  0
TEXT
  8
0
 62
7
 10
-1.85192419E+02
 20
1.08048090E+02
 40
6.30000019E+00
  1
33
 41
1.00000000E+00
  7
MONOTXT
  0
TEXT
  8
0
 62
7
 10
-1.85192419E+02
 20
1.18048090E+02
 40
6.30000019E+00
  1
22
 41
1.00000000E+00
  7
MONOTXT
  0
TEXT
  8
0
 62
7
 10
-1.85192419E+02
 20
1.28048090E+02
 40
6.30000019E+00
  1
11
 41
1.00000000E+00
  7
MONOTXT
  0
TEXT
  8
0
 62
7
 10
-2.69742420E+02
 20
1.48166839E+02
 40
6.30000019E+00
  1
NUMBER
 41
1.00000000E+00
  7
MONOTXT
  0
TEXT
  8
0
 62
7
 10
-2.69742420E+02
 20
1.37929340E+02
 40
6.30000019E+00
  1
 OF UNITS
 41
1.15384615E+00
  7
MONOTXT
  0
TEXT
  8
0
 62
7
 10
-2.05667420E+02
 20
1.43107462E+02
 40
6.30000019E+00
  1
L
 41
1.00000000E+00
  7
MONOTXT
  0
TEXT
  8
0
 62
7
 10
-1.99711952E+02
 20
1.42123087E+02
 40
3.15000010E+00
  1
1
 41
1.00000000E+00
  7
MONOTXT
  0
TEXT
  8
0
 62
7
 10
-1.96217419E+02
 20
1.43107462E+02
 40
6.30000019E+00
  1
(GME05)
 41
1.00000000E+00
  7
MONOTXT
  0
TEXT
  8
0
 62
7
 10
-1.45667427E+02
 20
1.43107462E+02
 40
6.30000019E+00
  1
L
 41
1.00000000E+00
  7
MONOTXT
  0
TEXT
  8
0
 62
7
 10
-1.39711959E+02
 20
1.42123087E+02
 40
3.15000010E+00
  1
2
 41
1.00000000E+00
  7
MONOTXT
  0
TEXT
  8
0
 62
7
 10
-1.36217427E+02
 20
1.43107462E+02
 40
6.30000019E+00
  1
(GME07)
 41
1.00000000E+00
  7
MONOTXT
  0
TEXT
  8
0
 62
7
 10
-8.81674240E+01
 20
1.43048090E+02
 40
6.30000019E+00
  1
L
 41
1.00000000E+00
  7
MONOTXT
  0
TEXT
  8
0
 62
7
 10
-8.22119551E+01
 20
1.42063715E+02
 40
3.15000010E+00
  1
3
 41
1.00000000E+00
  7
MONOTXT
  0
TEXT
  8
0
 62
7
 10
-7.87174237E+01
 20
1.43048090E+02
 40
6.30000019E+00
  1
(GME10)
 41
1.00000000E+00
  7
MONOTXT
  0
TEXT
  8
0
 62
7
 10
-2.44542419E+02
 20
1.28048090E+02
 40
6.30000019E+00
  1
1
 41
1.00000000E+00
  7
MONOTXT
  0
TEXT
  8
0
 62
7
 10
-2.44542419E+02
 20
1.18048090E+02
 40
6.30000019E+00
  1
2
 41
1.00000000E+00
  7
MONOTXT
  0
TEXT
  8
0
 62
7
 10
-2.44542419E+02
 20
1.08048090E+02
 40
6.30000019E+00
  1
3
 41
1.00000000E+00
  7
MONOTXT
  0
TEXT
  8
0
 62
7
 10
-2.44542419E+02
 20
9.80480899E+01
 40
6.30000019E+00
  1
4
 41
1.00000000E+00
  7
MONOTXT
  0
TEXT
  8
0
 62
7
 10
-2.44542419E+02
 20
8.80480895E+01
 40
6.30000019E+00
  1
5
 41
1.00000000E+00
  7
MONOTXT
  0
LINE
  8
0
 62
7
 10
3.99799805E+02
 20
2.76250000E+02
 11
3.99799805E+02
 21
-2.76750000E+02
  0
LINE
  8
0
 62
7
 10
-3.99250000E+02
 20
2.76250000E+02
 11
-3.99250000E+02
 21
-2.76750000E+02
  0
LINE
  8
0
 62
7
 10
-3.99250000E+02
 20
2.76250000E+02
 11
3.99799805E+02
 21
2.76250000E+02
  0
LINE
  8
0
 62
7
 10
-3.99250000E+02
 20
-2.76750000E+02
 11
3.99799805E+02
 21
-2.76750000E+02
  0
LINE
  8
0
 62
7
 10
-2.79250000E+02
 20
2.76250000E+02
 11
-2.79250000E+02
 21
2.56250000E+02
  0
LINE
  8
0
 62
7
 10
-3.99250000E+02
 20
2.56250000E+02
 11
-2.79250000E+02
 21
2.56250000E+02
  0
LINE
  8
0
 62
7
 10
2.79799927E+02
 20
2.76250000E+02
 11
2.79799927E+02
 21
2.56250000E+02
  0
LINE
  8
0
 62
7
 10
2.79799927E+02
 20
2.56250000E+02
 11
3.99799805E+02
 21
2.56250000E+02
  0
LINE
  8
0
 62
7
 10
2.79799927E+02
 20
-2.56750000E+02
 11
2.79799927E+02
 21
-2.76750000E+02
  0
LINE
  8
0
 62
7
 10
2.79799927E+02
 20
-2.56750000E+02
 11
3.99799805E+02
 21
-2.56750000E+02
  0
LINE
  8
0
 62
7
 10
-2.72081482E+02
 20
8.61980896E+01
 11
-2.72081482E+02
 21
1.56198090E+02
  0
LINE
  8
0
 62
7
 10
-2.72081482E+02
 20
8.61980896E+01
 11
-3.20814857E+01
 21
8.61980896E+01
  0
LINE
  8
0
 62
7
 10
-2.72081482E+02
 20
9.61980896E+01
 11
-3.20814857E+01
 21
9.61980896E+01
  0
LINE
  8
0
 62
7
 10
-2.72081482E+02
 20
1.06198090E+02
 11
-3.20814857E+01
 21
1.06198090E+02
  0
LINE
  8
0
 62
7
 10
-2.72081482E+02
 20
1.16198090E+02
 11
-3.20814857E+01
 21
1.16198090E+02
  0
LINE
  8
0
 62
7
 10
-2.72081482E+02
 20
1.26198090E+02
 11
-3.20814857E+01
 21
1.26198090E+02
  0
LINE
  8
0
 62
7
 10
-2.72081482E+02
 20
1.36198090E+02
 11
-3.20814857E+01
 21
1.36198090E+02
  0
LINE
  8
0
 62
7
 10
-2.12081482E+02
 20
8.61980896E+01
 11
-2.12081482E+02
 21
1.56198090E+02
  0
LINE
  8
0
 62
7
 10
-2.72081482E+02
 20
1.56198090E+02
 11
-3.20814857E+01
 21
1.56198090E+02
  0
LINE
  8
0
 62
7
 10
-1.52081482E+02
 20
8.61980896E+01
 11
-1.52081482E+02
 21
1.56198090E+02
  0
LINE
  8
0
 62
7
 10
-9.20814896E+01
 20
8.61980896E+01
 11
-9.20814896E+01
 21
1.56198090E+02
  0
LINE
  8
0
 62
7
 10
-3.20814857E+01
 20
8.61980896E+01
 11
-3.20814857E+01
 21
1.56198090E+02
  0
ENDSEC
  0
EOF
