  0
SECTION
  2
HEADER
  9
$ACADVER
  1
AC1003
  9
$EXTMIN
 10
-3.99250000E+02
 20
-2.76750000E+02
  9
$EXTMAX
 10
3.99799805E+02
 20
2.76250000E+02
  9
$LIMMIN
 10
-3.99251000E+02
 20
-2.76751000E+02
  9
$LIMMAX
 10
3.99800805E+02
 20
2.76251000E+02
  9
$SNAPUNIT
 10
1
 20
1
  9
$SNAPBASE
 10
0
 20
0
  9
$GRIDMODE
 70
0
  9
$GRIDUNIT
 10
0
 20
0
  9
$LTSCALE
 40
1.33174967E+01
  9
$TEXTSIZE
 40
3.2
  9
$DIMTAD
 70
0
  9
$LUNITS
 70
2
  9
$LUPREC
 70
4
  9
$FILLETRAD
 40
0
  9
$AUNITS
 70
0
  9
$AUPREC
 70
0
  0
ENDSEC
  0
SECTION
  2
TABLES
  0
TABLE
  2
LTYPE
 70
2
  0
LTYPE
  2
CONTINUOUS
 70
64
  3
Solid-Line
 72
65
 73
0
 40
0
  0
LTYPE
  2
DASHED
 70
64
  3
DASHED
 72
65
 73
2
 40
.75
 49
.5
 49
-.25
  0
LTYPE
  2
HIDDEN
 70
64
  3
HIDDEN
 72
65
 73
2
 40
.375
 49
.25
 49
-.125
  0
LTYPE
  2
CENTER
 70
64
  3
CENTER
 72
65
 73
4
 40
2
 49
1.25
 49
-.25
 49
.25
 49
-.25
  0
LTYPE
  2
PHANTOM
 70
64
  3
PHANTOM
 72
65
 73
6
 40
2.5
 49
1.25
 49
-.25
 49
.25
 49
-.25
 49
.25
 49
-.25
  0
ENDTAB
  0
TABLE
  2
LAYER
 70
1
  0
LAYER
  2
1
 70
0
 62
7
  6
CONTINUOUS
 0
ENDTAB
  0
TABLE
  2
STYLE
 70
2
  0
STYLE
  2
MONOTXT
 70
0
 40
0
 41
1
 50
0
 71
0
 42
.2
  3
monotxt
  0
STYLE
  2
BIGFONT
 70
0
 40
0
 41
1
 50
0
 71
0
 42
.2
  3
txt
  4
bigfont
  0
ENDTAB
  0
ENDSEC
  0
SECTION
  2
BLOCKS
  0
BLOCK
  8
0
  2
ARROW
 70
10
 10
0
 20
0
  0
POLYLINE
  8
0
  6
CONTINUOUS
 62
0
 66
1
  0
VERTEX
  8
0
  6
CONTINUOUS
 62
0
 10
4.50544760E+00
 20
1.20723104E+00
  0
VERTEX
  8
0
  6
CONTINUOUS
 62
0
 10
0.0
 20
0.0
  0
VERTEX
  8
0
  6
CONTINUOUS
 62
0
 10
4.50544760E+00
 20
-1.20723104E+00
  0
SEQEND
  8
0
  0
ENDBLK
  8
0
  0
BLOCK
  8
0
  2
*D1
 70
1
 10
0.0
 20
0.0
  0
LINE
  8
0
 62
2
 10
1.48139816E+02
 20
-4.20582428E+01
 11
1.63639816E+02
 21
-4.20582428E+01
  0
LINE
  8
0
 62
2
 10
1.48139816E+02
 20
-6.88659592E+01
 11
1.48139816E+02
 21
-4.05582428E+01
  0
LINE
  8
0
 62
2
 10
1.63639816E+02
 20
-6.88659592E+01
 11
1.63639816E+02
 21
-4.05582428E+01
  0
INSERT
  8
0
  2
ARROW
  6
BYBLOCK
 62
2
 10
1.48139816E+02
 20
-4.20582428E+01
 41
1.00000000E+00
 42
1.00000000E+00
 50
0.00000000E+00
  0
INSERT
  8
0
  2
ARROW
  6
BYBLOCK
 62
2
 10
1.63639816E+02
 20
-4.20582428E+01
 41
1.00000000E+00
 42
1.00000000E+00
 50
1.80000000E+02
  0
TEXT
  8
0
 62
2
 10
1.19474880E+02
 20
-3.94832428E+01
 40
6.30000019E+00
  1
15.5
 41
1.00000000E+00
  7
MONOTXT
  0
POINT
  8
0
 62
2
 10
1.48139816E+02
 20
-6.88659592E+01
  0
POINT
  8
0
 62
2
 10
1.63639816E+02
 20
-6.88659592E+01
  0
POINT
  8
0
 62
2
 10
1.63639816E+02
 20
-4.20582428E+01
  0
LINE
  8
0
 62
2
 10
1.48139816E+02
 20
-4.20582428E+01
 11
1.18785818E+02
 21
-4.20582428E+01
  0
ENDBLK
  8
0
  0
BLOCK
  8
0
  2
*D2
 70
1
 10
0.0
 20
0.0
  0
LINE
  8
0
 62
2
 10
1.63639816E+02
 20
-4.20582428E+01
 11
1.85639816E+02
 21
-4.20582428E+01
  0
LINE
  8
0
 62
2
 10
1.63639816E+02
 20
-6.88659592E+01
 11
1.63639816E+02
 21
-4.05582428E+01
  0
LINE
  8
0
 62
2
 10
1.85639816E+02
 20
-7.88686981E+01
 11
1.85639816E+02
 21
-4.05582428E+01
  0
INSERT
  8
0
  2
ARROW
  6
BYBLOCK
 62
2
 10
1.63639816E+02
 20
-4.20582428E+01
 41
1.00000000E+00
 42
1.00000000E+00
 50
0.00000000E+00
  0
INSERT
  8
0
  2
ARROW
  6
BYBLOCK
 62
2
 10
1.85639816E+02
 20
-4.20582428E+01
 41
1.00000000E+00
 42
1.00000000E+00
 50
1.80000000E+02
  0
TEXT
  8
0
 62
2
 10
1.72178878E+02
 20
-3.94832428E+01
 40
6.30000019E+00
  1
L
 41
1.00000000E+00
  7
MONOTXT
  0
TEXT
  8
0
 62
2
 10
1.78478879E+02
 20
-4.04676175E+01
 40
3.15000010E+00
  1
1
 41
1.00000000E+00
  7
MONOTXT
  0
POINT
  8
0
 62
2
 10
1.63639816E+02
 20
-6.88659592E+01
  0
POINT
  8
0
 62
2
 10
1.85639816E+02
 20
-7.88686981E+01
  0
POINT
  8
0
 62
2
 10
1.85639816E+02
 20
-4.20582428E+01
  0
ENDBLK
  8
0
  0
BLOCK
  8
0
  2
*D3
 70
1
 10
0.0
 20
0.0
  0
LINE
  8
0
 62
2
 10
1.85639816E+02
 20
-4.20582428E+01
 11
2.17639816E+02
 21
-4.20582428E+01
  0
LINE
  8
0
 62
2
 10
1.85639816E+02
 20
-7.88686981E+01
 11
1.85639816E+02
 21
-4.05582428E+01
  0
LINE
  8
0
 62
2
 10
2.17639816E+02
 20
-7.88686981E+01
 11
2.17639816E+02
 21
-4.05582428E+01
  0
INSERT
  8
0
  2
ARROW
  6
BYBLOCK
 62
2
 10
1.85639816E+02
 20
-4.20582428E+01
 41
1.00000000E+00
 42
1.00000000E+00
 50
0.00000000E+00
  0
INSERT
  8
0
  2
ARROW
  6
BYBLOCK
 62
2
 10
2.17639816E+02
 20
-4.20582428E+01
 41
1.00000000E+00
 42
1.00000000E+00
 50
1.80000000E+02
  0
TEXT
  8
0
 62
2
 10
1.99178878E+02
 20
-3.94832428E+01
 40
6.30000019E+00
  1
L
 41
1.00000000E+00
  7
MONOTXT
  0
TEXT
  8
0
 62
2
 10
2.05478879E+02
 20
-4.04676175E+01
 40
3.15000010E+00
  1
2
 41
1.00000000E+00
  7
MONOTXT
  0
POINT
  8
0
 62
2
 10
1.85639816E+02
 20
-7.88686981E+01
  0
POINT
  8
0
 62
2
 10
2.17639816E+02
 20
-7.88686981E+01
  0
POINT
  8
0
 62
2
 10
2.17639816E+02
 20
-4.20582428E+01
  0
ENDBLK
  8
0
  0
BLOCK
  8
0
  2
*D4
 70
1
 10
0.0
 20
0.0
  0
LINE
  8
0
 62
2
 10
2.17639816E+02
 20
-4.20582428E+01
 11
2.36639816E+02
 21
-4.20582428E+01
  0
LINE
  8
0
 62
2
 10
2.17639816E+02
 20
-7.88686981E+01
 11
2.17639816E+02
 21
-4.05582428E+01
  0
LINE
  8
0
 62
2
 10
2.36639816E+02
 20
-6.88632202E+01
 11
2.36639816E+02
 21
-4.05582428E+01
  0
INSERT
  8
0
  2
ARROW
  6
BYBLOCK
 62
2
 10
2.17639816E+02
 20
-4.20582428E+01
 41
1.00000000E+00
 42
1.00000000E+00
 50
0.00000000E+00
  0
INSERT
  8
0
  2
ARROW
  6
BYBLOCK
 62
2
 10
2.36639816E+02
 20
-4.20582428E+01
 41
1.00000000E+00
 42
1.00000000E+00
 50
1.80000000E+02
  0
TEXT
  8
0
 62
2
 10
2.24678878E+02
 20
-3.94832428E+01
 40
6.30000019E+00
  1
L
 41
1.00000000E+00
  7
MONOTXT
  0
TEXT
  8
0
 62
2
 10
2.30978879E+02
 20
-4.04676175E+01
 40
3.15000010E+00
  1
3
 41
1.00000000E+00
  7
MONOTXT
  0
POINT
  8
0
 62
2
 10
2.17639816E+02
 20
-7.88686981E+01
  0
POINT
  8
0
 62
2
 10
2.36639816E+02
 20
-6.88632202E+01
  0
POINT
  8
0
 62
2
 10
2.36639816E+02
 20
-4.20582428E+01
  0
ENDBLK
  8
0
  0
BLOCK
  8
0
  2
*D5
 70
1
 10
0.0
 20
0.0
  0
LINE
  8
0
 62
2
 10
2.36639816E+02
 20
-4.20582428E+01
 11
2.52139816E+02
 21
-4.20582428E+01
  0
LINE
  8
0
 62
2
 10
2.36639816E+02
 20
-6.88632202E+01
 11
2.36639816E+02
 21
-4.05582428E+01
  0
LINE
  8
0
 62
2
 10
2.52139816E+02
 20
-6.88632202E+01
 11
2.52139816E+02
 21
-4.05582428E+01
  0
INSERT
  8
0
  2
ARROW
  6
BYBLOCK
 62
2
 10
2.36639816E+02
 20
-4.20582428E+01
 41
1.00000000E+00
 42
1.00000000E+00
 50
0.00000000E+00
  0
INSERT
  8
0
  2
ARROW
  6
BYBLOCK
 62
2
 10
2.52139816E+02
 20
-4.20582428E+01
 41
1.00000000E+00
 42
1.00000000E+00
 50
1.80000000E+02
  0
TEXT
  8
0
 62
2
 10
2.53283642E+02
 20
-3.94832428E+01
 40
6.30000019E+00
  1
15.5
 41
1.00000000E+00
  7
MONOTXT
  0
POINT
  8
0
 62
2
 10
2.36639816E+02
 20
-6.88632202E+01
  0
POINT
  8
0
 62
2
 10
2.52139816E+02
 20
-6.88632202E+01
  0
POINT
  8
0
 62
2
 10
2.52139816E+02
 20
-4.20582428E+01
  0
LINE
  8
0
 62
2
 10
2.77794580E+02
 20
-4.20582428E+01
 11
2.52139816E+02
 21
-4.20582428E+01
  0
ENDBLK
  8
0
  0
BLOCK
  8
0
  2
*D6
 70
1
 10
0.0
 20
0.0
  0
LINE
  8
0
 62
2
 10
1.53139816E+02
 20
2.81766968E+01
 11
1.48139816E+02
 21
2.81766968E+01
  0
LINE
  8
0
 62
2
 10
1.53139816E+02
 20
6.29579391E+01
 11
1.53139816E+02
 21
2.66766968E+01
  0
LINE
  8
0
 62
2
 10
1.48139816E+02
 20
6.16340408E+01
 11
1.48139816E+02
 21
2.66766968E+01
  0
INSERT
  8
0
  2
ARROW
  6
BYBLOCK
 62
2
 10
1.53139816E+02
 20
2.81766968E+01
 41
1.00000000E+00
 42
1.00000000E+00
 50
0.00000000E+00
  0
INSERT
  8
0
  2
ARROW
  6
BYBLOCK
 62
2
 10
1.48139816E+02
 20
2.81766968E+01
 41
1.00000000E+00
 42
1.00000000E+00
 50
1.80000000E+02
  0
TEXT
  8
0
 62
2
 10
1.38935226E+02
 20
3.07516968E+01
 40
6.30000019E+00
  1
5
 41
1.00000000E+00
  7
MONOTXT
  0
POINT
  8
0
 62
2
 10
1.53139816E+02
 20
6.29579391E+01
  0
POINT
  8
0
 62
2
 10
1.48139816E+02
 20
6.16340408E+01
  0
POINT
  8
0
 62
2
 10
1.48139816E+02
 20
2.81766968E+01
  0
LINE
  8
0
 62
2
 10
1.38246164E+02
 20
2.81766968E+01
 11
1.48139816E+02
 21
2.81766968E+01
  0
LINE
  8
0
 62
2
 10
1.53139816E+02
 20
2.81766968E+01
 11
1.53639816E+02
 21
2.81766968E+01
  0
ENDBLK
  8
0
  0
BLOCK
  8
0
  2
*D7
 70
1
 10
0.0
 20
0.0
  0
LINE
  8
0
 62
2
 10
2.52139816E+02
 20
2.81766968E+01
 11
2.47139816E+02
 21
2.81766968E+01
  0
LINE
  8
0
 62
2
 10
2.52139816E+02
 20
6.16340408E+01
 11
2.52139816E+02
 21
2.66766968E+01
  0
LINE
  8
0
 62
2
 10
2.47139816E+02
 20
6.36340408E+01
 11
2.47139816E+02
 21
2.66766968E+01
  0
INSERT
  8
0
  2
ARROW
  6
BYBLOCK
 62
2
 10
2.52139816E+02
 20
2.81766968E+01
 41
1.00000000E+00
 42
1.00000000E+00
 50
0.00000000E+00
  0
INSERT
  8
0
  2
ARROW
  6
BYBLOCK
 62
2
 10
2.47139816E+02
 20
2.81766968E+01
 41
1.00000000E+00
 42
1.00000000E+00
 50
1.80000000E+02
  0
TEXT
  8
0
 62
2
 10
2.54208924E+02
 20
3.07516968E+01
 40
6.30000019E+00
  1
5
 41
1.00000000E+00
  7
MONOTXT
  0
POINT
  8
0
 62
2
 10
2.52139816E+02
 20
6.16340408E+01
  0
POINT
  8
0
 62
2
 10
2.47139816E+02
 20
6.36340408E+01
  0
POINT
  8
0
 62
2
 10
2.47139816E+02
 20
2.81766968E+01
  0
LINE
  8
0
 62
2
 10
2.52139816E+02
 20
2.81766968E+01
 11
2.59819861E+02
 21
2.81766968E+01
  0
LINE
  8
0
 62
2
 10
2.47139816E+02
 20
2.81766968E+01
 11
2.46639816E+02
 21
2.81766968E+01
  0
ENDBLK
  8
0
  0
ENDSEC
  0
SECTION
  2
ENTITIES
  0
LINE
  8
0
 62
7
 10
-1.93360184E+02
 20
-1.97368707E+02
 11
-1.93360184E+02
 21
-7.03687057E+01
  0
LINE
  8
0
 62
7
 10
-2.66360184E+02
 20
-1.37671448E+02
 11
-2.66110184E+02
 21
-1.37671448E+02
  0
LINE
  8
0
 62
7
 10
-2.66360184E+02
 20
-9.66714478E+01
 11
-2.66110184E+02
 21
-9.66714478E+01
  0
LINE
  8
0
 62
7
 10
-2.66360184E+02
 20
-9.13714447E+01
 11
-2.66110184E+02
 21
-9.13714447E+01
  0
LINE
  8
0
 62
7
 10
-2.66360184E+02
 20
-8.03714447E+01
 11
-2.66110184E+02
 21
-8.03714447E+01
  0
LINE
  8
0
 62
7
 10
-1.86860184E+02
 20
-1.97365967E+02
 11
-1.86860184E+02
 21
-1.88365967E+02
  0
LINE
  8
0
 62
7
 10
-2.66360184E+02
 20
-7.03659668E+01
 11
-2.66360184E+02
 21
-1.97365967E+02
  0
LINE
  8
0
 62
7
 10
-1.77860184E+02
 20
-1.97365967E+02
 11
-1.93360184E+02
 21
-1.97365967E+02
  0
LINE
  8
0
 62
7
 10
-1.77860184E+02
 20
-1.88365967E+02
 11
-1.86860184E+02
 21
-1.88365967E+02
  0
LINE
  8
0
 62
7
 10
-1.77860184E+02
 20
-7.03659668E+01
 11
-1.93360184E+02
 21
-7.03659668E+01
  0
LINE
  8
0
 62
7
 10
-2.81860184E+02
 20
-7.03687057E+01
 11
-2.66360184E+02
 21
-7.03687057E+01
  0
LINE
  8
0
 62
7
 10
-1.93360184E+02
 20
-9.75714493E+01
 11
-1.93610184E+02
 21
-9.75714493E+01
  0
LINE
  8
0
 62
7
 10
-2.72860184E+02
 20
-1.97368707E+02
 11
-2.72860184E+02
 21
-1.88368707E+02
  0
LINE
  8
0
 62
7
 10
-2.81860184E+02
 20
-1.88368707E+02
 11
-2.72860184E+02
 21
-1.88368707E+02
  0
LINE
  8
0
 62
7
 10
-2.81860184E+02
 20
-1.97368707E+02
 11
-2.66360184E+02
 21
-1.97368707E+02
  0
LINE
  8
0
 62
6
 10
-2.60160187E+02
 20
-1.31476501E+02
 11
-2.50160187E+02
 21
-1.31476501E+02
  0
LINE
  8
0
 62
6
 10
-2.50160187E+02
 20
-1.30978424E+02
 11
-2.60160187E+02
 21
-1.30978424E+02
  0
LINE
  8
0
 62
6
 10
-2.50160187E+02
 20
-1.30878426E+02
 11
-2.60160187E+02
 21
-1.30878426E+02
  0
LINE
  8
0
 62
6
 10
-2.50160187E+02
 20
-1.32287605E+02
 11
-2.60160187E+02
 21
-1.32287605E+02
  0
LINE
  8
0
 62
6
 10
-2.52260185E+02
 20
-1.24678421E+02
 11
-2.58060181E+02
 21
-1.24678421E+02
  0
LINE
  8
0
 62
6
 10
-2.52260185E+02
 20
-1.28678421E+02
 11
-2.58060181E+02
 21
-1.28678421E+02
  0
LINE
  8
0
 62
6
 10
-2.63560181E+02
 20
-7.48784256E+01
 11
-2.53560181E+02
 21
-7.48784256E+01
  0
LINE
  8
0
 62
6
 10
-2.63560181E+02
 20
-7.47784195E+01
 11
-2.53560181E+02
 21
-7.47784195E+01
  0
LINE
  8
0
 62
6
 10
-2.63560181E+02
 20
-7.42803421E+01
 11
-2.53560181E+02
 21
-7.42803421E+01
  0
LINE
  8
0
 62
6
 10
-2.61460182E+02
 20
-8.10784225E+01
 11
-2.55660187E+02
 21
-8.10784225E+01
  0
LINE
  8
0
 62
6
 10
-2.61460182E+02
 20
-7.70784225E+01
 11
-2.55660187E+02
 21
-7.70784225E+01
  0
LINE
  8
0
 62
7
 10
-2.63560181E+02
 20
-7.38784256E+01
 11
-2.65860184E+02
 21
-7.38784256E+01
  0
LINE
  8
0
 62
7
 10
-2.47860184E+02
 20
-7.38784256E+01
 11
-2.53560181E+02
 21
-7.38784256E+01
  0
LINE
  8
0
 62
7
 10
-2.62261253E+02
 20
-1.44599049E+02
 11
-2.62261253E+02
 21
-1.45378422E+02
  0
LINE
  8
0
 62
7
 10
-2.65555183E+02
 20
-1.44378422E+02
 11
-2.65555183E+02
 21
-1.44878422E+02
  0
LINE
  8
0
  6
CENTER
 62
2
 10
-2.64060181E+02
 20
-1.42362434E+02
 11
-2.64060181E+02
 21
-1.46664204E+02
  0
LINE
  8
0
 62
7
 10
-2.62460182E+02
 20
-1.44378422E+02
 11
-2.65860184E+02
 21
-1.44378422E+02
  0
LINE
  8
0
 62
7
 10
-2.64420843E+02
 20
-9.13177651E+01
 11
-2.62299523E+02
 21
-9.34390854E+01
  0
LINE
  8
0
 62
7
 10
-2.64420842E+02
 20
-9.34390847E+01
 11
-2.63360183E+02
 21
-9.23784252E+01
  0
LINE
  8
0
 62
6
 10
-2.57060181E+02
 20
-8.73784256E+01
 11
-2.57060181E+02
 21
-9.23784256E+01
  0
LINE
  8
0
 62
6
 10
-2.60060181E+02
 20
-8.73784256E+01
 11
-2.60060181E+02
 21
-9.23784256E+01
  0
LINE
  8
0
 62
6
 10
-2.60060181E+02
 20
-8.73784256E+01
 11
-2.57060181E+02
 21
-8.73784256E+01
  0
LINE
  8
0
 62
6
 10
-2.56165817E+02
 20
-6.63376055E+01
 11
-2.55910184E+02
 21
-6.67784295E+01
  0
LINE
  8
0
 62
6
 10
-2.61210187E+02
 20
-6.67784220E+01
 11
-2.60954558E+02
 21
-6.63376045E+01
  0
LINE
  8
0
 62
6
 10
-2.57415818E+02
 20
-6.75876045E+01
 11
-2.57160185E+02
 21
-6.80284286E+01
  0
LINE
  8
0
 62
6
 10
-2.55910179E+02
 20
-6.67784272E+01
 11
-2.57160181E+02
 21
-6.80284285E+01
  0
LINE
  8
0
 62
6
 10
-2.57415810E+02
 20
-6.75876116E+01
 11
-2.56165809E+02
 21
-6.63376102E+01
  0
LINE
  8
0
 62
6
 10
-2.59704555E+02
 20
-6.75876047E+01
 11
-2.59960185E+02
 21
-6.80284222E+01
  0
LINE
  8
0
 62
6
 10
-2.63560181E+02
 20
-7.34692383E+01
 11
-2.53560181E+02
 21
-7.34692383E+01
  0
LINE
  8
0
 62
6
 10
-2.59704555E+02
 20
-6.75876035E+01
 11
-2.60954551E+02
 21
-6.63376075E+01
  0
LINE
  8
0
 62
6
 10
-2.63560181E+02
 20
-6.63376007E+01
 11
-2.60954552E+02
 21
-6.63376007E+01
  0
LINE
  8
0
 62
6
 10
-2.56165810E+02
 20
-6.63376007E+01
 11
-2.53560181E+02
 21
-6.63376007E+01
  0
LINE
  8
0
 62
6
 10
-2.57415810E+02
 20
-6.75876007E+01
 11
-2.59704552E+02
 21
-6.75876007E+01
  0
LINE
  8
0
 62
6
 10
-2.63560181E+02
 20
-6.67784271E+01
 11
-2.61210182E+02
 21
-6.67784271E+01
  0
LINE
  8
0
 62
6
 10
-2.61210178E+02
 20
-6.67784272E+01
 11
-2.59960182E+02
 21
-6.80284231E+01
  0
LINE
  8
0
 62
6
 10
-2.57160187E+02
 20
-6.80284271E+01
 11
-2.59960182E+02
 21
-6.80284271E+01
  0
LINE
  8
0
 62
6
 10
-2.55910187E+02
 20
-6.67784271E+01
 11
-2.53560181E+02
 21
-6.67784271E+01
  0
LINE
  8
0
 62
6
 10
-2.62060181E+02
 20
-7.04784241E+01
 11
-2.63560181E+02
 21
-7.04784241E+01
  0
LINE
  8
0
 62
6
 10
-2.63560181E+02
 20
-6.72784271E+01
 11
-2.62060181E+02
 21
-6.72784271E+01
  0
LINE
  8
0
 62
6
 10
-2.55060181E+02
 20
-6.72784271E+01
 11
-2.53560181E+02
 21
-6.72784271E+01
  0
LINE
  8
0
 62
6
 10
-2.53560181E+02
 20
-7.04784241E+01
 11
-2.55060181E+02
 21
-7.04784241E+01
  0
LINE
  8
0
 62
6
 10
-2.60385696E+02
 20
-7.03284225E+01
 11
-2.56734673E+02
 21
-7.03284225E+01
  0
LINE
  8
0
 62
6
 10
-2.60385696E+02
 20
-7.09284210E+01
 11
-2.56734673E+02
 21
-7.09284210E+01
  0
LINE
  8
0
 62
6
 10
-2.54353071E+02
 20
-6.81713232E+01
 11
-2.55767285E+02
 21
-6.95855367E+01
  0
LINE
  8
0
 62
6
 10
-2.54353071E+02
 20
-6.95855367E+01
 11
-2.55767285E+02
 21
-6.81713232E+01
  0
LINE
  8
0
 62
6
 10
-2.62767289E+02
 20
-6.95855340E+01
 11
-2.61353076E+02
 21
-6.81713205E+01
  0
LINE
  8
0
 62
6
 10
-2.62767289E+02
 20
-6.81713205E+01
 11
-2.61353076E+02
 21
-6.95855340E+01
  0
LINE
  8
0
 62
6
 10
-2.63260185E+02
 20
-9.23784256E+01
 11
-2.53860184E+02
 21
-9.23784256E+01
  0
LINE
  8
0
 62
6
 10
-2.63560181E+02
 20
-9.20784225E+01
 11
-2.63560181E+02
 21
-6.03687134E+01
  0
LINE
  8
0
  6
CENTER
 62
6
 10
-2.58560181E+02
 20
-5.85934143E+01
 11
-2.58560181E+02
 21
-9.45144730E+01
  0
LINE
  8
0
 62
6
 10
-2.53560181E+02
 20
-9.20784225E+01
 11
-2.53560181E+02
 21
-6.03784180E+01
  0
LINE
  8
0
 62
7
 10
-2.63360184E+02
 20
-9.50784225E+01
 11
-2.65860184E+02
 21
-9.50784225E+01
  0
LINE
  8
0
 62
7
 10
-2.63560181E+02
 20
-8.96784210E+01
 11
-2.65860184E+02
 21
-8.96784210E+01
  0
LINE
  8
0
  6
CENTER
 62
2
 10
-2.49660187E+02
 20
-6.33944092E+01
 11
-2.49660187E+02
 21
-5.90926361E+01
  0
LINE
  8
0
 62
7
 10
-2.48165184E+02
 20
-6.13784180E+01
 11
-2.48165184E+02
 21
-6.08784180E+01
  0
LINE
  8
0
 62
7
 10
-2.51165184E+02
 20
-6.13784180E+01
 11
-2.51165184E+02
 21
-6.08784180E+01
  0
LINE
  8
0
 62
7
 10
-2.50160185E+02
 20
-1.14678422E+02
 11
-2.49299525E+02
 21
-1.13817762E+02
  0
LINE
  8
0
 62
7
 10
-2.50160184E+02
 20
-1.15078423E+02
 11
-2.49299525E+02
 21
-1.15939082E+02
  0
LINE
  8
0
  6
PHANTOM
 62
2
 10
-2.63860184E+02
 20
-1.45575684E+02
 11
-2.62610184E+02
 21
-1.45575684E+02
  0
LINE
  8
0
  6
CENTER
 62
2
 10
-2.52260185E+02
 20
-1.70566385E+02
 11
-2.52260185E+02
 21
-1.62828743E+02
  0
LINE
  8
0
  6
CENTER
 62
2
 10
-2.55097122E+02
 20
-1.66475683E+02
 11
-2.49295425E+02
 21
-1.66475683E+02
  0
LINE
  8
0
 62
7
 10
-2.50160187E+02
 20
-1.17578423E+02
 11
-2.47860184E+02
 21
-1.17578423E+02
  0
LINE
  8
0
 62
7
 10
-2.50360184E+02
 20
-1.12178421E+02
 11
-2.47860184E+02
 21
-1.12178421E+02
  0
LINE
  8
0
 62
7
 10
-2.51460182E+02
 20
-6.11784210E+01
 11
-2.51460182E+02
 21
-6.03784180E+01
  0
LINE
  8
0
 62
7
 10
-2.51260185E+02
 20
-6.13784180E+01
 11
-2.47860184E+02
 21
-6.13784180E+01
  0
LINE
  8
0
  6
CENTER
 62
2
 10
-2.63263443E+02
 20
-1.82875683E+02
 11
-2.50180481E+02
 21
-1.82875683E+02
  0
LINE
  8
0
 62
7
 10
-2.47860184E+02
 20
-1.45378422E+02
 11
-2.47860184E+02
 21
-6.03784180E+01
  0
LINE
  8
0
 62
7
 10
-2.65860184E+02
 20
-1.45378422E+02
 11
-2.65860184E+02
 21
-6.03784180E+01
  0
LINE
  8
0
 62
7
 10
-2.47610184E+02
 20
-1.88385399E+02
 11
-2.47610184E+02
 21
-6.03784180E+01
  0
LINE
  8
0
 62
7
 10
-2.66110184E+02
 20
-1.88385399E+02
 11
-2.66110184E+02
 21
-6.03784180E+01
  0
LINE
  8
0
 62
7
 10
-2.47610184E+02
 20
-1.88385399E+02
 11
-2.66110184E+02
 21
-1.88385399E+02
  0
LINE
  8
0
  6
PHANTOM
 62
2
 10
-2.55060181E+02
 20
-1.69885399E+02
 11
-2.55060181E+02
 21
-1.63285400E+02
  0
LINE
  8
0
  6
PHANTOM
 62
2
 10
-2.54560181E+02
 20
-1.62785400E+02
 11
-2.49960182E+02
 21
-1.62785400E+02
  0
LINE
  8
0
  6
PHANTOM
 62
2
 10
-2.49460182E+02
 20
-1.69885399E+02
 11
-2.49460182E+02
 21
-1.63285400E+02
  0
LINE
  8
0
  6
CENTER
 62
2
 10
-2.63776024E+02
 20
-1.63688141E+02
 11
-2.58843193E+02
 21
-1.63688141E+02
  0
LINE
  8
0
  6
CENTER
 62
2
 10
-2.61360184E+02
 20
-1.66136299E+02
 11
-2.61360184E+02
 21
-1.61203468E+02
  0
LINE
  8
0
  6
CENTER
 62
2
 10
-2.61360184E+02
 20
-1.58069668E+02
 11
-2.61360184E+02
 21
-1.53368969E+02
  0
LINE
  8
0
  6
CENTER
 62
2
 10
-2.63659958E+02
 20
-1.55688141E+02
 11
-2.59191391E+02
 21
-1.55688141E+02
  0
LINE
  8
0
  6
PHANTOM
 62
2
 10
-2.51110184E+02
 20
-1.52875683E+02
 11
-2.49860184E+02
 21
-1.52875683E+02
  0
LINE
  8
0
  6
PHANTOM
 62
2
 10
-2.63860184E+02
 20
-1.52875683E+02
 11
-2.62610184E+02
 21
-1.52875683E+02
  0
LINE
  8
0
  6
PHANTOM
 62
2
 10
-2.62610184E+02
 20
-1.53575684E+02
 11
-2.51110184E+02
 21
-1.53575684E+02
  0
LINE
  8
0
  6
PHANTOM
 62
2
 10
-2.62110184E+02
 20
-1.50575684E+02
 11
-2.51610184E+02
 21
-1.50575684E+02
  0
LINE
  8
0
  6
PHANTOM
 62
2
 10
-2.51110184E+02
 20
-1.45575684E+02
 11
-2.49860184E+02
 21
-1.45575684E+02
  0
LINE
  8
0
  6
PHANTOM
 62
2
 10
-2.62110184E+02
 20
-1.44575684E+02
 11
-2.51610184E+02
 21
-1.44575684E+02
  0
LINE
  8
0
  6
PHANTOM
 62
2
 10
-2.51110184E+02
 20
-1.45015385E+02
 11
-2.51110184E+02
 21
-1.53575684E+02
  0
LINE
  8
0
  6
PHANTOM
 62
2
 10
-2.62610184E+02
 20
-1.53575684E+02
 11
-2.62610184E+02
 21
-1.45075684E+02
  0
LINE
  8
0
  6
PHANTOM
 62
2
 10
-2.63860184E+02
 20
-1.70375683E+02
 11
-2.49860184E+02
 21
-1.70375683E+02
  0
LINE
  8
0
 62
7
 10
-2.49360184E+02
 20
-1.87885399E+02
 11
-2.49360184E+02
 21
-1.70885399E+02
  0
LINE
  8
0
 62
7
 10
-2.64360184E+02
 20
-1.87885399E+02
 11
-2.64360184E+02
 21
-1.70885399E+02
  0
LINE
  8
0
  6
PHANTOM
 62
2
 10
-2.49360184E+02
 20
-1.69875683E+02
 11
-2.49360184E+02
 21
-1.46075684E+02
  0
LINE
  8
0
  6
PHANTOM
 62
2
 10
-2.64360184E+02
 20
-1.69875683E+02
 11
-2.64360184E+02
 21
-1.46075684E+02
  0
LINE
  8
0
 62
7
 10
-2.49860184E+02
 20
-1.70385399E+02
 11
-2.63860184E+02
 21
-1.70385399E+02
  0
LINE
  8
0
 62
7
 10
-2.47610184E+02
 20
-6.03784180E+01
 11
-2.66110184E+02
 21
-6.03784180E+01
  0
LINE
  8
0
 62
6
 10
-2.50460182E+02
 20
-1.13378426E+02
 11
-2.59860184E+02
 21
-1.13378426E+02
  0
LINE
  8
0
 62
6
 10
-2.56660187E+02
 20
-1.18378426E+02
 11
-2.53660187E+02
 21
-1.18378426E+02
  0
LINE
  8
0
 62
6
 10
-2.53660187E+02
 20
-1.18378426E+02
 11
-2.53660187E+02
 21
-1.13378426E+02
  0
LINE
  8
0
 62
6
 10
-2.56660187E+02
 20
-1.18378426E+02
 11
-2.56660187E+02
 21
-1.13378426E+02
  0
LINE
  8
0
  6
CENTER
 62
6
 10
-2.55160187E+02
 20
-1.47163429E+02
 11
-2.55160187E+02
 21
-1.11242371E+02
  0
LINE
  8
0
 62
6
 10
-2.57554556E+02
 20
-1.39419242E+02
 11
-2.57810185E+02
 21
-1.38978425E+02
  0
LINE
  8
0
 62
6
 10
-2.52510184E+02
 20
-1.38978420E+02
 11
-2.52765814E+02
 21
-1.39419238E+02
  0
LINE
  8
0
 62
6
 10
-2.56304553E+02
 20
-1.38169242E+02
 11
-2.56560183E+02
 21
-1.37728425E+02
  0
LINE
  8
0
 62
6
 10
-2.57810183E+02
 20
-1.38978423E+02
 11
-2.56560183E+02
 21
-1.37728423E+02
  0
LINE
  8
0
 62
6
 10
-2.56304554E+02
 20
-1.38169241E+02
 11
-2.57554554E+02
 21
-1.39419241E+02
  0
LINE
  8
0
 62
6
 10
-2.54015809E+02
 20
-1.38169241E+02
 11
-2.53760180E+02
 21
-1.37728423E+02
  0
LINE
  8
0
 62
6
 10
-2.54015812E+02
 20
-1.38169242E+02
 11
-2.52765811E+02
 21
-1.39419243E+02
  0
LINE
  8
0
 62
6
 10
-2.50160187E+02
 20
-1.39419239E+02
 11
-2.52765816E+02
 21
-1.39419239E+02
  0
LINE
  8
0
 62
6
 10
-2.57554558E+02
 20
-1.39419239E+02
 11
-2.60160187E+02
 21
-1.39419239E+02
  0
LINE
  8
0
 62
6
 10
-2.56304558E+02
 20
-1.38169239E+02
 11
-2.54015816E+02
 21
-1.38169239E+02
  0
LINE
  8
0
 62
6
 10
-2.50160187E+02
 20
-1.38978424E+02
 11
-2.52510185E+02
 21
-1.38978424E+02
  0
LINE
  8
0
 62
6
 10
-2.52510183E+02
 20
-1.38978423E+02
 11
-2.53760185E+02
 21
-1.37728422E+02
  0
LINE
  8
0
 62
6
 10
-2.56560181E+02
 20
-1.37728424E+02
 11
-2.53760185E+02
 21
-1.37728424E+02
  0
LINE
  8
0
 62
6
 10
-2.57810181E+02
 20
-1.38978424E+02
 11
-2.60160187E+02
 21
-1.38978424E+02
  0
LINE
  8
0
 62
6
 10
-2.51660187E+02
 20
-1.35278423E+02
 11
-2.50160187E+02
 21
-1.35278423E+02
  0
LINE
  8
0
 62
6
 10
-2.50160187E+02
 20
-1.38478424E+02
 11
-2.51660187E+02
 21
-1.38478424E+02
  0
LINE
  8
0
 62
6
 10
-2.58660187E+02
 20
-1.38478424E+02
 11
-2.60160187E+02
 21
-1.38478424E+02
  0
LINE
  8
0
 62
6
 10
-2.60160187E+02
 20
-1.35278423E+02
 11
-2.58660187E+02
 21
-1.35278423E+02
  0
LINE
  8
0
 62
6
 10
-2.60160187E+02
 20
-1.13678421E+02
 11
-2.60160187E+02
 21
-1.45378422E+02
  0
LINE
  8
0
 62
6
 10
-2.50160187E+02
 20
-1.13678421E+02
 11
-2.50160187E+02
 21
-1.45388138E+02
  0
LINE
  8
0
 62
6
 10
-2.53334671E+02
 20
-1.35428421E+02
 11
-2.56985695E+02
 21
-1.35428421E+02
  0
LINE
  8
0
 62
6
 10
-2.56985695E+02
 20
-1.34828423E+02
 11
-2.53334671E+02
 21
-1.34828423E+02
  0
LINE
  8
0
 62
6
 10
-2.59367292E+02
 20
-1.37585528E+02
 11
-2.57953078E+02
 21
-1.36171314E+02
  0
LINE
  8
0
 62
6
 10
-2.59367292E+02
 20
-1.36171314E+02
 11
-2.57953078E+02
 21
-1.37585528E+02
  0
LINE
  8
0
 62
6
 10
-2.50953075E+02
 20
-1.36171318E+02
 11
-2.52367288E+02
 21
-1.37585532E+02
  0
LINE
  8
0
 62
6
 10
-2.50953075E+02
 20
-1.37585532E+02
 11
-2.52367288E+02
 21
-1.36171318E+02
  0
LINE
  8
0
 62
7
 10
-2.66110184E+02
 20
-1.45378422E+02
 11
-2.47610184E+02
 21
-1.45378422E+02
  0
LINE
  8
0
 62
7
 10
-2.65860184E+02
 20
-1.31878426E+02
 11
-2.60160187E+02
 21
-1.31878426E+02
  0
LINE
  8
0
 62
7
 10
-2.50160187E+02
 20
-1.31878426E+02
 11
-2.47860184E+02
 21
-1.31878426E+02
  0
LINE
  8
0
 62
7
 10
-2.54860184E+02
 20
-4.86734161E+01
 11
-2.58860184E+02
 21
-4.86734161E+01
  0
LINE
  8
0
 62
7
 10
-2.58860184E+02
 20
-5.36734161E+01
 11
-2.54860184E+02
 21
-5.36734161E+01
  0
LINE
  8
0
 62
7
 10
-2.53860184E+02
 20
-5.63784180E+01
 11
-2.59860184E+02
 21
-5.63784180E+01
  0
LINE
  8
0
 62
7
 10
-2.53360184E+02
 20
-5.88784180E+01
 11
-2.53360184E+02
 21
-5.68784180E+01
  0
LINE
  8
0
 62
7
 10
-2.55610184E+02
 20
-5.36734161E+01
 11
-2.55610184E+02
 21
-5.63784180E+01
  0
LINE
  8
0
 62
7
 10
-2.53360180E+02
 20
-5.68784280E+01
 11
-2.53860181E+02
 21
-5.63784274E+01
  0
LINE
  8
0
 62
7
 10
-2.54360179E+02
 20
-5.31734301E+01
 11
-2.54860179E+02
 21
-5.36734306E+01
  0
LINE
  8
0
 62
7
 10
-2.54360181E+02
 20
-4.91734285E+01
 11
-2.54860182E+02
 21
-4.86734280E+01
  0
LINE
  8
0
 62
7
 10
-2.54360184E+02
 20
-4.91734161E+01
 11
-2.54360184E+02
 21
-5.31734161E+01
  0
LINE
  8
0
 62
7
 10
-2.60360182E+02
 20
-5.88784247E+01
 11
-2.59860182E+02
 21
-5.93784252E+01
  0
LINE
  8
0
 62
7
 10
-2.60360185E+02
 20
-5.68784253E+01
 11
-2.59860185E+02
 21
-5.63784248E+01
  0
LINE
  8
0
 62
7
 10
-2.59360184E+02
 20
-4.91734258E+01
 11
-2.58860183E+02
 21
-4.86734253E+01
  0
LINE
  8
0
 62
7
 10
-2.58860181E+02
 20
-5.36734279E+01
 11
-2.59360181E+02
 21
-5.31734274E+01
  0
LINE
  8
0
 62
7
 10
-2.59360184E+02
 20
-4.91734161E+01
 11
-2.59360184E+02
 21
-5.31734161E+01
  0
LINE
  8
0
 62
7
 10
-2.60360184E+02
 20
-5.88784180E+01
 11
-2.60360184E+02
 21
-5.68784180E+01
  0
LINE
  8
0
 62
7
 10
-2.58110184E+02
 20
-5.36734161E+01
 11
-2.58110184E+02
 21
-5.63784180E+01
  0
LINE
  8
0
 62
7
 10
-2.53360180E+02
 20
-5.88784301E+01
 11
-2.53860178E+02
 21
-5.93784279E+01
  0
LINE
  8
0
 62
7
 10
-2.60560181E+02
 20
-5.93784180E+01
 11
-2.53160187E+02
 21
-5.93784180E+01
  0
LINE
  8
0
 62
7
 10
-2.52860184E+02
 20
-6.03784180E+01
 11
-2.52860184E+02
 21
-5.96784210E+01
  0
LINE
  8
0
 62
7
 10
-2.60860184E+02
 20
-6.03784180E+01
 11
-2.60860184E+02
 21
-5.96784210E+01
  0
LINE
  8
0
 62
7
 10
-2.60860186E+02
 20
-5.96784218E+01
 11
-2.60560186E+02
 21
-5.93784225E+01
  0
LINE
  8
0
 62
7
 10
-2.53160187E+02
 20
-5.93784225E+01
 11
-2.52860182E+02
 21
-5.96784272E+01
  0
LINE
  8
0
 62
7
 10
-2.60860184E+02
 20
-5.96784210E+01
 11
-2.52860184E+02
 21
-5.96784210E+01
  0
LINE
  8
0
  6
CENTER
 62
2
 10
-2.56860184E+02
 20
-4.48921509E+01
 11
-2.56860184E+02
 21
-1.92668721E+02
  0
LINE
  8
0
  6
CENTER
 62
6
 10
-2.61160187E+02
 20
-1.36878422E+02
 11
-2.56160187E+02
 21
-1.36878422E+02
  0
LINE
  8
0
  6
CENTER
 62
6
 10
-2.54160187E+02
 20
-1.36878422E+02
 11
-2.49160187E+02
 21
-1.36878422E+02
  0
LINE
  8
0
  6
CENTER
 62
6
 10
-2.58660187E+02
 20
-1.39378422E+02
 11
-2.58660187E+02
 21
-1.34378422E+02
  0
LINE
  8
0
  6
CENTER
 62
6
 10
-2.51660187E+02
 20
-1.39378422E+02
 11
-2.51660187E+02
 21
-1.34378422E+02
  0
LINE
  8
0
  6
CENTER
 62
6
 10
-2.55060181E+02
 20
-7.13784256E+01
 11
-2.55060181E+02
 21
-6.63784180E+01
  0
LINE
  8
0
  6
CENTER
 62
6
 10
-2.62060181E+02
 20
-7.13784256E+01
 11
-2.62060181E+02
 21
-6.63784180E+01
  0
LINE
  8
0
  6
CENTER
 62
6
 10
-2.57560181E+02
 20
-6.88784180E+01
 11
-2.52560181E+02
 21
-6.88784180E+01
  0
LINE
  8
0
  6
CENTER
 62
6
 10
-2.64560181E+02
 20
-6.88784180E+01
 11
-2.59560181E+02
 21
-6.88784180E+01
  0
LINE
  8
0
  6
CENTER
 62
6
 10
-2.49695770E+02
 20
-1.26678421E+02
 11
-2.60572067E+02
 21
-1.26678421E+02
  0
LINE
  8
0
  6
CENTER
 62
6
 10
-2.52260185E+02
 20
-1.29386497E+02
 11
-2.52260185E+02
 21
-1.23841721E+02
  0
LINE
  8
0
  6
CENTER
 62
6
 10
-2.58060181E+02
 20
-1.29386497E+02
 11
-2.58060181E+02
 21
-1.23841721E+02
  0
LINE
  8
0
  6
CENTER
 62
6
 10
-2.53095772E+02
 20
-7.90784225E+01
 11
-2.63972069E+02
 21
-7.90784225E+01
  0
LINE
  8
0
  6
CENTER
 62
6
 10
-2.55660187E+02
 20
-8.17864990E+01
 11
-2.55660187E+02
 21
-7.62417221E+01
  0
LINE
  8
0
  6
CENTER
 62
6
 10
-2.61460182E+02
 20
-8.17864990E+01
 11
-2.61460182E+02
 21
-7.62417221E+01
  0
LINE
  8
0
  6
CENTER
 62
2
 10
-2.69360184E+02
 20
-1.41875683E+02
 11
-2.44360184E+02
 21
-1.41875683E+02
  0
LINE
  8
0
 62
6
 10
-2.26660183E+02
 20
-1.31473763E+02
 11
-2.16660183E+02
 21
-1.31473763E+02
  0
LINE
  8
0
 62
6
 10
-2.16660183E+02
 20
-1.30975685E+02
 11
-2.26660183E+02
 21
-1.30975685E+02
  0
LINE
  8
0
 62
6
 10
-2.16660183E+02
 20
-1.30875687E+02
 11
-2.26660183E+02
 21
-1.30875687E+02
  0
LINE
  8
0
 62
7
 10
-2.30860184E+02
 20
-1.45375683E+02
 11
-2.30860184E+02
 21
-7.03756866E+01
  0
LINE
  8
0
 62
7
 10
-2.15860184E+02
 20
-1.45375683E+02
 11
-2.15860184E+02
 21
-7.03756866E+01
  0
LINE
  8
0
 62
6
 10
-2.16660183E+02
 20
-1.13675682E+02
 11
-2.16660183E+02
 21
-1.45385399E+02
  0
LINE
  8
0
  6
CENTER
 62
6
 10
-2.18760185E+02
 20
-1.29383759E+02
 11
-2.18760185E+02
 21
-1.23838982E+02
  0
LINE
  8
0
  6
CENTER
 62
6
 10
-2.24560184E+02
 20
-1.29383759E+02
 11
-2.24560184E+02
 21
-1.23838982E+02
  0
LINE
  8
0
 62
6
 10
-2.18760185E+02
 20
-1.24675682E+02
 11
-2.24560184E+02
 21
-1.24675682E+02
  0
LINE
  8
0
 62
6
 10
-2.18760185E+02
 20
-1.28675682E+02
 11
-2.24560184E+02
 21
-1.28675682E+02
  0
LINE
  8
0
  6
CENTER
 62
6
 10
-2.16195770E+02
 20
-1.26675682E+02
 11
-2.27072067E+02
 21
-1.26675682E+02
  0
LINE
  8
0
 62
6
 10
-2.30060184E+02
 20
-8.48756866E+01
 11
-2.20060184E+02
 21
-8.48756866E+01
  0
LINE
  8
0
 62
6
 10
-2.30060184E+02
 20
-8.47756805E+01
 11
-2.20060184E+02
 21
-8.47756805E+01
  0
LINE
  8
0
  6
CENTER
 62
6
 10
-2.27960182E+02
 20
-8.63676071E+01
 11
-2.27960182E+02
 21
-9.19123840E+01
  0
LINE
  8
0
  6
CENTER
 62
6
 10
-2.22160183E+02
 20
-8.63676071E+01
 11
-2.22160183E+02
 21
-9.19123840E+01
  0
LINE
  8
0
 62
6
 10
-2.27960182E+02
 20
-9.10756836E+01
 11
-2.22160183E+02
 21
-9.10756836E+01
  0
LINE
  8
0
 62
6
 10
-2.27960182E+02
 20
-8.70756836E+01
 11
-2.22160183E+02
 21
-8.70756836E+01
  0
LINE
  8
0
  6
CENTER
 62
6
 10
-2.30524597E+02
 20
-8.90756836E+01
 11
-2.19648300E+02
 21
-8.90756836E+01
  0
LINE
  8
0
 62
7
 10
-2.30555183E+02
 20
-1.44875683E+02
 11
-2.30555183E+02
 21
-1.44375683E+02
  0
LINE
  8
0
 62
7
 10
-2.27260185E+02
 20
-1.45375683E+02
 11
-2.27260185E+02
 21
-1.44575684E+02
  0
LINE
  8
0
 62
7
 10
-2.27555183E+02
 20
-1.44375683E+02
 11
-2.27555183E+02
 21
-1.44875683E+02
  0
LINE
  8
0
  6
CENTER
 62
2
 10
-2.29060184E+02
 20
-1.46240669E+02
 11
-2.29060184E+02
 21
-1.43534294E+02
  0
LINE
  8
0
 62
7
 10
-2.27460182E+02
 20
-1.44375683E+02
 11
-2.30860184E+02
 21
-1.44375683E+02
  0
LINE
  8
0
  6
CENTER
 62
2
 10
-2.17660183E+02
 20
-6.95106964E+01
 11
-2.17660183E+02
 21
-7.22170715E+01
  0
LINE
  8
0
  6
CENTER
 62
2
 10
-2.30055248E+02
 20
-1.82672943E+02
 11
-2.16793648E+02
 21
-1.82672943E+02
  0
LINE
  8
0
 62
7
 10
-2.16165184E+02
 20
-7.13756866E+01
 11
-2.16165184E+02
 21
-7.08756866E+01
  0
LINE
  8
0
 62
7
 10
-2.19165184E+02
 20
-7.13756866E+01
 11
-2.19165184E+02
 21
-7.08756866E+01
  0
LINE
  8
0
 62
7
 10
-2.19460182E+02
 20
-7.03756866E+01
 11
-2.19460182E+02
 21
-7.11756821E+01
  0
LINE
  8
0
 62
7
 10
-2.19260185E+02
 20
-7.13756866E+01
 11
-2.15860184E+02
 21
-7.13756866E+01
  0
LINE
  8
0
 62
7
 10
-2.16660183E+02
 20
-1.17575684E+02
 11
-2.15860184E+02
 21
-1.17575684E+02
  0
LINE
  8
0
 62
7
 10
-2.18360184E+02
 20
-1.12175682E+02
 11
-2.15860184E+02
 21
-1.12175682E+02
  0
LINE
  8
0
 62
7
 10
-2.28360184E+02
 20
-1.03075684E+02
 11
-2.30860184E+02
 21
-1.03075684E+02
  0
LINE
  8
0
 62
7
 10
-2.30060184E+02
 20
-9.76756821E+01
 11
-2.30860184E+02
 21
-9.76756821E+01
  0
LINE
  8
0
 62
7
 10
-2.15610184E+02
 20
-1.88382660E+02
 11
-2.31110184E+02
 21
-1.88382660E+02
  0
LINE
  8
0
  6
PHANTOM
 62
2
 10
-2.21560184E+02
 20
-1.69585400E+02
 11
-2.21560184E+02
 21
-1.62985401E+02
  0
LINE
  8
0
  6
PHANTOM
 62
2
 10
-2.21060184E+02
 20
-1.62485401E+02
 11
-2.16460182E+02
 21
-1.62485401E+02
  0
LINE
  8
0
  6
PHANTOM
 62
2
 10
-2.15960182E+02
 20
-1.69585400E+02
 11
-2.15960182E+02
 21
-1.62985401E+02
  0
LINE
  8
0
  6
PHANTOM
 62
2
 10
-2.21060184E+02
 20
-1.70085400E+02
 11
-2.16460182E+02
 21
-1.70085400E+02
  0
LINE
  8
0
  6
CENTER
 62
2
 10
-2.30276024E+02
 20
-1.63685398E+02
 11
-2.25343193E+02
 21
-1.63685398E+02
  0
LINE
  8
0
  6
CENTER
 62
2
 10
-2.27860184E+02
 20
-1.66133560E+02
 11
-2.27860184E+02
 21
-1.61200726E+02
  0
LINE
  8
0
  6
CENTER
 62
2
 10
-2.27860184E+02
 20
-1.58066929E+02
 11
-2.27860184E+02
 21
-1.53366230E+02
  0
LINE
  8
0
  6
CENTER
 62
2
 10
-2.30159958E+02
 20
-1.55685398E+02
 11
-2.25691391E+02
 21
-1.55685398E+02
  0
LINE
  8
0
  6
PHANTOM
 62
2
 10
-2.17610184E+02
 20
-1.52685398E+02
 11
-2.16360184E+02
 21
-1.52685398E+02
  0
LINE
  8
0
  6
PHANTOM
 62
2
 10
-2.30360184E+02
 20
-1.52685398E+02
 11
-2.29110184E+02
 21
-1.52685398E+02
  0
LINE
  8
0
  6
PHANTOM
 62
2
 10
-2.29110184E+02
 20
-1.53385399E+02
 11
-2.17610184E+02
 21
-1.53385399E+02
  0
LINE
  8
0
  6
PHANTOM
 62
2
 10
-2.28610184E+02
 20
-1.50385399E+02
 11
-2.18110184E+02
 21
-1.50385399E+02
  0
LINE
  8
0
 62
7
 10
-2.17610184E+02
 20
-1.45385399E+02
 11
-2.16360184E+02
 21
-1.45385399E+02
  0
LINE
  8
0
  6
PHANTOM
 62
2
 10
-2.28610184E+02
 20
-1.44385399E+02
 11
-2.18110184E+02
 21
-1.44385399E+02
  0
LINE
  8
0
  6
PHANTOM
 62
2
 10
-2.17610184E+02
 20
-1.44825104E+02
 11
-2.17610184E+02
 21
-1.53385399E+02
  0
LINE
  8
0
  6
PHANTOM
 62
2
 10
-2.29110184E+02
 20
-1.53385399E+02
 11
-2.29110184E+02
 21
-1.44885399E+02
  0
LINE
  8
0
 62
7
 10
-2.30360184E+02
 20
-1.45385399E+02
 11
-2.29110184E+02
 21
-1.45385399E+02
  0
LINE
  8
0
  6
PHANTOM
 62
2
 10
-2.30360184E+02
 20
-1.70185400E+02
 11
-2.16360184E+02
 21
-1.70185400E+02
  0
LINE
  8
0
 62
7
 10
-2.15860184E+02
 20
-1.87882660E+02
 11
-2.15860184E+02
 21
-1.70882660E+02
  0
LINE
  8
0
 62
7
 10
-2.30860184E+02
 20
-1.87882660E+02
 11
-2.30860184E+02
 21
-1.70882660E+02
  0
LINE
  8
0
  6
PHANTOM
 62
2
 10
-2.15860184E+02
 20
-1.69685400E+02
 11
-2.15860184E+02
 21
-1.45885399E+02
  0
LINE
  8
0
  6
PHANTOM
 62
2
 10
-2.30860184E+02
 20
-1.69685400E+02
 11
-2.30860184E+02
 21
-1.45885399E+02
  0
LINE
  8
0
 62
7
 10
-2.16360184E+02
 20
-1.70382660E+02
 11
-2.30360184E+02
 21
-1.70382660E+02
  0
LINE
  8
0
  6
CENTER
 62
2
 10
-2.23360184E+02
 20
-1.91665982E+02
 11
-2.23360184E+02
 21
-6.58907166E+01
  0
LINE
  8
0
 62
6
 10
-2.20360184E+02
 20
-1.02375687E+02
 11
-2.29760185E+02
 21
-1.02375687E+02
  0
LINE
  8
0
 62
6
 10
-2.23560184E+02
 20
-9.73756866E+01
 11
-2.23560184E+02
 21
-1.02375687E+02
  0
LINE
  8
0
 62
6
 10
-2.26560184E+02
 20
-9.73756866E+01
 11
-2.23560184E+02
 21
-9.73756866E+01
  0
LINE
  8
0
 62
6
 10
-2.26560184E+02
 20
-9.73756866E+01
 11
-2.26560184E+02
 21
-1.02375687E+02
  0
LINE
  8
0
 62
6
 10
-2.27454551E+02
 20
-7.63348619E+01
 11
-2.27710181E+02
 21
-7.67756794E+01
  0
LINE
  8
0
 62
6
 10
-2.22410186E+02
 20
-7.67756850E+01
 11
-2.22665816E+02
 21
-7.63348675E+01
  0
LINE
  8
0
 62
6
 10
-2.26204552E+02
 20
-7.75848687E+01
 11
-2.26460182E+02
 21
-7.80256862E+01
  0
LINE
  8
0
 62
6
 10
-2.27710183E+02
 20
-7.67756837E+01
 11
-2.26460182E+02
 21
-7.80256851E+01
  0
LINE
  8
0
 62
6
 10
-2.26204555E+02
 20
-7.75848654E+01
 11
-2.27454551E+02
 21
-7.63348695E+01
  0
LINE
  8
0
 62
6
 10
-2.23915817E+02
 20
-7.75848667E+01
 11
-2.23660187E+02
 21
-7.80256842E+01
  0
LINE
  8
0
 62
6
 10
-2.20060184E+02
 20
-8.34664993E+01
 11
-2.30060184E+02
 21
-8.34664993E+01
  0
LINE
  8
0
 62
6
 10
-2.23915813E+02
 20
-7.75848654E+01
 11
-2.22665814E+02
 21
-7.63348668E+01
  0
LINE
  8
0
 62
6
 10
-2.20060184E+02
 20
-7.63348694E+01
 11
-2.22665813E+02
 21
-7.63348694E+01
  0
LINE
  8
0
 62
6
 10
-2.27454556E+02
 20
-7.63348694E+01
 11
-2.30060184E+02
 21
-7.63348694E+01
  0
LINE
  8
0
 62
6
 10
-2.26204556E+02
 20
-7.75848694E+01
 11
-2.23915813E+02
 21
-7.75848694E+01
  0
LINE
  8
0
 62
6
 10
-2.20060184E+02
 20
-7.67756805E+01
 11
-2.22410183E+02
 21
-7.67756805E+01
  0
LINE
  8
0
 62
6
 10
-2.22410184E+02
 20
-7.67756837E+01
 11
-2.23660185E+02
 21
-7.80256851E+01
  0
LINE
  8
0
 62
6
 10
-2.26460182E+02
 20
-7.80256805E+01
 11
-2.23660183E+02
 21
-7.80256805E+01
  0
LINE
  8
0
 62
6
 10
-2.27710182E+02
 20
-7.67756805E+01
 11
-2.30060184E+02
 21
-7.67756805E+01
  0
LINE
  8
0
 62
6
 10
-2.30060184E+02
 20
-8.42776031E+01
 11
-2.20060184E+02
 21
-8.42776031E+01
  0
LINE
  8
0
 62
6
 10
-2.21560184E+02
 20
-8.04756851E+01
 11
-2.20060184E+02
 21
-8.04756851E+01
  0
LINE
  8
0
 62
6
 10
-2.20060184E+02
 20
-7.72756805E+01
 11
-2.21560184E+02
 21
-7.72756805E+01
  0
LINE
  8
0
 62
6
 10
-2.28560184E+02
 20
-7.72756805E+01
 11
-2.30060184E+02
 21
-7.72756805E+01
  0
LINE
  8
0
 62
6
 10
-2.30060184E+02
 20
-8.04756851E+01
 11
-2.28560184E+02
 21
-8.04756851E+01
  0
LINE
  8
0
 62
6
 10
-2.30060184E+02
 20
-1.02075684E+02
 11
-2.30060184E+02
 21
-7.03756866E+01
  0
LINE
  8
0
 62
6
 10
-2.20060184E+02
 20
-1.02075684E+02
 11
-2.20060184E+02
 21
-7.03756866E+01
  0
LINE
  8
0
 62
6
 10
-2.23234669E+02
 20
-8.03256836E+01
 11
-2.26885696E+02
 21
-8.03256836E+01
  0
LINE
  8
0
 62
6
 10
-2.25060184E+02
 20
-8.09256821E+01
 11
-2.26885696E+02
 21
-8.09256821E+01
  0
LINE
  8
0
 62
6
 10
-2.23234669E+02
 20
-8.09256821E+01
 11
-2.25060184E+02
 21
-8.09256821E+01
  0
LINE
  8
0
 62
6
 10
-2.29267286E+02
 20
-7.81685797E+01
 11
-2.27853073E+02
 21
-7.95827933E+01
  0
LINE
  8
0
 62
6
 10
-2.29267286E+02
 20
-7.95827933E+01
 11
-2.27853073E+02
 21
-7.81685797E+01
  0
LINE
  8
0
 62
6
 10
-2.20853076E+02
 20
-7.95827933E+01
 11
-2.22267289E+02
 21
-7.81685797E+01
  0
LINE
  8
0
 62
6
 10
-2.20853076E+02
 20
-7.81685797E+01
 11
-2.22267289E+02
 21
-7.95827933E+01
  0
LINE
  8
0
 62
7
 10
-2.15610184E+02
 20
-7.03756866E+01
 11
-2.31110184E+02
 21
-7.03756866E+01
  0
LINE
  8
0
 62
6
 10
-2.16960182E+02
 20
-1.13375687E+02
 11
-2.26360184E+02
 21
-1.13375687E+02
  0
LINE
  8
0
 62
6
 10
-2.20160183E+02
 20
-1.18375687E+02
 11
-2.20160183E+02
 21
-1.13375687E+02
  0
LINE
  8
0
 62
6
 10
-2.23160183E+02
 20
-1.18375687E+02
 11
-2.20160183E+02
 21
-1.18375687E+02
  0
LINE
  8
0
 62
6
 10
-2.23160183E+02
 20
-1.18375687E+02
 11
-2.23160183E+02
 21
-1.13375687E+02
  0
LINE
  8
0
 62
6
 10
-2.24054556E+02
 20
-1.39416500E+02
 11
-2.24310186E+02
 21
-1.38975683E+02
  0
LINE
  8
0
 62
6
 10
-2.19010183E+02
 20
-1.38975684E+02
 11
-2.19265812E+02
 21
-1.39416499E+02
  0
LINE
  8
0
 62
6
 10
-2.22804556E+02
 20
-1.38166501E+02
 11
-2.23060186E+02
 21
-1.37725684E+02
  0
LINE
  8
0
 62
6
 10
-2.24310182E+02
 20
-1.38975685E+02
 11
-2.23060182E+02
 21
-1.37725685E+02
  0
LINE
  8
0
 62
6
 10
-2.22804553E+02
 20
-1.38166502E+02
 11
-2.24054553E+02
 21
-1.39416502E+02
  0
LINE
  8
0
 62
6
 10
-2.20515810E+02
 20
-1.38166499E+02
 11
-2.20260180E+02
 21
-1.37725682E+02
  0
LINE
  8
0
 62
6
 10
-2.16660183E+02
 20
-1.32284866E+02
 11
-2.26660183E+02
 21
-1.32284866E+02
  0
LINE
  8
0
 62
6
 10
-2.20515811E+02
 20
-1.38166503E+02
 11
-2.19265815E+02
 21
-1.39416499E+02
  0
LINE
  8
0
 62
6
 10
-2.16660183E+02
 20
-1.39416500E+02
 11
-2.19265812E+02
 21
-1.39416500E+02
  0
LINE
  8
0
 62
6
 10
-2.24054554E+02
 20
-1.39416500E+02
 11
-2.26660183E+02
 21
-1.39416500E+02
  0
LINE
  8
0
 62
6
 10
-2.22804554E+02
 20
-1.38166500E+02
 11
-2.20515812E+02
 21
-1.38166500E+02
  0
LINE
  8
0
 62
6
 10
-2.16660183E+02
 20
-1.38975681E+02
 11
-2.19010185E+02
 21
-1.38975681E+02
  0
LINE
  8
0
 62
6
 10
-2.19010182E+02
 20
-1.38975685E+02
 11
-2.20260184E+02
 21
-1.37725683E+02
  0
LINE
  8
0
 62
6
 10
-2.23060184E+02
 20
-1.37725681E+02
 11
-2.20260185E+02
 21
-1.37725681E+02
  0
LINE
  8
0
 62
6
 10
-2.24310184E+02
 20
-1.38975681E+02
 11
-2.26660183E+02
 21
-1.38975681E+02
  0
LINE
  8
0
 62
6
 10
-2.18160183E+02
 20
-1.35275684E+02
 11
-2.16660183E+02
 21
-1.35275684E+02
  0
LINE
  8
0
 62
6
 10
-2.16660183E+02
 20
-1.38475681E+02
 11
-2.18160183E+02
 21
-1.38475681E+02
  0
LINE
  8
0
 62
6
 10
-2.25160183E+02
 20
-1.38475681E+02
 11
-2.26660183E+02
 21
-1.38475681E+02
  0
LINE
  8
0
 62
6
 10
-2.26660183E+02
 20
-1.35275684E+02
 11
-2.25160183E+02
 21
-1.35275684E+02
  0
LINE
  8
0
 62
6
 10
-2.26660183E+02
 20
-1.13675682E+02
 11
-2.26660183E+02
 21
-1.45375683E+02
  0
LINE
  8
0
 62
6
 10
-2.19834671E+02
 20
-1.35425682E+02
 11
-2.23485699E+02
 21
-1.35425682E+02
  0
LINE
  8
0
 62
6
 10
-2.23485699E+02
 20
-1.34825684E+02
 11
-2.19834671E+02
 21
-1.34825684E+02
  0
LINE
  8
0
 62
6
 10
-2.25867291E+02
 20
-1.37582790E+02
 11
-2.24453078E+02
 21
-1.36168577E+02
  0
LINE
  8
0
 62
6
 10
-2.25867291E+02
 20
-1.36168577E+02
 11
-2.24453078E+02
 21
-1.37582790E+02
  0
LINE
  8
0
 62
6
 10
-2.17453080E+02
 20
-1.36168575E+02
 11
-2.18867293E+02
 21
-1.37582789E+02
  0
LINE
  8
0
 62
6
 10
-2.17453080E+02
 20
-1.37582789E+02
 11
-2.18867293E+02
 21
-1.36168575E+02
  0
LINE
  8
0
 62
7
 10
-2.31110184E+02
 20
-1.45375683E+02
 11
-2.15610184E+02
 21
-1.45375683E+02
  0
LINE
  8
0
 62
7
 10
-2.30860184E+02
 20
-8.38756866E+01
 11
-2.30060184E+02
 21
-8.38756866E+01
  0
LINE
  8
0
 62
6
 10
-2.30860184E+02
 20
-1.31875687E+02
 11
-2.26660183E+02
 21
-1.31875687E+02
  0
LINE
  8
0
 62
7
 10
-2.20060184E+02
 20
-8.38756866E+01
 11
-2.15860184E+02
 21
-8.38756866E+01
  0
LINE
  8
0
 62
7
 10
-2.16660183E+02
 20
-1.31875687E+02
 11
-2.15860184E+02
 21
-1.31875687E+02
  0
LINE
  8
0
 62
7
 10
-2.15610184E+02
 20
-1.88382660E+02
 11
-2.15610184E+02
 21
-7.03756866E+01
  0
LINE
  8
0
 62
7
 10
-2.31110184E+02
 20
-1.88382660E+02
 11
-2.31110184E+02
 21
-7.03756866E+01
  0
LINE
  8
0
 62
7
 10
-2.23310184E+02
 20
-5.86706848E+01
 11
-2.27310184E+02
 21
-5.86706848E+01
  0
LINE
  8
0
 62
7
 10
-2.27310184E+02
 20
-6.36706848E+01
 11
-2.23310184E+02
 21
-6.36706848E+01
  0
LINE
  8
0
 62
7
 10
-2.22310184E+02
 20
-6.63756866E+01
 11
-2.28310184E+02
 21
-6.63756866E+01
  0
LINE
  8
0
 62
7
 10
-2.21810184E+02
 20
-6.88756866E+01
 11
-2.21810184E+02
 21
-6.68756866E+01
  0
LINE
  8
0
 62
7
 10
-2.24060184E+02
 20
-6.36706848E+01
 11
-2.24060184E+02
 21
-6.63756866E+01
  0
LINE
  8
0
 62
7
 10
-2.21810183E+02
 20
-6.68756899E+01
 11
-2.22310184E+02
 21
-6.63756894E+01
  0
LINE
  8
0
 62
7
 10
-2.22810184E+02
 20
-6.31706840E+01
 11
-2.23310185E+02
 21
-6.36706845E+01
  0
LINE
  8
0
 62
7
 10
-2.22810179E+02
 20
-5.91706851E+01
 11
-2.23310179E+02
 21
-5.86706846E+01
  0
LINE
  8
0
 62
7
 10
-2.22810184E+02
 20
-5.91706848E+01
 11
-2.22810184E+02
 21
-6.31706848E+01
  0
LINE
  8
0
 62
7
 10
-2.28810182E+02
 20
-6.88756840E+01
 11
-2.28310182E+02
 21
-6.93756845E+01
  0
LINE
  8
0
 62
7
 10
-2.28810185E+02
 20
-6.68756846E+01
 11
-2.28310184E+02
 21
-6.63756840E+01
  0
LINE
  8
0
 62
7
 10
-2.27810179E+02
 20
-5.91706905E+01
 11
-2.27310178E+02
 21
-5.86706900E+01
  0
LINE
  8
0
 62
7
 10
-2.27310181E+02
 20
-6.36706872E+01
 11
-2.27810181E+02
 21
-6.31706867E+01
  0
LINE
  8
0
 62
7
 10
-2.27810184E+02
 20
-5.91706848E+01
 11
-2.27810184E+02
 21
-6.31706848E+01
  0
LINE
  8
0
 62
7
 10
-2.28810184E+02
 20
-6.88756866E+01
 11
-2.28810184E+02
 21
-6.68756866E+01
  0
LINE
  8
0
 62
7
 10
-2.26560184E+02
 20
-6.36706848E+01
 11
-2.26560184E+02
 21
-6.63756866E+01
  0
LINE
  8
0
 62
7
 10
-2.21810186E+02
 20
-6.88756840E+01
 11
-2.22310186E+02
 21
-6.93756845E+01
  0
LINE
  8
0
 62
7
 10
-2.29010185E+02
 20
-6.93756866E+01
 11
-2.21610184E+02
 21
-6.93756866E+01
  0
LINE
  8
0
 62
7
 10
-2.21310184E+02
 20
-7.03756866E+01
 11
-2.21310184E+02
 21
-6.96756821E+01
  0
LINE
  8
0
 62
7
 10
-2.29310184E+02
 20
-7.03756866E+01
 11
-2.29310184E+02
 21
-6.96756821E+01
  0
LINE
  8
0
 62
7
 10
-2.29310180E+02
 20
-6.96756864E+01
 11
-2.29010181E+02
 21
-6.93756872E+01
  0
LINE
  8
0
 62
7
 10
-2.21610182E+02
 20
-6.93756872E+01
 11
-2.21310182E+02
 21
-6.96756864E+01
  0
LINE
  8
0
 62
7
 10
-2.29310184E+02
 20
-6.96756821E+01
 11
-2.21310184E+02
 21
-6.96756821E+01
  0
LINE
  8
0
  6
CENTER
 62
2
 10
-2.25310184E+02
 20
-5.48894043E+01
 11
-2.25310184E+02
 21
-7.18532333E+01
  0
LINE
  8
0
  6
CENTER
 62
6
 10
-2.31060184E+02
 20
-7.88756866E+01
 11
-2.26060184E+02
 21
-7.88756866E+01
  0
LINE
  8
0
  6
CENTER
 62
6
 10
-2.24060184E+02
 20
-7.88756866E+01
 11
-2.19060184E+02
 21
-7.88756866E+01
  0
LINE
  8
0
  6
CENTER
 62
6
 10
-2.21560184E+02
 20
-8.13756866E+01
 11
-2.21560184E+02
 21
-7.63756866E+01
  0
LINE
  8
0
  6
CENTER
 62
6
 10
-2.28560184E+02
 20
-8.13756866E+01
 11
-2.28560184E+02
 21
-7.63756866E+01
  0
LINE
  8
0
  6
CENTER
 62
6
 10
-2.18160183E+02
 20
-1.39375683E+02
 11
-2.18160183E+02
 21
-1.34375683E+02
  0
LINE
  8
0
  6
CENTER
 62
6
 10
-2.25160183E+02
 20
-1.39375683E+02
 11
-2.25160183E+02
 21
-1.34375683E+02
  0
LINE
  8
0
  6
CENTER
 62
6
 10
-2.27660183E+02
 20
-1.36875683E+02
 11
-2.22660183E+02
 21
-1.36875683E+02
  0
LINE
  8
0
 62
6
 10
-2.30860184E+02
 20
-1.45872944E+02
 11
-2.15860184E+02
 21
-1.45872944E+02
  0
LINE
  8
0
 62
6
 10
-2.30860184E+02
 20
-1.69872944E+02
 11
-2.15860184E+02
 21
-1.69872944E+02
  0
LINE
  8
0
 62
6
 10
-2.30860184E+02
 20
-1.69872944E+02
 11
-2.30860184E+02
 21
-1.45872944E+02
  0
LINE
  8
0
 62
6
 10
-2.15860184E+02
 20
-1.69872944E+02
 11
-2.15860184E+02
 21
-1.45872944E+02
  0
LINE
  8
0
 62
6
 10
-2.42660183E+02
 20
-1.31473763E+02
 11
-2.32660183E+02
 21
-1.31473763E+02
  0
LINE
  8
0
 62
6
 10
-2.32660183E+02
 20
-1.30975685E+02
 11
-2.42660183E+02
 21
-1.30975685E+02
  0
LINE
  8
0
 62
6
 10
-2.32660183E+02
 20
-1.30875687E+02
 11
-2.42660183E+02
 21
-1.30875687E+02
  0
LINE
  8
0
 62
7
 10
-2.46860184E+02
 20
-1.45375683E+02
 11
-2.46860184E+02
 21
-7.03756866E+01
  0
LINE
  8
0
 62
7
 10
-2.31860184E+02
 20
-1.45375683E+02
 11
-2.31860184E+02
 21
-7.03756866E+01
  0
LINE
  8
0
 62
6
 10
-2.32660183E+02
 20
-1.13675682E+02
 11
-2.32660183E+02
 21
-1.45385399E+02
  0
LINE
  8
0
  6
CENTER
 62
6
 10
-2.34760185E+02
 20
-1.29383759E+02
 11
-2.34760185E+02
 21
-1.23838982E+02
  0
LINE
  8
0
  6
CENTER
 62
6
 10
-2.40560184E+02
 20
-1.29383759E+02
 11
-2.40560184E+02
 21
-1.23838982E+02
  0
LINE
  8
0
 62
6
 10
-2.34760185E+02
 20
-1.24675682E+02
 11
-2.40560184E+02
 21
-1.24675682E+02
  0
LINE
  8
0
 62
6
 10
-2.34760185E+02
 20
-1.28675682E+02
 11
-2.40560184E+02
 21
-1.28675682E+02
  0
LINE
  8
0
  6
CENTER
 62
6
 10
-2.32195770E+02
 20
-1.26675682E+02
 11
-2.43072067E+02
 21
-1.26675682E+02
  0
LINE
  8
0
 62
6
 10
-2.46060184E+02
 20
-8.48756866E+01
 11
-2.36060184E+02
 21
-8.48756866E+01
  0
LINE
  8
0
 62
6
 10
-2.46060184E+02
 20
-8.47756805E+01
 11
-2.36060184E+02
 21
-8.47756805E+01
  0
LINE
  8
0
  6
CENTER
 62
6
 10
-2.43960182E+02
 20
-8.63676071E+01
 11
-2.43960182E+02
 21
-9.19123840E+01
  0
LINE
  8
0
  6
CENTER
 62
6
 10
-2.38160183E+02
 20
-8.63676071E+01
 11
-2.38160183E+02
 21
-9.19123840E+01
  0
LINE
  8
0
 62
6
 10
-2.43960182E+02
 20
-9.10756836E+01
 11
-2.38160183E+02
 21
-9.10756836E+01
  0
LINE
  8
0
 62
6
 10
-2.43960182E+02
 20
-8.70756836E+01
 11
-2.38160183E+02
 21
-8.70756836E+01
  0
LINE
  8
0
  6
CENTER
 62
6
 10
-2.46524597E+02
 20
-8.90756836E+01
 11
-2.35648300E+02
 21
-8.90756836E+01
  0
LINE
  8
0
 62
7
 10
-2.46555183E+02
 20
-1.44875683E+02
 11
-2.46555183E+02
 21
-1.44375683E+02
  0
LINE
  8
0
 62
7
 10
-2.43260185E+02
 20
-1.45375683E+02
 11
-2.43260185E+02
 21
-1.44575684E+02
  0
LINE
  8
0
 62
7
 10
-2.43555183E+02
 20
-1.44375683E+02
 11
-2.43555183E+02
 21
-1.44875683E+02
  0
LINE
  8
0
  6
CENTER
 62
2
 10
-2.45060184E+02
 20
-1.46240669E+02
 11
-2.45060184E+02
 21
-1.43534294E+02
  0
LINE
  8
0
 62
7
 10
-2.43460182E+02
 20
-1.44375683E+02
 11
-2.46860184E+02
 21
-1.44375683E+02
  0
LINE
  8
0
  6
CENTER
 62
2
 10
-2.33660183E+02
 20
-6.95106964E+01
 11
-2.33660183E+02
 21
-7.22170715E+01
  0
LINE
  8
0
  6
CENTER
 62
2
 10
-2.46055248E+02
 20
-1.82672943E+02
 11
-2.32793648E+02
 21
-1.82672943E+02
  0
LINE
  8
0
 62
7
 10
-2.32165184E+02
 20
-7.13756866E+01
 11
-2.32165184E+02
 21
-7.08756866E+01
  0
LINE
  8
0
 62
7
 10
-2.35165184E+02
 20
-7.13756866E+01
 11
-2.35165184E+02
 21
-7.08756866E+01
  0
LINE
  8
0
 62
7
 10
-2.35460182E+02
 20
-7.03756866E+01
 11
-2.35460182E+02
 21
-7.11756821E+01
  0
LINE
  8
0
 62
7
 10
-2.35260185E+02
 20
-7.13756866E+01
 11
-2.31860184E+02
 21
-7.13756866E+01
  0
LINE
  8
0
 62
7
 10
-2.32660183E+02
 20
-1.17575684E+02
 11
-2.31860184E+02
 21
-1.17575684E+02
  0
LINE
  8
0
 62
7
 10
-2.34360184E+02
 20
-1.12175682E+02
 11
-2.31860184E+02
 21
-1.12175682E+02
  0
LINE
  8
0
 62
7
 10
-2.44360184E+02
 20
-1.03075684E+02
 11
-2.46860184E+02
 21
-1.03075684E+02
  0
LINE
  8
0
 62
7
 10
-2.46060184E+02
 20
-9.76756821E+01
 11
-2.46860184E+02
 21
-9.76756821E+01
  0
LINE
  8
0
 62
7
 10
-2.31610184E+02
 20
-1.88382660E+02
 11
-2.47110184E+02
 21
-1.88382660E+02
  0
LINE
  8
0
  6
PHANTOM
 62
2
 10
-2.37560184E+02
 20
-1.69585400E+02
 11
-2.37560184E+02
 21
-1.62985401E+02
  0
LINE
  8
0
  6
PHANTOM
 62
2
 10
-2.37060184E+02
 20
-1.62485401E+02
 11
-2.32460182E+02
 21
-1.62485401E+02
  0
LINE
  8
0
  6
PHANTOM
 62
2
 10
-2.31960182E+02
 20
-1.69585400E+02
 11
-2.31960182E+02
 21
-1.62985401E+02
  0
LINE
  8
0
  6
PHANTOM
 62
2
 10
-2.37060184E+02
 20
-1.70085400E+02
 11
-2.32460182E+02
 21
-1.70085400E+02
  0
LINE
  8
0
  6
CENTER
 62
2
 10
-2.46276024E+02
 20
-1.63685398E+02
 11
-2.41343193E+02
 21
-1.63685398E+02
  0
LINE
  8
0
  6
CENTER
 62
2
 10
-2.43860184E+02
 20
-1.66133560E+02
 11
-2.43860184E+02
 21
-1.61200726E+02
  0
LINE
  8
0
  6
CENTER
 62
2
 10
-2.43860184E+02
 20
-1.58066929E+02
 11
-2.43860184E+02
 21
-1.53366230E+02
  0
LINE
  8
0
  6
CENTER
 62
2
 10
-2.46159958E+02
 20
-1.55685398E+02
 11
-2.41691391E+02
 21
-1.55685398E+02
  0
LINE
  8
0
  6
PHANTOM
 62
2
 10
-2.33610184E+02
 20
-1.52685398E+02
 11
-2.32360184E+02
 21
-1.52685398E+02
  0
LINE
  8
0
  6
PHANTOM
 62
2
 10
-2.46360184E+02
 20
-1.52685398E+02
 11
-2.45110184E+02
 21
-1.52685398E+02
  0
LINE
  8
0
  6
PHANTOM
 62
2
 10
-2.45110184E+02
 20
-1.53385399E+02
 11
-2.33610184E+02
 21
-1.53385399E+02
  0
LINE
  8
0
  6
PHANTOM
 62
2
 10
-2.44610184E+02
 20
-1.50385399E+02
 11
-2.34110184E+02
 21
-1.50385399E+02
  0
LINE
  8
0
 62
7
 10
-2.33610184E+02
 20
-1.45385399E+02
 11
-2.32360184E+02
 21
-1.45385399E+02
  0
LINE
  8
0
  6
PHANTOM
 62
2
 10
-2.44610184E+02
 20
-1.44385399E+02
 11
-2.34110184E+02
 21
-1.44385399E+02
  0
LINE
  8
0
  6
PHANTOM
 62
2
 10
-2.33610184E+02
 20
-1.44825104E+02
 11
-2.33610184E+02
 21
-1.53385399E+02
  0
LINE
  8
0
  6
PHANTOM
 62
2
 10
-2.45110184E+02
 20
-1.53385399E+02
 11
-2.45110184E+02
 21
-1.44885399E+02
  0
LINE
  8
0
 62
7
 10
-2.46360184E+02
 20
-1.45385399E+02
 11
-2.45110184E+02
 21
-1.45385399E+02
  0
LINE
  8
0
  6
PHANTOM
 62
2
 10
-2.46360184E+02
 20
-1.70185400E+02
 11
-2.32360184E+02
 21
-1.70185400E+02
  0
LINE
  8
0
 62
7
 10
-2.31860184E+02
 20
-1.87882660E+02
 11
-2.31860184E+02
 21
-1.70882660E+02
  0
LINE
  8
0
 62
7
 10
-2.46860184E+02
 20
-1.87882660E+02
 11
-2.46860184E+02
 21
-1.70882660E+02
  0
LINE
  8
0
  6
PHANTOM
 62
2
 10
-2.31860184E+02
 20
-1.69685400E+02
 11
-2.31860184E+02
 21
-1.45885399E+02
  0
LINE
  8
0
  6
PHANTOM
 62
2
 10
-2.46860184E+02
 20
-1.69685400E+02
 11
-2.46860184E+02
 21
-1.45885399E+02
  0
LINE
  8
0
 62
7
 10
-2.32360184E+02
 20
-1.70382660E+02
 11
-2.46360184E+02
 21
-1.70382660E+02
  0
LINE
  8
0
  6
CENTER
 62
2
 10
-2.39360184E+02
 20
-1.91665982E+02
 11
-2.39360184E+02
 21
-6.58907166E+01
  0
LINE
  8
0
 62
6
 10
-2.36360184E+02
 20
-1.02375687E+02
 11
-2.45760185E+02
 21
-1.02375687E+02
  0
LINE
  8
0
 62
6
 10
-2.39560184E+02
 20
-9.73756866E+01
 11
-2.39560184E+02
 21
-1.02375687E+02
  0
LINE
  8
0
 62
6
 10
-2.42560184E+02
 20
-9.73756866E+01
 11
-2.39560184E+02
 21
-9.73756866E+01
  0
LINE
  8
0
 62
6
 10
-2.42560184E+02
 20
-9.73756866E+01
 11
-2.42560184E+02
 21
-1.02375687E+02
  0
LINE
  8
0
 62
6
 10
-2.43454548E+02
 20
-7.63348634E+01
 11
-2.43710178E+02
 21
-7.67756809E+01
  0
LINE
  8
0
 62
6
 10
-2.38410182E+02
 20
-7.67756916E+01
 11
-2.38665816E+02
 21
-7.63348675E+01
  0
LINE
  8
0
 62
6
 10
-2.42204550E+02
 20
-7.75848702E+01
 11
-2.42460179E+02
 21
-7.80256877E+01
  0
LINE
  8
0
 62
6
 10
-2.43710181E+02
 20
-7.67756864E+01
 11
-2.42460180E+02
 21
-7.80256878E+01
  0
LINE
  8
0
 62
6
 10
-2.42204553E+02
 20
-7.75848681E+01
 11
-2.43454554E+02
 21
-7.63348668E+01
  0
LINE
  8
0
 62
6
 10
-2.39915817E+02
 20
-7.75848667E+01
 11
-2.39660183E+02
 21
-7.80256908E+01
  0
LINE
  8
0
 62
6
 10
-2.36060184E+02
 20
-8.34664993E+01
 11
-2.46060184E+02
 21
-8.34664993E+01
  0
LINE
  8
0
 62
6
 10
-2.39915811E+02
 20
-7.75848681E+01
 11
-2.38665812E+02
 21
-7.63348695E+01
  0
LINE
  8
0
 62
6
 10
-2.36060184E+02
 20
-7.63348694E+01
 11
-2.38665813E+02
 21
-7.63348694E+01
  0
LINE
  8
0
 62
6
 10
-2.43454556E+02
 20
-7.63348694E+01
 11
-2.46060184E+02
 21
-7.63348694E+01
  0
LINE
  8
0
 62
6
 10
-2.42204556E+02
 20
-7.75848694E+01
 11
-2.39915813E+02
 21
-7.75848694E+01
  0
LINE
  8
0
 62
6
 10
-2.36060184E+02
 20
-7.67756805E+01
 11
-2.38410183E+02
 21
-7.67756805E+01
  0
LINE
  8
0
 62
6
 10
-2.38410182E+02
 20
-7.67756864E+01
 11
-2.39660181E+02
 21
-7.80256851E+01
  0
LINE
  8
0
 62
6
 10
-2.42460182E+02
 20
-7.80256805E+01
 11
-2.39660183E+02
 21
-7.80256805E+01
  0
LINE
  8
0
 62
6
 10
-2.43710182E+02
 20
-7.67756805E+01
 11
-2.46060184E+02
 21
-7.67756805E+01
  0
LINE
  8
0
 62
6
 10
-2.46060184E+02
 20
-8.42776031E+01
 11
-2.36060184E+02
 21
-8.42776031E+01
  0
LINE
  8
0
 62
6
 10
-2.37560184E+02
 20
-8.04756851E+01
 11
-2.36060184E+02
 21
-8.04756851E+01
  0
LINE
  8
0
 62
6
 10
-2.36060184E+02
 20
-7.72756805E+01
 11
-2.37560184E+02
 21
-7.72756805E+01
  0
LINE
  8
0
 62
6
 10
-2.44560184E+02
 20
-7.72756805E+01
 11
-2.46060184E+02
 21
-7.72756805E+01
  0
LINE
  8
0
 62
6
 10
-2.46060184E+02
 20
-8.04756851E+01
 11
-2.44560184E+02
 21
-8.04756851E+01
  0
LINE
  8
0
 62
6
 10
-2.46060184E+02
 20
-1.02075684E+02
 11
-2.46060184E+02
 21
-7.03756866E+01
  0
LINE
  8
0
 62
6
 10
-2.36060184E+02
 20
-1.02075684E+02
 11
-2.36060184E+02
 21
-7.03756866E+01
  0
LINE
  8
0
 62
6
 10
-2.39234669E+02
 20
-8.03256836E+01
 11
-2.42885696E+02
 21
-8.03256836E+01
  0
LINE
  8
0
 62
6
 10
-2.41060184E+02
 20
-8.09256821E+01
 11
-2.42885696E+02
 21
-8.09256821E+01
  0
LINE
  8
0
 62
6
 10
-2.39234669E+02
 20
-8.09256821E+01
 11
-2.41060184E+02
 21
-8.09256821E+01
  0
LINE
  8
0
 62
6
 10
-2.45267290E+02
 20
-7.81685770E+01
 11
-2.43853076E+02
 21
-7.95827906E+01
  0
LINE
  8
0
 62
6
 10
-2.45267290E+02
 20
-7.95827906E+01
 11
-2.43853076E+02
 21
-7.81685770E+01
  0
LINE
  8
0
 62
6
 10
-2.36853079E+02
 20
-7.95827906E+01
 11
-2.38267293E+02
 21
-7.81685770E+01
  0
LINE
  8
0
 62
6
 10
-2.36853079E+02
 20
-7.81685770E+01
 11
-2.38267293E+02
 21
-7.95827906E+01
  0
LINE
  8
0
 62
7
 10
-2.31610184E+02
 20
-7.03756866E+01
 11
-2.47110184E+02
 21
-7.03756866E+01
  0
LINE
  8
0
 62
6
 10
-2.32960182E+02
 20
-1.13375687E+02
 11
-2.42360184E+02
 21
-1.13375687E+02
  0
LINE
  8
0
 62
6
 10
-2.36160183E+02
 20
-1.18375687E+02
 11
-2.36160183E+02
 21
-1.13375687E+02
  0
LINE
  8
0
 62
6
 10
-2.39160183E+02
 20
-1.18375687E+02
 11
-2.36160183E+02
 21
-1.18375687E+02
  0
LINE
  8
0
 62
6
 10
-2.39160183E+02
 20
-1.18375687E+02
 11
-2.39160183E+02
 21
-1.13375687E+02
  0
LINE
  8
0
 62
6
 10
-2.40054556E+02
 20
-1.39416500E+02
 11
-2.40310185E+02
 21
-1.38975682E+02
  0
LINE
  8
0
 62
6
 10
-2.35010183E+02
 20
-1.38975681E+02
 11
-2.35265812E+02
 21
-1.39416499E+02
  0
LINE
  8
0
 62
6
 10
-2.38804556E+02
 20
-1.38166502E+02
 11
-2.39060186E+02
 21
-1.37725684E+02
  0
LINE
  8
0
 62
6
 10
-2.40310185E+02
 20
-1.38975682E+02
 11
-2.39060185E+02
 21
-1.37725682E+02
  0
LINE
  8
0
 62
6
 10
-2.38804556E+02
 20
-1.38166499E+02
 11
-2.40054556E+02
 21
-1.39416499E+02
  0
LINE
  8
0
 62
6
 10
-2.36515815E+02
 20
-1.38166499E+02
 11
-2.36260185E+02
 21
-1.37725681E+02
  0
LINE
  8
0
 62
6
 10
-2.32660183E+02
 20
-1.32284866E+02
 11
-2.42660183E+02
 21
-1.32284866E+02
  0
LINE
  8
0
 62
6
 10
-2.36515814E+02
 20
-1.38166500E+02
 11
-2.35265813E+02
 21
-1.39416501E+02
  0
LINE
  8
0
 62
6
 10
-2.32660183E+02
 20
-1.39416500E+02
 11
-2.35265812E+02
 21
-1.39416500E+02
  0
LINE
  8
0
 62
6
 10
-2.40054554E+02
 20
-1.39416500E+02
 11
-2.42660183E+02
 21
-1.39416500E+02
  0
LINE
  8
0
 62
6
 10
-2.38804554E+02
 20
-1.38166500E+02
 11
-2.36515812E+02
 21
-1.38166500E+02
  0
LINE
  8
0
 62
6
 10
-2.32660183E+02
 20
-1.38975681E+02
 11
-2.35010185E+02
 21
-1.38975681E+02
  0
LINE
  8
0
 62
6
 10
-2.35010185E+02
 20
-1.38975681E+02
 11
-2.36260181E+02
 21
-1.37725685E+02
  0
LINE
  8
0
 62
6
 10
-2.39060184E+02
 20
-1.37725681E+02
 11
-2.36260185E+02
 21
-1.37725681E+02
  0
LINE
  8
0
 62
6
 10
-2.40310184E+02
 20
-1.38975681E+02
 11
-2.42660183E+02
 21
-1.38975681E+02
  0
LINE
  8
0
 62
6
 10
-2.34160183E+02
 20
-1.35275684E+02
 11
-2.32660183E+02
 21
-1.35275684E+02
  0
LINE
  8
0
 62
6
 10
-2.32660183E+02
 20
-1.38475681E+02
 11
-2.34160183E+02
 21
-1.38475681E+02
  0
LINE
  8
0
 62
6
 10
-2.41160183E+02
 20
-1.38475681E+02
 11
-2.42660183E+02
 21
-1.38475681E+02
  0
LINE
  8
0
 62
6
 10
-2.42660183E+02
 20
-1.35275684E+02
 11
-2.41160183E+02
 21
-1.35275684E+02
  0
LINE
  8
0
 62
6
 10
-2.42660183E+02
 20
-1.13675682E+02
 11
-2.42660183E+02
 21
-1.45375683E+02
  0
LINE
  8
0
 62
6
 10
-2.35834671E+02
 20
-1.35425682E+02
 11
-2.39485699E+02
 21
-1.35425682E+02
  0
LINE
  8
0
 62
6
 10
-2.39485699E+02
 20
-1.34825684E+02
 11
-2.35834671E+02
 21
-1.34825684E+02
  0
LINE
  8
0
 62
6
 10
-2.41867288E+02
 20
-1.37582792E+02
 11
-2.40453075E+02
 21
-1.36168578E+02
  0
LINE
  8
0
 62
6
 10
-2.41867288E+02
 20
-1.36168578E+02
 11
-2.40453075E+02
 21
-1.37582792E+02
  0
LINE
  8
0
 62
6
 10
-2.33453077E+02
 20
-1.36168577E+02
 11
-2.34867290E+02
 21
-1.37582790E+02
  0
LINE
  8
0
 62
6
 10
-2.33453077E+02
 20
-1.37582790E+02
 11
-2.34867290E+02
 21
-1.36168577E+02
  0
LINE
  8
0
 62
7
 10
-2.47110184E+02
 20
-1.45375683E+02
 11
-2.31610184E+02
 21
-1.45375683E+02
  0
LINE
  8
0
 62
7
 10
-2.46860184E+02
 20
-8.38756866E+01
 11
-2.46060184E+02
 21
-8.38756866E+01
  0
LINE
  8
0
 62
6
 10
-2.46860184E+02
 20
-1.31875687E+02
 11
-2.42660183E+02
 21
-1.31875687E+02
  0
LINE
  8
0
 62
7
 10
-2.36060184E+02
 20
-8.38756866E+01
 11
-2.31860184E+02
 21
-8.38756866E+01
  0
LINE
  8
0
 62
7
 10
-2.32660183E+02
 20
-1.31875687E+02
 11
-2.31860184E+02
 21
-1.31875687E+02
  0
LINE
  8
0
 62
7
 10
-2.31610184E+02
 20
-1.88382660E+02
 11
-2.31610184E+02
 21
-7.03756866E+01
  0
LINE
  8
0
 62
7
 10
-2.47110184E+02
 20
-1.88382660E+02
 11
-2.47110184E+02
 21
-7.03756866E+01
  0
LINE
  8
0
 62
7
 10
-2.39310184E+02
 20
-5.86706848E+01
 11
-2.43310184E+02
 21
-5.86706848E+01
  0
LINE
  8
0
 62
7
 10
-2.43310184E+02
 20
-6.36706848E+01
 11
-2.39310184E+02
 21
-6.36706848E+01
  0
LINE
  8
0
 62
7
 10
-2.38310184E+02
 20
-6.63756866E+01
 11
-2.44310184E+02
 21
-6.63756866E+01
  0
LINE
  8
0
 62
7
 10
-2.37810184E+02
 20
-6.88756866E+01
 11
-2.37810184E+02
 21
-6.68756866E+01
  0
LINE
  8
0
 62
7
 10
-2.40060184E+02
 20
-6.36706848E+01
 11
-2.40060184E+02
 21
-6.63756866E+01
  0
LINE
  8
0
 62
7
 10
-2.37810184E+02
 20
-6.68756846E+01
 11
-2.38310184E+02
 21
-6.63756840E+01
  0
LINE
  8
0
 62
7
 10
-2.38810182E+02
 20
-6.31706867E+01
 11
-2.39310183E+02
 21
-6.36706872E+01
  0
LINE
  8
0
 62
7
 10
-2.38810185E+02
 20
-5.91706851E+01
 11
-2.39310185E+02
 21
-5.86706846E+01
  0
LINE
  8
0
 62
7
 10
-2.38810184E+02
 20
-5.91706848E+01
 11
-2.38810184E+02
 21
-6.31706848E+01
  0
LINE
  8
0
 62
7
 10
-2.44810186E+02
 20
-6.88756813E+01
 11
-2.44310185E+02
 21
-6.93756818E+01
  0
LINE
  8
0
 62
7
 10
-2.44810189E+02
 20
-6.68756819E+01
 11
-2.44310188E+02
 21
-6.63756813E+01
  0
LINE
  8
0
 62
7
 10
-2.43810187E+02
 20
-5.91706824E+01
 11
-2.43310187E+02
 21
-5.86706819E+01
  0
LINE
  8
0
 62
7
 10
-2.43310184E+02
 20
-6.36706845E+01
 11
-2.43810185E+02
 21
-6.31706840E+01
  0
LINE
  8
0
 62
7
 10
-2.43810184E+02
 20
-5.91706848E+01
 11
-2.43810184E+02
 21
-6.31706848E+01
  0
LINE
  8
0
 62
7
 10
-2.44810184E+02
 20
-6.88756866E+01
 11
-2.44810184E+02
 21
-6.68756866E+01
  0
LINE
  8
0
 62
7
 10
-2.42560184E+02
 20
-6.36706848E+01
 11
-2.42560184E+02
 21
-6.63756866E+01
  0
LINE
  8
0
 62
7
 10
-2.37810184E+02
 20
-6.88756867E+01
 11
-2.38310182E+02
 21
-6.93756845E+01
  0
LINE
  8
0
 62
7
 10
-2.45010185E+02
 20
-6.93756866E+01
 11
-2.37610184E+02
 21
-6.93756866E+01
  0
LINE
  8
0
 62
7
 10
-2.37310184E+02
 20
-7.03756866E+01
 11
-2.37310184E+02
 21
-6.96756821E+01
  0
LINE
  8
0
 62
7
 10
-2.45310184E+02
 20
-7.03756866E+01
 11
-2.45310184E+02
 21
-6.96756821E+01
  0
LINE
  8
0
 62
7
 10
-2.45310178E+02
 20
-6.96756891E+01
 11
-2.45010179E+02
 21
-6.93756899E+01
  0
LINE
  8
0
 62
7
 10
-2.37610180E+02
 20
-6.93756899E+01
 11
-2.37310186E+02
 21
-6.96756837E+01
  0
LINE
  8
0
 62
7
 10
-2.45310184E+02
 20
-6.96756821E+01
 11
-2.37310184E+02
 21
-6.96756821E+01
  0
LINE
  8
0
  6
CENTER
 62
2
 10
-2.41310184E+02
 20
-5.48894043E+01
 11
-2.41310184E+02
 21
-7.18532333E+01
  0
LINE
  8
0
  6
CENTER
 62
6
 10
-2.47060181E+02
 20
-7.88756866E+01
 11
-2.42060184E+02
 21
-7.88756866E+01
  0
LINE
  8
0
  6
CENTER
 62
6
 10
-2.40060184E+02
 20
-7.88756866E+01
 11
-2.35060184E+02
 21
-7.88756866E+01
  0
LINE
  8
0
  6
CENTER
 62
6
 10
-2.37560184E+02
 20
-8.13756866E+01
 11
-2.37560184E+02
 21
-7.63756866E+01
  0
LINE
  8
0
  6
CENTER
 62
6
 10
-2.44560184E+02
 20
-8.13756866E+01
 11
-2.44560184E+02
 21
-7.63756866E+01
  0
LINE
  8
0
  6
CENTER
 62
6
 10
-2.34160183E+02
 20
-1.39375683E+02
 11
-2.34160183E+02
 21
-1.34375683E+02
  0
LINE
  8
0
  6
CENTER
 62
6
 10
-2.41160183E+02
 20
-1.39375683E+02
 11
-2.41160183E+02
 21
-1.34375683E+02
  0
LINE
  8
0
  6
CENTER
 62
6
 10
-2.36660183E+02
 20
-1.36875683E+02
 11
-2.31660183E+02
 21
-1.36875683E+02
  0
LINE
  8
0
  6
CENTER
 62
6
 10
-2.43660183E+02
 20
-1.36875683E+02
 11
-2.38660183E+02
 21
-1.36875683E+02
  0
LINE
  8
0
 62
6
 10
-2.46860184E+02
 20
-1.45872944E+02
 11
-2.31860184E+02
 21
-1.45872944E+02
  0
LINE
  8
0
 62
6
 10
-2.46860184E+02
 20
-1.69872944E+02
 11
-2.31860184E+02
 21
-1.69872944E+02
  0
LINE
  8
0
 62
6
 10
-2.46860184E+02
 20
-1.69872944E+02
 11
-2.46860184E+02
 21
-1.45872944E+02
  0
LINE
  8
0
 62
6
 10
-2.31860184E+02
 20
-1.69872944E+02
 11
-2.31860184E+02
 21
-1.45872944E+02
  0
LINE
  8
0
 62
2
 10
-1.98860184E+02
 20
-6.88659668E+01
 11
-1.98860184E+02
 21
-6.68659668E+01
  0
LINE
  8
0
 62
6
 10
-1.93860184E+02
 20
-8.48659668E+01
 11
-2.03860184E+02
 21
-8.48659668E+01
  0
LINE
  8
0
 62
6
 10
-1.93860184E+02
 20
-8.47659683E+01
 11
-2.03860184E+02
 21
-8.47659683E+01
  0
LINE
  8
0
 62
6
 10
-2.03860184E+02
 20
-8.42678909E+01
 11
-1.93860184E+02
 21
-8.42678909E+01
  0
LINE
  8
0
  6
CENTER
 62
6
 10
-1.95960184E+02
 20
-8.63578873E+01
 11
-1.95960184E+02
 21
-9.19026718E+01
  0
LINE
  8
0
  6
CENTER
 62
6
 10
-2.01760183E+02
 20
-8.63578873E+01
 11
-2.01760183E+02
 21
-9.19026718E+01
  0
LINE
  8
0
 62
6
 10
-1.95960184E+02
 20
-9.10659637E+01
 11
-2.01760183E+02
 21
-9.10659637E+01
  0
LINE
  8
0
 62
6
 10
-1.95960184E+02
 20
-8.70659637E+01
 11
-2.01760183E+02
 21
-8.70659637E+01
  0
LINE
  8
0
  6
CENTER
 62
6
 10
-1.93449694E+02
 20
-8.90659637E+01
 11
-2.04272066E+02
 21
-8.90659637E+01
  0
LINE
  8
0
 62
6
 10
-1.93860184E+02
 20
-1.30875687E+02
 11
-2.03860184E+02
 21
-1.30875687E+02
  0
LINE
  8
0
 62
6
 10
-1.93860184E+02
 20
-1.30975685E+02
 11
-2.03860184E+02
 21
-1.30975685E+02
  0
LINE
  8
0
  6
CENTER
 62
6
 10
-1.95960184E+02
 20
-1.29383759E+02
 11
-1.95960184E+02
 21
-1.23838982E+02
  0
LINE
  8
0
  6
CENTER
 62
6
 10
-2.01760183E+02
 20
-1.29383759E+02
 11
-2.01760183E+02
 21
-1.23838982E+02
  0
LINE
  8
0
 62
6
 10
-1.95960184E+02
 20
-1.24675682E+02
 11
-2.01760183E+02
 21
-1.24675682E+02
  0
LINE
  8
0
 62
6
 10
-1.95960184E+02
 20
-1.28675682E+02
 11
-2.01760183E+02
 21
-1.28675682E+02
  0
LINE
  8
0
  6
CENTER
 62
6
 10
-1.93449694E+02
 20
-1.26675682E+02
 11
-2.04272066E+02
 21
-1.26675682E+02
  0
LINE
  8
0
 62
6
 10
-1.94160184E+02
 20
-1.13375687E+02
 11
-2.03560184E+02
 21
-1.13375687E+02
  0
LINE
  8
0
 62
6
 10
-1.97360184E+02
 20
-1.18375687E+02
 11
-1.97360184E+02
 21
-1.13375687E+02
  0
LINE
  8
0
 62
6
 10
-2.00360184E+02
 20
-1.18375687E+02
 11
-1.97360184E+02
 21
-1.18375687E+02
  0
LINE
  8
0
 62
6
 10
-2.00360184E+02
 20
-1.18375687E+02
 11
-2.00360184E+02
 21
-1.13375687E+02
  0
LINE
  8
0
 62
6
 10
-2.01254556E+02
 20
-1.39416501E+02
 11
-2.01510185E+02
 21
-1.38975683E+02
  0
LINE
  8
0
 62
6
 10
-1.96210183E+02
 20
-1.38975683E+02
 11
-1.96465812E+02
 21
-1.39416500E+02
  0
LINE
  8
0
 62
6
 10
-2.00004555E+02
 20
-1.38166502E+02
 11
-2.00260185E+02
 21
-1.37725684E+02
  0
LINE
  8
0
 62
6
 10
-2.01510184E+02
 20
-1.38975683E+02
 11
-2.00260184E+02
 21
-1.37725683E+02
  0
LINE
  8
0
 62
6
 10
-2.00004554E+02
 20
-1.38166500E+02
 11
-2.01254554E+02
 21
-1.39416500E+02
  0
LINE
  8
0
 62
6
 10
-1.97715811E+02
 20
-1.38166502E+02
 11
-1.97460182E+02
 21
-1.37725684E+02
  0
LINE
  8
0
 62
6
 10
-1.93860184E+02
 20
-1.32284866E+02
 11
-2.03860184E+02
 21
-1.32284866E+02
  0
LINE
  8
0
 62
6
 10
-1.97715813E+02
 20
-1.38166502E+02
 11
-1.96465812E+02
 21
-1.39416503E+02
  0
LINE
  8
0
 62
6
 10
-1.93860184E+02
 20
-1.39416500E+02
 11
-1.96465814E+02
 21
-1.39416500E+02
  0
LINE
  8
0
 62
6
 10
-2.01254555E+02
 20
-1.39416500E+02
 11
-2.03860184E+02
 21
-1.39416500E+02
  0
LINE
  8
0
 62
6
 10
-2.00004555E+02
 20
-1.38166500E+02
 11
-1.97715814E+02
 21
-1.38166500E+02
  0
LINE
  8
0
 62
6
 10
-1.93860184E+02
 20
-1.38975681E+02
 11
-1.96210184E+02
 21
-1.38975681E+02
  0
LINE
  8
0
 62
6
 10
-1.96210185E+02
 20
-1.38975683E+02
 11
-1.97460184E+02
 21
-1.37725685E+02
  0
LINE
  8
0
 62
6
 10
-2.00260183E+02
 20
-1.37725681E+02
 11
-1.97460184E+02
 21
-1.37725681E+02
  0
LINE
  8
0
 62
6
 10
-2.01510183E+02
 20
-1.38975681E+02
 11
-2.03860184E+02
 21
-1.38975681E+02
  0
LINE
  8
0
 62
6
 10
-2.03860184E+02
 20
-1.31473763E+02
 11
-1.93860184E+02
 21
-1.31473763E+02
  0
LINE
  8
0
 62
6
 10
-1.95360184E+02
 20
-1.35275684E+02
 11
-1.93860184E+02
 21
-1.35275684E+02
  0
LINE
  8
0
 62
6
 10
-1.93860184E+02
 20
-1.38475681E+02
 11
-1.95360184E+02
 21
-1.38475681E+02
  0
LINE
  8
0
 62
6
 10
-2.02360184E+02
 20
-1.38475681E+02
 11
-2.03860184E+02
 21
-1.38475681E+02
  0
LINE
  8
0
 62
6
 10
-2.03860184E+02
 20
-1.35275684E+02
 11
-2.02360184E+02
 21
-1.35275684E+02
  0
LINE
  8
0
 62
6
 10
-1.97034670E+02
 20
-1.35425682E+02
 11
-2.00685698E+02
 21
-1.35425682E+02
  0
LINE
  8
0
 62
6
 10
-1.98860184E+02
 20
-1.34825684E+02
 11
-2.00685698E+02
 21
-1.34825684E+02
  0
LINE
  8
0
 62
6
 10
-1.97034670E+02
 20
-1.34825684E+02
 11
-1.98860184E+02
 21
-1.34825684E+02
  0
LINE
  8
0
 62
6
 10
-2.03067290E+02
 20
-1.37582790E+02
 11
-2.01653076E+02
 21
-1.36168577E+02
  0
LINE
  8
0
 62
6
 10
-2.03067290E+02
 20
-1.36168577E+02
 11
-2.01653076E+02
 21
-1.37582790E+02
  0
LINE
  8
0
 62
6
 10
-1.94653077E+02
 20
-1.36168579E+02
 11
-1.96067290E+02
 21
-1.37582793E+02
  0
LINE
  8
0
 62
6
 10
-1.94653077E+02
 20
-1.37582793E+02
 11
-1.96067290E+02
 21
-1.36168579E+02
  0
LINE
  8
0
 62
6
 10
-1.94160184E+02
 20
-1.02365967E+02
 11
-2.03560184E+02
 21
-1.02365967E+02
  0
LINE
  8
0
 62
6
 10
-1.97360184E+02
 20
-9.73659668E+01
 11
-1.97360184E+02
 21
-1.02365967E+02
  0
LINE
  8
0
 62
6
 10
-2.00360184E+02
 20
-9.73659668E+01
 11
-1.97360184E+02
 21
-9.73659668E+01
  0
LINE
  8
0
 62
6
 10
-2.00360184E+02
 20
-9.73659668E+01
 11
-2.00360184E+02
 21
-1.02365967E+02
  0
LINE
  8
0
 62
6
 10
-2.01254554E+02
 20
-7.63251482E+01
 11
-2.01510184E+02
 21
-7.67659657E+01
  0
LINE
  8
0
 62
6
 10
-1.96210188E+02
 20
-7.67659686E+01
 11
-1.96465818E+02
 21
-7.63251511E+01
  0
LINE
  8
0
 62
6
 10
-2.00004552E+02
 20
-7.75751485E+01
 11
-2.00260181E+02
 21
-7.80159659E+01
  0
LINE
  8
0
 62
6
 10
-2.01510184E+02
 20
-7.67659650E+01
 11
-2.00260183E+02
 21
-7.80159663E+01
  0
LINE
  8
0
 62
6
 10
-2.00004550E+02
 20
-7.75751521E+01
 11
-2.01254552E+02
 21
-7.63251508E+01
  0
LINE
  8
0
 62
6
 10
-1.97715817E+02
 20
-7.75751494E+01
 11
-1.97460187E+02
 21
-7.80159669E+01
  0
LINE
  8
0
 62
6
 10
-1.93860184E+02
 20
-8.34567871E+01
 11
-2.03860184E+02
 21
-8.34567871E+01
  0
LINE
  8
0
 62
6
 10
-1.97715813E+02
 20
-7.75751467E+01
 11
-1.96465817E+02
 21
-7.63251508E+01
  0
LINE
  8
0
 62
6
 10
-1.93860184E+02
 20
-7.63251495E+01
 11
-1.96465814E+02
 21
-7.63251495E+01
  0
LINE
  8
0
 62
6
 10
-2.01254555E+02
 20
-7.63251495E+01
 11
-2.03860184E+02
 21
-7.63251495E+01
  0
LINE
  8
0
 62
6
 10
-2.00004555E+02
 20
-7.75751495E+01
 11
-1.97715814E+02
 21
-7.75751495E+01
  0
LINE
  8
0
 62
6
 10
-1.93860184E+02
 20
-7.67659683E+01
 11
-1.96210184E+02
 21
-7.67659683E+01
  0
LINE
  8
0
 62
6
 10
-1.96210185E+02
 20
-7.67659650E+01
 11
-1.97460186E+02
 21
-7.80159663E+01
  0
LINE
  8
0
 62
6
 10
-2.00260183E+02
 20
-7.80159683E+01
 11
-1.97460184E+02
 21
-7.80159683E+01
  0
LINE
  8
0
 62
6
 10
-2.01510183E+02
 20
-7.67659683E+01
 11
-2.03860184E+02
 21
-7.67659683E+01
  0
LINE
  8
0
 62
6
 10
-1.95360184E+02
 20
-8.04659653E+01
 11
-1.93860184E+02
 21
-8.04659653E+01
  0
LINE
  8
0
 62
6
 10
-1.93860184E+02
 20
-7.72659683E+01
 11
-1.95360184E+02
 21
-7.72659683E+01
  0
LINE
  8
0
 62
6
 10
-2.02360184E+02
 20
-7.72659683E+01
 11
-2.03860184E+02
 21
-7.72659683E+01
  0
LINE
  8
0
 62
6
 10
-2.03860184E+02
 20
-8.04659653E+01
 11
-2.02360184E+02
 21
-8.04659653E+01
  0
LINE
  8
0
 62
6
 10
-2.03860184E+02
 20
-1.02065964E+02
 11
-2.03860184E+02
 21
-7.03659668E+01
  0
LINE
  8
0
 62
6
 10
-1.93860184E+02
 20
-1.02065964E+02
 11
-1.93860184E+02
 21
-7.03659668E+01
  0
LINE
  8
0
 62
6
 10
-1.97034670E+02
 20
-8.03159637E+01
 11
-2.00685698E+02
 21
-8.03159637E+01
  0
LINE
  8
0
 62
6
 10
-1.98860184E+02
 20
-8.09159698E+01
 11
-2.00685698E+02
 21
-8.09159698E+01
  0
LINE
  8
0
 62
6
 10
-1.97034670E+02
 20
-8.09159698E+01
 11
-1.98860184E+02
 21
-8.09159698E+01
  0
LINE
  8
0
 62
6
 10
-2.03067290E+02
 20
-7.81588637E+01
 11
-2.01653076E+02
 21
-7.95730772E+01
  0
LINE
  8
0
 62
6
 10
-2.03067290E+02
 20
-7.95730772E+01
 11
-2.01653076E+02
 21
-7.81588637E+01
  0
LINE
  8
0
 62
6
 10
-1.94653079E+02
 20
-7.95730772E+01
 11
-1.96067293E+02
 21
-7.81588637E+01
  0
LINE
  8
0
 62
6
 10
-1.94653079E+02
 20
-7.81588637E+01
 11
-1.96067293E+02
 21
-7.95730772E+01
  0
LINE
  8
0
 62
6
 10
-2.03860184E+02
 20
-7.03659668E+01
 11
-1.93860184E+02
 21
-7.03659668E+01
  0
LINE
  8
0
  6
PHANTOM
 62
2
 10
-1.93760183E+02
 20
-1.65372944E+02
 11
-2.03960184E+02
 21
-1.65372944E+02
  0
LINE
  8
0
  6
PHANTOM
 62
2
 10
-1.93760183E+02
 20
-1.65372944E+02
 11
-1.93760183E+02
 21
-1.45375683E+02
  0
LINE
  8
0
  6
PHANTOM
 62
2
 10
-2.03960184E+02
 20
-1.65372944E+02
 11
-2.03960184E+02
 21
-1.45375683E+02
  0
LINE
  8
0
  6
CENTER
 62
2
 10
-2.00960184E+02
 20
-1.45375683E+02
 11
-2.00960184E+02
 21
-1.64127460E+02
  0
LINE
  8
0
  6
CENTER
 62
2
 10
-2.03616390E+02
 20
-1.61274315E+02
 11
-1.98304562E+02
 21
-1.61274315E+02
  0
LINE
  8
0
  6
CENTER
 62
2
 10
-2.03616390E+02
 20
-1.53474312E+02
 11
-1.98339739E+02
 21
-1.53474312E+02
  0
LINE
  8
0
  6
CENTER
 62
2
 10
-2.04601364E+02
 20
-1.48124313E+02
 11
-1.97184271E+02
 21
-1.48124313E+02
  0
LINE
  8
0
 62
6
 10
-1.93860184E+02
 20
-1.45375683E+02
 11
-2.03860184E+02
 21
-1.45375683E+02
  0
LINE
  8
0
 62
7
 10
-2.03360184E+02
 20
-1.65372944E+02
 11
-1.94360184E+02
 21
-1.65372944E+02
  0
LINE
  8
0
 62
7
 10
-1.93610184E+02
 20
-1.88372943E+02
 11
-2.04110184E+02
 21
-1.88372943E+02
  0
LINE
  8
0
 62
7
 10
-1.93860184E+02
 20
-1.65872944E+02
 11
-1.93860184E+02
 21
-1.87872943E+02
  0
LINE
  8
0
 62
7
 10
-2.03860184E+02
 20
-1.65872944E+02
 11
-2.03860184E+02
 21
-1.87872943E+02
  0
LINE
  8
0
 62
7
 10
-1.93610184E+02
 20
-7.03659668E+01
 11
-1.93610184E+02
 21
-1.88372943E+02
  0
LINE
  8
0
 62
7
 10
-2.04110184E+02
 20
-7.03659668E+01
 11
-2.04110184E+02
 21
-1.88372943E+02
  0
LINE
  8
0
  6
CENTER
 62
2
 10
-1.98860184E+02
 20
-6.87943726E+01
 11
-1.98860184E+02
 21
-1.89432279E+02
  0
LINE
  8
0
 62
7
 10
-1.93860184E+02
 20
-1.13675682E+02
 11
-1.93860184E+02
 21
-1.02065964E+02
  0
LINE
  8
0
 62
7
 10
-2.03860184E+02
 20
-1.02065964E+02
 11
-2.03860184E+02
 21
-1.13675682E+02
  0
LINE
  8
0
  6
CENTER
 62
6
 10
-2.02360184E+02
 20
-8.13659668E+01
 11
-2.02360184E+02
 21
-7.63659668E+01
  0
LINE
  8
0
  6
CENTER
 62
6
 10
-1.95360184E+02
 20
-8.13659668E+01
 11
-1.95360184E+02
 21
-7.63659668E+01
  0
LINE
  8
0
  6
CENTER
 62
6
 10
-1.97860184E+02
 20
-7.88659668E+01
 11
-1.92860184E+02
 21
-7.88659668E+01
  0
LINE
  8
0
  6
CENTER
 62
6
 10
-2.02360184E+02
 20
-1.39375683E+02
 11
-2.02360184E+02
 21
-1.34375683E+02
  0
LINE
  8
0
  6
CENTER
 62
6
 10
-1.95360184E+02
 20
-1.39375683E+02
 11
-1.95360184E+02
 21
-1.34375683E+02
  0
LINE
  8
0
  6
CENTER
 62
6
 10
-1.97860184E+02
 20
-1.36875683E+02
 11
-1.92860184E+02
 21
-1.36875683E+02
  0
LINE
  8
0
  6
CENTER
 62
2
 10
-1.99810184E+02
 20
-5.48796844E+01
 11
-1.99810184E+02
 21
-7.18435135E+01
  0
LINE
  8
0
 62
7
 10
-2.03810184E+02
 20
-6.96659698E+01
 11
-1.95810184E+02
 21
-6.96659698E+01
  0
LINE
  8
0
 62
7
 10
-1.96110182E+02
 20
-6.93659712E+01
 11
-1.95810182E+02
 21
-6.96659704E+01
  0
LINE
  8
0
 62
7
 10
-2.03810180E+02
 20
-6.96659704E+01
 11
-2.03510181E+02
 21
-6.93659712E+01
  0
LINE
  8
0
 62
7
 10
-2.03810184E+02
 20
-7.03659668E+01
 11
-2.03810184E+02
 21
-6.96659698E+01
  0
LINE
  8
0
 62
7
 10
-1.95810184E+02
 20
-7.03659668E+01
 11
-1.95810184E+02
 21
-6.96659698E+01
  0
LINE
  8
0
 62
7
 10
-2.03510183E+02
 20
-6.93659668E+01
 11
-1.96110184E+02
 21
-6.93659668E+01
  0
LINE
  8
0
 62
7
 10
-1.96310183E+02
 20
-6.88659653E+01
 11
-1.96810183E+02
 21
-6.93659658E+01
  0
LINE
  8
0
 62
7
 10
-2.01060184E+02
 20
-6.36609650E+01
 11
-2.01060184E+02
 21
-6.63659668E+01
  0
LINE
  8
0
 62
7
 10
-2.03310184E+02
 20
-6.88659668E+01
 11
-2.03310184E+02
 21
-6.68659668E+01
  0
LINE
  8
0
 62
7
 10
-2.02310184E+02
 20
-5.91609650E+01
 11
-2.02310184E+02
 21
-6.31609650E+01
  0
LINE
  8
0
 62
7
 10
-2.01810183E+02
 20
-6.36609739E+01
 11
-2.02310184E+02
 21
-6.31609733E+01
  0
LINE
  8
0
 62
7
 10
-2.02310184E+02
 20
-5.91609691E+01
 11
-2.01810183E+02
 21
-5.86609686E+01
  0
LINE
  8
0
 62
7
 10
-2.03310185E+02
 20
-6.68659685E+01
 11
-2.02810184E+02
 21
-6.63659680E+01
  0
LINE
  8
0
 62
7
 10
-2.03310185E+02
 20
-6.88659706E+01
 11
-2.02810184E+02
 21
-6.93659712E+01
  0
LINE
  8
0
 62
7
 10
-1.97310184E+02
 20
-5.91609650E+01
 11
-1.97310184E+02
 21
-6.31609650E+01
  0
LINE
  8
0
 62
7
 10
-1.97310179E+02
 20
-5.91609691E+01
 11
-1.97810179E+02
 21
-5.86609686E+01
  0
LINE
  8
0
 62
7
 10
-1.97310184E+02
 20
-6.31609679E+01
 11
-1.97810184E+02
 21
-6.36609685E+01
  0
LINE
  8
0
 62
7
 10
-1.96310188E+02
 20
-6.68659685E+01
 11
-1.96810183E+02
 21
-6.63659734E+01
  0
LINE
  8
0
 62
7
 10
-1.98560184E+02
 20
-6.36609650E+01
 11
-1.98560184E+02
 21
-6.63659668E+01
  0
LINE
  8
0
 62
7
 10
-1.96310184E+02
 20
-6.88659668E+01
 11
-1.96310184E+02
 21
-6.68659668E+01
  0
LINE
  8
0
 62
7
 10
-1.96810184E+02
 20
-6.63659668E+01
 11
-2.02810184E+02
 21
-6.63659668E+01
  0
LINE
  8
0
 62
7
 10
-2.01810184E+02
 20
-6.36609650E+01
 11
-1.97810184E+02
 21
-6.36609650E+01
  0
LINE
  8
0
 62
7
 10
-1.97810184E+02
 20
-5.86609650E+01
 11
-2.01810184E+02
 21
-5.86609650E+01
  0
LINE
  8
0
 62
7
 10
-2.04110184E+02
 20
-7.03659668E+01
 11
-1.93610184E+02
 21
-7.03659668E+01
  0
LINE
  8
0
 62
7
 10
-1.93860184E+02
 20
-1.45375683E+02
 11
-1.93610184E+02
 21
-1.45375683E+02
  0
LINE
  8
0
 62
7
 10
-2.03860184E+02
 20
-1.45375683E+02
 11
-2.04110184E+02
 21
-1.45375683E+02
  0
LINE
  8
0
 62
6
 10
-2.03860184E+02
 20
-1.65372944E+02
 11
-1.93860184E+02
 21
-1.65372944E+02
  0
LINE
  8
0
 62
6
 10
-2.03860184E+02
 20
-1.45372944E+02
 11
-1.93860184E+02
 21
-1.45372944E+02
  0
LINE
  8
0
  6
PHANTOM
 62
2
 10
-2.03960184E+02
 20
-1.45375683E+02
 11
-1.93760183E+02
 21
-1.45375683E+02
  0
LINE
  8
0
 62
2
 10
-2.09860184E+02
 20
-6.88659668E+01
 11
-2.09860184E+02
 21
-6.68659668E+01
  0
LINE
  8
0
 62
6
 10
-2.04860184E+02
 20
-8.48659668E+01
 11
-2.14860184E+02
 21
-8.48659668E+01
  0
LINE
  8
0
 62
6
 10
-2.04860184E+02
 20
-8.47659683E+01
 11
-2.14860184E+02
 21
-8.47659683E+01
  0
LINE
  8
0
 62
6
 10
-2.14860184E+02
 20
-8.42678909E+01
 11
-2.04860184E+02
 21
-8.42678909E+01
  0
LINE
  8
0
  6
CENTER
 62
6
 10
-2.06960184E+02
 20
-8.63578873E+01
 11
-2.06960184E+02
 21
-9.19026718E+01
  0
LINE
  8
0
  6
CENTER
 62
6
 10
-2.12760183E+02
 20
-8.63578873E+01
 11
-2.12760183E+02
 21
-9.19026718E+01
  0
LINE
  8
0
 62
6
 10
-2.06960184E+02
 20
-9.10659637E+01
 11
-2.12760183E+02
 21
-9.10659637E+01
  0
LINE
  8
0
 62
6
 10
-2.06960184E+02
 20
-8.70659637E+01
 11
-2.12760183E+02
 21
-8.70659637E+01
  0
LINE
  8
0
  6
CENTER
 62
6
 10
-2.04449694E+02
 20
-8.90659637E+01
 11
-2.15272068E+02
 21
-8.90659637E+01
  0
LINE
  8
0
 62
6
 10
-2.04860184E+02
 20
-1.30875687E+02
 11
-2.14860184E+02
 21
-1.30875687E+02
  0
LINE
  8
0
 62
6
 10
-2.04860184E+02
 20
-1.30975685E+02
 11
-2.14860184E+02
 21
-1.30975685E+02
  0
LINE
  8
0
  6
CENTER
 62
6
 10
-2.06960184E+02
 20
-1.29383759E+02
 11
-2.06960184E+02
 21
-1.23838982E+02
  0
LINE
  8
0
  6
CENTER
 62
6
 10
-2.12760183E+02
 20
-1.29383759E+02
 11
-2.12760183E+02
 21
-1.23838982E+02
  0
LINE
  8
0
 62
6
 10
-2.06960184E+02
 20
-1.24675682E+02
 11
-2.12760183E+02
 21
-1.24675682E+02
  0
LINE
  8
0
 62
6
 10
-2.06960184E+02
 20
-1.28675682E+02
 11
-2.12760183E+02
 21
-1.28675682E+02
  0
LINE
  8
0
  6
CENTER
 62
6
 10
-2.04449694E+02
 20
-1.26675682E+02
 11
-2.15272068E+02
 21
-1.26675682E+02
  0
LINE
  8
0
 62
6
 10
-2.05160183E+02
 20
-1.13375687E+02
 11
-2.14560184E+02
 21
-1.13375687E+02
  0
LINE
  8
0
 62
6
 10
-2.08360184E+02
 20
-1.18375687E+02
 11
-2.08360184E+02
 21
-1.13375687E+02
  0
LINE
  8
0
 62
6
 10
-2.11360184E+02
 20
-1.18375687E+02
 11
-2.08360184E+02
 21
-1.18375687E+02
  0
LINE
  8
0
 62
6
 10
-2.11360184E+02
 20
-1.18375687E+02
 11
-2.11360184E+02
 21
-1.13375687E+02
  0
LINE
  8
0
 62
6
 10
-2.12254556E+02
 20
-1.39416500E+02
 11
-2.12510186E+02
 21
-1.38975683E+02
  0
LINE
  8
0
 62
6
 10
-2.07210182E+02
 20
-1.38975684E+02
 11
-2.07465811E+02
 21
-1.39416502E+02
  0
LINE
  8
0
 62
6
 10
-2.11004556E+02
 20
-1.38166501E+02
 11
-2.11260185E+02
 21
-1.37725684E+02
  0
LINE
  8
0
 62
6
 10
-2.12510185E+02
 20
-1.38975683E+02
 11
-2.11260185E+02
 21
-1.37725683E+02
  0
LINE
  8
0
 62
6
 10
-2.11004553E+02
 20
-1.38166503E+02
 11
-2.12254553E+02
 21
-1.39416503E+02
  0
LINE
  8
0
 62
6
 10
-2.08715812E+02
 20
-1.38166498E+02
 11
-2.08460182E+02
 21
-1.37725681E+02
  0
LINE
  8
0
 62
6
 10
-2.04860184E+02
 20
-1.32284866E+02
 11
-2.14860184E+02
 21
-1.32284866E+02
  0
LINE
  8
0
 62
6
 10
-2.08715813E+02
 20
-1.38166500E+02
 11
-2.07465812E+02
 21
-1.39416502E+02
  0
LINE
  8
0
 62
6
 10
-2.04860184E+02
 20
-1.39416500E+02
 11
-2.07465813E+02
 21
-1.39416500E+02
  0
LINE
  8
0
 62
6
 10
-2.12254555E+02
 20
-1.39416500E+02
 11
-2.14860184E+02
 21
-1.39416500E+02
  0
LINE
  8
0
 62
6
 10
-2.11004555E+02
 20
-1.38166500E+02
 11
-2.08715813E+02
 21
-1.38166500E+02
  0
LINE
  8
0
 62
6
 10
-2.04860184E+02
 20
-1.38975681E+02
 11
-2.07210184E+02
 21
-1.38975681E+02
  0
LINE
  8
0
 62
6
 10
-2.07210182E+02
 20
-1.38975685E+02
 11
-2.08460183E+02
 21
-1.37725683E+02
  0
LINE
  8
0
 62
6
 10
-2.11260183E+02
 20
-1.37725681E+02
 11
-2.08460184E+02
 21
-1.37725681E+02
  0
LINE
  8
0
 62
6
 10
-2.12510183E+02
 20
-1.38975681E+02
 11
-2.14860184E+02
 21
-1.38975681E+02
  0
LINE
  8
0
 62
6
 10
-2.14860184E+02
 20
-1.31473763E+02
 11
-2.04860184E+02
 21
-1.31473763E+02
  0
LINE
  8
0
 62
6
 10
-2.06360184E+02
 20
-1.35275684E+02
 11
-2.04860184E+02
 21
-1.35275684E+02
  0
LINE
  8
0
 62
6
 10
-2.04860184E+02
 20
-1.38475681E+02
 11
-2.06360184E+02
 21
-1.38475681E+02
  0
LINE
  8
0
 62
6
 10
-2.13360184E+02
 20
-1.38475681E+02
 11
-2.14860184E+02
 21
-1.38475681E+02
  0
LINE
  8
0
 62
6
 10
-2.14860184E+02
 20
-1.35275684E+02
 11
-2.13360184E+02
 21
-1.35275684E+02
  0
LINE
  8
0
 62
6
 10
-2.08034670E+02
 20
-1.35425682E+02
 11
-2.11685698E+02
 21
-1.35425682E+02
  0
LINE
  8
0
 62
6
 10
-2.09860184E+02
 20
-1.34825684E+02
 11
-2.11685698E+02
 21
-1.34825684E+02
  0
LINE
  8
0
 62
6
 10
-2.08034670E+02
 20
-1.34825684E+02
 11
-2.09860184E+02
 21
-1.34825684E+02
  0
LINE
  8
0
 62
6
 10
-2.14067288E+02
 20
-1.37582793E+02
 11
-2.12653074E+02
 21
-1.36168579E+02
  0
LINE
  8
0
 62
6
 10
-2.14067288E+02
 20
-1.36168579E+02
 11
-2.12653077E+02
 21
-1.37582790E+02
  0
LINE
  8
0
 62
6
 10
-2.05653076E+02
 20
-1.36168578E+02
 11
-2.07067290E+02
 21
-1.37582791E+02
  0
LINE
  8
0
 62
6
 10
-2.05653076E+02
 20
-1.37582791E+02
 11
-2.07067290E+02
 21
-1.36168578E+02
  0
LINE
  8
0
 62
6
 10
-2.05160183E+02
 20
-1.02365967E+02
 11
-2.14560184E+02
 21
-1.02365967E+02
  0
LINE
  8
0
 62
6
 10
-2.08360184E+02
 20
-9.73659668E+01
 11
-2.08360184E+02
 21
-1.02365967E+02
  0
LINE
  8
0
 62
6
 10
-2.11360184E+02
 20
-9.73659668E+01
 11
-2.08360184E+02
 21
-9.73659668E+01
  0
LINE
  8
0
 62
6
 10
-2.11360184E+02
 20
-9.73659668E+01
 11
-2.11360184E+02
 21
-1.02365967E+02
  0
LINE
  8
0
 62
6
 10
-2.12254550E+02
 20
-7.63251517E+01
 11
-2.12510179E+02
 21
-7.67659692E+01
  0
LINE
  8
0
 62
6
 10
-2.07210187E+02
 20
-7.67659670E+01
 11
-2.07465817E+02
 21
-7.63251495E+01
  0
LINE
  8
0
 62
6
 10
-2.11004554E+02
 20
-7.75751481E+01
 11
-2.11260184E+02
 21
-7.80159656E+01
  0
LINE
  8
0
 62
6
 10
-2.12510180E+02
 20
-7.67659704E+01
 11
-2.11260184E+02
 21
-7.80159663E+01
  0
LINE
  8
0
 62
6
 10
-2.11004551E+02
 20
-7.75751521E+01
 11
-2.12254553E+02
 21
-7.63251508E+01
  0
LINE
  8
0
 62
6
 10
-2.08715816E+02
 20
-7.75751478E+01
 11
-2.08460186E+02
 21
-7.80159653E+01
  0
LINE
  8
0
 62
6
 10
-2.04860184E+02
 20
-8.34567871E+01
 11
-2.14860184E+02
 21
-8.34567871E+01
  0
LINE
  8
0
 62
6
 10
-2.08715809E+02
 20
-7.75751521E+01
 11
-2.07465813E+02
 21
-7.63251562E+01
  0
LINE
  8
0
 62
6
 10
-2.04860184E+02
 20
-7.63251495E+01
 11
-2.07465813E+02
 21
-7.63251495E+01
  0
LINE
  8
0
 62
6
 10
-2.12254555E+02
 20
-7.63251495E+01
 11
-2.14860184E+02
 21
-7.63251495E+01
  0
LINE
  8
0
 62
6
 10
-2.11004555E+02
 20
-7.75751495E+01
 11
-2.08715813E+02
 21
-7.75751495E+01
  0
LINE
  8
0
 62
6
 10
-2.04860184E+02
 20
-7.67659683E+01
 11
-2.07210184E+02
 21
-7.67659683E+01
  0
LINE
  8
0
 62
6
 10
-2.07210180E+02
 20
-7.67659704E+01
 11
-2.08460182E+02
 21
-7.80159717E+01
  0
LINE
  8
0
 62
6
 10
-2.11260183E+02
 20
-7.80159683E+01
 11
-2.08460184E+02
 21
-7.80159683E+01
  0
LINE
  8
0
 62
6
 10
-2.12510183E+02
 20
-7.67659683E+01
 11
-2.14860184E+02
 21
-7.67659683E+01
  0
LINE
  8
0
 62
6
 10
-2.06360184E+02
 20
-8.04659653E+01
 11
-2.04860184E+02
 21
-8.04659653E+01
  0
LINE
  8
0
 62
6
 10
-2.04860184E+02
 20
-7.72659683E+01
 11
-2.06360184E+02
 21
-7.72659683E+01
  0
LINE
  8
0
 62
6
 10
-2.13360184E+02
 20
-7.72659683E+01
 11
-2.14860184E+02
 21
-7.72659683E+01
  0
LINE
  8
0
 62
6
 10
-2.14860184E+02
 20
-8.04659653E+01
 11
-2.13360184E+02
 21
-8.04659653E+01
  0
LINE
  8
0
 62
6
 10
-2.14860184E+02
 20
-1.02065964E+02
 11
-2.14860184E+02
 21
-7.03659668E+01
  0
LINE
  8
0
 62
6
 10
-2.04860184E+02
 20
-1.02065964E+02
 11
-2.04860184E+02
 21
-7.03659668E+01
  0
LINE
  8
0
 62
6
 10
-2.08034670E+02
 20
-8.03159637E+01
 11
-2.11685698E+02
 21
-8.03159637E+01
  0
LINE
  8
0
 62
6
 10
-2.09860184E+02
 20
-8.09159698E+01
 11
-2.11685698E+02
 21
-8.09159698E+01
  0
LINE
  8
0
 62
6
 10
-2.08034670E+02
 20
-8.09159698E+01
 11
-2.09860184E+02
 21
-8.09159698E+01
  0
LINE
  8
0
 62
6
 10
-2.14067290E+02
 20
-7.81588637E+01
 11
-2.12653077E+02
 21
-7.95730772E+01
  0
LINE
  8
0
 62
6
 10
-2.14067290E+02
 20
-7.95730772E+01
 11
-2.12653077E+02
 21
-7.81588637E+01
  0
LINE
  8
0
 62
6
 10
-2.05653075E+02
 20
-7.95730718E+01
 11
-2.07067288E+02
 21
-7.81588583E+01
  0
LINE
  8
0
 62
6
 10
-2.05653075E+02
 20
-7.81588583E+01
 11
-2.07067288E+02
 21
-7.95730718E+01
  0
LINE
  8
0
 62
6
 10
-2.14860184E+02
 20
-7.03659668E+01
 11
-2.04860184E+02
 21
-7.03659668E+01
  0
LINE
  8
0
  6
PHANTOM
 62
2
 10
-2.04760183E+02
 20
-1.65372944E+02
 11
-2.14960182E+02
 21
-1.65372944E+02
  0
LINE
  8
0
  6
PHANTOM
 62
2
 10
-2.04760183E+02
 20
-1.65372944E+02
 11
-2.04760183E+02
 21
-1.45375683E+02
  0
LINE
  8
0
  6
PHANTOM
 62
2
 10
-2.14960182E+02
 20
-1.65372944E+02
 11
-2.14960182E+02
 21
-1.45375683E+02
  0
LINE
  8
0
  6
CENTER
 62
2
 10
-2.11960184E+02
 20
-1.45375683E+02
 11
-2.11960184E+02
 21
-1.64127460E+02
  0
LINE
  8
0
  6
CENTER
 62
2
 10
-2.14616390E+02
 20
-1.61274315E+02
 11
-2.09304562E+02
 21
-1.61274315E+02
  0
LINE
  8
0
  6
CENTER
 62
2
 10
-2.14616390E+02
 20
-1.53474312E+02
 11
-2.09339739E+02
 21
-1.53474312E+02
  0
LINE
  8
0
  6
CENTER
 62
2
 10
-2.15601364E+02
 20
-1.48124313E+02
 11
-2.08184271E+02
 21
-1.48124313E+02
  0
LINE
  8
0
 62
6
 10
-2.04860184E+02
 20
-1.45375683E+02
 11
-2.14860184E+02
 21
-1.45375683E+02
  0
LINE
  8
0
 62
7
 10
-2.14360184E+02
 20
-1.65372944E+02
 11
-2.05360184E+02
 21
-1.65372944E+02
  0
LINE
  8
0
 62
7
 10
-2.04610184E+02
 20
-1.88372943E+02
 11
-2.15110184E+02
 21
-1.88372943E+02
  0
LINE
  8
0
 62
7
 10
-2.04860184E+02
 20
-1.65872944E+02
 11
-2.04860184E+02
 21
-1.87872943E+02
  0
LINE
  8
0
 62
7
 10
-2.14860184E+02
 20
-1.65872944E+02
 11
-2.14860184E+02
 21
-1.87872943E+02
  0
LINE
  8
0
 62
7
 10
-2.04610184E+02
 20
-7.03659668E+01
 11
-2.04610184E+02
 21
-1.88372943E+02
  0
LINE
  8
0
 62
7
 10
-2.15110184E+02
 20
-7.03659668E+01
 11
-2.15110184E+02
 21
-1.88372943E+02
  0
LINE
  8
0
  6
CENTER
 62
2
 10
-2.09860184E+02
 20
-6.87943726E+01
 11
-2.09860184E+02
 21
-1.89432279E+02
  0
LINE
  8
0
 62
7
 10
-2.04860184E+02
 20
-1.13675682E+02
 11
-2.04860184E+02
 21
-1.02065964E+02
  0
LINE
  8
0
 62
7
 10
-2.14860184E+02
 20
-1.02065964E+02
 11
-2.14860184E+02
 21
-1.13675682E+02
  0
LINE
  8
0
  6
CENTER
 62
6
 10
-2.13360184E+02
 20
-8.13659668E+01
 11
-2.13360184E+02
 21
-7.63659668E+01
  0
LINE
  8
0
  6
CENTER
 62
6
 10
-2.15860184E+02
 20
-7.88659668E+01
 11
-2.10860184E+02
 21
-7.88659668E+01
  0
LINE
  8
0
  6
CENTER
 62
6
 10
-2.06360184E+02
 20
-8.13659668E+01
 11
-2.06360184E+02
 21
-7.63659668E+01
  0
LINE
  8
0
  6
CENTER
 62
6
 10
-2.13360184E+02
 20
-1.39375683E+02
 11
-2.13360184E+02
 21
-1.34375683E+02
  0
LINE
  8
0
  6
CENTER
 62
6
 10
-2.06360184E+02
 20
-1.39375683E+02
 11
-2.06360184E+02
 21
-1.34375683E+02
  0
LINE
  8
0
  6
CENTER
 62
2
 10
-2.10810184E+02
 20
-5.48796844E+01
 11
-2.10810184E+02
 21
-7.18435135E+01
  0
LINE
  8
0
 62
7
 10
-2.14810184E+02
 20
-6.96659698E+01
 11
-2.06810184E+02
 21
-6.96659698E+01
  0
LINE
  8
0
 62
7
 10
-2.07110182E+02
 20
-6.93659712E+01
 11
-2.06810183E+02
 21
-6.96659704E+01
  0
LINE
  8
0
 62
7
 10
-2.14810181E+02
 20
-6.96659704E+01
 11
-2.14510182E+02
 21
-6.93659712E+01
  0
LINE
  8
0
 62
7
 10
-2.14810184E+02
 20
-7.03659668E+01
 11
-2.14810184E+02
 21
-6.96659698E+01
  0
LINE
  8
0
 62
7
 10
-2.06810184E+02
 20
-7.03659668E+01
 11
-2.06810184E+02
 21
-6.96659698E+01
  0
LINE
  8
0
 62
7
 10
-2.14510183E+02
 20
-6.93659668E+01
 11
-2.07110184E+02
 21
-6.93659668E+01
  0
LINE
  8
0
 62
7
 10
-2.07310184E+02
 20
-6.88659653E+01
 11
-2.07810184E+02
 21
-6.93659658E+01
  0
LINE
  8
0
 62
7
 10
-2.12060184E+02
 20
-6.36609650E+01
 11
-2.12060184E+02
 21
-6.63659668E+01
  0
LINE
  8
0
 62
7
 10
-2.14310184E+02
 20
-6.88659668E+01
 11
-2.14310184E+02
 21
-6.68659668E+01
  0
LINE
  8
0
 62
7
 10
-2.13310184E+02
 20
-5.91609650E+01
 11
-2.13310184E+02
 21
-6.31609650E+01
  0
LINE
  8
0
 62
7
 10
-2.12810179E+02
 20
-6.36609685E+01
 11
-2.13310179E+02
 21
-6.31609679E+01
  0
LINE
  8
0
 62
7
 10
-2.13310185E+02
 20
-5.91609691E+01
 11
-2.12810184E+02
 21
-5.86609686E+01
  0
LINE
  8
0
 62
7
 10
-2.14310186E+02
 20
-6.68659685E+01
 11
-2.13810185E+02
 21
-6.63659680E+01
  0
LINE
  8
0
 62
7
 10
-2.14310186E+02
 20
-6.88659706E+01
 11
-2.13810185E+02
 21
-6.93659712E+01
  0
LINE
  8
0
 62
7
 10
-2.08310184E+02
 20
-5.91609650E+01
 11
-2.08310184E+02
 21
-6.31609650E+01
  0
LINE
  8
0
 62
7
 10
-2.08310179E+02
 20
-5.91609691E+01
 11
-2.08810180E+02
 21
-5.86609686E+01
  0
LINE
  8
0
 62
7
 10
-2.08310185E+02
 20
-6.31609679E+01
 11
-2.08810185E+02
 21
-6.36609685E+01
  0
LINE
  8
0
 62
7
 10
-2.07310184E+02
 20
-6.68659739E+01
 11
-2.07810184E+02
 21
-6.63659734E+01
  0
LINE
  8
0
 62
7
 10
-2.09560184E+02
 20
-6.36609650E+01
 11
-2.09560184E+02
 21
-6.63659668E+01
  0
LINE
  8
0
 62
7
 10
-2.07310184E+02
 20
-6.88659668E+01
 11
-2.07310184E+02
 21
-6.68659668E+01
  0
LINE
  8
0
 62
7
 10
-2.07810184E+02
 20
-6.63659668E+01
 11
-2.13810184E+02
 21
-6.63659668E+01
  0
LINE
  8
0
 62
7
 10
-2.12810184E+02
 20
-6.36609650E+01
 11
-2.08810184E+02
 21
-6.36609650E+01
  0
LINE
  8
0
 62
7
 10
-2.08810184E+02
 20
-5.86609650E+01
 11
-2.12810184E+02
 21
-5.86609650E+01
  0
LINE
  8
0
 62
7
 10
-2.15110184E+02
 20
-7.03659668E+01
 11
-2.04610184E+02
 21
-7.03659668E+01
  0
LINE
  8
0
 62
7
 10
-2.04860184E+02
 20
-1.45375683E+02
 11
-2.04610184E+02
 21
-1.45375683E+02
  0
LINE
  8
0
 62
7
 10
-2.14860184E+02
 20
-1.45375683E+02
 11
-2.15110184E+02
 21
-1.45375683E+02
  0
LINE
  8
0
 62
6
 10
-2.14860184E+02
 20
-1.65372944E+02
 11
-2.04860184E+02
 21
-1.65372944E+02
  0
LINE
  8
0
 62
6
 10
-2.14860184E+02
 20
-1.45372944E+02
 11
-2.04860184E+02
 21
-1.45372944E+02
  0
LINE
  8
0
  6
PHANTOM
 62
2
 10
-2.14960182E+02
 20
-1.45375683E+02
 11
-2.04760183E+02
 21
-1.45375683E+02
  0
LINE
  8
0
 62
6
 10
-2.14860184E+02
 20
-1.65372944E+02
 11
-2.14860184E+02
 21
-1.13675682E+02
  0
LINE
  8
0
 62
6
 10
-2.04860184E+02
 20
-1.65372944E+02
 11
-2.04860184E+02
 21
-1.13675682E+02
  0
LINE
  8
0
  6
CENTER
 62
6
 10
-2.08860184E+02
 20
-1.36875683E+02
 11
-1.99860184E+02
 21
-1.36875683E+02
  0
LINE
  8
0
  6
CENTER
 62
6
 10
-2.20660183E+02
 20
-1.36875683E+02
 11
-2.10860184E+02
 21
-1.36875683E+02
  0
LINE
  8
0
  6
CENTER
 62
6
 10
-2.08860184E+02
 20
-7.88659668E+01
 11
-1.99860184E+02
 21
-7.88659668E+01
  0
LINE
  8
0
  6
CENTER
 62
2
 10
-2.16609047E+02
 20
-1.81372943E+02
 11
-1.92279344E+02
 21
-1.81372943E+02
  0
LINE
  8
0
 62
6
 10
-2.03860184E+02
 20
-1.65372944E+02
 11
-2.03860184E+02
 21
-1.13675682E+02
  0
LINE
  8
0
 62
6
 10
-1.93860184E+02
 20
-1.65372944E+02
 11
-1.93860184E+02
 21
-1.13675682E+02
  0
LINE
  8
0
  6
CENTER
 62
2
 10
-2.49360184E+02
 20
-1.41872944E+02
 11
-1.91360184E+02
 21
-1.41872944E+02
  0
LINE
  8
0
  6
CENTER
 62
2
 10
-2.69360184E+02
 20
-7.43756866E+01
 11
-1.91360184E+02
 21
-7.43756866E+01
  0
LINE
  8
0
 62
7
 10
-2.47610184E+02
 20
-8.03714447E+01
 11
-2.47360184E+02
 21
-8.03714447E+01
  0
LINE
  8
0
 62
7
 10
-2.47610184E+02
 20
-9.13714447E+01
 11
-2.47360184E+02
 21
-9.13714447E+01
  0
LINE
  8
0
 62
7
 10
-2.47610184E+02
 20
-9.66714478E+01
 11
-2.47360184E+02
 21
-9.66714478E+01
  0
LINE
  8
0
 62
7
 10
-2.47610184E+02
 20
-1.37671448E+02
 11
-2.47360184E+02
 21
-1.37671448E+02
  0
LINE
  8
0
 62
7
 10
-2.47360184E+02
 20
-8.03714447E+01
 11
-2.47110184E+02
 21
-8.03714447E+01
  0
LINE
  8
0
 62
7
 10
-2.47360184E+02
 20
-9.13714447E+01
 11
-2.47110184E+02
 21
-9.13714447E+01
  0
LINE
  8
0
 62
7
 10
-2.47360184E+02
 20
-9.66714478E+01
 11
-2.47110184E+02
 21
-9.66714478E+01
  0
LINE
  8
0
 62
7
 10
-2.47360184E+02
 20
-1.37671448E+02
 11
-2.47110184E+02
 21
-1.37671448E+02
  0
LINE
  8
0
 62
7
 10
-2.31610184E+02
 20
-8.03714447E+01
 11
-2.31360184E+02
 21
-8.03714447E+01
  0
LINE
  8
0
 62
7
 10
-2.31610184E+02
 20
-9.13714447E+01
 11
-2.31360184E+02
 21
-9.13714447E+01
  0
LINE
  8
0
 62
7
 10
-2.31610184E+02
 20
-9.66714478E+01
 11
-2.31360184E+02
 21
-9.66714478E+01
  0
LINE
  8
0
 62
7
 10
-2.31610184E+02
 20
-1.37671448E+02
 11
-2.31360184E+02
 21
-1.37671448E+02
  0
LINE
  8
0
 62
7
 10
-2.31360184E+02
 20
-8.03714447E+01
 11
-2.31110184E+02
 21
-8.03714447E+01
  0
LINE
  8
0
 62
7
 10
-2.31360184E+02
 20
-9.13714447E+01
 11
-2.31110184E+02
 21
-9.13714447E+01
  0
LINE
  8
0
 62
7
 10
-2.31360184E+02
 20
-9.66714478E+01
 11
-2.31110184E+02
 21
-9.66714478E+01
  0
LINE
  8
0
 62
7
 10
-2.31360184E+02
 20
-1.37671448E+02
 11
-2.31110184E+02
 21
-1.37671448E+02
  0
LINE
  8
0
 62
7
 10
-2.15610184E+02
 20
-8.03714447E+01
 11
-2.15360184E+02
 21
-8.03714447E+01
  0
LINE
  8
0
 62
7
 10
-2.15610184E+02
 20
-9.13714447E+01
 11
-2.15360184E+02
 21
-9.13714447E+01
  0
LINE
  8
0
 62
7
 10
-2.15610184E+02
 20
-9.66714478E+01
 11
-2.15360184E+02
 21
-9.66714478E+01
  0
LINE
  8
0
 62
7
 10
-2.15610184E+02
 20
-1.37671448E+02
 11
-2.15360184E+02
 21
-1.37671448E+02
  0
LINE
  8
0
 62
7
 10
-2.15360184E+02
 20
-8.03714447E+01
 11
-2.15110184E+02
 21
-8.03714447E+01
  0
LINE
  8
0
 62
7
 10
-2.15360184E+02
 20
-9.13714447E+01
 11
-2.15110184E+02
 21
-9.13714447E+01
  0
LINE
  8
0
 62
7
 10
-2.15360184E+02
 20
-9.66714478E+01
 11
-2.15110184E+02
 21
-9.66714478E+01
  0
LINE
  8
0
 62
7
 10
-2.15360184E+02
 20
-1.37671448E+02
 11
-2.15110184E+02
 21
-1.37671448E+02
  0
LINE
  8
0
 62
7
 10
-2.04610184E+02
 20
-8.03714447E+01
 11
-2.04360184E+02
 21
-8.03714447E+01
  0
LINE
  8
0
 62
7
 10
-2.04610184E+02
 20
-9.13714447E+01
 11
-2.04360184E+02
 21
-9.13714447E+01
  0
LINE
  8
0
 62
7
 10
-2.04610184E+02
 20
-9.66714478E+01
 11
-2.04360184E+02
 21
-9.66714478E+01
  0
LINE
  8
0
 62
7
 10
-2.04610184E+02
 20
-1.37671448E+02
 11
-2.04360184E+02
 21
-1.37671448E+02
  0
LINE
  8
0
 62
7
 10
-2.04360184E+02
 20
-8.03714447E+01
 11
-2.04110184E+02
 21
-8.03714447E+01
  0
LINE
  8
0
 62
7
 10
-2.04360184E+02
 20
-9.13714447E+01
 11
-2.04110184E+02
 21
-9.13714447E+01
  0
LINE
  8
0
 62
7
 10
-2.04360184E+02
 20
-9.66714478E+01
 11
-2.04110184E+02
 21
-9.66714478E+01
  0
LINE
  8
0
 62
7
 10
-2.04360184E+02
 20
-1.37671448E+02
 11
-2.04110184E+02
 21
-1.37671448E+02
  0
LINE
  8
0
 62
7
 10
-1.93610184E+02
 20
-8.03714447E+01
 11
-1.93360184E+02
 21
-8.03714447E+01
  0
LINE
  8
0
 62
7
 10
-1.93610184E+02
 20
-9.13714447E+01
 11
-1.93360184E+02
 21
-9.13714447E+01
  0
LINE
  8
0
 62
7
 10
-1.93610184E+02
 20
-9.66714478E+01
 11
-1.93360184E+02
 21
-9.66714478E+01
  0
LINE
  8
0
 62
7
 10
-1.93610184E+02
 20
-1.37671448E+02
 11
-1.93360184E+02
 21
-1.37671448E+02
  0
LINE
  8
0
  6
CENTER
 62
2
 10
-2.76860184E+02
 20
-1.83613796E+02
 11
-2.76860184E+02
 21
-2.02138293E+02
  0
LINE
  8
0
  6
CENTER
 62
2
 10
-1.82860184E+02
 20
-1.83613796E+02
 11
-1.82860184E+02
 21
-2.02138293E+02
  0
LINE
  8
0
 62
6
 10
-2.64360184E+02
 20
-1.45872944E+02
 11
-2.49360184E+02
 21
-1.45872944E+02
  0
LINE
  8
0
 62
6
 10
-2.49360184E+02
 20
-1.69872944E+02
 11
-2.49360184E+02
 21
-1.45872944E+02
  0
LINE
  8
0
 62
6
 10
-2.64360184E+02
 20
-1.69872944E+02
 11
-2.64360184E+02
 21
-1.45872944E+02
  0
LINE
  8
0
 62
6
 10
-2.64360184E+02
 20
-1.69872944E+02
 11
-2.49360184E+02
 21
-1.69872944E+02
  0
LINE
  8
0
 62
7
 10
-2.81860184E+02
 20
-9.45687103E+01
 11
-2.80860184E+02
 21
-9.45687103E+01
  0
LINE
  8
0
 62
7
 10
-3.07460182E+02
 20
-9.61187057E+01
 11
-3.07460182E+02
 21
-1.01618706E+02
  0
LINE
  8
0
 62
7
 10
-3.04460182E+02
 20
-9.61187057E+01
 11
-3.07460182E+02
 21
-9.61187057E+01
  0
LINE
  8
0
 62
7
 10
-3.04460182E+02
 20
-1.01618706E+02
 11
-3.07460182E+02
 21
-1.01618706E+02
  0
LINE
  8
0
  6
CENTER
 62
2
 10
-3.04070343E+02
 20
-9.88687057E+01
 11
-3.07865654E+02
 21
-9.88687057E+01
  0
LINE
  8
0
 62
7
 10
-3.04460182E+02
 20
-9.58687057E+01
 11
-2.80860184E+02
 21
-9.58687057E+01
  0
LINE
  8
0
 62
7
 10
-2.81860184E+02
 20
-7.03687057E+01
 11
-2.81860184E+02
 21
-9.45687103E+01
  0
LINE
  8
0
 62
7
 10
-2.81860184E+02
 20
-1.20568710E+02
 11
-2.80860184E+02
 21
-1.20568710E+02
  0
LINE
  8
0
 62
7
 10
-3.07460182E+02
 20
-1.60118706E+02
 11
-3.07460182E+02
 21
-1.65618706E+02
  0
LINE
  8
0
 62
7
 10
-3.04460182E+02
 20
-1.60118706E+02
 11
-3.07460182E+02
 21
-1.60118706E+02
  0
LINE
  8
0
 62
7
 10
-3.04460182E+02
 20
-1.65618706E+02
 11
-3.07460182E+02
 21
-1.65618706E+02
  0
LINE
  8
0
  6
CENTER
 62
2
 10
-3.04070343E+02
 20
-1.62868706E+02
 11
-3.07865654E+02
 21
-1.62868706E+02
  0
LINE
  8
0
 62
7
 10
-3.07460182E+02
 20
-1.05118706E+02
 11
-3.07460182E+02
 21
-1.10618706E+02
  0
LINE
  8
0
 62
7
 10
-3.04460182E+02
 20
-1.05118706E+02
 11
-3.07460182E+02
 21
-1.05118706E+02
  0
LINE
  8
0
 62
7
 10
-3.04460182E+02
 20
-1.10618706E+02
 11
-3.07460182E+02
 21
-1.10618706E+02
  0
LINE
  8
0
  6
CENTER
 62
2
 10
-3.04070343E+02
 20
-1.07868706E+02
 11
-3.07865654E+02
 21
-1.07868706E+02
  0
LINE
  8
0
 62
7
 10
-3.04460182E+02
 20
-1.65868706E+02
 11
-2.81860184E+02
 21
-1.65868706E+02
  0
LINE
  8
0
 62
7
 10
-2.80860184E+02
 20
-1.19868706E+02
 11
-2.81860184E+02
 21
-1.19868706E+02
  0
LINE
  8
0
 62
7
 10
-3.02860184E+02
 20
-1.65868706E+02
 11
-3.02860184E+02
 21
-9.58687057E+01
  0
LINE
  8
0
 62
7
 10
-3.04460182E+02
 20
-1.65868706E+02
 11
-3.04460182E+02
 21
-9.58687057E+01
  0
LINE
  8
0
 62
7
 10
-2.80860184E+02
 20
-9.45687103E+01
 11
-2.80860184E+02
 21
-1.20568710E+02
  0
LINE
  8
0
 62
7
 10
-2.81860184E+02
 20
-1.19868706E+02
 11
-2.81860184E+02
 21
-1.97368707E+02
  0
LINE
  8
0
 62
7
 10
-1.77260184E+02
 20
-9.45687103E+01
 11
-1.78860184E+02
 21
-9.45687103E+01
  0
LINE
  8
0
 62
7
 10
-1.78860184E+02
 20
-9.45687103E+01
 11
-1.78860184E+02
 21
-1.20568710E+02
  0
LINE
  8
0
 62
7
 10
-1.77260184E+02
 20
-1.20568710E+02
 11
-1.78860184E+02
 21
-1.20568710E+02
  0
LINE
  8
0
 62
7
 10
-1.77260184E+02
 20
-9.45687103E+01
 11
-1.77260184E+02
 21
-1.20568710E+02
  0
LINE
  8
0
 62
7
 10
-1.74260183E+02
 20
-9.61187057E+01
 11
-1.74260183E+02
 21
-1.01618706E+02
  0
LINE
  8
0
 62
7
 10
-1.77260184E+02
 20
-9.61187057E+01
 11
-1.74260183E+02
 21
-9.61187057E+01
  0
LINE
  8
0
 62
7
 10
-1.77260184E+02
 20
-1.01618706E+02
 11
-1.74260183E+02
 21
-1.01618706E+02
  0
LINE
  8
0
 62
7
 10
-1.74260183E+02
 20
-1.05118706E+02
 11
-1.74260183E+02
 21
-1.10618706E+02
  0
LINE
  8
0
 62
7
 10
-1.77260184E+02
 20
-1.05118706E+02
 11
-1.74260183E+02
 21
-1.05118706E+02
  0
LINE
  8
0
 62
7
 10
-1.77260184E+02
 20
-1.10618706E+02
 11
-1.74260183E+02
 21
-1.10618706E+02
  0
LINE
  8
0
 62
7
 10
-1.74260183E+02
 20
-1.14118706E+02
 11
-1.74260183E+02
 21
-1.19618706E+02
  0
LINE
  8
0
 62
7
 10
-1.77260184E+02
 20
-1.14118706E+02
 11
-1.74260183E+02
 21
-1.14118706E+02
  0
LINE
  8
0
 62
7
 10
-1.77260184E+02
 20
-1.19618706E+02
 11
-1.74260183E+02
 21
-1.19618706E+02
  0
LINE
  8
0
  6
CENTER
 62
2
 10
-1.81760184E+02
 20
-9.88687057E+01
 11
-1.71643820E+02
 21
-9.88687057E+01
  0
LINE
  8
0
  6
CENTER
 62
2
 10
-1.81760184E+02
 20
-1.07868706E+02
 11
-1.71643820E+02
 21
-1.07868706E+02
  0
LINE
  8
0
  6
CENTER
 62
2
 10
-1.81760184E+02
 20
-1.16868706E+02
 11
-1.71643820E+02
 21
-1.16868706E+02
  0
LINE
  8
0
 62
7
 10
-1.77860184E+02
 20
-7.03659668E+01
 11
-1.77860184E+02
 21
-9.45659637E+01
  0
LINE
  8
0
 62
7
 10
-1.77860184E+02
 20
-1.20568710E+02
 11
-1.77860184E+02
 21
-1.97375967E+02
  0
LINE
  8
0
  6
CENTER
 62
2
 10
-2.34760185E+02
 20
-1.70376101E+02
 11
-2.34760185E+02
 21
-1.62638458E+02
  0
LINE
  8
0
  6
CENTER
 62
2
 10
-2.37597122E+02
 20
-1.66285398E+02
 11
-2.31795422E+02
 21
-1.66285398E+02
  0
LINE
  8
0
  6
CENTER
 62
2
 10
-2.18760185E+02
 20
-1.70376101E+02
 11
-2.18760185E+02
 21
-1.62638458E+02
  0
LINE
  8
0
  6
CENTER
 62
2
 10
-2.21597122E+02
 20
-1.66285398E+02
 11
-2.15795422E+02
 21
-1.66285398E+02
  0
CIRCLE
  8
0
 62
6
 10
-2.52260185E+02
 20
-1.26678421E+02
 40
8.75000000E-01
  0
ARC
  8
0
 62
6
 10
-2.52260185E+02
 20
-1.26678421E+02
 40
2.00000000E+00
 50
2.70000000E+02
 51
9.00000002E+01
  0
CIRCLE
  8
0
 62
6
 10
-2.58060181E+02
 20
-1.26678421E+02
 40
8.75000000E-01
  0
ARC
  8
0
 62
6
 10
-2.58060181E+02
 20
-1.26678421E+02
 40
2.00000000E+00
 50
9.00000002E+01
 51
2.70000000E+02
  0
CIRCLE
  8
0
 62
6
 10
-2.55660187E+02
 20
-7.90784225E+01
 40
8.75000000E-01
  0
ARC
  8
0
 62
6
 10
-2.55660187E+02
 20
-7.90784225E+01
 40
2.00000000E+00
 50
2.70000000E+02
 51
9.00000002E+01
  0
ARC
  8
0
 62
6
 10
-2.61460182E+02
 20
-7.90784225E+01
 40
2.00000000E+00
 50
9.00000002E+01
 51
2.70000000E+02
  0
CIRCLE
  8
0
 62
6
 10
-2.61460182E+02
 20
-7.90784225E+01
 40
8.75000000E-01
  0
ARC
  8
0
 62
7
 10
-2.64055183E+02
 20
-1.42878422E+02
 40
2.50000000E+00
 50
2.33130097E+02
 51
3.06869898E+02
  0
ARC
  8
0
 62
7
 10
-2.63360184E+02
 20
-9.23784256E+01
 40
2.70000005E+00
 50
2.70000000E+02
 51
6.03127398E-13
  0
CIRCLE
  8
0
 62
6
 10
-2.58560181E+02
 20
-7.06284256E+01
 40
2.04999995E+00
  0
ARC
  8
0
 62
6
 10
-2.55060181E+02
 20
-6.88784180E+01
 40
1.60000002E+00
 50
9.00000002E+01
 51
2.70000000E+02
  0
ARC
  8
0
 62
6
 10
-2.62060181E+02
 20
-6.88784180E+01
 40
1.60000002E+00
 50
2.70000000E+02
 51
9.00000002E+01
  0
CIRCLE
  8
0
 62
6
 10
-2.58560181E+02
 20
-7.06284256E+01
 40
1.85000002E+00
  0
ARC
  8
0
 62
6
 10
-2.58560181E+02
 20
-7.06284256E+01
 40
8.00000012E-01
 50
2.02024309E+02
 51
3.37975688E+02
  0
ARC
  8
0
 62
6
 10
-2.58560181E+02
 20
-7.06284256E+01
 40
8.00000012E-01
 50
2.20243121E+01
 51
1.57975691E+02
  0
CIRCLE
  8
0
 62
6
 10
-2.55060181E+02
 20
-6.88784180E+01
 40
1.50000000E+00
  0
CIRCLE
  8
0
 62
6
 10
-2.62060181E+02
 20
-6.88784180E+01
 40
1.50000000E+00
  0
ARC
  8
0
 62
6
 10
-2.53860184E+02
 20
-9.20784225E+01
 40
3.00000012E-01
 50
2.70000000E+02
 51
0.00000000E+00
  0
ARC
  8
0
 62
6
 10
-2.63260185E+02
 20
-9.20784225E+01
 40
3.00000012E-01
 50
1.79999995E+02
 51
2.70000000E+02
  0
ARC
  8
0
 62
7
 10
-2.63360184E+02
 20
-9.23784256E+01
 40
2.50000000E+00
 50
9.45885648E+01
 51
1.00179126E-05
  0
ARC
  8
0
 62
7
 10
-2.49665184E+02
 20
-6.28784180E+01
 40
2.50000000E+00
 50
5.31301018E+01
 51
1.26869903E+02
  0
ARC
  8
0
 62
7
 10
-2.50360184E+02
 20
-1.14878426E+02
 40
2.50000000E+00
 50
2.74588566E+02
 51
1.43130097E+02
  0
CIRCLE
  8
0
  6
PHANTOM
 62
2
 10
-2.52760185E+02
 20
-1.65975683E+02
 40
3.00000012E-01
  0
CIRCLE
  8
0
  6
PHANTOM
 62
2
 10
-2.52760185E+02
 20
-1.66975683E+02
 40
3.00000012E-01
  0
CIRCLE
  8
0
  6
PHANTOM
 62
2
 10
-2.51760185E+02
 20
-1.66975683E+02
 40
3.00000012E-01
  0
CIRCLE
  8
0
  6
PHANTOM
 62
2
 10
-2.51760185E+02
 20
-1.65975683E+02
 40
3.00000012E-01
  0
CIRCLE
  8
0
  6
PHANTOM
 62
2
 10
-2.52260185E+02
 20
-1.66475683E+02
 40
1.20000005E+00
  0
ARC
  8
0
 62
7
 10
-2.50360184E+02
 20
-1.14878426E+02
 40
2.70000005E+00
 50
9.00000002E+01
 51
1.46251016E+02
  0
ARC
  8
0
 62
7
 10
-2.51260185E+02
 20
-6.11784210E+01
 40
2.00000003E-01
 50
1.79999995E+02
 51
2.70000000E+02
  0
ARC
  8
0
 62
7
 10
-2.62460182E+02
 20
-1.44578423E+02
 40
2.00000003E-01
 50
3.54080197E+02
 51
9.00000002E+01
  0
CIRCLE
  8
0
 62
7
 10
-2.56860184E+02
 20
-1.82875683E+02
 40
4.94999981E+00
  0
CIRCLE
  8
0
  6
PHANTOM
 62
2
 10
-2.52260185E+02
 20
-1.66475683E+02
 40
1.89999998E+00
  0
ARC
  8
0
  6
PHANTOM
 62
2
 10
-2.49960182E+02
 20
-1.69885399E+02
 40
5.00000000E-01
 50
2.70000000E+02
 51
0.00000000E+00
  0
ARC
  8
0
  6
PHANTOM
 62
2
 10
-2.54560181E+02
 20
-1.69885399E+02
 40
5.00000000E-01
 50
1.79999995E+02
 51
2.70000000E+02
  0
ARC
  8
0
  6
PHANTOM
 62
2
 10
-2.49960182E+02
 20
-1.63285400E+02
 40
5.00000000E-01
 50
0.00000000E+00
 51
9.00000002E+01
  0
ARC
  8
0
  6
PHANTOM
 62
2
 10
-2.54560181E+02
 20
-1.63285400E+02
 40
5.00000000E-01
 50
9.00000002E+01
 51
1.80000005E+02
  0
CIRCLE
  8
0
  6
PHANTOM
 62
2
 10
-2.61360184E+02
 20
-1.63688141E+02
 40
1.75000000E+00
  0
CIRCLE
  8
0
  6
PHANTOM
 62
2
 10
-2.61360184E+02
 20
-1.55688141E+02
 40
1.75000000E+00
  0
ARC
  8
0
  6
PHANTOM
 62
2
 10
-2.63860184E+02
 20
-1.52375683E+02
 40
5.00000000E-01
 50
1.79999995E+02
 51
2.70000000E+02
  0
ARC
  8
0
  6
PHANTOM
 62
2
 10
-2.49860184E+02
 20
-1.52375683E+02
 40
5.00000000E-01
 50
2.70000000E+02
 51
0.00000000E+00
  0
ARC
  8
0
  6
PHANTOM
 62
2
 10
-2.62110184E+02
 20
-1.50075684E+02
 40
5.00000000E-01
 50
1.79999995E+02
 51
2.70000000E+02
  0
ARC
  8
0
  6
PHANTOM
 62
2
 10
-2.51610184E+02
 20
-1.50075684E+02
 40
5.00000000E-01
 50
2.70000000E+02
 51
0.00000000E+00
  0
ARC
  8
0
  6
PHANTOM
 62
2
 10
-2.62110184E+02
 20
-1.45075684E+02
 40
5.00000000E-01
 50
9.00000002E+01
 51
1.80000005E+02
  0
ARC
  8
0
  6
PHANTOM
 62
2
 10
-2.51610184E+02
 20
-1.45075684E+02
 40
5.00000000E-01
 50
0.00000000E+00
 51
9.00000002E+01
  0
ARC
  8
0
  6
PHANTOM
 62
2
 10
-2.63860184E+02
 20
-1.46075684E+02
 40
5.00000000E-01
 50
9.00000002E+01
 51
1.80000005E+02
  0
ARC
  8
0
  6
PHANTOM
 62
2
 10
-2.63860184E+02
 20
-1.69875683E+02
 40
5.00000000E-01
 50
1.79999995E+02
 51
2.70000000E+02
  0
ARC
  8
0
  6
PHANTOM
 62
2
 10
-2.49860184E+02
 20
-1.69875683E+02
 40
5.00000000E-01
 50
2.70000000E+02
 51
0.00000000E+00
  0
ARC
  8
0
  6
PHANTOM
 62
2
 10
-2.49860184E+02
 20
-1.46075684E+02
 40
5.00000000E-01
 50
0.00000000E+00
 51
9.00000002E+01
  0
ARC
  8
0
 62
7
 10
-2.63860184E+02
 20
-1.87885399E+02
 40
5.00000000E-01
 50
1.79999995E+02
 51
2.70000000E+02
  0
ARC
  8
0
 62
7
 10
-2.49860184E+02
 20
-1.87885399E+02
 40
5.00000000E-01
 50
2.70000000E+02
 51
0.00000000E+00
  0
ARC
  8
0
 62
7
 10
-2.49860184E+02
 20
-1.70885399E+02
 40
5.00000000E-01
 50
0.00000000E+00
 51
9.00000002E+01
  0
ARC
  8
0
 62
7
 10
-2.63860184E+02
 20
-1.70885399E+02
 40
5.00000000E-01
 50
9.00000002E+01
 51
1.80000005E+02
  0
ARC
  8
0
 62
6
 10
-2.59860184E+02
 20
-1.13678421E+02
 40
3.00000012E-01
 50
9.00000002E+01
 51
1.80000005E+02
  0
ARC
  8
0
 62
6
 10
-2.50460182E+02
 20
-1.13678421E+02
 40
3.00000012E-01
 50
0.00000000E+00
 51
9.00000002E+01
  0
CIRCLE
  8
0
 62
6
 10
-2.55160187E+02
 20
-1.35128422E+02
 40
2.04999995E+00
  0
ARC
  8
0
 62
6
 10
-2.58660187E+02
 20
-1.36878422E+02
 40
1.60000002E+00
 50
2.70000000E+02
 51
9.00000002E+01
  0
ARC
  8
0
 62
6
 10
-2.51660187E+02
 20
-1.36878422E+02
 40
1.60000002E+00
 50
9.00000002E+01
 51
2.70000000E+02
  0
CIRCLE
  8
0
 62
6
 10
-2.55160187E+02
 20
-1.35128422E+02
 40
1.85000002E+00
  0
ARC
  8
0
 62
6
 10
-2.55160187E+02
 20
-1.35128422E+02
 40
8.00000012E-01
 50
2.20243121E+01
 51
1.57975691E+02
  0
ARC
  8
0
 62
6
 10
-2.55160187E+02
 20
-1.35128422E+02
 40
8.00000012E-01
 50
2.02024309E+02
 51
3.37975688E+02
  0
CIRCLE
  8
0
 62
6
 10
-2.58660187E+02
 20
-1.36878422E+02
 40
1.50000000E+00
  0
CIRCLE
  8
0
 62
6
 10
-2.51660187E+02
 20
-1.36878422E+02
 40
1.50000000E+00
  0
CIRCLE
  8
0
 62
6
 10
-2.18760185E+02
 20
-1.26675682E+02
 40
8.75000000E-01
  0
ARC
  8
0
 62
6
 10
-2.18760185E+02
 20
-1.26675682E+02
 40
2.00000000E+00
 50
2.70000000E+02
 51
9.00000002E+01
  0
CIRCLE
  8
0
 62
6
 10
-2.24560184E+02
 20
-1.26675682E+02
 40
8.75000000E-01
  0
ARC
  8
0
 62
6
 10
-2.24560184E+02
 20
-1.26675682E+02
 40
2.00000000E+00
 50
9.00000002E+01
 51
2.70000000E+02
  0
CIRCLE
  8
0
 62
6
 10
-2.27960182E+02
 20
-8.90756836E+01
 40
8.75000000E-01
  0
ARC
  8
0
 62
6
 10
-2.27960182E+02
 20
-8.90756836E+01
 40
2.00000000E+00
 50
9.00000002E+01
 51
2.70000000E+02
  0
CIRCLE
  8
0
 62
6
 10
-2.22160183E+02
 20
-8.90756836E+01
 40
8.75000000E-01
  0
ARC
  8
0
 62
6
 10
-2.22160183E+02
 20
-8.90756836E+01
 40
2.00000000E+00
 50
2.70000000E+02
 51
9.00000002E+01
  0
ARC
  8
0
 62
7
 10
-2.29055183E+02
 20
-1.42875683E+02
 40
2.50000000E+00
 50
2.33130097E+02
 51
3.06869898E+02
  0
ARC
  8
0
 62
7
 10
-2.27460182E+02
 20
-1.44575684E+02
 40
2.00000003E-01
 50
0.00000000E+00
 51
9.00000002E+01
  0
ARC
  8
0
 62
7
 10
-2.17665184E+02
 20
-7.28756866E+01
 40
2.50000000E+00
 50
5.31301018E+01
 51
1.26869903E+02
  0
ARC
  8
0
 62
7
 10
-2.19260185E+02
 20
-7.11756821E+01
 40
2.00000003E-01
 50
1.79999995E+02
 51
2.70000000E+02
  0
ARC
  8
0
 62
7
 10
-2.28360184E+02
 20
-1.00375687E+02
 40
2.70000005E+00
 50
2.70000000E+02
 51
3.12205447E+02
  0
ARC
  8
0
 62
7
 10
-2.18360184E+02
 20
-1.14875687E+02
 40
2.70000005E+00
 50
9.00000002E+01
 51
1.46251016E+02
  0
ARC
  8
0
 62
7
 10
-2.18360184E+02
 20
-1.14875687E+02
 40
2.50000000E+00
 50
3.12843643E+02
 51
1.43130097E+02
  0
ARC
  8
0
 62
7
 10
-2.28360184E+02
 20
-1.00375687E+02
 40
2.50000000E+00
 50
1.32843641E+02
 51
3.06869908E+02
  0
CIRCLE
  8
0
  6
PHANTOM
 62
2
 10
-2.18760185E+02
 20
-1.66285398E+02
 40
1.89999998E+00
  0
ARC
  8
0
  6
PHANTOM
 62
2
 10
-2.16460182E+02
 20
-1.69585400E+02
 40
5.00000000E-01
 50
2.70000000E+02
 51
0.00000000E+00
  0
ARC
  8
0
  6
PHANTOM
 62
2
 10
-2.21060184E+02
 20
-1.69585400E+02
 40
5.00000000E-01
 50
1.79999995E+02
 51
2.70000000E+02
  0
ARC
  8
0
  6
PHANTOM
 62
2
 10
-2.16460182E+02
 20
-1.62985401E+02
 40
5.00000000E-01
 50
0.00000000E+00
 51
9.00000002E+01
  0
ARC
  8
0
  6
PHANTOM
 62
2
 10
-2.21060184E+02
 20
-1.62985401E+02
 40
5.00000000E-01
 50
9.00000002E+01
 51
1.80000005E+02
  0
CIRCLE
  8
0
  6
PHANTOM
 62
2
 10
-2.27860184E+02
 20
-1.63685398E+02
 40
1.75000000E+00
  0
CIRCLE
  8
0
  6
PHANTOM
 62
2
 10
-2.27860184E+02
 20
-1.55685398E+02
 40
1.75000000E+00
  0
ARC
  8
0
  6
PHANTOM
 62
2
 10
-2.30360184E+02
 20
-1.52185398E+02
 40
5.00000000E-01
 50
1.79999995E+02
 51
2.70000000E+02
  0
ARC
  8
0
  6
PHANTOM
 62
2
 10
-2.16360184E+02
 20
-1.52185398E+02
 40
5.00000000E-01
 50
2.70000000E+02
 51
0.00000000E+00
  0
ARC
  8
0
  6
PHANTOM
 62
2
 10
-2.28610184E+02
 20
-1.49885399E+02
 40
5.00000000E-01
 50
1.79999995E+02
 51
2.70000000E+02
  0
ARC
  8
0
  6
PHANTOM
 62
2
 10
-2.18110184E+02
 20
-1.49885399E+02
 40
5.00000000E-01
 50
2.70000000E+02
 51
0.00000000E+00
  0
ARC
  8
0
  6
PHANTOM
 62
2
 10
-2.28610184E+02
 20
-1.44885399E+02
 40
5.00000000E-01
 50
9.00000002E+01
 51
1.80000005E+02
  0
ARC
  8
0
  6
PHANTOM
 62
2
 10
-2.18110184E+02
 20
-1.44885399E+02
 40
5.00000000E-01
 50
0.00000000E+00
 51
9.00000002E+01
  0
ARC
  8
0
  6
PHANTOM
 62
2
 10
-2.30360184E+02
 20
-1.45885399E+02
 40
5.00000000E-01
 50
9.00000002E+01
 51
1.80000005E+02
  0
ARC
  8
0
  6
PHANTOM
 62
2
 10
-2.30360184E+02
 20
-1.69685400E+02
 40
5.00000000E-01
 50
1.79999995E+02
 51
2.70000000E+02
  0
ARC
  8
0
  6
PHANTOM
 62
2
 10
-2.16360184E+02
 20
-1.69685400E+02
 40
5.00000000E-01
 50
2.70000000E+02
 51
0.00000000E+00
  0
ARC
  8
0
  6
PHANTOM
 62
2
 10
-2.16360184E+02
 20
-1.45885399E+02
 40
5.00000000E-01
 50
0.00000000E+00
 51
9.00000002E+01
  0
CIRCLE
  8
0
 62
7
 10
-2.23360184E+02
 20
-1.82672943E+02
 40
4.94999981E+00
  0
ARC
  8
0
 62
7
 10
-2.30360184E+02
 20
-1.87882660E+02
 40
5.00000000E-01
 50
1.79999995E+02
 51
2.70000000E+02
  0
ARC
  8
0
 62
7
 10
-2.16360184E+02
 20
-1.87882660E+02
 40
5.00000000E-01
 50
2.70000000E+02
 51
0.00000000E+00
  0
ARC
  8
0
 62
7
 10
-2.16360184E+02
 20
-1.70882660E+02
 40
5.00000000E-01
 50
0.00000000E+00
 51
9.00000002E+01
  0
ARC
  8
0
 62
7
 10
-2.30360184E+02
 20
-1.70882660E+02
 40
5.00000000E-01
 50
9.00000002E+01
 51
1.80000005E+02
  0
ARC
  8
0
 62
7
 10
-2.29760185E+02
 20
-1.02075684E+02
 40
3.00000012E-01
 50
1.79999995E+02
 51
2.70000000E+02
  0
ARC
  8
0
 62
6
 10
-2.20360184E+02
 20
-1.02075684E+02
 40
3.00000012E-01
 50
2.70000000E+02
 51
0.00000000E+00
  0
CIRCLE
  8
0
 62
6
 10
-2.25060184E+02
 20
-8.06256866E+01
 40
2.04999995E+00
  0
ARC
  8
0
 62
6
 10
-2.28560184E+02
 20
-7.88756866E+01
 40
1.60000002E+00
 50
2.70000000E+02
 51
9.00000002E+01
  0
ARC
  8
0
 62
6
 10
-2.21560184E+02
 20
-7.88756866E+01
 40
1.60000002E+00
 50
9.00000002E+01
 51
2.70000000E+02
  0
CIRCLE
  8
0
 62
6
 10
-2.25060184E+02
 20
-8.06256866E+01
 40
1.85000002E+00
  0
ARC
  8
0
 62
6
 10
-2.25060184E+02
 20
-8.06256866E+01
 40
8.00000012E-01
 50
2.02024309E+02
 51
3.37975688E+02
  0
ARC
  8
0
 62
6
 10
-2.25060184E+02
 20
-8.06256866E+01
 40
8.00000012E-01
 50
2.20243121E+01
 51
1.57975691E+02
  0
CIRCLE
  8
0
 62
6
 10
-2.28560184E+02
 20
-7.88756866E+01
 40
1.50000000E+00
  0
CIRCLE
  8
0
 62
6
 10
-2.21560184E+02
 20
-7.88756866E+01
 40
1.50000000E+00
  0
ARC
  8
0
 62
6
 10
-2.26360184E+02
 20
-1.13675682E+02
 40
3.00000012E-01
 50
9.00000002E+01
 51
1.80000005E+02
  0
ARC
  8
0
 62
6
 10
-2.16960182E+02
 20
-1.13675682E+02
 40
3.00000012E-01
 50
0.00000000E+00
 51
9.00000002E+01
  0
CIRCLE
  8
0
 62
6
 10
-2.21660183E+02
 20
-1.35125683E+02
 40
2.04999995E+00
  0
ARC
  8
0
 62
6
 10
-2.25160183E+02
 20
-1.36875683E+02
 40
1.60000002E+00
 50
2.70000000E+02
 51
9.00000002E+01
  0
ARC
  8
0
 62
6
 10
-2.18160183E+02
 20
-1.36875683E+02
 40
1.60000002E+00
 50
9.00000002E+01
 51
2.70000000E+02
  0
CIRCLE
  8
0
 62
6
 10
-2.21660183E+02
 20
-1.35125683E+02
 40
1.85000002E+00
  0
ARC
  8
0
 62
6
 10
-2.21660183E+02
 20
-1.35125683E+02
 40
8.00000012E-01
 50
2.20243121E+01
 51
1.57975691E+02
  0
ARC
  8
0
 62
6
 10
-2.21660183E+02
 20
-1.35125683E+02
 40
8.00000012E-01
 50
2.02024309E+02
 51
3.37975688E+02
  0
CIRCLE
  8
0
 62
6
 10
-2.25160183E+02
 20
-1.36875683E+02
 40
1.50000000E+00
  0
CIRCLE
  8
0
 62
6
 10
-2.18160183E+02
 20
-1.36875683E+02
 40
1.50000000E+00
  0
CIRCLE
  8
0
 62
6
 10
-2.34760185E+02
 20
-1.26675682E+02
 40
8.75000000E-01
  0
ARC
  8
0
 62
6
 10
-2.34760185E+02
 20
-1.26675682E+02
 40
2.00000000E+00
 50
2.70000000E+02
 51
9.00000002E+01
  0
CIRCLE
  8
0
 62
6
 10
-2.40560184E+02
 20
-1.26675682E+02
 40
8.75000000E-01
  0
ARC
  8
0
 62
6
 10
-2.40560184E+02
 20
-1.26675682E+02
 40
2.00000000E+00
 50
9.00000002E+01
 51
2.70000000E+02
  0
CIRCLE
  8
0
 62
6
 10
-2.43960182E+02
 20
-8.90756836E+01
 40
8.75000000E-01
  0
ARC
  8
0
 62
6
 10
-2.43960182E+02
 20
-8.90756836E+01
 40
2.00000000E+00
 50
9.00000002E+01
 51
2.70000000E+02
  0
CIRCLE
  8
0
 62
6
 10
-2.38160183E+02
 20
-8.90756836E+01
 40
8.75000000E-01
  0
ARC
  8
0
 62
6
 10
-2.38160183E+02
 20
-8.90756836E+01
 40
2.00000000E+00
 50
2.70000000E+02
 51
9.00000002E+01
  0
ARC
  8
0
 62
7
 10
-2.45055183E+02
 20
-1.42875683E+02
 40
2.50000000E+00
 50
2.33130097E+02
 51
3.06869898E+02
  0
ARC
  8
0
 62
7
 10
-2.43460182E+02
 20
-1.44575684E+02
 40
2.00000003E-01
 50
0.00000000E+00
 51
9.00000002E+01
  0
ARC
  8
0
 62
7
 10
-2.33665184E+02
 20
-7.28756866E+01
 40
2.50000000E+00
 50
5.31301018E+01
 51
1.26869903E+02
  0
ARC
  8
0
 62
7
 10
-2.35260185E+02
 20
-7.11756821E+01
 40
2.00000003E-01
 50
1.79999995E+02
 51
2.70000000E+02
  0
ARC
  8
0
 62
7
 10
-2.44360184E+02
 20
-1.00375687E+02
 40
2.70000005E+00
 50
2.70000000E+02
 51
3.12205447E+02
  0
ARC
  8
0
 62
7
 10
-2.34360184E+02
 20
-1.14875687E+02
 40
2.70000005E+00
 50
9.00000002E+01
 51
1.46251016E+02
  0
ARC
  8
0
 62
7
 10
-2.34360184E+02
 20
-1.14875687E+02
 40
2.50000000E+00
 50
3.12843643E+02
 51
1.43130097E+02
  0
ARC
  8
0
 62
7
 10
-2.44360184E+02
 20
-1.00375687E+02
 40
2.50000000E+00
 50
1.32843641E+02
 51
3.06869908E+02
  0
CIRCLE
  8
0
  6
PHANTOM
 62
2
 10
-2.34760185E+02
 20
-1.66285398E+02
 40
1.89999998E+00
  0
ARC
  8
0
  6
PHANTOM
 62
2
 10
-2.32460182E+02
 20
-1.69585400E+02
 40
5.00000000E-01
 50
2.70000000E+02
 51
0.00000000E+00
  0
ARC
  8
0
  6
PHANTOM
 62
2
 10
-2.37060184E+02
 20
-1.69585400E+02
 40
5.00000000E-01
 50
1.79999995E+02
 51
2.70000000E+02
  0
ARC
  8
0
  6
PHANTOM
 62
2
 10
-2.32460182E+02
 20
-1.62985401E+02
 40
5.00000000E-01
 50
0.00000000E+00
 51
9.00000002E+01
  0
ARC
  8
0
  6
PHANTOM
 62
2
 10
-2.37060184E+02
 20
-1.62985401E+02
 40
5.00000000E-01
 50
9.00000002E+01
 51
1.80000005E+02
  0
CIRCLE
  8
0
  6
PHANTOM
 62
2
 10
-2.43860184E+02
 20
-1.63685398E+02
 40
1.75000000E+00
  0
CIRCLE
  8
0
  6
PHANTOM
 62
2
 10
-2.43860184E+02
 20
-1.55685398E+02
 40
1.75000000E+00
  0
ARC
  8
0
  6
PHANTOM
 62
2
 10
-2.46360184E+02
 20
-1.52185398E+02
 40
5.00000000E-01
 50
1.79999995E+02
 51
2.70000000E+02
  0
ARC
  8
0
  6
PHANTOM
 62
2
 10
-2.32360184E+02
 20
-1.52185398E+02
 40
5.00000000E-01
 50
2.70000000E+02
 51
0.00000000E+00
  0
ARC
  8
0
  6
PHANTOM
 62
2
 10
-2.44610184E+02
 20
-1.49885399E+02
 40
5.00000000E-01
 50
1.79999995E+02
 51
2.70000000E+02
  0
ARC
  8
0
  6
PHANTOM
 62
2
 10
-2.34110184E+02
 20
-1.49885399E+02
 40
5.00000000E-01
 50
2.70000000E+02
 51
0.00000000E+00
  0
ARC
  8
0
  6
PHANTOM
 62
2
 10
-2.44610184E+02
 20
-1.44885399E+02
 40
5.00000000E-01
 50
9.00000002E+01
 51
1.80000005E+02
  0
ARC
  8
0
  6
PHANTOM
 62
2
 10
-2.34110184E+02
 20
-1.44885399E+02
 40
5.00000000E-01
 50
0.00000000E+00
 51
9.00000002E+01
  0
ARC
  8
0
  6
PHANTOM
 62
2
 10
-2.46360184E+02
 20
-1.45885399E+02
 40
5.00000000E-01
 50
9.00000002E+01
 51
1.80000005E+02
  0
ARC
  8
0
  6
PHANTOM
 62
2
 10
-2.46360184E+02
 20
-1.69685400E+02
 40
5.00000000E-01
 50
1.79999995E+02
 51
2.70000000E+02
  0
ARC
  8
0
  6
PHANTOM
 62
2
 10
-2.32360184E+02
 20
-1.69685400E+02
 40
5.00000000E-01
 50
2.70000000E+02
 51
0.00000000E+00
  0
ARC
  8
0
  6
PHANTOM
 62
2
 10
-2.32360184E+02
 20
-1.45885399E+02
 40
5.00000000E-01
 50
0.00000000E+00
 51
9.00000002E+01
  0
CIRCLE
  8
0
 62
7
 10
-2.39360184E+02
 20
-1.82672943E+02
 40
4.94999981E+00
  0
ARC
  8
0
 62
7
 10
-2.46360184E+02
 20
-1.87882660E+02
 40
5.00000000E-01
 50
1.79999995E+02
 51
2.70000000E+02
  0
ARC
  8
0
 62
7
 10
-2.32360184E+02
 20
-1.87882660E+02
 40
5.00000000E-01
 50
2.70000000E+02
 51
0.00000000E+00
  0
ARC
  8
0
 62
7
 10
-2.32360184E+02
 20
-1.70882660E+02
 40
5.00000000E-01
 50
0.00000000E+00
 51
9.00000002E+01
  0
ARC
  8
0
 62
7
 10
-2.46360184E+02
 20
-1.70882660E+02
 40
5.00000000E-01
 50
9.00000002E+01
 51
1.80000005E+02
  0
ARC
  8
0
 62
7
 10
-2.45760185E+02
 20
-1.02075684E+02
 40
3.00000012E-01
 50
1.79999995E+02
 51
2.70000000E+02
  0
ARC
  8
0
 62
6
 10
-2.36360184E+02
 20
-1.02075684E+02
 40
3.00000012E-01
 50
2.70000000E+02
 51
0.00000000E+00
  0
CIRCLE
  8
0
 62
6
 10
-2.41060184E+02
 20
-8.06256866E+01
 40
2.04999995E+00
  0
ARC
  8
0
 62
6
 10
-2.44560184E+02
 20
-7.88756866E+01
 40
1.60000002E+00
 50
2.70000000E+02
 51
9.00000002E+01
  0
ARC
  8
0
 62
6
 10
-2.37560184E+02
 20
-7.88756866E+01
 40
1.60000002E+00
 50
9.00000002E+01
 51
2.70000000E+02
  0
CIRCLE
  8
0
 62
6
 10
-2.41060184E+02
 20
-8.06256866E+01
 40
1.85000002E+00
  0
ARC
  8
0
 62
6
 10
-2.41060184E+02
 20
-8.06256866E+01
 40
8.00000012E-01
 50
2.02024309E+02
 51
3.37975688E+02
  0
ARC
  8
0
 62
6
 10
-2.41060184E+02
 20
-8.06256866E+01
 40
8.00000012E-01
 50
2.20243121E+01
 51
1.57975691E+02
  0
CIRCLE
  8
0
 62
6
 10
-2.44560184E+02
 20
-7.88756866E+01
 40
1.50000000E+00
  0
CIRCLE
  8
0
 62
6
 10
-2.37560184E+02
 20
-7.88756866E+01
 40
1.50000000E+00
  0
ARC
  8
0
 62
6
 10
-2.42360184E+02
 20
-1.13675682E+02
 40
3.00000012E-01
 50
9.00000002E+01
 51
1.80000005E+02
  0
ARC
  8
0
 62
6
 10
-2.32960182E+02
 20
-1.13675682E+02
 40
3.00000012E-01
 50
0.00000000E+00
 51
9.00000002E+01
  0
CIRCLE
  8
0
 62
6
 10
-2.37660183E+02
 20
-1.35125683E+02
 40
2.04999995E+00
  0
ARC
  8
0
 62
6
 10
-2.41160183E+02
 20
-1.36875683E+02
 40
1.60000002E+00
 50
2.70000000E+02
 51
9.00000002E+01
  0
ARC
  8
0
 62
6
 10
-2.34160183E+02
 20
-1.36875683E+02
 40
1.60000002E+00
 50
9.00000002E+01
 51
2.70000000E+02
  0
CIRCLE
  8
0
 62
6
 10
-2.37660183E+02
 20
-1.35125683E+02
 40
1.85000002E+00
  0
ARC
  8
0
 62
6
 10
-2.37660183E+02
 20
-1.35125683E+02
 40
8.00000012E-01
 50
2.20243121E+01
 51
1.57975691E+02
  0
ARC
  8
0
 62
6
 10
-2.37660183E+02
 20
-1.35125683E+02
 40
8.00000012E-01
 50
2.02024309E+02
 51
3.37975688E+02
  0
CIRCLE
  8
0
 62
6
 10
-2.41160183E+02
 20
-1.36875683E+02
 40
1.50000000E+00
  0
CIRCLE
  8
0
 62
6
 10
-2.34160183E+02
 20
-1.36875683E+02
 40
1.50000000E+00
  0
CIRCLE
  8
0
 62
6
 10
-1.95960184E+02
 20
-8.90659637E+01
 40
8.75000000E-01
  0
ARC
  8
0
 62
6
 10
-1.95960184E+02
 20
-8.90659637E+01
 40
2.00000000E+00
 50
2.70000000E+02
 51
9.00000002E+01
  0
CIRCLE
  8
0
 62
6
 10
-2.01760183E+02
 20
-8.90659637E+01
 40
8.75000000E-01
  0
ARC
  8
0
 62
6
 10
-2.01760183E+02
 20
-8.90659637E+01
 40
2.00000000E+00
 50
9.00000002E+01
 51
2.70000000E+02
  0
CIRCLE
  8
0
 62
6
 10
-1.95960184E+02
 20
-1.26675682E+02
 40
8.75000000E-01
  0
ARC
  8
0
 62
6
 10
-1.95960184E+02
 20
-1.26675682E+02
 40
2.00000000E+00
 50
2.70000000E+02
 51
9.00000002E+01
  0
CIRCLE
  8
0
 62
6
 10
-2.01760183E+02
 20
-1.26675682E+02
 40
8.75000000E-01
  0
ARC
  8
0
 62
6
 10
-2.01760183E+02
 20
-1.26675682E+02
 40
2.00000000E+00
 50
9.00000002E+01
 51
2.70000000E+02
  0
ARC
  8
0
 62
6
 10
-2.03560184E+02
 20
-1.13675682E+02
 40
3.00000012E-01
 50
9.00000002E+01
 51
1.80000005E+02
  0
ARC
  8
0
 62
6
 10
-1.94160184E+02
 20
-1.13675682E+02
 40
3.00000012E-01
 50
0.00000000E+00
 51
9.00000002E+01
  0
CIRCLE
  8
0
 62
6
 10
-1.98860184E+02
 20
-1.35125683E+02
 40
2.04999995E+00
  0
ARC
  8
0
 62
6
 10
-2.02360184E+02
 20
-1.36875683E+02
 40
1.60000002E+00
 50
2.70000000E+02
 51
9.00000002E+01
  0
ARC
  8
0
 62
6
 10
-1.95360184E+02
 20
-1.36875683E+02
 40
1.60000002E+00
 50
9.00000002E+01
 51
2.70000000E+02
  0
CIRCLE
  8
0
 62
6
 10
-1.98860184E+02
 20
-1.35125683E+02
 40
1.85000002E+00
  0
ARC
  8
0
 62
6
 10
-1.98860184E+02
 20
-1.35125683E+02
 40
8.00000012E-01
 50
2.20243121E+01
 51
1.57975691E+02
  0
ARC
  8
0
 62
6
 10
-1.98860184E+02
 20
-1.35125683E+02
 40
8.00000012E-01
 50
2.02024309E+02
 51
3.37975688E+02
  0
CIRCLE
  8
0
 62
6
 10
-2.02360184E+02
 20
-1.36875683E+02
 40
1.50000000E+00
  0
CIRCLE
  8
0
 62
6
 10
-1.95360184E+02
 20
-1.36875683E+02
 40
1.50000000E+00
  0
ARC
  8
0
 62
6
 10
-2.03560184E+02
 20
-1.02065964E+02
 40
3.00000012E-01
 50
1.79999995E+02
 51
2.70000000E+02
  0
ARC
  8
0
 62
6
 10
-1.94160184E+02
 20
-1.02065964E+02
 40
3.00000012E-01
 50
2.70000000E+02
 51
0.00000000E+00
  0
CIRCLE
  8
0
 62
6
 10
-1.98860184E+02
 20
-8.06159668E+01
 40
2.04999995E+00
  0
ARC
  8
0
 62
6
 10
-2.02360184E+02
 20
-7.88659668E+01
 40
1.60000002E+00
 50
2.70000000E+02
 51
9.00000002E+01
  0
ARC
  8
0
 62
6
 10
-1.95360184E+02
 20
-7.88659668E+01
 40
1.60000002E+00
 50
9.00000002E+01
 51
2.70000000E+02
  0
CIRCLE
  8
0
 62
6
 10
-1.98860184E+02
 20
-8.06159668E+01
 40
1.89999998E+00
  0
CIRCLE
  8
0
 62
6
 10
-1.98860184E+02
 20
-8.06159668E+01
 40
1.85000002E+00
  0
ARC
  8
0
 62
6
 10
-1.98860184E+02
 20
-8.06159668E+01
 40
8.00000012E-01
 50
2.02024309E+02
 51
3.37975688E+02
  0
ARC
  8
0
 62
6
 10
-1.98860184E+02
 20
-8.06159668E+01
 40
8.00000012E-01
 50
2.20243121E+01
 51
1.57975691E+02
  0
CIRCLE
  8
0
 62
6
 10
-2.02360184E+02
 20
-7.88659668E+01
 40
1.50000000E+00
  0
CIRCLE
  8
0
 62
6
 10
-1.95360184E+02
 20
-7.88659668E+01
 40
1.50000000E+00
  0
CIRCLE
  8
0
  6
PHANTOM
 62
2
 10
-2.00460184E+02
 20
-1.48624313E+02
 40
3.00000012E-01
  0
CIRCLE
  8
0
  6
PHANTOM
 62
2
 10
-2.00960184E+02
 20
-1.48124313E+02
 40
1.89999998E+00
  0
CIRCLE
  8
0
  6
PHANTOM
 62
2
 10
-2.00960184E+02
 20
-1.53474312E+02
 40
1.89999998E+00
  0
CIRCLE
  8
0
  6
PHANTOM
 62
2
 10
-2.00960184E+02
 20
-1.61274315E+02
 40
1.89999998E+00
  0
CIRCLE
  8
0
  6
PHANTOM
 62
2
 10
-2.00960184E+02
 20
-1.48124313E+02
 40
2.40000010E+00
  0
CIRCLE
  8
0
  6
PHANTOM
 62
2
 10
-2.00960184E+02
 20
-1.48124313E+02
 40
1.20000005E+00
  0
CIRCLE
  8
0
  6
PHANTOM
 62
2
 10
-2.00460184E+02
 20
-1.47624313E+02
 40
3.00000012E-01
  0
CIRCLE
  8
0
  6
PHANTOM
 62
2
 10
-2.01460184E+02
 20
-1.47624313E+02
 40
3.00000012E-01
  0
CIRCLE
  8
0
  6
PHANTOM
 62
2
 10
-2.01460184E+02
 20
-1.48624313E+02
 40
3.00000012E-01
  0
CIRCLE
  8
0
 62
7
 10
-1.98860184E+02
 20
-1.81372943E+02
 40
4.94999981E+00
  0
CIRCLE
  8
0
 62
2
 10
-1.98860184E+02
 20
-1.69772943E+02
 40
1.00000000E+00
  0
ARC
  8
0
 62
7
 10
-1.94360184E+02
 20
-1.65872944E+02
 40
5.00000000E-01
 50
0.00000000E+00
 51
9.00000002E+01
  0
ARC
  8
0
 62
7
 10
-2.03360184E+02
 20
-1.65872944E+02
 40
5.00000000E-01
 50
9.00000002E+01
 51
1.80000005E+02
  0
ARC
  8
0
 62
7
 10
-2.03360184E+02
 20
-1.87872943E+02
 40
5.00000000E-01
 50
1.79999995E+02
 51
2.70000000E+02
  0
ARC
  8
0
 62
7
 10
-1.94360184E+02
 20
-1.87872943E+02
 40
5.00000000E-01
 50
2.70000000E+02
 51
0.00000000E+00
  0
ARC
  8
0
 62
7
 10
-1.95360184E+02
 20
-7.88659668E+01
 40
1.70000005E+00
 50
3.31927512E+02
 51
2.80724873E+01
  0
ARC
  8
0
 62
7
 10
-2.02360184E+02
 20
-7.88659668E+01
 40
1.70000005E+00
 50
1.51927518E+02
 51
2.08072492E+02
  0
CIRCLE
  8
0
 62
6
 10
-2.06960184E+02
 20
-8.90659637E+01
 40
8.75000000E-01
  0
ARC
  8
0
 62
6
 10
-2.06960184E+02
 20
-8.90659637E+01
 40
2.00000000E+00
 50
2.70000000E+02
 51
9.00000002E+01
  0
CIRCLE
  8
0
 62
6
 10
-2.12760183E+02
 20
-8.90659637E+01
 40
8.75000000E-01
  0
ARC
  8
0
 62
6
 10
-2.12760183E+02
 20
-8.90659637E+01
 40
2.00000000E+00
 50
9.00000002E+01
 51
2.70000000E+02
  0
CIRCLE
  8
0
 62
6
 10
-2.06960184E+02
 20
-1.26675682E+02
 40
8.75000000E-01
  0
ARC
  8
0
 62
6
 10
-2.06960184E+02
 20
-1.26675682E+02
 40
2.00000000E+00
 50
2.70000000E+02
 51
9.00000002E+01
  0
CIRCLE
  8
0
 62
6
 10
-2.12760183E+02
 20
-1.26675682E+02
 40
8.75000000E-01
  0
ARC
  8
0
 62
6
 10
-2.12760183E+02
 20
-1.26675682E+02
 40
2.00000000E+00
 50
9.00000002E+01
 51
2.70000000E+02
  0
ARC
  8
0
 62
6
 10
-2.14560184E+02
 20
-1.13675682E+02
 40
3.00000012E-01
 50
9.00000002E+01
 51
1.80000005E+02
  0
ARC
  8
0
 62
6
 10
-2.05160183E+02
 20
-1.13675682E+02
 40
3.00000012E-01
 50
0.00000000E+00
 51
9.00000002E+01
  0
CIRCLE
  8
0
 62
6
 10
-2.09860184E+02
 20
-1.35125683E+02
 40
2.04999995E+00
  0
ARC
  8
0
 62
6
 10
-2.13360184E+02
 20
-1.36875683E+02
 40
1.60000002E+00
 50
2.70000000E+02
 51
9.00000002E+01
  0
ARC
  8
0
 62
6
 10
-2.06360184E+02
 20
-1.36875683E+02
 40
1.60000002E+00
 50
9.00000002E+01
 51
2.70000000E+02
  0
CIRCLE
  8
0
 62
6
 10
-2.09860184E+02
 20
-1.35125683E+02
 40
1.85000002E+00
  0
ARC
  8
0
 62
6
 10
-2.09860184E+02
 20
-1.35125683E+02
 40
8.00000012E-01
 50
2.20243121E+01
 51
1.57975691E+02
  0
ARC
  8
0
 62
6
 10
-2.09860184E+02
 20
-1.35125683E+02
 40
8.00000012E-01
 50
2.02024309E+02
 51
3.37975688E+02
  0
CIRCLE
  8
0
 62
6
 10
-2.13360184E+02
 20
-1.36875683E+02
 40
1.50000000E+00
  0
CIRCLE
  8
0
 62
6
 10
-2.06360184E+02
 20
-1.36875683E+02
 40
1.50000000E+00
  0
ARC
  8
0
 62
6
 10
-2.14560184E+02
 20
-1.02065964E+02
 40
3.00000012E-01
 50
1.79999995E+02
 51
2.70000000E+02
  0
ARC
  8
0
 62
6
 10
-2.05160183E+02
 20
-1.02065964E+02
 40
3.00000012E-01
 50
2.70000000E+02
 51
0.00000000E+00
  0
CIRCLE
  8
0
 62
6
 10
-2.09860184E+02
 20
-8.06159668E+01
 40
2.04999995E+00
  0
ARC
  8
0
 62
6
 10
-2.13360184E+02
 20
-7.88659668E+01
 40
1.60000002E+00
 50
2.70000000E+02
 51
9.00000002E+01
  0
ARC
  8
0
 62
6
 10
-2.06360184E+02
 20
-7.88659668E+01
 40
1.60000002E+00
 50
9.00000002E+01
 51
2.70000000E+02
  0
CIRCLE
  8
0
 62
6
 10
-2.09860184E+02
 20
-8.06159668E+01
 40
1.89999998E+00
  0
CIRCLE
  8
0
 62
6
 10
-2.09860184E+02
 20
-8.06159668E+01
 40
1.85000002E+00
  0
ARC
  8
0
 62
6
 10
-2.09860184E+02
 20
-8.06159668E+01
 40
8.00000012E-01
 50
2.02024309E+02
 51
3.37975688E+02
  0
ARC
  8
0
 62
6
 10
-2.09860184E+02
 20
-8.06159668E+01
 40
8.00000012E-01
 50
2.20243121E+01
 51
1.57975691E+02
  0
CIRCLE
  8
0
 62
6
 10
-2.13360184E+02
 20
-7.88659668E+01
 40
1.50000000E+00
  0
CIRCLE
  8
0
 62
6
 10
-2.06360184E+02
 20
-7.88659668E+01
 40
1.50000000E+00
  0
CIRCLE
  8
0
  6
PHANTOM
 62
2
 10
-2.11460184E+02
 20
-1.48624313E+02
 40
3.00000012E-01
  0
CIRCLE
  8
0
  6
PHANTOM
 62
2
 10
-2.11960184E+02
 20
-1.48124313E+02
 40
1.89999998E+00
  0
CIRCLE
  8
0
  6
PHANTOM
 62
2
 10
-2.11960184E+02
 20
-1.53474312E+02
 40
1.89999998E+00
  0
CIRCLE
  8
0
  6
PHANTOM
 62
2
 10
-2.11960184E+02
 20
-1.61274315E+02
 40
1.89999998E+00
  0
CIRCLE
  8
0
  6
PHANTOM
 62
2
 10
-2.11960184E+02
 20
-1.48124313E+02
 40
2.40000010E+00
  0
CIRCLE
  8
0
  6
PHANTOM
 62
2
 10
-2.11960184E+02
 20
-1.48124313E+02
 40
1.20000005E+00
  0
CIRCLE
  8
0
  6
PHANTOM
 62
2
 10
-2.11460184E+02
 20
-1.47624313E+02
 40
3.00000012E-01
  0
CIRCLE
  8
0
  6
PHANTOM
 62
2
 10
-2.12460184E+02
 20
-1.47624313E+02
 40
3.00000012E-01
  0
CIRCLE
  8
0
  6
PHANTOM
 62
2
 10
-2.12460184E+02
 20
-1.48624313E+02
 40
3.00000012E-01
  0
CIRCLE
  8
0
 62
7
 10
-2.09860184E+02
 20
-1.81372943E+02
 40
4.94999981E+00
  0
CIRCLE
  8
0
 62
2
 10
-2.09860184E+02
 20
-1.69772943E+02
 40
1.00000000E+00
  0
ARC
  8
0
 62
7
 10
-2.05360184E+02
 20
-1.65872944E+02
 40
5.00000000E-01
 50
0.00000000E+00
 51
9.00000002E+01
  0
ARC
  8
0
 62
7
 10
-2.14360184E+02
 20
-1.65872944E+02
 40
5.00000000E-01
 50
9.00000002E+01
 51
1.80000005E+02
  0
ARC
  8
0
 62
7
 10
-2.14360184E+02
 20
-1.87872943E+02
 40
5.00000000E-01
 50
1.79999995E+02
 51
2.70000000E+02
  0
ARC
  8
0
 62
7
 10
-2.05360184E+02
 20
-1.87872943E+02
 40
5.00000000E-01
 50
2.70000000E+02
 51
0.00000000E+00
  0
ARC
  8
0
 62
7
 10
-2.06360184E+02
 20
-7.88659668E+01
 40
1.70000005E+00
 50
3.31927512E+02
 51
2.80724873E+01
  0
ARC
  8
0
 62
7
 10
-2.13360184E+02
 20
-7.88659668E+01
 40
1.70000005E+00
 50
1.51927518E+02
 51
2.08072492E+02
  0
CIRCLE
  8
0
  6
PHANTOM
 62
2
 10
-2.35260185E+02
 20
-1.65785398E+02
 40
3.00000012E-01
  0
CIRCLE
  8
0
  6
PHANTOM
 62
2
 10
-2.35260185E+02
 20
-1.66785398E+02
 40
3.00000012E-01
  0
CIRCLE
  8
0
  6
PHANTOM
 62
2
 10
-2.34260185E+02
 20
-1.66785398E+02
 40
3.00000012E-01
  0
CIRCLE
  8
0
  6
PHANTOM
 62
2
 10
-2.34260185E+02
 20
-1.65785398E+02
 40
3.00000012E-01
  0
CIRCLE
  8
0
  6
PHANTOM
 62
2
 10
-2.34760185E+02
 20
-1.66285398E+02
 40
1.20000005E+00
  0
CIRCLE
  8
0
  6
PHANTOM
 62
2
 10
-2.19260185E+02
 20
-1.65785398E+02
 40
3.00000012E-01
  0
CIRCLE
  8
0
  6
PHANTOM
 62
2
 10
-2.19260185E+02
 20
-1.66785398E+02
 40
3.00000012E-01
  0
CIRCLE
  8
0
  6
PHANTOM
 62
2
 10
-2.18260185E+02
 20
-1.66785398E+02
 40
3.00000012E-01
  0
CIRCLE
  8
0
  6
PHANTOM
 62
2
 10
-2.18260185E+02
 20
-1.65785398E+02
 40
3.00000012E-01
  0
CIRCLE
  8
0
  6
PHANTOM
 62
2
 10
-2.18760185E+02
 20
-1.66285398E+02
 40
1.20000005E+00
  0
LINE
  8
0
 62
7
 10
1.63639816E+02
 20
8.40340405E+01
 11
1.63889816E+02
 21
8.40340405E+01
  0
LINE
  8
0
 62
7
 10
1.63639816E+02
 20
9.50340405E+01
 11
1.63889816E+02
 21
9.50340405E+01
  0
LINE
  8
0
 62
7
 10
2.36639816E+02
 20
9.50340405E+01
 11
2.36389816E+02
 21
9.50340405E+01
  0
LINE
  8
0
 62
7
 10
2.36639816E+02
 20
8.40340405E+01
 11
2.36389816E+02
 21
8.40340405E+01
  0
LINE
  8
0
  6
CENTER
 62
2
 10
1.69139816E+02
 20
7.94734650E+01
 11
1.69139816E+02
 21
1.62901474E+02
  0
LINE
  8
0
  6
CENTER
 62
2
 10
1.65714816E+02
 20
9.96340408E+01
 11
1.74464817E+02
 21
9.96340408E+01
  0
LINE
  8
0
 62
7
 10
1.63939816E+02
 20
1.26634041E+02
 11
1.74339817E+02
 21
1.26634041E+02
  0
LINE
  8
0
 62
7
 10
1.74139816E+02
 20
1.08134041E+02
 11
1.74139816E+02
 21
1.26634041E+02
  0
LINE
  8
0
 62
7
 10
1.64139816E+02
 20
1.26634041E+02
 11
1.64139816E+02
 21
1.08134041E+02
  0
LINE
  8
0
 62
7
 10
1.66139816E+02
 20
1.12634041E+02
 11
1.64139816E+02
 21
1.12634041E+02
  0
LINE
  8
0
 62
7
 10
1.72439816E+02
 20
1.18334041E+02
 11
1.74139816E+02
 21
1.18334041E+02
  0
LINE
  8
0
 62
7
 10
1.72439816E+02
 20
1.21534040E+02
 11
1.74139816E+02
 21
1.21534040E+02
  0
LINE
  8
0
 62
7
 10
1.74339817E+02
 20
1.19934041E+02
 11
1.74339817E+02
 21
1.26634041E+02
  0
LINE
  8
0
 62
7
 10
1.63939816E+02
 20
1.26634041E+02
 11
1.63939816E+02
 21
1.19934041E+02
  0
LINE
  8
0
 62
7
 10
1.74339817E+02
 20
1.19934041E+02
 11
1.74139816E+02
 21
1.19934041E+02
  0
LINE
  8
0
 62
7
 10
1.64139816E+02
 20
1.19934041E+02
 11
1.63939816E+02
 21
1.19934041E+02
  0
LINE
  8
0
 62
7
 10
1.66139816E+02
 20
1.09434041E+02
 11
1.64139816E+02
 21
1.09434041E+02
  0
LINE
  8
0
  6
CENTER
 62
2
 10
1.70089817E+02
 20
9.52590408E+01
 11
1.70089817E+02
 21
1.04009041E+02
  0
LINE
  8
0
 62
7
 10
1.63889816E+02
 20
8.21340408E+01
 11
1.74389816E+02
 21
8.21340408E+01
  0
LINE
  8
0
 62
7
 10
1.74389816E+02
 20
8.21340408E+01
 11
1.74389816E+02
 21
1.08134041E+02
  0
LINE
  8
0
 62
7
 10
1.63889816E+02
 20
8.21340408E+01
 11
1.63889816E+02
 21
1.08134041E+02
  0
LINE
  8
0
 62
7
 10
1.73940924E+02
 20
1.53134041E+02
 11
1.72689816E+02
 21
1.53134041E+02
  0
LINE
  8
0
 62
7
 10
1.64189816E+02
 20
1.53434040E+02
 11
1.64189816E+02
 21
1.59634041E+02
  0
LINE
  8
0
 62
7
 10
1.72589817E+02
 20
1.61134041E+02
 11
1.65689816E+02
 21
1.61134041E+02
  0
LINE
  8
0
 62
7
 10
1.64189816E+02
 20
1.53434039E+02
 11
1.64489815E+02
 21
1.53134040E+02
  0
LINE
  8
0
 62
7
 10
1.74140922E+02
 20
1.52935152E+02
 11
1.74287039E+02
 21
1.26634041E+02
  0
LINE
  8
0
 62
7
 10
1.63955372E+02
 20
1.19934041E+02
 11
1.63889816E+02
 21
1.08134041E+02
  0
LINE
  8
0
 62
7
 10
1.63889816E+02
 20
1.08134041E+02
 11
1.74389816E+02
 21
1.08134041E+02
  0
LINE
  8
0
 62
7
 10
1.66917634E+02
 20
1.11811858E+02
 11
1.65361999E+02
 21
1.10256223E+02
  0
LINE
  8
0
 62
7
 10
1.65361999E+02
 20
1.11811858E+02
 11
1.66917633E+02
 21
1.10256223E+02
  0
LINE
  8
0
 62
7
 10
1.73217633E+02
 20
1.20711858E+02
 11
1.71661999E+02
 21
1.19156224E+02
  0
LINE
  8
0
 62
7
 10
1.71661998E+02
 20
1.20711858E+02
 11
1.73217633E+02
 21
1.19156223E+02
  0
LINE
  8
0
  6
PHANTOM
 62
2
 10
1.69991627E+02
 20
1.59243105E+02
 11
1.62615999E+02
 21
1.61225305E+02
  0
LINE
  8
0
  6
PHANTOM
 62
2
 10
1.69991627E+02
 20
1.58213104E+02
 11
1.62615999E+02
 21
1.60195304E+02
  0
LINE
  8
0
  6
CENTER
 62
2
 10
1.66639264E+02
 20
1.50440895E+02
 11
1.66639264E+02
 21
1.70295181E+02
  0
LINE
  8
0
  6
PHANTOM
 62
2
 10
1.64939263E+02
 20
1.66589107E+02
 11
1.65139263E+02
 21
1.66725053E+02
  0
LINE
  8
0
  6
PHANTOM
 62
2
 10
1.64939263E+02
 20
1.65715168E+02
 11
1.64939263E+02
 21
1.66589111E+02
  0
LINE
  8
0
  6
PHANTOM
 62
2
 10
1.65139264E+02
 20
1.65715168E+02
 11
1.65139264E+02
 21
1.66725056E+02
  0
LINE
  8
0
  6
PHANTOM
 62
2
 10
1.65939265E+02
 20
1.66589107E+02
 11
1.66139264E+02
 21
1.66725054E+02
  0
LINE
  8
0
  6
PHANTOM
 62
2
 10
1.65939263E+02
 20
1.65715168E+02
 11
1.65939263E+02
 21
1.66589111E+02
  0
LINE
  8
0
  6
PHANTOM
 62
2
 10
1.66139264E+02
 20
1.65715168E+02
 11
1.66139264E+02
 21
1.66725056E+02
  0
LINE
  8
0
  6
PHANTOM
 62
2
 10
1.66939264E+02
 20
1.66589110E+02
 11
1.67139264E+02
 21
1.66725057E+02
  0
LINE
  8
0
  6
PHANTOM
 62
2
 10
1.66939263E+02
 20
1.65715168E+02
 11
1.66939263E+02
 21
1.66589111E+02
  0
LINE
  8
0
  6
PHANTOM
 62
2
 10
1.67139264E+02
 20
1.65715168E+02
 11
1.67139264E+02
 21
1.66725056E+02
  0
LINE
  8
0
  6
PHANTOM
 62
2
 10
1.67939263E+02
 20
1.66589108E+02
 11
1.68139262E+02
 21
1.66725055E+02
  0
LINE
  8
0
  6
PHANTOM
 62
2
 10
1.67939263E+02
 20
1.65715168E+02
 11
1.67939263E+02
 21
1.66589111E+02
  0
LINE
  8
0
  6
PHANTOM
 62
2
 10
1.68139264E+02
 20
1.65715168E+02
 11
1.68139264E+02
 21
1.66725056E+02
  0
LINE
  8
0
  6
PHANTOM
 62
2
 10
1.65289264E+02
 20
1.65715168E+02
 11
1.64789264E+02
 21
1.65715168E+02
  0
LINE
  8
0
  6
PHANTOM
 62
2
 10
1.66289264E+02
 20
1.65715168E+02
 11
1.65789264E+02
 21
1.65715168E+02
  0
LINE
  8
0
  6
PHANTOM
 62
2
 10
1.67289264E+02
 20
1.65715168E+02
 11
1.66789264E+02
 21
1.65715168E+02
  0
LINE
  8
0
  6
PHANTOM
 62
2
 10
1.68289264E+02
 20
1.65715168E+02
 11
1.67789264E+02
 21
1.65715168E+02
  0
LINE
  8
0
  6
PHANTOM
 62
2
 10
1.64789264E+02
 20
1.63834595E+02
 11
1.64789264E+02
 21
1.65715168E+02
  0
LINE
  8
0
  6
PHANTOM
 62
2
 10
1.65289264E+02
 20
1.63834595E+02
 11
1.65289264E+02
 21
1.65715168E+02
  0
LINE
  8
0
  6
PHANTOM
 62
2
 10
1.65789264E+02
 20
1.63834595E+02
 11
1.65789264E+02
 21
1.65715168E+02
  0
LINE
  8
0
  6
PHANTOM
 62
2
 10
1.66289264E+02
 20
1.63834595E+02
 11
1.66289264E+02
 21
1.65715168E+02
  0
LINE
  8
0
  6
PHANTOM
 62
2
 10
1.66789264E+02
 20
1.63834595E+02
 11
1.66789264E+02
 21
1.65715168E+02
  0
LINE
  8
0
  6
PHANTOM
 62
2
 10
1.67289264E+02
 20
1.63834595E+02
 11
1.67289264E+02
 21
1.65715168E+02
  0
LINE
  8
0
  6
PHANTOM
 62
2
 10
1.67789264E+02
 20
1.63834595E+02
 11
1.67789264E+02
 21
1.65715168E+02
  0
LINE
  8
0
  6
PHANTOM
 62
2
 10
1.68289264E+02
 20
1.63834595E+02
 11
1.68289264E+02
 21
1.65715168E+02
  0
LINE
  8
0
  6
PHANTOM
 62
2
 10
1.68639264E+02
 20
1.63834595E+02
 11
1.64639264E+02
 21
1.63834595E+02
  0
LINE
  8
0
  6
PHANTOM
 62
2
 10
1.64639264E+02
 20
1.54034595E+02
 11
1.64639264E+02
 21
1.63834595E+02
  0
LINE
  8
0
  6
PHANTOM
 62
2
 10
1.68639264E+02
 20
1.54034595E+02
 11
1.68639264E+02
 21
1.63834595E+02
  0
LINE
  8
0
  6
PHANTOM
 62
2
 10
1.69039264E+02
 20
1.54034595E+02
 11
1.67688711E+02
 21
1.54034595E+02
  0
LINE
  8
0
  6
PHANTOM
 62
2
 10
1.64239264E+02
 20
1.54034595E+02
 11
1.64239264E+02
 21
1.53134041E+02
  0
LINE
  8
0
  6
PHANTOM
 62
2
 10
1.69039264E+02
 20
1.54034595E+02
 11
1.69039264E+02
 21
1.53107567E+02
  0
LINE
  8
0
 62
7
 10
1.74089817E+02
 20
1.53434040E+02
 11
1.74089817E+02
 21
1.59634041E+02
  0
LINE
  8
0
 62
7
 10
1.74324262E+02
 20
1.19933821E+02
 11
1.74389817E+02
 21
1.08134041E+02
  0
LINE
  8
0
 62
7
 10
1.64138712E+02
 20
1.52935154E+02
 11
1.63992594E+02
 21
1.26634041E+02
  0
LINE
  8
0
 62
6
 10
1.64139816E+02
 20
1.47234039E+02
 11
1.74139816E+02
 21
1.47234039E+02
  0
LINE
  8
0
 62
6
 10
1.65589816E+02
 20
1.47234039E+02
 11
1.65589816E+02
 21
1.55434040E+02
  0
LINE
  8
0
 62
6
 10
1.66889816E+02
 20
1.47234039E+02
 11
1.66889816E+02
 21
1.55434040E+02
  0
LINE
  8
0
 62
6
 10
1.66889816E+02
 20
1.55434040E+02
 11
1.65589816E+02
 21
1.55434040E+02
  0
LINE
  8
0
 62
6
 10
1.66489817E+02
 20
1.59434040E+02
 11
1.65989817E+02
 21
1.59434040E+02
  0
LINE
  8
0
 62
6
 10
1.66489817E+02
 20
1.55434040E+02
 11
1.66489817E+02
 21
1.59434040E+02
  0
LINE
  8
0
 62
6
 10
1.65989817E+02
 20
1.55434040E+02
 11
1.65989817E+02
 21
1.59434040E+02
  0
LINE
  8
0
 62
6
 10
1.71789816E+02
 20
1.55434040E+02
 11
1.71789816E+02
 21
1.59434040E+02
  0
LINE
  8
0
 62
6
 10
1.72289816E+02
 20
1.55434040E+02
 11
1.72289816E+02
 21
1.59434040E+02
  0
LINE
  8
0
 62
6
 10
1.72289816E+02
 20
1.59434040E+02
 11
1.71789816E+02
 21
1.59434040E+02
  0
LINE
  8
0
 62
6
 10
1.72689816E+02
 20
1.55434040E+02
 11
1.71389816E+02
 21
1.55434040E+02
  0
LINE
  8
0
 62
6
 10
1.72689816E+02
 20
1.47234039E+02
 11
1.72689816E+02
 21
1.55434040E+02
  0
LINE
  8
0
 62
6
 10
1.71389816E+02
 20
1.47234039E+02
 11
1.71389816E+02
 21
1.55434040E+02
  0
LINE
  8
0
 62
6
 10
1.64139816E+02
 20
1.26634041E+02
 11
1.64139816E+02
 21
1.46234039E+02
  0
LINE
  8
0
 62
6
 10
1.64139816E+02
 20
1.46234039E+02
 11
1.64139816E+02
 21
1.47234039E+02
  0
LINE
  8
0
 62
6
 10
1.74139816E+02
 20
1.46234039E+02
 11
1.74139816E+02
 21
1.47234039E+02
  0
LINE
  8
0
 62
6
 10
1.74139816E+02
 20
1.26634041E+02
 11
1.74139816E+02
 21
1.46234039E+02
  0
LINE
  8
0
 62
6
 10
1.74139816E+02
 20
1.30634041E+02
 11
1.64139816E+02
 21
1.30634041E+02
  0
LINE
  8
0
 62
7
 10
1.65589816E+02
 20
1.53134041E+02
 11
1.64338708E+02
 21
1.53134041E+02
  0
LINE
  8
0
 62
7
 10
1.71389816E+02
 20
1.53134041E+02
 11
1.66889816E+02
 21
1.53134041E+02
  0
LINE
  8
0
  6
PHANTOM
 62
2
 10
1.66388711E+02
 20
1.54034595E+02
 11
1.64239264E+02
 21
1.54034595E+02
  0
LINE
  8
0
 62
6
 10
1.64139816E+02
 20
1.46234039E+02
 11
1.74139816E+02
 21
1.46234039E+02
  0
LINE
  8
0
 62
6
 10
1.64139816E+02
 20
1.38134041E+02
 11
1.74139816E+02
 21
1.38134041E+02
  0
LINE
  8
0
 62
6
 10
1.64139816E+02
 20
1.41634041E+02
 11
1.74139816E+02
 21
1.41634041E+02
  0
LINE
  8
0
 62
7
 10
1.74089817E+02
 20
1.53434041E+02
 11
1.73789815E+02
 21
1.53134039E+02
  0
LINE
  8
0
 62
7
 10
2.08189816E+02
 20
1.61134041E+02
 11
2.06189816E+02
 21
1.61134041E+02
  0
LINE
  8
0
 62
7
 10
2.13589817E+02
 20
1.54134041E+02
 11
2.11489815E+02
 21
1.54134041E+02
  0
LINE
  8
0
 62
7
 10
2.13589817E+02
 20
1.52134041E+02
 11
2.11489815E+02
 21
1.52134041E+02
  0
LINE
  8
0
 62
7
 10
2.07789818E+02
 20
1.52134041E+02
 11
2.05689816E+02
 21
1.52134041E+02
  0
LINE
  8
0
 62
7
 10
2.07789818E+02
 20
1.54134041E+02
 11
2.05689816E+02
 21
1.54134041E+02
  0
LINE
  8
0
  6
PHANTOM
 62
2
 10
2.05239815E+02
 20
2.04035263E+02
 11
2.05839817E+02
 21
2.04035263E+02
  0
LINE
  8
0
  6
PHANTOM
 62
2
 10
2.04839817E+02
 20
2.04035263E+02
 11
2.04239815E+02
 21
2.04035263E+02
  0
LINE
  8
0
  6
PHANTOM
 62
2
 10
2.06239815E+02
 20
1.83868042E+02
 11
2.03839817E+02
 21
1.83868042E+02
  0
LINE
  8
0
  6
PHANTOM
 62
2
 10
2.05839817E+02
 20
1.83868042E+02
 11
2.05839817E+02
 21
2.04035263E+02
  0
LINE
  8
0
  6
PHANTOM
 62
2
 10
2.05239815E+02
 20
1.83868042E+02
 11
2.05239815E+02
 21
2.04035263E+02
  0
LINE
  8
0
  6
PHANTOM
 62
2
 10
2.04839817E+02
 20
1.83868042E+02
 11
2.04839817E+02
 21
2.04035263E+02
  0
LINE
  8
0
  6
PHANTOM
 62
2
 10
2.04239815E+02
 20
1.83868042E+02
 11
2.04239815E+02
 21
2.04035263E+02
  0
LINE
  8
0
  6
PHANTOM
 62
2
 10
2.06239815E+02
 20
1.78334038E+02
 11
2.06239815E+02
 21
1.83868042E+02
  0
LINE
  8
0
  6
PHANTOM
 62
2
 10
2.03839817E+02
 20
1.78334038E+02
 11
2.03839817E+02
 21
1.83868042E+02
  0
LINE
  8
0
  6
PHANTOM
 62
2
 10
2.02939816E+02
 20
1.49634041E+02
 11
2.02139816E+02
 21
1.49634041E+02
  0
LINE
  8
0
  6
PHANTOM
 62
2
 10
2.15389816E+02
 20
1.51257328E+02
 11
2.14889816E+02
 21
1.51257328E+02
  0
LINE
  8
0
  6
PHANTOM
 62
2
 10
2.15389816E+02
 20
1.49734039E+02
 11
2.15389816E+02
 21
1.54138962E+02
  0
LINE
  8
0
  6
PHANTOM
 62
2
 10
2.03889816E+02
 20
1.49734039E+02
 11
2.03889816E+02
 21
1.54134041E+02
  0
LINE
  8
0
  6
PHANTOM
 62
2
 10
2.17139816E+02
 20
1.49634041E+02
 11
2.16339817E+02
 21
1.49634041E+02
  0
LINE
  8
0
  6
PHANTOM
 62
2
 10
2.17139816E+02
 20
1.53134041E+02
 11
2.14889816E+02
 21
1.53134041E+02
  0
LINE
  8
0
  6
PHANTOM
 62
2
 10
2.17139816E+02
 20
1.29134041E+02
 11
2.17139816E+02
 21
1.53134041E+02
  0
LINE
  8
0
  6
PHANTOM
 62
2
 10
2.02139816E+02
 20
1.29134041E+02
 11
2.02139816E+02
 21
1.53134041E+02
  0
LINE
  8
0
  6
PHANTOM
 62
2
 10
2.06939816E+02
 20
1.65939144E+02
 11
2.06939816E+02
 21
1.78334038E+02
  0
LINE
  8
0
  6
PHANTOM
 62
2
 10
2.03139816E+02
 20
1.68133076E+02
 11
2.03139816E+02
 21
1.78334038E+02
  0
LINE
  8
0
  6
PHANTOM
 62
2
 10
2.08978964E+02
 20
1.64761841E+02
 11
2.00622080E+02
 21
1.69586691E+02
  0
LINE
  8
0
  6
PHANTOM
 62
2
 10
2.08770529E+02
 20
1.61995430E+02
 11
2.00435502E+02
 21
1.66807660E+02
  0
LINE
  8
0
  6
PHANTOM
 62
2
 10
2.06939816E+02
 20
1.78334038E+02
 11
2.03139816E+02
 21
1.78334038E+02
  0
LINE
  8
0
  6
PHANTOM
 62
2
 10
2.06939816E+02
 20
1.54134041E+02
 11
2.06939816E+02
 21
1.63052391E+02
  0
LINE
  8
0
  6
PHANTOM
 62
2
 10
2.03139816E+02
 20
1.54134041E+02
 11
2.03139816E+02
 21
1.65246323E+02
  0
LINE
  8
0
  6
PHANTOM
 62
2
 10
2.02239815E+02
 20
1.53134041E+02
 11
2.02239815E+02
 21
1.54134041E+02
  0
LINE
  8
0
  6
PHANTOM
 62
2
 10
2.03889816E+02
 20
1.54134041E+02
 11
2.02239815E+02
 21
1.54134041E+02
  0
LINE
  8
0
  6
PHANTOM
 62
2
 10
2.03889816E+02
 20
1.54138962E+02
 11
2.04389816E+02
 21
1.54138962E+02
  0
LINE
  8
0
  6
CENTER
 62
6
 10
2.11339817E+02
 20
1.26738373E+02
 11
2.11339817E+02
 21
1.50957352E+02
  0
LINE
  8
0
  6
CENTER
 62
6
 10
2.07939816E+02
 20
1.26738373E+02
 11
2.07939816E+02
 21
1.50957352E+02
  0
LINE
  8
0
 62
7
 10
2.17046482E+02
 20
1.29134041E+02
 11
2.16940700E+02
 21
1.52934927E+02
  0
LINE
  8
0
 62
7
 10
2.02233151E+02
 20
1.29134041E+02
 11
2.02338932E+02
 21
1.52934930E+02
  0
LINE
  8
0
 62
7
 10
2.13089817E+02
 20
1.61134041E+02
 11
2.11089817E+02
 21
1.61134041E+02
  0
LINE
  8
0
 62
7
 10
2.04689816E+02
 20
1.57934040E+02
 11
2.04689816E+02
 21
1.59634041E+02
  0
LINE
  8
0
 62
7
 10
2.14589817E+02
 20
1.57934040E+02
 11
2.14589817E+02
 21
1.59634041E+02
  0
LINE
  8
0
 62
7
 10
2.16740704E+02
 20
1.53134041E+02
 11
2.15389816E+02
 21
1.53134041E+02
  0
LINE
  8
0
  6
CENTER
 62
2
 10
2.09639816E+02
 20
7.86930389E+01
 11
2.09639816E+02
 21
1.66109509E+02
  0
LINE
  8
0
 62
7
 10
2.14361998E+02
 20
1.10911857E+02
 11
2.15917631E+02
 21
1.09356224E+02
  0
LINE
  8
0
 62
7
 10
2.15917634E+02
 20
1.10911859E+02
 11
2.14361998E+02
 21
1.09356224E+02
  0
LINE
  8
0
 62
7
 10
2.04917631E+02
 20
1.27911857E+02
 11
2.03361999E+02
 21
1.26356224E+02
  0
LINE
  8
0
 62
7
 10
2.03361997E+02
 20
1.27911859E+02
 11
2.04917633E+02
 21
1.26356223E+02
  0
LINE
  8
0
 62
7
 10
2.02139816E+02
 20
1.29134041E+02
 11
2.02139816E+02
 21
1.08134041E+02
  0
LINE
  8
0
 62
7
 10
2.17139816E+02
 20
1.29134041E+02
 11
2.17139816E+02
 21
1.08134041E+02
  0
LINE
  8
0
 62
7
 10
2.02139816E+02
 20
1.29134041E+02
 11
2.17139816E+02
 21
1.29134041E+02
  0
LINE
  8
0
 62
7
 10
2.15139816E+02
 20
1.11734041E+02
 11
2.17139816E+02
 21
1.11734041E+02
  0
LINE
  8
0
 62
7
 10
2.13539818E+02
 20
1.10134041E+02
 11
2.13539818E+02
 21
1.08134041E+02
  0
LINE
  8
0
 62
7
 10
2.05739815E+02
 20
1.27134041E+02
 11
2.05739815E+02
 21
1.29134041E+02
  0
LINE
  8
0
 62
7
 10
2.04139816E+02
 20
1.25534040E+02
 11
2.02139816E+02
 21
1.25534040E+02
  0
LINE
  8
0
 62
7
 10
2.01889816E+02
 20
8.21340408E+01
 11
2.17389816E+02
 21
8.21340408E+01
  0
LINE
  8
0
 62
7
 10
2.17389816E+02
 20
1.08134041E+02
 11
2.01889816E+02
 21
1.08134041E+02
  0
LINE
  8
0
 62
7
 10
2.17389816E+02
 20
8.21340408E+01
 11
2.17389816E+02
 21
1.08134041E+02
  0
LINE
  8
0
 62
7
 10
2.01889816E+02
 20
8.21340408E+01
 11
2.01889816E+02
 21
1.08134041E+02
  0
LINE
  8
0
 62
7
 10
2.15389816E+02
 20
1.54134041E+02
 11
2.14889816E+02
 21
1.54134041E+02
  0
LINE
  8
0
 62
7
 10
2.15389816E+02
 20
1.52134041E+02
 11
2.14889816E+02
 21
1.52134041E+02
  0
LINE
  8
0
 62
7
 10
2.15389816E+02
 20
1.54134041E+02
 11
2.15389816E+02
 21
1.52134041E+02
  0
LINE
  8
0
 62
7
 10
2.03889816E+02
 20
1.54134041E+02
 11
2.03889816E+02
 21
1.52134041E+02
  0
LINE
  8
0
 62
7
 10
2.03889816E+02
 20
1.53134041E+02
 11
2.02538929E+02
 21
1.53134041E+02
  0
LINE
  8
0
 62
7
 10
2.04389816E+02
 20
1.54134041E+02
 11
2.03889816E+02
 21
1.54134041E+02
  0
LINE
  8
0
 62
7
 10
2.04389816E+02
 20
1.52134041E+02
 11
2.03889816E+02
 21
1.52134041E+02
  0
LINE
  8
0
 62
7
 10
2.10189816E+02
 20
1.54134041E+02
 11
2.09089817E+02
 21
1.54134041E+02
  0
LINE
  8
0
 62
7
 10
2.10189816E+02
 20
1.52134041E+02
 11
2.09089817E+02
 21
1.52134041E+02
  0
LINE
  8
0
 62
7
 10
2.10589817E+02
 20
1.61134041E+02
 11
2.08689816E+02
 21
1.61134041E+02
  0
LINE
  8
0
 62
6
 10
2.02939816E+02
 20
1.48734039E+02
 11
2.02939816E+02
 21
1.49734039E+02
  0
LINE
  8
0
 62
6
 10
2.04389816E+02
 20
1.49734039E+02
 11
2.04389816E+02
 21
1.57934040E+02
  0
LINE
  8
0
 62
6
 10
2.05689816E+02
 20
1.49734039E+02
 11
2.05689816E+02
 21
1.57934040E+02
  0
LINE
  8
0
 62
6
 10
2.05689816E+02
 20
1.57934040E+02
 11
2.04389816E+02
 21
1.57934040E+02
  0
LINE
  8
0
 62
6
 10
2.05289818E+02
 20
1.61934040E+02
 11
2.04789818E+02
 21
1.61934040E+02
  0
LINE
  8
0
 62
6
 10
2.05289818E+02
 20
1.57934040E+02
 11
2.05289818E+02
 21
1.61934040E+02
  0
LINE
  8
0
 62
6
 10
2.04789818E+02
 20
1.57934040E+02
 11
2.04789818E+02
 21
1.61934040E+02
  0
LINE
  8
0
 62
6
 10
2.10589817E+02
 20
1.57934040E+02
 11
2.10589817E+02
 21
1.61934040E+02
  0
LINE
  8
0
 62
6
 10
2.11089817E+02
 20
1.57934040E+02
 11
2.11089817E+02
 21
1.61934040E+02
  0
LINE
  8
0
 62
6
 10
2.11089817E+02
 20
1.61934040E+02
 11
2.10589817E+02
 21
1.61934040E+02
  0
LINE
  8
0
 62
6
 10
2.11489815E+02
 20
1.57934040E+02
 11
2.10189816E+02
 21
1.57934040E+02
  0
LINE
  8
0
 62
6
 10
2.11489815E+02
 20
1.49734039E+02
 11
2.11489815E+02
 21
1.57934040E+02
  0
LINE
  8
0
 62
6
 10
2.10189816E+02
 20
1.49734039E+02
 11
2.10189816E+02
 21
1.57934040E+02
  0
LINE
  8
0
 62
6
 10
2.02939816E+02
 20
1.49734039E+02
 11
2.06339817E+02
 21
1.49734039E+02
  0
LINE
  8
0
 62
6
 10
2.16339817E+02
 20
1.33134041E+02
 11
2.06339817E+02
 21
1.33134041E+02
  0
LINE
  8
0
 62
6
 10
2.02939816E+02
 20
1.29134041E+02
 11
2.02939816E+02
 21
1.48734039E+02
  0
LINE
  8
0
 62
6
 10
2.16339817E+02
 20
1.29134041E+02
 11
2.16339817E+02
 21
1.48734039E+02
  0
LINE
  8
0
 62
6
 10
2.16339817E+02
 20
1.48734039E+02
 11
2.16339817E+02
 21
1.49734039E+02
  0
LINE
  8
0
 62
6
 10
2.06339817E+02
 20
1.48734039E+02
 11
2.06339817E+02
 21
1.49734039E+02
  0
LINE
  8
0
 62
6
 10
2.06339817E+02
 20
1.29134041E+02
 11
2.06339817E+02
 21
1.48734039E+02
  0
LINE
  8
0
 62
6
 10
2.13589817E+02
 20
1.49734039E+02
 11
2.13589817E+02
 21
1.57934040E+02
  0
LINE
  8
0
 62
6
 10
2.14889816E+02
 20
1.49734039E+02
 11
2.14889816E+02
 21
1.57934040E+02
  0
LINE
  8
0
 62
6
 10
2.14889816E+02
 20
1.57934040E+02
 11
2.13589817E+02
 21
1.57934040E+02
  0
LINE
  8
0
 62
6
 10
2.14489815E+02
 20
1.61934040E+02
 11
2.13989815E+02
 21
1.61934040E+02
  0
LINE
  8
0
 62
6
 10
2.14489815E+02
 20
1.57934040E+02
 11
2.14489815E+02
 21
1.61934040E+02
  0
LINE
  8
0
 62
6
 10
2.13989815E+02
 20
1.57934040E+02
 11
2.13989815E+02
 21
1.61934040E+02
  0
LINE
  8
0
 62
6
 10
2.08189816E+02
 20
1.57934040E+02
 11
2.08189816E+02
 21
1.61934040E+02
  0
LINE
  8
0
 62
6
 10
2.08689816E+02
 20
1.57934040E+02
 11
2.08689816E+02
 21
1.61934040E+02
  0
LINE
  8
0
 62
6
 10
2.08689816E+02
 20
1.61934040E+02
 11
2.08189816E+02
 21
1.61934040E+02
  0
LINE
  8
0
 62
6
 10
2.09089817E+02
 20
1.57934040E+02
 11
2.07789818E+02
 21
1.57934040E+02
  0
LINE
  8
0
 62
6
 10
2.09089817E+02
 20
1.49734039E+02
 11
2.09089817E+02
 21
1.57934040E+02
  0
LINE
  8
0
 62
6
 10
2.07789818E+02
 20
1.49734039E+02
 11
2.07789818E+02
 21
1.57934040E+02
  0
LINE
  8
0
 62
6
 10
2.06339817E+02
 20
1.44134041E+02
 11
2.16339817E+02
 21
1.44134041E+02
  0
LINE
  8
0
 62
6
 10
2.06339817E+02
 20
1.40634041E+02
 11
2.16339817E+02
 21
1.40634041E+02
  0
LINE
  8
0
 62
6
 10
2.06339817E+02
 20
1.48734039E+02
 11
2.16339817E+02
 21
1.48734039E+02
  0
LINE
  8
0
 62
6
 10
2.06339817E+02
 20
1.49734039E+02
 11
2.16339817E+02
 21
1.49734039E+02
  0
LINE
  8
0
 62
6
 10
2.06339817E+02
 20
1.48734039E+02
 11
2.02939816E+02
 21
1.48734039E+02
  0
LINE
  8
0
 62
6
 10
2.06339817E+02
 20
1.30334042E+02
 11
2.02939816E+02
 21
1.30334042E+02
  0
LINE
  8
0
  6
PHANTOM
 62
2
 10
2.04389816E+02
 20
1.54134041E+02
 11
2.03889816E+02
 21
1.54134041E+02
  0
LINE
  8
0
  6
PHANTOM
 62
2
 10
2.04389816E+02
 20
1.53134041E+02
 11
2.02139816E+02
 21
1.53134041E+02
  0
LINE
  8
0
  6
PHANTOM
 62
2
 10
2.04389816E+02
 20
1.51257328E+02
 11
2.03889816E+02
 21
1.51257328E+02
  0
LINE
  8
0
  6
PHANTOM
 62
2
 10
2.07789818E+02
 20
1.51257328E+02
 11
2.05689816E+02
 21
1.51257328E+02
  0
LINE
  8
0
  6
PHANTOM
 62
2
 10
2.07789818E+02
 20
1.54134041E+02
 11
2.05689816E+02
 21
1.54134041E+02
  0
LINE
  8
0
  6
PHANTOM
 62
2
 10
2.07789818E+02
 20
1.53134041E+02
 11
2.05689816E+02
 21
1.53134041E+02
  0
LINE
  8
0
  6
PHANTOM
 62
2
 10
2.10189816E+02
 20
1.54134041E+02
 11
2.09089817E+02
 21
1.54134041E+02
  0
LINE
  8
0
  6
PHANTOM
 62
2
 10
2.10189816E+02
 20
1.53134041E+02
 11
2.09089817E+02
 21
1.53134041E+02
  0
LINE
  8
0
  6
PHANTOM
 62
2
 10
2.10189816E+02
 20
1.51257328E+02
 11
2.09089817E+02
 21
1.51257328E+02
  0
LINE
  8
0
  6
PHANTOM
 62
2
 10
2.13589817E+02
 20
1.51257328E+02
 11
2.11489815E+02
 21
1.51257328E+02
  0
LINE
  8
0
  6
PHANTOM
 62
2
 10
2.13589817E+02
 20
1.53134041E+02
 11
2.11489815E+02
 21
1.53134041E+02
  0
LINE
  8
0
  6
PHANTOM
 62
2
 10
2.14889816E+02
 20
1.54138962E+02
 11
2.15389816E+02
 21
1.54138962E+02
  0
LINE
  8
0
  6
PHANTOM
 62
2
 10
2.11489815E+02
 20
1.54138962E+02
 11
2.13589817E+02
 21
1.54138962E+02
  0
LINE
  8
0
 62
7
 10
2.28589813E+02
 20
1.61134041E+02
 11
2.30589813E+02
 21
1.61134041E+02
  0
LINE
  8
0
 62
7
 10
2.28989815E+02
 20
1.54138962E+02
 11
2.31089813E+02
 21
1.54138962E+02
  0
LINE
  8
0
 62
7
 10
2.27689819E+02
 20
1.52138962E+02
 11
2.26589813E+02
 21
1.52138962E+02
  0
LINE
  8
0
 62
7
 10
2.21889816E+02
 20
1.52138962E+02
 11
2.21389816E+02
 21
1.52138962E+02
  0
LINE
  8
0
 62
7
 10
2.23189819E+02
 20
1.54138962E+02
 11
2.25289818E+02
 21
1.54138962E+02
  0
LINE
  8
0
 62
6
 10
2.20439819E+02
 20
1.48734039E+02
 11
2.20439819E+02
 21
1.49734039E+02
  0
LINE
  8
0
 62
6
 10
2.21889816E+02
 20
1.49734039E+02
 11
2.21889816E+02
 21
1.57934040E+02
  0
LINE
  8
0
 62
6
 10
2.23189819E+02
 20
1.49734039E+02
 11
2.23189819E+02
 21
1.57934040E+02
  0
LINE
  8
0
 62
6
 10
2.23189819E+02
 20
1.57934040E+02
 11
2.21889816E+02
 21
1.57934040E+02
  0
LINE
  8
0
 62
6
 10
2.22789818E+02
 20
1.61934040E+02
 11
2.22289818E+02
 21
1.61934040E+02
  0
LINE
  8
0
 62
6
 10
2.22789818E+02
 20
1.57934040E+02
 11
2.22789818E+02
 21
1.61934040E+02
  0
LINE
  8
0
 62
6
 10
2.22289818E+02
 20
1.57934040E+02
 11
2.22289818E+02
 21
1.61934040E+02
  0
LINE
  8
0
 62
6
 10
2.28089813E+02
 20
1.57934040E+02
 11
2.28089813E+02
 21
1.61934040E+02
  0
LINE
  8
0
 62
6
 10
2.28589813E+02
 20
1.57934040E+02
 11
2.28589813E+02
 21
1.61934040E+02
  0
LINE
  8
0
 62
6
 10
2.28589813E+02
 20
1.61934040E+02
 11
2.28089813E+02
 21
1.61934040E+02
  0
LINE
  8
0
 62
6
 10
2.28989815E+02
 20
1.57934040E+02
 11
2.27689819E+02
 21
1.57934040E+02
  0
LINE
  8
0
 62
6
 10
2.28989815E+02
 20
1.49734039E+02
 11
2.28989815E+02
 21
1.57934040E+02
  0
LINE
  8
0
 62
6
 10
2.27689819E+02
 20
1.49734039E+02
 11
2.27689819E+02
 21
1.57934040E+02
  0
LINE
  8
0
 62
6
 10
2.20439819E+02
 20
1.49734039E+02
 11
2.23839813E+02
 21
1.49734039E+02
  0
LINE
  8
0
  6
CENTER
 62
6
 10
2.25439819E+02
 20
1.26738373E+02
 11
2.25439819E+02
 21
1.50957352E+02
  0
LINE
  8
0
 62
6
 10
2.33839813E+02
 20
1.33134041E+02
 11
2.23839813E+02
 21
1.33134041E+02
  0
LINE
  8
0
  6
CENTER
 62
6
 10
2.28839813E+02
 20
1.26738373E+02
 11
2.28839813E+02
 21
1.50957352E+02
  0
LINE
  8
0
 62
7
 10
2.32889816E+02
 20
1.53138962E+02
 11
2.35741142E+02
 21
1.53138962E+02
  0
LINE
  8
0
 62
7
 10
2.19639816E+02
 20
1.53138962E+02
 11
2.19639816E+02
 21
1.29134041E+02
  0
LINE
  8
0
 62
7
 10
2.34639816E+02
 20
1.53138962E+02
 11
2.34639816E+02
 21
1.29134041E+02
  0
LINE
  8
0
 62
7
 10
2.32889816E+02
 20
1.54138962E+02
 11
2.32889816E+02
 21
1.52138962E+02
  0
LINE
  8
0
 62
7
 10
2.21389816E+02
 20
1.54138962E+02
 11
2.21389816E+02
 21
1.52138962E+02
  0
LINE
  8
0
 62
7
 10
2.21389816E+02
 20
1.54138962E+02
 11
2.21889816E+02
 21
1.54138962E+02
  0
LINE
  8
0
 62
7
 10
2.32889816E+02
 20
1.52138962E+02
 11
2.32389816E+02
 21
1.52138962E+02
  0
LINE
  8
0
 62
7
 10
2.34917632E+02
 20
1.10911859E+02
 11
2.33361997E+02
 21
1.09356224E+02
  0
LINE
  8
0
 62
7
 10
2.33361997E+02
 20
1.10911857E+02
 11
2.34917632E+02
 21
1.09356221E+02
  0
LINE
  8
0
 62
7
 10
2.19361998E+02
 20
1.27911859E+02
 11
2.20917634E+02
 21
1.26356223E+02
  0
LINE
  8
0
 62
7
 10
2.20917631E+02
 20
1.27911859E+02
 11
2.19361996E+02
 21
1.26356223E+02
  0
LINE
  8
0
 62
7
 10
2.18139816E+02
 20
1.08134041E+02
 11
2.18139816E+02
 21
1.29134041E+02
  0
LINE
  8
0
 62
7
 10
2.36139816E+02
 20
1.29134041E+02
 11
2.36139816E+02
 21
1.08134041E+02
  0
LINE
  8
0
 62
7
 10
2.34139816E+02
 20
1.11734041E+02
 11
2.36139816E+02
 21
1.11734041E+02
  0
LINE
  8
0
 62
7
 10
2.20139816E+02
 20
1.25534040E+02
 11
2.18139816E+02
 21
1.25534040E+02
  0
LINE
  8
0
 62
7
 10
2.21739815E+02
 20
1.27134041E+02
 11
2.21739815E+02
 21
1.29134041E+02
  0
LINE
  8
0
 62
7
 10
2.32539818E+02
 20
1.10134041E+02
 11
2.32539818E+02
 21
1.08134041E+02
  0
LINE
  8
0
 62
7
 10
2.17889816E+02
 20
8.21340408E+01
 11
2.17889816E+02
 21
1.08134041E+02
  0
LINE
  8
0
 62
7
 10
2.36389816E+02
 20
1.08134041E+02
 11
2.36389816E+02
 21
8.21340408E+01
  0
LINE
  8
0
 62
7
 10
2.17889816E+02
 20
1.08134041E+02
 11
2.36389816E+02
 21
1.08134041E+02
  0
LINE
  8
0
 62
7
 10
2.17889816E+02
 20
8.21340408E+01
 11
2.36389816E+02
 21
8.21340408E+01
  0
LINE
  8
0
 62
7
 10
2.22189819E+02
 20
1.57934040E+02
 11
2.22189819E+02
 21
1.59634041E+02
  0
LINE
  8
0
 62
7
 10
2.32089813E+02
 20
1.57934040E+02
 11
2.32089813E+02
 21
1.59634041E+02
  0
LINE
  8
0
 62
7
 10
2.23689819E+02
 20
1.61134041E+02
 11
2.25689819E+02
 21
1.61134041E+02
  0
LINE
  8
0
 62
7
 10
2.35941136E+02
 20
1.52940298E+02
 11
2.36139812E+02
 21
1.23138963E+02
  0
LINE
  8
0
 62
7
 10
2.18338488E+02
 20
1.52940298E+02
 11
2.18139812E+02
 21
1.23138963E+02
  0
LINE
  8
0
 62
7
 10
2.36139816E+02
 20
1.29134041E+02
 11
2.18139816E+02
 21
1.29134041E+02
  0
LINE
  8
0
 62
6
 10
2.20439819E+02
 20
1.29134041E+02
 11
2.20439819E+02
 21
1.48734039E+02
  0
LINE
  8
0
 62
7
 10
2.18538490E+02
 20
1.53138962E+02
 11
2.21389816E+02
 21
1.53138962E+02
  0
LINE
  8
0
  6
CENTER
 62
2
 10
2.27139816E+02
 20
7.89593124E+01
 11
2.27139816E+02
 21
1.63689785E+02
  0
LINE
  8
0
 62
6
 10
2.33839813E+02
 20
1.29134041E+02
 11
2.33839813E+02
 21
1.48734039E+02
  0
LINE
  8
0
 62
6
 10
2.33839813E+02
 20
1.48734039E+02
 11
2.33839813E+02
 21
1.49734039E+02
  0
LINE
  8
0
 62
6
 10
2.23839813E+02
 20
1.48734039E+02
 11
2.23839813E+02
 21
1.49734039E+02
  0
LINE
  8
0
 62
6
 10
2.23839813E+02
 20
1.29134041E+02
 11
2.23839813E+02
 21
1.48734039E+02
  0
LINE
  8
0
 62
6
 10
2.31089813E+02
 20
1.49734039E+02
 11
2.31089813E+02
 21
1.57934040E+02
  0
LINE
  8
0
 62
6
 10
2.32389816E+02
 20
1.49734039E+02
 11
2.32389816E+02
 21
1.57934040E+02
  0
LINE
  8
0
 62
6
 10
2.32389816E+02
 20
1.57934040E+02
 11
2.31089813E+02
 21
1.57934040E+02
  0
LINE
  8
0
 62
6
 10
2.31989815E+02
 20
1.61934040E+02
 11
2.31489815E+02
 21
1.61934040E+02
  0
LINE
  8
0
 62
6
 10
2.31989815E+02
 20
1.57934040E+02
 11
2.31989815E+02
 21
1.61934040E+02
  0
LINE
  8
0
 62
6
 10
2.31489815E+02
 20
1.57934040E+02
 11
2.31489815E+02
 21
1.61934040E+02
  0
LINE
  8
0
 62
6
 10
2.25689819E+02
 20
1.57934040E+02
 11
2.25689819E+02
 21
1.61934040E+02
  0
LINE
  8
0
 62
6
 10
2.26189819E+02
 20
1.57934040E+02
 11
2.26189819E+02
 21
1.61934040E+02
  0
LINE
  8
0
 62
6
 10
2.26189819E+02
 20
1.61934040E+02
 11
2.25689819E+02
 21
1.61934040E+02
  0
LINE
  8
0
 62
6
 10
2.26589813E+02
 20
1.57934040E+02
 11
2.25289818E+02
 21
1.57934040E+02
  0
LINE
  8
0
 62
6
 10
2.26589813E+02
 20
1.49734039E+02
 11
2.26589813E+02
 21
1.57934040E+02
  0
LINE
  8
0
 62
6
 10
2.25289818E+02
 20
1.49734039E+02
 11
2.25289818E+02
 21
1.57934040E+02
  0
LINE
  8
0
 62
6
 10
2.23839813E+02
 20
1.44134041E+02
 11
2.33839813E+02
 21
1.44134041E+02
  0
LINE
  8
0
 62
6
 10
2.23839813E+02
 20
1.40634041E+02
 11
2.33839813E+02
 21
1.40634041E+02
  0
LINE
  8
0
 62
7
 10
2.26589813E+02
 20
1.54138962E+02
 11
2.27689819E+02
 21
1.54138962E+02
  0
LINE
  8
0
 62
7
 10
2.25289818E+02
 20
1.52138962E+02
 11
2.23189819E+02
 21
1.52138962E+02
  0
LINE
  8
0
 62
7
 10
2.31089813E+02
 20
1.52138962E+02
 11
2.28989815E+02
 21
1.52138962E+02
  0
LINE
  8
0
 62
7
 10
2.32389816E+02
 20
1.54138962E+02
 11
2.32889816E+02
 21
1.54138962E+02
  0
LINE
  8
0
 62
7
 10
2.26189819E+02
 20
1.61134041E+02
 11
2.28089813E+02
 21
1.61134041E+02
  0
LINE
  8
0
 62
6
 10
2.23839813E+02
 20
1.48734039E+02
 11
2.33839813E+02
 21
1.48734039E+02
  0
LINE
  8
0
 62
6
 10
2.23839813E+02
 20
1.49734039E+02
 11
2.33839813E+02
 21
1.49734039E+02
  0
LINE
  8
0
 62
6
 10
2.23839813E+02
 20
1.48734039E+02
 11
2.20439819E+02
 21
1.48734039E+02
  0
LINE
  8
0
 62
6
 10
2.23839813E+02
 20
1.30334042E+02
 11
2.20439819E+02
 21
1.30334042E+02
  0
LINE
  8
0
  6
PHANTOM
 62
2
 10
2.22739815E+02
 20
2.04035263E+02
 11
2.23339813E+02
 21
2.04035263E+02
  0
LINE
  8
0
  6
PHANTOM
 62
2
 10
2.22339813E+02
 20
2.04035263E+02
 11
2.21739815E+02
 21
2.04035263E+02
  0
LINE
  8
0
  6
PHANTOM
 62
2
 10
2.23739815E+02
 20
1.83868042E+02
 11
2.21339813E+02
 21
1.83868042E+02
  0
LINE
  8
0
  6
PHANTOM
 62
2
 10
2.23339813E+02
 20
1.83868042E+02
 11
2.23339813E+02
 21
2.04035263E+02
  0
LINE
  8
0
  6
PHANTOM
 62
2
 10
2.22739815E+02
 20
1.83868042E+02
 11
2.22739815E+02
 21
2.04035263E+02
  0
LINE
  8
0
  6
PHANTOM
 62
2
 10
2.22339813E+02
 20
1.83868042E+02
 11
2.22339813E+02
 21
2.04035263E+02
  0
LINE
  8
0
  6
PHANTOM
 62
2
 10
2.21739815E+02
 20
1.83868042E+02
 11
2.21739815E+02
 21
2.04035263E+02
  0
LINE
  8
0
  6
PHANTOM
 62
2
 10
2.23739815E+02
 20
1.78334038E+02
 11
2.23739815E+02
 21
1.83868042E+02
  0
LINE
  8
0
  6
PHANTOM
 62
2
 10
2.21339813E+02
 20
1.78334038E+02
 11
2.21339813E+02
 21
1.83868042E+02
  0
LINE
  8
0
  6
PHANTOM
 62
2
 10
2.20439819E+02
 20
1.49634041E+02
 11
2.19639816E+02
 21
1.49634041E+02
  0
LINE
  8
0
  6
PHANTOM
 62
2
 10
2.32889816E+02
 20
1.51257328E+02
 11
2.32389816E+02
 21
1.51257328E+02
  0
LINE
  8
0
  6
PHANTOM
 62
2
 10
2.32889816E+02
 20
1.54134041E+02
 11
2.32389816E+02
 21
1.54134041E+02
  0
LINE
  8
0
  6
PHANTOM
 62
2
 10
2.32889816E+02
 20
1.49734039E+02
 11
2.32889816E+02
 21
1.54138962E+02
  0
LINE
  8
0
  6
PHANTOM
 62
2
 10
2.21389816E+02
 20
1.49734039E+02
 11
2.21389816E+02
 21
1.54134041E+02
  0
LINE
  8
0
  6
PHANTOM
 62
2
 10
2.34639816E+02
 20
1.49634041E+02
 11
2.33839813E+02
 21
1.49634041E+02
  0
LINE
  8
0
  6
PHANTOM
 62
2
 10
2.34639816E+02
 20
1.53134041E+02
 11
2.32389816E+02
 21
1.53134041E+02
  0
LINE
  8
0
  6
PHANTOM
 62
2
 10
2.34639816E+02
 20
1.29134041E+02
 11
2.34639816E+02
 21
1.53134041E+02
  0
LINE
  8
0
  6
PHANTOM
 62
2
 10
2.19639816E+02
 20
1.29134041E+02
 11
2.19639816E+02
 21
1.53134041E+02
  0
LINE
  8
0
  6
PHANTOM
 62
2
 10
2.24439819E+02
 20
1.65939144E+02
 11
2.24439819E+02
 21
1.78334038E+02
  0
LINE
  8
0
  6
PHANTOM
 62
2
 10
2.20639816E+02
 20
1.68133076E+02
 11
2.20639816E+02
 21
1.78334038E+02
  0
LINE
  8
0
  6
PHANTOM
 62
2
 10
2.26478964E+02
 20
1.64761841E+02
 11
2.18122079E+02
 21
1.69586691E+02
  0
LINE
  8
0
  6
PHANTOM
 62
2
 10
2.26270528E+02
 20
1.61995431E+02
 11
2.17935503E+02
 21
1.66807660E+02
  0
LINE
  8
0
  6
PHANTOM
 62
2
 10
2.24439819E+02
 20
1.78334038E+02
 11
2.20639816E+02
 21
1.78334038E+02
  0
LINE
  8
0
  6
PHANTOM
 62
2
 10
2.24439819E+02
 20
1.54134041E+02
 11
2.24439819E+02
 21
1.63052391E+02
  0
LINE
  8
0
  6
PHANTOM
 62
2
 10
2.20639816E+02
 20
1.54134041E+02
 11
2.20639816E+02
 21
1.65246323E+02
  0
LINE
  8
0
  6
PHANTOM
 62
2
 10
2.19739815E+02
 20
1.53134041E+02
 11
2.19739815E+02
 21
1.54134041E+02
  0
LINE
  8
0
  6
PHANTOM
 62
2
 10
2.21389816E+02
 20
1.54134041E+02
 11
2.19739815E+02
 21
1.54134041E+02
  0
LINE
  8
0
  6
PHANTOM
 62
2
 10
2.21389816E+02
 20
1.54138962E+02
 11
2.21889816E+02
 21
1.54138962E+02
  0
LINE
  8
0
  6
PHANTOM
 62
2
 10
2.28989815E+02
 20
1.54138962E+02
 11
2.31089813E+02
 21
1.54138962E+02
  0
LINE
  8
0
  6
PHANTOM
 62
2
 10
2.21889816E+02
 20
1.54134041E+02
 11
2.21389816E+02
 21
1.54134041E+02
  0
LINE
  8
0
  6
PHANTOM
 62
2
 10
2.21889816E+02
 20
1.53134041E+02
 11
2.19639816E+02
 21
1.53134041E+02
  0
LINE
  8
0
  6
PHANTOM
 62
2
 10
2.21889816E+02
 20
1.51257328E+02
 11
2.21389816E+02
 21
1.51257328E+02
  0
LINE
  8
0
  6
PHANTOM
 62
2
 10
2.25289818E+02
 20
1.51257328E+02
 11
2.23189819E+02
 21
1.51257328E+02
  0
LINE
  8
0
  6
PHANTOM
 62
2
 10
2.25289818E+02
 20
1.53134041E+02
 11
2.23189819E+02
 21
1.53134041E+02
  0
LINE
  8
0
  6
PHANTOM
 62
2
 10
2.25289818E+02
 20
1.54134041E+02
 11
2.23189819E+02
 21
1.54134041E+02
  0
LINE
  8
0
  6
PHANTOM
 62
2
 10
2.27689819E+02
 20
1.54134041E+02
 11
2.26589813E+02
 21
1.54134041E+02
  0
LINE
  8
0
  6
PHANTOM
 62
2
 10
2.27689819E+02
 20
1.53134041E+02
 11
2.26589813E+02
 21
1.53134041E+02
  0
LINE
  8
0
  6
PHANTOM
 62
2
 10
2.27689819E+02
 20
1.51257328E+02
 11
2.26589813E+02
 21
1.51257328E+02
  0
LINE
  8
0
  6
PHANTOM
 62
2
 10
2.31089813E+02
 20
1.51257328E+02
 11
2.28989815E+02
 21
1.51257328E+02
  0
LINE
  8
0
  6
PHANTOM
 62
2
 10
2.31089813E+02
 20
1.53134041E+02
 11
2.28989815E+02
 21
1.53134041E+02
  0
LINE
  8
0
  6
PHANTOM
 62
2
 10
2.31089813E+02
 20
1.54134041E+02
 11
2.28989815E+02
 21
1.54134041E+02
  0
LINE
  8
0
 62
7
 10
1.92189816E+02
 20
1.61134041E+02
 11
1.90189816E+02
 21
1.61134041E+02
  0
LINE
  8
0
 62
7
 10
1.97589817E+02
 20
1.54134041E+02
 11
1.95489815E+02
 21
1.54134041E+02
  0
LINE
  8
0
 62
7
 10
1.97589817E+02
 20
1.52134041E+02
 11
1.95489815E+02
 21
1.52134041E+02
  0
LINE
  8
0
 62
7
 10
1.91789818E+02
 20
1.52134041E+02
 11
1.89689816E+02
 21
1.52134041E+02
  0
LINE
  8
0
 62
7
 10
1.91789818E+02
 20
1.54134041E+02
 11
1.89689816E+02
 21
1.54134041E+02
  0
LINE
  8
0
  6
PHANTOM
 62
2
 10
1.89239815E+02
 20
2.04035263E+02
 11
1.89839817E+02
 21
2.04035263E+02
  0
LINE
  8
0
  6
PHANTOM
 62
2
 10
1.88839817E+02
 20
2.04035263E+02
 11
1.88239815E+02
 21
2.04035263E+02
  0
LINE
  8
0
  6
PHANTOM
 62
2
 10
1.90239815E+02
 20
1.83868042E+02
 11
1.87839817E+02
 21
1.83868042E+02
  0
LINE
  8
0
  6
PHANTOM
 62
2
 10
1.89839817E+02
 20
1.83868042E+02
 11
1.89839817E+02
 21
2.04035263E+02
  0
LINE
  8
0
  6
PHANTOM
 62
2
 10
1.89239815E+02
 20
1.83868042E+02
 11
1.89239815E+02
 21
2.04035263E+02
  0
LINE
  8
0
  6
PHANTOM
 62
2
 10
1.88839817E+02
 20
1.83868042E+02
 11
1.88839817E+02
 21
2.04035263E+02
  0
LINE
  8
0
  6
PHANTOM
 62
2
 10
1.88239815E+02
 20
1.83868042E+02
 11
1.88239815E+02
 21
2.04035263E+02
  0
LINE
  8
0
  6
PHANTOM
 62
2
 10
1.90239815E+02
 20
1.78334038E+02
 11
1.90239815E+02
 21
1.83868042E+02
  0
LINE
  8
0
  6
PHANTOM
 62
2
 10
1.87839817E+02
 20
1.78334038E+02
 11
1.87839817E+02
 21
1.83868042E+02
  0
LINE
  8
0
  6
PHANTOM
 62
2
 10
1.86939816E+02
 20
1.49634041E+02
 11
1.86139816E+02
 21
1.49634041E+02
  0
LINE
  8
0
  6
PHANTOM
 62
2
 10
1.99389816E+02
 20
1.51257328E+02
 11
1.98889816E+02
 21
1.51257328E+02
  0
LINE
  8
0
  6
PHANTOM
 62
2
 10
1.99389816E+02
 20
1.49734039E+02
 11
1.99389816E+02
 21
1.54138962E+02
  0
LINE
  8
0
  6
PHANTOM
 62
2
 10
1.87889816E+02
 20
1.49734039E+02
 11
1.87889816E+02
 21
1.54134041E+02
  0
LINE
  8
0
  6
PHANTOM
 62
2
 10
2.01139816E+02
 20
1.49634041E+02
 11
2.00339817E+02
 21
1.49634041E+02
  0
LINE
  8
0
  6
PHANTOM
 62
2
 10
2.01139816E+02
 20
1.53134041E+02
 11
1.98889816E+02
 21
1.53134041E+02
  0
LINE
  8
0
  6
PHANTOM
 62
2
 10
2.01139816E+02
 20
1.29134041E+02
 11
2.01139816E+02
 21
1.53134041E+02
  0
LINE
  8
0
  6
PHANTOM
 62
2
 10
1.86139816E+02
 20
1.29134041E+02
 11
1.86139816E+02
 21
1.53134041E+02
  0
LINE
  8
0
  6
PHANTOM
 62
2
 10
1.90939816E+02
 20
1.65939144E+02
 11
1.90939816E+02
 21
1.78334038E+02
  0
LINE
  8
0
  6
PHANTOM
 62
2
 10
1.87139816E+02
 20
1.68133076E+02
 11
1.87139816E+02
 21
1.78334038E+02
  0
LINE
  8
0
  6
PHANTOM
 62
2
 10
1.92978964E+02
 20
1.64761842E+02
 11
1.84622080E+02
 21
1.69586691E+02
  0
LINE
  8
0
  6
PHANTOM
 62
2
 10
1.92770527E+02
 20
1.61995427E+02
 11
1.84435501E+02
 21
1.66807657E+02
  0
LINE
  8
0
  6
PHANTOM
 62
2
 10
1.90939816E+02
 20
1.78334038E+02
 11
1.87139816E+02
 21
1.78334038E+02
  0
LINE
  8
0
  6
PHANTOM
 62
2
 10
1.90939816E+02
 20
1.54134041E+02
 11
1.90939816E+02
 21
1.63052391E+02
  0
LINE
  8
0
  6
PHANTOM
 62
2
 10
1.87139816E+02
 20
1.54134041E+02
 11
1.87139816E+02
 21
1.65246323E+02
  0
LINE
  8
0
  6
PHANTOM
 62
2
 10
1.86239815E+02
 20
1.53134041E+02
 11
1.86239815E+02
 21
1.54134041E+02
  0
LINE
  8
0
  6
PHANTOM
 62
2
 10
1.87889816E+02
 20
1.54134041E+02
 11
1.86239815E+02
 21
1.54134041E+02
  0
LINE
  8
0
  6
PHANTOM
 62
2
 10
1.87889816E+02
 20
1.54138962E+02
 11
1.88389816E+02
 21
1.54138962E+02
  0
LINE
  8
0
  6
CENTER
 62
6
 10
1.95339817E+02
 20
1.26738373E+02
 11
1.95339817E+02
 21
1.50957352E+02
  0
LINE
  8
0
  6
CENTER
 62
6
 10
1.91939816E+02
 20
1.26738373E+02
 11
1.91939816E+02
 21
1.50957352E+02
  0
LINE
  8
0
 62
7
 10
2.01046481E+02
 20
1.29134040E+02
 11
2.00940699E+02
 21
1.52934930E+02
  0
LINE
  8
0
 62
7
 10
1.86233149E+02
 20
1.29134040E+02
 11
1.86338931E+02
 21
1.52934931E+02
  0
LINE
  8
0
 62
7
 10
1.97089817E+02
 20
1.61134041E+02
 11
1.95089817E+02
 21
1.61134041E+02
  0
LINE
  8
0
 62
7
 10
1.88689816E+02
 20
1.57934040E+02
 11
1.88689816E+02
 21
1.59634041E+02
  0
LINE
  8
0
 62
7
 10
1.98589817E+02
 20
1.57934040E+02
 11
1.98589817E+02
 21
1.59634041E+02
  0
LINE
  8
0
 62
7
 10
2.00740704E+02
 20
1.53134041E+02
 11
1.99389816E+02
 21
1.53134041E+02
  0
LINE
  8
0
  6
CENTER
 62
2
 10
1.93639816E+02
 20
7.86930389E+01
 11
1.93639816E+02
 21
1.66109509E+02
  0
LINE
  8
0
 62
7
 10
1.98361999E+02
 20
1.10911858E+02
 11
1.99917634E+02
 21
1.09356223E+02
  0
LINE
  8
0
 62
7
 10
1.99917633E+02
 20
1.10911859E+02
 11
1.98361997E+02
 21
1.09356224E+02
  0
LINE
  8
0
 62
7
 10
1.88917634E+02
 20
1.27911859E+02
 11
1.87361999E+02
 21
1.26356224E+02
  0
LINE
  8
0
 62
7
 10
1.87361998E+02
 20
1.27911857E+02
 11
1.88917633E+02
 21
1.26356222E+02
  0
LINE
  8
0
 62
7
 10
1.86139816E+02
 20
1.29134041E+02
 11
1.86139816E+02
 21
1.08134041E+02
  0
LINE
  8
0
 62
7
 10
2.01139816E+02
 20
1.29134041E+02
 11
2.01139816E+02
 21
1.08134041E+02
  0
LINE
  8
0
 62
7
 10
1.86139816E+02
 20
1.29134041E+02
 11
2.01139816E+02
 21
1.29134041E+02
  0
LINE
  8
0
 62
7
 10
1.99139816E+02
 20
1.11734041E+02
 11
2.01139816E+02
 21
1.11734041E+02
  0
LINE
  8
0
 62
7
 10
1.97539818E+02
 20
1.10134041E+02
 11
1.97539818E+02
 21
1.08134041E+02
  0
LINE
  8
0
 62
7
 10
1.89739815E+02
 20
1.27134041E+02
 11
1.89739815E+02
 21
1.29134041E+02
  0
LINE
  8
0
 62
7
 10
1.88139816E+02
 20
1.25534040E+02
 11
1.86139816E+02
 21
1.25534040E+02
  0
LINE
  8
0
 62
7
 10
1.85889816E+02
 20
8.21340408E+01
 11
2.01389816E+02
 21
8.21340408E+01
  0
LINE
  8
0
 62
7
 10
2.01389816E+02
 20
1.08134041E+02
 11
1.85889816E+02
 21
1.08134041E+02
  0
LINE
  8
0
 62
7
 10
2.01389816E+02
 20
8.21340408E+01
 11
2.01389816E+02
 21
1.08134041E+02
  0
LINE
  8
0
 62
7
 10
1.85889816E+02
 20
8.21340408E+01
 11
1.85889816E+02
 21
1.08134041E+02
  0
LINE
  8
0
 62
7
 10
1.99389816E+02
 20
1.54134041E+02
 11
1.98889816E+02
 21
1.54134041E+02
  0
LINE
  8
0
 62
7
 10
1.99389816E+02
 20
1.52134041E+02
 11
1.98889816E+02
 21
1.52134041E+02
  0
LINE
  8
0
 62
7
 10
1.99389816E+02
 20
1.54134041E+02
 11
1.99389816E+02
 21
1.52134041E+02
  0
LINE
  8
0
 62
7
 10
1.87889816E+02
 20
1.54134041E+02
 11
1.87889816E+02
 21
1.52134041E+02
  0
LINE
  8
0
 62
7
 10
1.87889816E+02
 20
1.53134041E+02
 11
1.86538929E+02
 21
1.53134041E+02
  0
LINE
  8
0
 62
7
 10
1.88389816E+02
 20
1.54134041E+02
 11
1.87889816E+02
 21
1.54134041E+02
  0
LINE
  8
0
 62
7
 10
1.88389816E+02
 20
1.52134041E+02
 11
1.87889816E+02
 21
1.52134041E+02
  0
LINE
  8
0
 62
7
 10
1.94189816E+02
 20
1.54134041E+02
 11
1.93089817E+02
 21
1.54134041E+02
  0
LINE
  8
0
 62
7
 10
1.94189816E+02
 20
1.52134041E+02
 11
1.93089817E+02
 21
1.52134041E+02
  0
LINE
  8
0
 62
7
 10
1.94589817E+02
 20
1.61134041E+02
 11
1.92689816E+02
 21
1.61134041E+02
  0
LINE
  8
0
 62
6
 10
1.86939816E+02
 20
1.48734039E+02
 11
1.86939816E+02
 21
1.49734039E+02
  0
LINE
  8
0
 62
6
 10
1.88389816E+02
 20
1.49734039E+02
 11
1.88389816E+02
 21
1.57934040E+02
  0
LINE
  8
0
 62
6
 10
1.89689816E+02
 20
1.49734039E+02
 11
1.89689816E+02
 21
1.57934040E+02
  0
LINE
  8
0
 62
6
 10
1.89689816E+02
 20
1.57934040E+02
 11
1.88389816E+02
 21
1.57934040E+02
  0
LINE
  8
0
 62
6
 10
1.89289818E+02
 20
1.61934040E+02
 11
1.88789818E+02
 21
1.61934040E+02
  0
LINE
  8
0
 62
6
 10
1.89289818E+02
 20
1.57934040E+02
 11
1.89289818E+02
 21
1.61934040E+02
  0
LINE
  8
0
 62
6
 10
1.88789818E+02
 20
1.57934040E+02
 11
1.88789818E+02
 21
1.61934040E+02
  0
LINE
  8
0
 62
6
 10
1.94589817E+02
 20
1.57934040E+02
 11
1.94589817E+02
 21
1.61934040E+02
  0
LINE
  8
0
 62
6
 10
1.95089817E+02
 20
1.57934040E+02
 11
1.95089817E+02
 21
1.61934040E+02
  0
LINE
  8
0
 62
6
 10
1.95089817E+02
 20
1.61934040E+02
 11
1.94589817E+02
 21
1.61934040E+02
  0
LINE
  8
0
 62
6
 10
1.95489815E+02
 20
1.57934040E+02
 11
1.94189816E+02
 21
1.57934040E+02
  0
LINE
  8
0
 62
6
 10
1.95489815E+02
 20
1.49734039E+02
 11
1.95489815E+02
 21
1.57934040E+02
  0
LINE
  8
0
 62
6
 10
1.94189816E+02
 20
1.49734039E+02
 11
1.94189816E+02
 21
1.57934040E+02
  0
LINE
  8
0
 62
6
 10
1.86939816E+02
 20
1.49734039E+02
 11
1.90339817E+02
 21
1.49734039E+02
  0
LINE
  8
0
 62
6
 10
2.00339817E+02
 20
1.33134041E+02
 11
1.90339817E+02
 21
1.33134041E+02
  0
LINE
  8
0
 62
6
 10
1.86939816E+02
 20
1.29134041E+02
 11
1.86939816E+02
 21
1.48734039E+02
  0
LINE
  8
0
 62
6
 10
2.00339817E+02
 20
1.29134041E+02
 11
2.00339817E+02
 21
1.48734039E+02
  0
LINE
  8
0
 62
6
 10
2.00339817E+02
 20
1.48734039E+02
 11
2.00339817E+02
 21
1.49734039E+02
  0
LINE
  8
0
 62
6
 10
1.90339817E+02
 20
1.48734039E+02
 11
1.90339817E+02
 21
1.49734039E+02
  0
LINE
  8
0
 62
6
 10
1.90339817E+02
 20
1.29134041E+02
 11
1.90339817E+02
 21
1.48734039E+02
  0
LINE
  8
0
 62
6
 10
1.97589817E+02
 20
1.49734039E+02
 11
1.97589817E+02
 21
1.57934040E+02
  0
LINE
  8
0
 62
6
 10
1.98889816E+02
 20
1.49734039E+02
 11
1.98889816E+02
 21
1.57934040E+02
  0
LINE
  8
0
 62
6
 10
1.98889816E+02
 20
1.57934040E+02
 11
1.97589817E+02
 21
1.57934040E+02
  0
LINE
  8
0
 62
6
 10
1.98489815E+02
 20
1.61934040E+02
 11
1.97989815E+02
 21
1.61934040E+02
  0
LINE
  8
0
 62
6
 10
1.98489815E+02
 20
1.57934040E+02
 11
1.98489815E+02
 21
1.61934040E+02
  0
LINE
  8
0
 62
6
 10
1.97989815E+02
 20
1.57934040E+02
 11
1.97989815E+02
 21
1.61934040E+02
  0
LINE
  8
0
 62
6
 10
1.92189816E+02
 20
1.57934040E+02
 11
1.92189816E+02
 21
1.61934040E+02
  0
LINE
  8
0
 62
6
 10
1.92689816E+02
 20
1.57934040E+02
 11
1.92689816E+02
 21
1.61934040E+02
  0
LINE
  8
0
 62
6
 10
1.92689816E+02
 20
1.61934040E+02
 11
1.92189816E+02
 21
1.61934040E+02
  0
LINE
  8
0
 62
6
 10
1.93089817E+02
 20
1.57934040E+02
 11
1.91789818E+02
 21
1.57934040E+02
  0
LINE
  8
0
 62
6
 10
1.93089817E+02
 20
1.49734039E+02
 11
1.93089817E+02
 21
1.57934040E+02
  0
LINE
  8
0
 62
6
 10
1.91789818E+02
 20
1.49734039E+02
 11
1.91789818E+02
 21
1.57934040E+02
  0
LINE
  8
0
 62
6
 10
1.90339817E+02
 20
1.44134041E+02
 11
2.00339817E+02
 21
1.44134041E+02
  0
LINE
  8
0
 62
6
 10
1.90339817E+02
 20
1.40634041E+02
 11
2.00339817E+02
 21
1.40634041E+02
  0
LINE
  8
0
 62
6
 10
1.90339817E+02
 20
1.48734039E+02
 11
2.00339817E+02
 21
1.48734039E+02
  0
LINE
  8
0
 62
6
 10
1.90339817E+02
 20
1.49734039E+02
 11
2.00339817E+02
 21
1.49734039E+02
  0
LINE
  8
0
 62
6
 10
1.90339817E+02
 20
1.48734039E+02
 11
1.86939816E+02
 21
1.48734039E+02
  0
LINE
  8
0
 62
6
 10
1.90339817E+02
 20
1.30334042E+02
 11
1.86939816E+02
 21
1.30334042E+02
  0
LINE
  8
0
  6
PHANTOM
 62
2
 10
1.88389816E+02
 20
1.54134041E+02
 11
1.87889816E+02
 21
1.54134041E+02
  0
LINE
  8
0
  6
PHANTOM
 62
2
 10
1.88389816E+02
 20
1.53134041E+02
 11
1.86139816E+02
 21
1.53134041E+02
  0
LINE
  8
0
  6
PHANTOM
 62
2
 10
1.88389816E+02
 20
1.51257328E+02
 11
1.87889816E+02
 21
1.51257328E+02
  0
LINE
  8
0
  6
PHANTOM
 62
2
 10
1.91789818E+02
 20
1.51257328E+02
 11
1.89689816E+02
 21
1.51257328E+02
  0
LINE
  8
0
  6
PHANTOM
 62
2
 10
1.91789818E+02
 20
1.54134041E+02
 11
1.89689816E+02
 21
1.54134041E+02
  0
LINE
  8
0
  6
PHANTOM
 62
2
 10
1.91789818E+02
 20
1.53134041E+02
 11
1.89689816E+02
 21
1.53134041E+02
  0
LINE
  8
0
  6
PHANTOM
 62
2
 10
1.94189816E+02
 20
1.54134041E+02
 11
1.93089817E+02
 21
1.54134041E+02
  0
LINE
  8
0
  6
PHANTOM
 62
2
 10
1.94189816E+02
 20
1.53134041E+02
 11
1.93089817E+02
 21
1.53134041E+02
  0
LINE
  8
0
  6
PHANTOM
 62
2
 10
1.94189816E+02
 20
1.51257328E+02
 11
1.93089817E+02
 21
1.51257328E+02
  0
LINE
  8
0
  6
PHANTOM
 62
2
 10
1.97589817E+02
 20
1.51257328E+02
 11
1.95489815E+02
 21
1.51257328E+02
  0
LINE
  8
0
  6
PHANTOM
 62
2
 10
1.97589817E+02
 20
1.53134041E+02
 11
1.95489815E+02
 21
1.53134041E+02
  0
LINE
  8
0
  6
PHANTOM
 62
2
 10
1.98889816E+02
 20
1.54138962E+02
 11
1.99389816E+02
 21
1.54138962E+02
  0
LINE
  8
0
  6
PHANTOM
 62
2
 10
1.95489815E+02
 20
1.54138962E+02
 11
1.97589817E+02
 21
1.54138962E+02
  0
LINE
  8
0
  6
CENTER
 62
2
 10
1.80139816E+02
 20
7.94734650E+01
 11
1.80139816E+02
 21
1.62901474E+02
  0
LINE
  8
0
 62
7
 10
1.74939816E+02
 20
1.26634041E+02
 11
1.85339817E+02
 21
1.26634041E+02
  0
LINE
  8
0
 62
7
 10
1.85139816E+02
 20
1.08134041E+02
 11
1.85139816E+02
 21
1.26634041E+02
  0
LINE
  8
0
 62
7
 10
1.75139816E+02
 20
1.26634041E+02
 11
1.75139816E+02
 21
1.08134041E+02
  0
LINE
  8
0
 62
7
 10
1.77139816E+02
 20
1.12634041E+02
 11
1.75139816E+02
 21
1.12634041E+02
  0
LINE
  8
0
 62
7
 10
1.83439816E+02
 20
1.18334041E+02
 11
1.85139816E+02
 21
1.18334041E+02
  0
LINE
  8
0
 62
7
 10
1.83439816E+02
 20
1.21534040E+02
 11
1.85139816E+02
 21
1.21534040E+02
  0
LINE
  8
0
 62
7
 10
1.85339817E+02
 20
1.19934041E+02
 11
1.85339817E+02
 21
1.26634041E+02
  0
LINE
  8
0
 62
7
 10
1.74939816E+02
 20
1.26634041E+02
 11
1.74939816E+02
 21
1.19934041E+02
  0
LINE
  8
0
 62
7
 10
1.85339817E+02
 20
1.19934041E+02
 11
1.85139816E+02
 21
1.19934041E+02
  0
LINE
  8
0
 62
7
 10
1.75139816E+02
 20
1.19934041E+02
 11
1.74939816E+02
 21
1.19934041E+02
  0
LINE
  8
0
 62
7
 10
1.77139816E+02
 20
1.09434041E+02
 11
1.75139816E+02
 21
1.09434041E+02
  0
LINE
  8
0
 62
7
 10
1.74889816E+02
 20
8.21340408E+01
 11
1.85389816E+02
 21
8.21340408E+01
  0
LINE
  8
0
 62
7
 10
1.85389816E+02
 20
8.21340408E+01
 11
1.85389816E+02
 21
1.08134041E+02
  0
LINE
  8
0
 62
7
 10
1.74889816E+02
 20
8.21340408E+01
 11
1.74889816E+02
 21
1.08134041E+02
  0
LINE
  8
0
 62
7
 10
1.84940924E+02
 20
1.53134041E+02
 11
1.83689816E+02
 21
1.53134041E+02
  0
LINE
  8
0
 62
7
 10
1.75189816E+02
 20
1.53434040E+02
 11
1.75189816E+02
 21
1.59634041E+02
  0
LINE
  8
0
 62
7
 10
1.83589817E+02
 20
1.61134041E+02
 11
1.76689816E+02
 21
1.61134041E+02
  0
LINE
  8
0
 62
7
 10
1.75189816E+02
 20
1.53434040E+02
 11
1.75489816E+02
 21
1.53134040E+02
  0
LINE
  8
0
 62
7
 10
1.85140922E+02
 20
1.52935151E+02
 11
1.85287039E+02
 21
1.26634040E+02
  0
LINE
  8
0
 62
7
 10
1.74955371E+02
 20
1.19934041E+02
 11
1.74889815E+02
 21
1.08134041E+02
  0
LINE
  8
0
 62
7
 10
1.74889816E+02
 20
1.08134041E+02
 11
1.85389816E+02
 21
1.08134041E+02
  0
LINE
  8
0
 62
7
 10
1.77917633E+02
 20
1.11811858E+02
 11
1.76361998E+02
 21
1.10256224E+02
  0
LINE
  8
0
 62
7
 10
1.76361999E+02
 20
1.11811858E+02
 11
1.77917633E+02
 21
1.10256224E+02
  0
LINE
  8
0
 62
7
 10
1.84217634E+02
 20
1.20711858E+02
 11
1.82661999E+02
 21
1.19156223E+02
  0
LINE
  8
0
 62
7
 10
1.82661999E+02
 20
1.20711858E+02
 11
1.84217633E+02
 21
1.19156224E+02
  0
LINE
  8
0
  6
PHANTOM
 62
2
 10
1.80991627E+02
 20
1.59243102E+02
 11
1.73615999E+02
 21
1.61225302E+02
  0
LINE
  8
0
  6
PHANTOM
 62
2
 10
1.80991627E+02
 20
1.58213104E+02
 11
1.73615999E+02
 21
1.60195304E+02
  0
LINE
  8
0
  6
CENTER
 62
2
 10
1.77639263E+02
 20
1.50440895E+02
 11
1.77639263E+02
 21
1.70295181E+02
  0
LINE
  8
0
  6
PHANTOM
 62
2
 10
1.75939263E+02
 20
1.66589108E+02
 11
1.76139263E+02
 21
1.66725054E+02
  0
LINE
  8
0
  6
PHANTOM
 62
2
 10
1.75939264E+02
 20
1.65715168E+02
 11
1.75939264E+02
 21
1.66589111E+02
  0
LINE
  8
0
  6
PHANTOM
 62
2
 10
1.76139263E+02
 20
1.65715168E+02
 11
1.76139263E+02
 21
1.66725056E+02
  0
LINE
  8
0
  6
PHANTOM
 62
2
 10
1.76939264E+02
 20
1.66589110E+02
 11
1.77139263E+02
 21
1.66725056E+02
  0
LINE
  8
0
  6
PHANTOM
 62
2
 10
1.76939264E+02
 20
1.65715168E+02
 11
1.76939264E+02
 21
1.66589111E+02
  0
LINE
  8
0
  6
PHANTOM
 62
2
 10
1.77139263E+02
 20
1.65715168E+02
 11
1.77139263E+02
 21
1.66725056E+02
  0
LINE
  8
0
  6
PHANTOM
 62
2
 10
1.77939262E+02
 20
1.66589108E+02
 11
1.78139262E+02
 21
1.66725054E+02
  0
LINE
  8
0
  6
PHANTOM
 62
2
 10
1.77939264E+02
 20
1.65715168E+02
 11
1.77939264E+02
 21
1.66589111E+02
  0
LINE
  8
0
  6
PHANTOM
 62
2
 10
1.78139263E+02
 20
1.65715168E+02
 11
1.78139263E+02
 21
1.66725056E+02
  0
LINE
  8
0
  6
PHANTOM
 62
2
 10
1.78939264E+02
 20
1.66589108E+02
 11
1.79139264E+02
 21
1.66725054E+02
  0
LINE
  8
0
  6
PHANTOM
 62
2
 10
1.78939264E+02
 20
1.65715168E+02
 11
1.78939264E+02
 21
1.66589111E+02
  0
LINE
  8
0
  6
PHANTOM
 62
2
 10
1.79139263E+02
 20
1.65715168E+02
 11
1.79139263E+02
 21
1.66725056E+02
  0
LINE
  8
0
  6
PHANTOM
 62
2
 10
1.76289265E+02
 20
1.65715168E+02
 11
1.75789265E+02
 21
1.65715168E+02
  0
LINE
  8
0
  6
PHANTOM
 62
2
 10
1.77289265E+02
 20
1.65715168E+02
 11
1.76789265E+02
 21
1.65715168E+02
  0
LINE
  8
0
  6
PHANTOM
 62
2
 10
1.78289265E+02
 20
1.65715168E+02
 11
1.77789265E+02
 21
1.65715168E+02
  0
LINE
  8
0
  6
PHANTOM
 62
2
 10
1.79289265E+02
 20
1.65715168E+02
 11
1.78789265E+02
 21
1.65715168E+02
  0
LINE
  8
0
  6
PHANTOM
 62
2
 10
1.75789265E+02
 20
1.63834595E+02
 11
1.75789265E+02
 21
1.65715168E+02
  0
LINE
  8
0
  6
PHANTOM
 62
2
 10
1.76289265E+02
 20
1.63834595E+02
 11
1.76289265E+02
 21
1.65715168E+02
  0
LINE
  8
0
  6
PHANTOM
 62
2
 10
1.76789265E+02
 20
1.63834595E+02
 11
1.76789265E+02
 21
1.65715168E+02
  0
LINE
  8
0
  6
PHANTOM
 62
2
 10
1.77289265E+02
 20
1.63834595E+02
 11
1.77289265E+02
 21
1.65715168E+02
  0
LINE
  8
0
  6
PHANTOM
 62
2
 10
1.77789265E+02
 20
1.63834595E+02
 11
1.77789265E+02
 21
1.65715168E+02
  0
LINE
  8
0
  6
PHANTOM
 62
2
 10
1.78289265E+02
 20
1.63834595E+02
 11
1.78289265E+02
 21
1.65715168E+02
  0
LINE
  8
0
  6
PHANTOM
 62
2
 10
1.78789265E+02
 20
1.63834595E+02
 11
1.78789265E+02
 21
1.65715168E+02
  0
LINE
  8
0
  6
PHANTOM
 62
2
 10
1.79289265E+02
 20
1.63834595E+02
 11
1.79289265E+02
 21
1.65715168E+02
  0
LINE
  8
0
  6
PHANTOM
 62
2
 10
1.79639263E+02
 20
1.63834595E+02
 11
1.75639263E+02
 21
1.63834595E+02
  0
LINE
  8
0
  6
PHANTOM
 62
2
 10
1.75639263E+02
 20
1.54034595E+02
 11
1.75639263E+02
 21
1.63834595E+02
  0
LINE
  8
0
  6
PHANTOM
 62
2
 10
1.79639263E+02
 20
1.54034595E+02
 11
1.79639263E+02
 21
1.63834595E+02
  0
LINE
  8
0
  6
PHANTOM
 62
2
 10
1.80039265E+02
 20
1.54034595E+02
 11
1.78688711E+02
 21
1.54034595E+02
  0
LINE
  8
0
  6
PHANTOM
 62
2
 10
1.75239264E+02
 20
1.54034595E+02
 11
1.75239264E+02
 21
1.53134041E+02
  0
LINE
  8
0
  6
PHANTOM
 62
2
 10
1.80039265E+02
 20
1.54034595E+02
 11
1.80039265E+02
 21
1.53107567E+02
  0
LINE
  8
0
 62
7
 10
1.85089817E+02
 20
1.53434040E+02
 11
1.85089817E+02
 21
1.59634041E+02
  0
LINE
  8
0
 62
7
 10
1.85324262E+02
 20
1.19933820E+02
 11
1.85389817E+02
 21
1.08134041E+02
  0
LINE
  8
0
 62
7
 10
1.75138711E+02
 20
1.52935151E+02
 11
1.74992593E+02
 21
1.26634041E+02
  0
LINE
  8
0
 62
6
 10
1.75139816E+02
 20
1.47234039E+02
 11
1.85139816E+02
 21
1.47234039E+02
  0
LINE
  8
0
 62
6
 10
1.76589817E+02
 20
1.47234039E+02
 11
1.76589817E+02
 21
1.55434040E+02
  0
LINE
  8
0
 62
6
 10
1.77889816E+02
 20
1.47234039E+02
 11
1.77889816E+02
 21
1.55434040E+02
  0
LINE
  8
0
 62
6
 10
1.77889816E+02
 20
1.55434040E+02
 11
1.76589817E+02
 21
1.55434040E+02
  0
LINE
  8
0
 62
6
 10
1.77489817E+02
 20
1.59434040E+02
 11
1.76989817E+02
 21
1.59434040E+02
  0
LINE
  8
0
 62
6
 10
1.77489817E+02
 20
1.55434040E+02
 11
1.77489817E+02
 21
1.59434040E+02
  0
LINE
  8
0
 62
6
 10
1.76989817E+02
 20
1.55434040E+02
 11
1.76989817E+02
 21
1.59434040E+02
  0
LINE
  8
0
 62
6
 10
1.82789816E+02
 20
1.55434040E+02
 11
1.82789816E+02
 21
1.59434040E+02
  0
LINE
  8
0
 62
6
 10
1.83289816E+02
 20
1.55434040E+02
 11
1.83289816E+02
 21
1.59434040E+02
  0
LINE
  8
0
 62
6
 10
1.83289816E+02
 20
1.59434040E+02
 11
1.82789816E+02
 21
1.59434040E+02
  0
LINE
  8
0
 62
6
 10
1.83689816E+02
 20
1.55434040E+02
 11
1.82389816E+02
 21
1.55434040E+02
  0
LINE
  8
0
 62
6
 10
1.83689816E+02
 20
1.47234039E+02
 11
1.83689816E+02
 21
1.55434040E+02
  0
LINE
  8
0
 62
6
 10
1.82389816E+02
 20
1.47234039E+02
 11
1.82389816E+02
 21
1.55434040E+02
  0
LINE
  8
0
 62
6
 10
1.75139816E+02
 20
1.26634041E+02
 11
1.75139816E+02
 21
1.46234039E+02
  0
LINE
  8
0
 62
6
 10
1.75139816E+02
 20
1.46234039E+02
 11
1.75139816E+02
 21
1.47234039E+02
  0
LINE
  8
0
 62
6
 10
1.85139816E+02
 20
1.46234039E+02
 11
1.85139816E+02
 21
1.47234039E+02
  0
LINE
  8
0
 62
6
 10
1.85139816E+02
 20
1.26634041E+02
 11
1.85139816E+02
 21
1.46234039E+02
  0
LINE
  8
0
 62
6
 10
1.85139816E+02
 20
1.30634041E+02
 11
1.75139816E+02
 21
1.30634041E+02
  0
LINE
  8
0
 62
7
 10
1.76589817E+02
 20
1.53134041E+02
 11
1.75338709E+02
 21
1.53134041E+02
  0
LINE
  8
0
 62
7
 10
1.82389816E+02
 20
1.53134041E+02
 11
1.77889816E+02
 21
1.53134041E+02
  0
LINE
  8
0
  6
PHANTOM
 62
2
 10
1.77388712E+02
 20
1.54034595E+02
 11
1.75239264E+02
 21
1.54034595E+02
  0
LINE
  8
0
 62
6
 10
1.75139816E+02
 20
1.46234039E+02
 11
1.85139816E+02
 21
1.46234039E+02
  0
LINE
  8
0
 62
6
 10
1.75139816E+02
 20
1.38134041E+02
 11
1.85139816E+02
 21
1.38134041E+02
  0
LINE
  8
0
 62
6
 10
1.75139816E+02
 20
1.41634041E+02
 11
1.85139816E+02
 21
1.41634041E+02
  0
LINE
  8
0
 62
7
 10
1.85089817E+02
 20
1.53434041E+02
 11
1.84789815E+02
 21
1.53134039E+02
  0
LINE
  8
0
  6
CENTER
 62
2
 10
2.39639816E+02
 20
9.00340405E+01
 11
1.61639816E+02
 21
9.00340405E+01
  0
LINE
  8
0
  6
CENTER
 62
2
 10
2.39639816E+02
 20
9.20340405E+01
 11
1.61639816E+02
 21
9.20340405E+01
  0
LINE
  8
0
 62
7
 10
1.74389816E+02
 20
9.50340405E+01
 11
1.74639816E+02
 21
9.50340405E+01
  0
LINE
  8
0
  6
CENTER
 62
2
 10
1.81089817E+02
 20
9.52590408E+01
 11
1.81089817E+02
 21
1.04009041E+02
  0
LINE
  8
0
  6
CENTER
 62
2
 10
1.76714817E+02
 20
9.96340408E+01
 11
1.85464817E+02
 21
9.96340408E+01
  0
LINE
  8
0
  6
CENTER
 62
2
 10
1.95639816E+02
 20
9.62590408E+01
 11
1.95639816E+02
 21
1.05009041E+02
  0
LINE
  8
0
  6
CENTER
 62
2
 10
1.91264816E+02
 20
1.00634041E+02
 11
2.00014816E+02
 21
1.00634041E+02
  0
LINE
  8
0
  6
CENTER
 62
2
 10
2.11639816E+02
 20
9.62590408E+01
 11
2.11639816E+02
 21
1.05009041E+02
  0
LINE
  8
0
  6
CENTER
 62
2
 10
2.07264816E+02
 20
1.00634041E+02
 11
2.16014816E+02
 21
1.00634041E+02
  0
LINE
  8
0
  6
CENTER
 62
2
 10
2.22764816E+02
 20
1.00634041E+02
 11
2.31514816E+02
 21
1.00634041E+02
  0
LINE
  8
0
 62
7
 10
1.74639816E+02
 20
9.50340405E+01
 11
1.74889816E+02
 21
9.50340405E+01
  0
LINE
  8
0
 62
7
 10
1.74389816E+02
 20
8.40340405E+01
 11
1.74639816E+02
 21
8.40340405E+01
  0
LINE
  8
0
 62
7
 10
1.74639816E+02
 20
8.40340405E+01
 11
1.74889816E+02
 21
8.40340405E+01
  0
LINE
  8
0
 62
7
 10
1.85389816E+02
 20
9.50340405E+01
 11
1.85639816E+02
 21
9.50340405E+01
  0
LINE
  8
0
 62
7
 10
1.85639816E+02
 20
9.50340405E+01
 11
1.85889816E+02
 21
9.50340405E+01
  0
LINE
  8
0
 62
7
 10
1.85389816E+02
 20
8.40340405E+01
 11
1.85639816E+02
 21
8.40340405E+01
  0
LINE
  8
0
 62
7
 10
1.85639816E+02
 20
8.40340405E+01
 11
1.85889816E+02
 21
8.40340405E+01
  0
LINE
  8
0
 62
7
 10
2.01389816E+02
 20
9.50340405E+01
 11
2.01639816E+02
 21
9.50340405E+01
  0
LINE
  8
0
 62
7
 10
2.01639816E+02
 20
9.50340405E+01
 11
2.01889816E+02
 21
9.50340405E+01
  0
LINE
  8
0
 62
7
 10
2.01389816E+02
 20
8.40340405E+01
 11
2.01639816E+02
 21
8.40340405E+01
  0
LINE
  8
0
 62
7
 10
2.01639816E+02
 20
8.40340405E+01
 11
2.01889816E+02
 21
8.40340405E+01
  0
LINE
  8
0
 62
7
 10
2.17389816E+02
 20
9.50340405E+01
 11
2.17639816E+02
 21
9.50340405E+01
  0
LINE
  8
0
 62
7
 10
2.17639816E+02
 20
9.50340405E+01
 11
2.17889816E+02
 21
9.50340405E+01
  0
LINE
  8
0
 62
7
 10
2.17389816E+02
 20
8.40340405E+01
 11
2.17639816E+02
 21
8.40340405E+01
  0
LINE
  8
0
 62
7
 10
2.17639816E+02
 20
8.40340405E+01
 11
2.17889816E+02
 21
8.40340405E+01
  0
LINE
  8
0
 62
7
 10
1.48139816E+02
 20
1.19134041E+02
 11
1.48139816E+02
 21
6.31340408E+01
  0
LINE
  8
0
 62
7
 10
1.48139816E+02
 20
6.31340408E+01
 11
1.57139816E+02
 21
6.31340408E+01
  0
LINE
  8
0
 62
7
 10
1.47539816E+02
 20
7.41340408E+01
 11
1.63639816E+02
 21
7.41340408E+01
  0
LINE
  8
0
 62
7
 10
1.47539816E+02
 20
1.08134041E+02
 11
1.63639816E+02
 21
1.08134041E+02
  0
LINE
  8
0
 62
7
 10
1.47539816E+02
 20
1.08684041E+02
 11
1.47539816E+02
 21
7.41340408E+01
  0
LINE
  8
0
  6
CENTER
 62
2
 10
1.53139816E+02
 20
6.44579468E+01
 11
1.53139816E+02
 21
7.35498962E+01
  0
LINE
  8
0
  6
CENTER
 62
2
 10
1.48534109E+02
 20
6.91340408E+01
 11
1.57993000E+02
 21
6.91340408E+01
  0
LINE
  8
0
 62
7
 10
1.57139816E+02
 20
6.72340393E+01
 11
1.57139816E+02
 21
6.31340408E+01
  0
LINE
  8
0
 62
7
 10
1.63639816E+02
 20
7.43340416E+01
 11
1.63639816E+02
 21
1.08134041E+02
  0
LINE
  8
0
 62
7
 10
2.73139816E+02
 20
7.41340408E+01
 11
2.36839813E+02
 21
7.41340408E+01
  0
LINE
  8
0
 62
7
 10
2.36639816E+02
 20
7.41340408E+01
 11
2.36639816E+02
 21
1.08134041E+02
  0
LINE
  8
0
 62
7
 10
2.73139816E+02
 20
1.08134041E+02
 11
2.36639816E+02
 21
1.08134041E+02
  0
LINE
  8
0
 62
7
 10
1.53139816E+02
 20
7.31340408E+01
 11
1.57139816E+02
 21
7.31340408E+01
  0
LINE
  8
0
 62
7
 10
1.53139816E+02
 20
6.51340408E+01
 11
1.57139816E+02
 21
6.51340408E+01
  0
LINE
  8
0
  6
CENTER
 62
2
 10
1.48534109E+02
 20
1.13134041E+02
 11
1.57993000E+02
 21
1.13134041E+02
  0
LINE
  8
0
 62
7
 10
1.53139816E+02
 20
1.17134041E+02
 11
1.57139816E+02
 21
1.17134041E+02
  0
LINE
  8
0
 62
7
 10
1.53139816E+02
 20
1.09134041E+02
 11
1.57139816E+02
 21
1.09134041E+02
  0
LINE
  8
0
  6
CENTER
 62
2
 10
1.53139816E+02
 20
1.17810137E+02
 11
1.53139816E+02
 21
1.08718185E+02
  0
LINE
  8
0
 62
7
 10
1.57139816E+02
 20
1.19134041E+02
 11
1.48139816E+02
 21
1.19134041E+02
  0
LINE
  8
0
 62
7
 10
2.52139816E+02
 20
1.19134041E+02
 11
2.52139816E+02
 21
6.31340408E+01
  0
LINE
  8
0
  6
CENTER
 62
2
 10
2.51745522E+02
 20
6.91340408E+01
 11
2.42286636E+02
 21
6.91340408E+01
  0
LINE
  8
0
 62
7
 10
2.43139816E+02
 20
7.41340408E+01
 11
2.43139816E+02
 21
7.10340424E+01
  0
LINE
  8
0
 62
7
 10
2.47139816E+02
 20
6.51340408E+01
 11
2.43139816E+02
 21
6.51340408E+01
  0
LINE
  8
0
 62
7
 10
2.47139816E+02
 20
7.31340408E+01
 11
2.43139816E+02
 21
7.31340408E+01
  0
LINE
  8
0
  6
CENTER
 62
2
 10
2.47139816E+02
 20
6.44579468E+01
 11
2.47139816E+02
 21
7.35498962E+01
  0
LINE
  8
0
 62
7
 10
2.52139816E+02
 20
6.31340408E+01
 11
2.43139816E+02
 21
6.31340408E+01
  0
LINE
  8
0
 62
7
 10
2.43139816E+02
 20
1.08134041E+02
 11
2.43139816E+02
 21
1.11234041E+02
  0
LINE
  8
0
  6
CENTER
 62
2
 10
2.47139816E+02
 20
1.17810137E+02
 11
2.47139816E+02
 21
1.08718185E+02
  0
LINE
  8
0
 62
7
 10
2.52139816E+02
 20
1.19134041E+02
 11
2.43139816E+02
 21
1.19134041E+02
  0
LINE
  8
0
 62
7
 10
2.47139816E+02
 20
1.09134041E+02
 11
2.43139816E+02
 21
1.09134041E+02
  0
LINE
  8
0
 62
7
 10
2.47139816E+02
 20
1.17134041E+02
 11
2.43139816E+02
 21
1.17134041E+02
  0
LINE
  8
0
  6
CENTER
 62
2
 10
2.51745522E+02
 20
1.13134041E+02
 11
2.42286636E+02
 21
1.13134041E+02
  0
LINE
  8
0
 62
7
 10
2.77739815E+02
 20
7.98840408E+01
 11
2.77739815E+02
 21
7.43840408E+01
  0
LINE
  8
0
 62
7
 10
2.74739815E+02
 20
7.98840408E+01
 11
2.77739815E+02
 21
7.98840408E+01
  0
LINE
  8
0
 62
7
 10
2.74739815E+02
 20
7.43840408E+01
 11
2.77739815E+02
 21
7.43840408E+01
  0
LINE
  8
0
  6
CENTER
 62
2
 10
2.74349976E+02
 20
7.71340408E+01
 11
2.78145287E+02
 21
7.71340408E+01
  0
LINE
  8
0
 62
7
 10
2.77739815E+02
 20
1.08384041E+02
 11
2.77739815E+02
 21
1.02884041E+02
  0
LINE
  8
0
 62
7
 10
2.74739815E+02
 20
1.08384041E+02
 11
2.77739815E+02
 21
1.08384041E+02
  0
LINE
  8
0
 62
7
 10
2.74739815E+02
 20
1.02884041E+02
 11
2.77739815E+02
 21
1.02884041E+02
  0
LINE
  8
0
  6
CENTER
 62
2
 10
2.74349976E+02
 20
1.05634041E+02
 11
2.78145287E+02
 21
1.05634041E+02
  0
LINE
  8
0
 62
7
 10
2.74739815E+02
 20
7.41340408E+01
 11
2.74739815E+02
 21
1.08384041E+02
  0
LINE
  8
0
 62
7
 10
2.73139816E+02
 20
8.41340408E+01
 11
2.68139816E+02
 21
8.41340408E+01
  0
LINE
  8
0
 62
7
 10
2.73139816E+02
 20
1.00134041E+02
 11
2.68139816E+02
 21
1.00134041E+02
  0
LINE
  8
0
 62
7
 10
2.68139816E+02
 20
8.41340408E+01
 11
2.68139816E+02
 21
1.00134041E+02
  0
LINE
  8
0
 62
7
 10
2.73139816E+02
 20
7.41340408E+01
 11
2.73139816E+02
 21
1.08134041E+02
  0
LINE
  8
0
 62
7
 10
2.74739815E+02
 20
1.08134041E+02
 11
2.73139816E+02
 21
1.08134041E+02
  0
LINE
  8
0
 62
7
 10
2.74739815E+02
 20
7.41340408E+01
 11
2.73139816E+02
 21
7.41340408E+01
  0
LINE
  8
0
 62
7
 10
1.44539816E+02
 20
7.44840393E+01
 11
1.44539816E+02
 21
7.99840393E+01
  0
LINE
  8
0
 62
7
 10
1.47539816E+02
 20
7.44840393E+01
 11
1.44539816E+02
 21
7.44840393E+01
  0
LINE
  8
0
 62
7
 10
1.47539816E+02
 20
7.99840393E+01
 11
1.44539816E+02
 21
7.99840393E+01
  0
LINE
  8
0
  6
CENTER
 62
2
 10
1.47929657E+02
 20
7.72340393E+01
 11
1.44134348E+02
 21
7.72340393E+01
  0
LINE
  8
0
 62
7
 10
1.44539816E+02
 20
1.03284040E+02
 11
1.44539816E+02
 21
1.08784041E+02
  0
LINE
  8
0
 62
7
 10
1.47539816E+02
 20
1.03284040E+02
 11
1.44539816E+02
 21
1.03284040E+02
  0
LINE
  8
0
 62
7
 10
1.47539816E+02
 20
1.08784041E+02
 11
1.44539816E+02
 21
1.08784041E+02
  0
LINE
  8
0
  6
CENTER
 62
2
 10
1.47929657E+02
 20
1.06034041E+02
 11
1.44134348E+02
 21
1.06034041E+02
  0
LINE
  8
0
 62
7
 10
2.47139816E+02
 20
7.10340424E+01
 11
2.43139816E+02
 21
7.10340424E+01
  0
LINE
  8
0
 62
7
 10
2.47139816E+02
 20
6.72340393E+01
 11
2.43139816E+02
 21
6.72340393E+01
  0
LINE
  8
0
 62
7
 10
2.43139816E+02
 20
6.72340393E+01
 11
2.43139816E+02
 21
6.31340408E+01
  0
LINE
  8
0
 62
7
 10
2.47139816E+02
 20
1.15034041E+02
 11
2.43139816E+02
 21
1.15034041E+02
  0
LINE
  8
0
 62
7
 10
2.47139816E+02
 20
1.11234041E+02
 11
2.43139816E+02
 21
1.11234041E+02
  0
LINE
  8
0
 62
7
 10
2.43139816E+02
 20
1.15034041E+02
 11
2.43139816E+02
 21
1.19134041E+02
  0
LINE
  8
0
 62
7
 10
1.53139816E+02
 20
7.10340424E+01
 11
1.57139816E+02
 21
7.10340424E+01
  0
LINE
  8
0
 62
7
 10
1.53139816E+02
 20
6.72340393E+01
 11
1.57139816E+02
 21
6.72340393E+01
  0
LINE
  8
0
 62
7
 10
1.57139816E+02
 20
7.10340424E+01
 11
1.57139816E+02
 21
7.41340408E+01
  0
LINE
  8
0
 62
7
 10
1.53139816E+02
 20
1.15034041E+02
 11
1.57139816E+02
 21
1.15034041E+02
  0
LINE
  8
0
 62
7
 10
1.53139816E+02
 20
1.11234041E+02
 11
1.57139816E+02
 21
1.11234041E+02
  0
LINE
  8
0
 62
7
 10
1.57139816E+02
 20
1.15034041E+02
 11
1.57139816E+02
 21
1.19134041E+02
  0
LINE
  8
0
 62
7
 10
1.57139816E+02
 20
1.11234041E+02
 11
1.57139816E+02
 21
1.08134041E+02
  0
ARC
  8
0
 62
7
 10
1.66139816E+02
 20
1.11034041E+02
 40
1.60000002E+00
 50
2.70000000E+02
 51
9.00000002E+01
  0
ARC
  8
0
 62
7
 10
1.72439816E+02
 20
1.19934041E+02
 40
1.60000002E+00
 50
9.00000002E+01
 51
2.70000000E+02
  0
CIRCLE
  8
0
 62
7
 10
1.70089817E+02
 20
9.96340408E+01
 40
2.50000000E+00
  0
ARC
  8
0
 62
7
 10
1.65689816E+02
 20
1.59634041E+02
 40
1.50000000E+00
 50
9.00000002E+01
 51
1.80000005E+02
  0
ARC
  8
0
 62
7
 10
1.73940924E+02
 20
1.52934040E+02
 40
2.00000003E-01
 50
3.18306612E-01
 51
9.00000002E+01
  0
ARC
  8
0
 62
7
 10
1.64338708E+02
 20
1.52934040E+02
 40
2.00000003E-01
 50
9.00000002E+01
 51
1.79681691E+02
  0
CIRCLE
  8
0
 62
7
 10
1.66139816E+02
 20
1.11034041E+02
 40
1.50000000E+00
  0
CIRCLE
  8
0
 62
7
 10
1.72439816E+02
 20
1.19934041E+02
 40
1.50000000E+00
  0
ARC
  8
0
 62
7
 10
1.72589817E+02
 20
1.59634041E+02
 40
1.50000000E+00
 50
0.00000000E+00
 51
9.00000002E+01
  0
ARC
  8
0
 62
7
 10
2.13089817E+02
 20
1.59634041E+02
 40
1.50000000E+00
 50
0.00000000E+00
 51
2.10394706E+01
  0
ARC
  8
0
 62
7
 10
2.02538929E+02
 20
1.52934040E+02
 40
2.00000003E-01
 50
9.00000002E+01
 51
1.79745348E+02
  0
ARC
  8
0
 62
7
 10
2.16740704E+02
 20
1.52934040E+02
 40
2.00000003E-01
 50
2.54646235E-01
 51
9.00000002E+01
  0
ARC
  8
0
 62
7
 10
2.06189816E+02
 20
1.59634041E+02
 40
1.50000000E+00
 50
9.00000002E+01
 51
1.26869903E+02
  0
ARC
  8
0
 62
7
 10
2.13089817E+02
 20
1.59634041E+02
 40
1.50000000E+00
 50
5.31301018E+01
 51
9.00000002E+01
  0
CIRCLE
  8
0
 62
7
 10
2.15139816E+02
 20
1.10134041E+02
 40
1.50000000E+00
  0
CIRCLE
  8
0
 62
7
 10
2.04139816E+02
 20
1.27134041E+02
 40
1.50000000E+00
  0
ARC
  8
0
 62
7
 10
2.15139816E+02
 20
1.10134041E+02
 40
1.60000002E+00
 50
9.00000002E+01
 51
1.80000005E+02
  0
ARC
  8
0
 62
7
 10
2.04139816E+02
 20
1.27134041E+02
 40
1.60000002E+00
 50
2.70000000E+02
 51
0.00000000E+00
  0
ARC
  8
0
 62
7
 10
2.06189816E+02
 20
1.59634041E+02
 40
1.50000000E+00
 50
1.58960536E+02
 51
1.80000005E+02
  0
ARC
  8
0
 62
7
 10
2.23689819E+02
 20
1.59634041E+02
 40
1.50000000E+00
 50
1.58960536E+02
 51
1.80000005E+02
  0
CIRCLE
  8
0
 62
7
 10
2.34139816E+02
 20
1.10134041E+02
 40
1.50000000E+00
  0
CIRCLE
  8
0
 62
7
 10
2.20139816E+02
 20
1.27134041E+02
 40
1.50000000E+00
  0
ARC
  8
0
 62
7
 10
2.20139816E+02
 20
1.27134041E+02
 40
1.60000002E+00
 50
2.70000000E+02
 51
0.00000000E+00
  0
ARC
  8
0
 62
7
 10
2.34139816E+02
 20
1.10134041E+02
 40
1.60000002E+00
 50
9.00000002E+01
 51
1.80000005E+02
  0
ARC
  8
0
 62
7
 10
2.23689819E+02
 20
1.59634041E+02
 40
1.50000000E+00
 50
9.00000002E+01
 51
1.26869903E+02
  0
ARC
  8
0
 62
7
 10
2.30589813E+02
 20
1.59634041E+02
 40
1.50000000E+00
 50
5.31301018E+01
 51
9.00000002E+01
  0
ARC
  8
0
 62
7
 10
2.35741142E+02
 20
1.52938965E+02
 40
2.00000003E-01
 50
3.81966217E-01
 51
9.00000002E+01
  0
ARC
  8
0
 62
7
 10
2.18538490E+02
 20
1.52938965E+02
 40
2.00000003E-01
 50
9.00000002E+01
 51
1.79618033E+02
  0
ARC
  8
0
 62
7
 10
2.30589813E+02
 20
1.59634041E+02
 40
1.50000000E+00
 50
0.00000000E+00
 51
2.10394706E+01
  0
ARC
  8
0
 62
7
 10
1.97089817E+02
 20
1.59634041E+02
 40
1.50000000E+00
 50
0.00000000E+00
 51
2.10394706E+01
  0
ARC
  8
0
 62
7
 10
1.86538929E+02
 20
1.52934040E+02
 40
2.00000003E-01
 50
9.00000002E+01
 51
1.79745348E+02
  0
ARC
  8
0
 62
7
 10
2.00740704E+02
 20
1.52934040E+02
 40
2.00000003E-01
 50
2.54646235E-01
 51
9.00000002E+01
  0
ARC
  8
0
 62
7
 10
1.90189816E+02
 20
1.59634041E+02
 40
1.50000000E+00
 50
9.00000002E+01
 51
1.26869903E+02
  0
ARC
  8
0
 62
7
 10
1.97089817E+02
 20
1.59634041E+02
 40
1.50000000E+00
 50
5.31301018E+01
 51
9.00000002E+01
  0
CIRCLE
  8
0
 62
7
 10
1.99139816E+02
 20
1.10134041E+02
 40
1.50000000E+00
  0
CIRCLE
  8
0
 62
7
 10
1.88139816E+02
 20
1.27134041E+02
 40
1.50000000E+00
  0
ARC
  8
0
 62
7
 10
1.99139816E+02
 20
1.10134041E+02
 40
1.60000002E+00
 50
9.00000002E+01
 51
1.80000005E+02
  0
ARC
  8
0
 62
7
 10
1.88139816E+02
 20
1.27134041E+02
 40
1.60000002E+00
 50
2.70000000E+02
 51
0.00000000E+00
  0
ARC
  8
0
 62
7
 10
1.90189816E+02
 20
1.59634041E+02
 40
1.50000000E+00
 50
1.58960536E+02
 51
1.80000005E+02
  0
ARC
  8
0
 62
7
 10
1.77139816E+02
 20
1.11034041E+02
 40
1.60000002E+00
 50
2.70000000E+02
 51
9.00000002E+01
  0
ARC
  8
0
 62
7
 10
1.83439816E+02
 20
1.19934041E+02
 40
1.60000002E+00
 50
9.00000002E+01
 51
2.70000000E+02
  0
ARC
  8
0
 62
7
 10
1.76689816E+02
 20
1.59634041E+02
 40
1.50000000E+00
 50
9.00000002E+01
 51
1.80000005E+02
  0
ARC
  8
0
 62
7
 10
1.84940924E+02
 20
1.52934040E+02
 40
2.00000003E-01
 50
3.18306612E-01
 51
9.00000002E+01
  0
ARC
  8
0
 62
7
 10
1.75338709E+02
 20
1.52934040E+02
 40
2.00000003E-01
 50
9.00000002E+01
 51
1.79681691E+02
  0
CIRCLE
  8
0
 62
7
 10
1.77139816E+02
 20
1.11034041E+02
 40
1.50000000E+00
  0
CIRCLE
  8
0
 62
7
 10
1.83439816E+02
 20
1.19934041E+02
 40
1.50000000E+00
  0
ARC
  8
0
 62
7
 10
1.83589817E+02
 20
1.59634041E+02
 40
1.50000000E+00
 50
0.00000000E+00
 51
9.00000002E+01
  0
CIRCLE
  8
0
 62
7
 10
1.70089817E+02
 20
9.96340408E+01
 40
3.50000000E+00
  0
CIRCLE
  8
0
 62
7
 10
1.70089817E+02
 20
9.96340408E+01
 40
4.00000000E+00
  0
CIRCLE
  8
0
 62
7
 10
1.81089817E+02
 20
9.96340408E+01
 40
2.50000000E+00
  0
CIRCLE
  8
0
 62
7
 10
1.81089817E+02
 20
9.96340408E+01
 40
3.50000000E+00
  0
CIRCLE
  8
0
 62
7
 10
1.81089817E+02
 20
9.96340408E+01
 40
4.00000000E+00
  0
CIRCLE
  8
0
 62
7
 10
1.95639816E+02
 20
1.00634041E+02
 40
2.50000000E+00
  0
CIRCLE
  8
0
 62
7
 10
1.95639816E+02
 20
1.00634041E+02
 40
3.50000000E+00
  0
CIRCLE
  8
0
 62
7
 10
1.95639816E+02
 20
1.00634041E+02
 40
4.00000000E+00
  0
CIRCLE
  8
0
 62
7
 10
2.11639816E+02
 20
1.00634041E+02
 40
2.50000000E+00
  0
CIRCLE
  8
0
 62
7
 10
2.11639816E+02
 20
1.00634041E+02
 40
3.50000000E+00
  0
CIRCLE
  8
0
 62
7
 10
2.11639816E+02
 20
1.00634041E+02
 40
4.00000000E+00
  0
CIRCLE
  8
0
 62
7
 10
2.27139816E+02
 20
1.00634041E+02
 40
2.50000000E+00
  0
CIRCLE
  8
0
 62
7
 10
2.27139816E+02
 20
1.00634041E+02
 40
3.50000000E+00
  0
CIRCLE
  8
0
 62
7
 10
2.27139816E+02
 20
1.00634041E+02
 40
4.00000000E+00
  0
ARC
  8
0
 62
7
 10
1.53139816E+02
 20
6.91340408E+01
 40
4.00000000E+00
 50
9.00000002E+01
 51
2.70000000E+02
  0
ARC
  8
0
 62
7
 10
1.63439816E+02
 20
7.43340416E+01
 40
2.00000003E-01
 50
2.70000000E+02
 51
0.00000000E+00
  0
ARC
  8
0
 62
7
 10
1.53139816E+02
 20
1.13134041E+02
 40
4.00000000E+00
 50
9.00000002E+01
 51
2.70000000E+02
  0
ARC
  8
0
 62
7
 10
2.47139816E+02
 20
6.91340408E+01
 40
4.00000000E+00
 50
2.70000000E+02
 51
9.00000002E+01
  0
ARC
  8
0
 62
7
 10
2.47139816E+02
 20
1.13134041E+02
 40
4.00000000E+00
 50
2.70000000E+02
 51
9.00000002E+01
  0
ARC
  8
0
 62
7
 10
2.47139816E+02
 20
6.91340408E+01
 40
1.89999998E+00
 50
2.70000000E+02
 51
9.00000002E+01
  0
ARC
  8
0
 62
7
 10
2.47139816E+02
 20
1.13134041E+02
 40
1.89999998E+00
 50
2.70000000E+02
 51
9.00000002E+01
  0
ARC
  8
0
 62
7
 10
1.53139816E+02
 20
6.91340408E+01
 40
1.89999998E+00
 50
9.00000002E+01
 51
2.70000000E+02
  0
ARC
  8
0
 62
7
 10
1.53139816E+02
 20
1.13134041E+02
 40
1.89999998E+00
 50
9.00000002E+01
 51
2.70000000E+02
  0
LINE
  8
0
 62
7
 10
2.57782459E+01
 20
-7.03732147E+01
 11
2.57782459E+01
 21
-1.88373215E+02
  0
LINE
  8
0
 62
7
 10
-2.82175255E+00
 20
-5.93759613E+01
 11
-4.02175331E+00
 21
-5.93759613E+01
  0
LINE
  8
0
 62
7
 10
-2.82175255E+00
 20
-5.96759491E+01
 11
-4.32175255E+00
 21
-5.96759491E+01
  0
LINE
  8
0
 62
7
 10
-2.82175255E+00
 20
-6.03759613E+01
 11
-7.82175255E+00
 21
-6.03759613E+01
  0
LINE
  8
0
 62
7
 10
1.81782455E+01
 20
-6.03759613E+01
 11
3.17824554E+00
 21
-6.03759613E+01
  0
LINE
  8
0
 62
7
 10
1.81782455E+01
 20
-6.03759613E+01
 11
1.81782455E+01
 21
-7.03732147E+01
  0
LINE
  8
0
 62
6
 10
-4.84217510E+01
 20
-1.13375954E+02
 11
-4.59217510E+01
 21
-1.13375954E+02
  0
LINE
  8
0
 62
7
 10
-7.82175255E+00
 20
-6.03759613E+01
 11
-7.82175255E+00
 21
-7.03732147E+01
  0
LINE
  8
0
 62
6
 10
-5.39570675E+01
 20
-8.97232132E+01
 11
-5.76217556E+01
 21
-8.97232132E+01
  0
LINE
  8
0
 62
6
 10
-5.43064404E+01
 20
-8.84232178E+01
 11
-5.76217556E+01
 21
-8.84232178E+01
  0
LINE
  8
0
 62
6
 10
-4.84217510E+01
 20
-8.97160492E+01
 11
-4.84217510E+01
 21
-1.02373215E+02
  0
LINE
  8
0
 62
6
 10
-4.94217510E+01
 20
-8.97232132E+01
 11
-4.94217510E+01
 21
-9.08732147E+01
  0
LINE
  8
0
 62
6
 10
-4.94217510E+01
 20
-1.26023216E+02
 11
-4.94217510E+01
 21
-1.24874863E+02
  0
LINE
  8
0
  6
PHANTOM
 62
2
 10
-5.37223096E+01
 20
-1.50363062E+02
 11
-5.38217540E+01
 21
-1.50570475E+02
  0
LINE
  8
0
  6
CENTER
 62
6
 10
-1.84130497E+01
 20
-1.36874859E+02
 11
-4.62982311E+01
 21
-1.36874859E+02
  0
LINE
  8
0
  6
CENTER
 62
6
 10
-1.84130497E+01
 20
-7.88732147E+01
 11
-4.62982311E+01
 21
-7.88732147E+01
  0
LINE
  8
0
 62
7
 10
-3.32175255E+00
 20
-6.96732178E+01
 11
-4.32175255E+00
 21
-6.96732178E+01
  0
LINE
  8
0
 62
7
 10
-4.02175217E+00
 20
-6.93732191E+01
 11
-4.32175141E+00
 21
-6.96732183E+01
  0
LINE
  8
0
 62
7
 10
-4.32175255E+00
 20
-7.03732147E+01
 11
-4.32175255E+00
 21
-6.96732178E+01
  0
LINE
  8
0
 62
7
 10
-3.02175331E+00
 20
-6.93732147E+01
 11
-4.02175331E+00
 21
-6.93732147E+01
  0
LINE
  8
0
 62
7
 10
-3.82175628E+00
 20
-6.88732186E+01
 11
-3.32175575E+00
 21
-6.93732191E+01
  0
LINE
  8
0
 62
7
 10
-2.82175255E+00
 20
-5.91682129E+01
 11
-2.82175255E+00
 21
-6.31682129E+01
  0
LINE
  8
0
 62
7
 10
-2.82175522E+00
 20
-5.91682170E+01
 11
-2.32175469E+00
 21
-5.86682165E+01
  0
LINE
  8
0
 62
7
 10
-2.82174982E+00
 20
-6.31682159E+01
 11
-2.32174929E+00
 21
-6.36682164E+01
  0
LINE
  8
0
 62
7
 10
-3.82175628E+00
 20
-6.68732164E+01
 11
-3.32175575E+00
 21
-6.63732159E+01
  0
LINE
  8
0
 62
7
 10
-1.57175255E+00
 20
-6.36682129E+01
 11
-1.57175255E+00
 21
-6.63732147E+01
  0
LINE
  8
0
 62
7
 10
-3.82175255E+00
 20
-6.88732147E+01
 11
-3.82175255E+00
 21
-6.68732147E+01
  0
LINE
  8
0
 62
7
 10
-3.32175255E+00
 20
-6.63732147E+01
 11
-2.32175255E+00
 21
-6.63732147E+01
  0
LINE
  8
0
 62
7
 10
-1.32175255E+00
 20
-6.36682129E+01
 11
-2.32175255E+00
 21
-6.36682129E+01
  0
LINE
  8
0
 62
7
 10
-2.32175255E+00
 20
-5.86682129E+01
 11
-1.32175255E+00
 21
-5.86682129E+01
  0
LINE
  8
0
 62
7
 10
-5.31217536E+01
 20
-1.87620475E+02
 11
-5.28217543E+01
 21
-1.87320475E+02
  0
LINE
  8
0
 62
7
 10
-6.08217525E+01
 20
-1.84820475E+02
 11
-6.08217525E+01
 21
-1.86120475E+02
  0
LINE
  8
0
 62
7
 10
-5.31217556E+01
 20
-1.87620475E+02
 11
-5.93217525E+01
 21
-1.87620475E+02
  0
LINE
  8
0
  6
PHANTOM
 62
2
 10
-8.58465418E+01
 20
-1.67152082E+02
 11
-1.03722972E+02
 21
-1.68088946E+02
  0
LINE
  8
0
  6
PHANTOM
 62
2
 10
-8.38465466E+01
 20
-1.65152083E+02
 11
-1.03722978E+02
 21
-1.64110403E+02
  0
LINE
  8
0
  6
PHANTOM
 62
2
 10
-1.03722975E+02
 20
-1.65152081E+02
 11
-1.03722975E+02
 21
-1.64110401E+02
  0
LINE
  8
0
  6
PHANTOM
 62
2
 10
-1.03722975E+02
 20
-1.67152082E+02
 11
-1.03722975E+02
 21
-1.65152081E+02
  0
LINE
  8
0
  6
PHANTOM
 62
2
 10
-9.67229748E+01
 20
-1.67722092E+02
 11
-9.67229748E+01
 21
-1.64477257E+02
  0
LINE
  8
0
  6
PHANTOM
 62
2
 10
-1.03722975E+02
 20
-1.68088945E+02
 11
-1.03722975E+02
 21
-1.67152082E+02
  0
LINE
  8
0
  6
PHANTOM
 62
2
 10
-8.38465481E+01
 20
-1.65152081E+02
 11
-1.03722975E+02
 21
-1.65152081E+02
  0
LINE
  8
0
  6
PHANTOM
 62
2
 10
-8.48465481E+01
 20
-1.66152082E+02
 11
-1.03722975E+02
 21
-1.66152082E+02
  0
LINE
  8
0
  6
PHANTOM
 62
2
 10
-8.58465481E+01
 20
-1.67152082E+02
 11
-1.03722975E+02
 21
-1.67152082E+02
  0
LINE
  8
0
  6
PHANTOM
 62
2
 10
-1.03447887E+02
 20
-1.71661092E+02
 11
-1.03795183E+02
 21
-1.70706903E+02
  0
LINE
  8
0
  6
PHANTOM
 62
2
 10
-8.35649356E+01
 20
-1.64870477E+02
 11
-8.63200204E+01
 21
-1.67625562E+02
  0
LINE
  8
0
  6
PHANTOM
 62
2
 10
-8.63200197E+01
 20
-1.67625560E+02
 11
-1.03795188E+02
 21
-1.70706903E+02
  0
LINE
  8
0
  6
PHANTOM
 62
2
 10
-8.61463715E+01
 20
-1.68610367E+02
 11
-1.03447888E+02
 21
-1.71661092E+02
  0
LINE
  8
0
  6
PHANTOM
 62
2
 10
-7.78217574E+01
 20
-1.67883493E+02
 11
-8.62990346E+01
 21
-1.68625159E+02
  0
LINE
  8
0
  6
PHANTOM
 62
2
 10
-8.35557537E+01
 20
-1.64870476E+02
 11
-7.78217525E+01
 21
-1.64870476E+02
  0
LINE
  8
0
  6
PHANTOM
 62
2
 10
-6.54268551E+01
 20
-1.68370476E+02
 11
-7.78217525E+01
 21
-1.68370476E+02
  0
LINE
  8
0
  6
PHANTOM
 62
2
 10
-6.76207867E+01
 20
-1.64570477E+02
 11
-7.78217525E+01
 21
-1.64570477E+02
  0
LINE
  8
0
  6
PHANTOM
 62
2
 10
-6.42495518E+01
 20
-1.70409619E+02
 11
-6.90744000E+01
 21
-1.62052737E+02
  0
LINE
  8
0
  6
PHANTOM
 62
2
 10
-6.14831395E+01
 20
-1.70201186E+02
 11
-6.62953686E+01
 21
-1.61866161E+02
  0
LINE
  8
0
  6
PHANTOM
 62
2
 10
-7.78217525E+01
 20
-1.68370476E+02
 11
-7.78217525E+01
 21
-1.64570477E+02
  0
LINE
  8
0
  6
PHANTOM
 62
2
 10
-5.36217556E+01
 20
-1.64570477E+02
 11
-6.47340374E+01
 21
-1.64570477E+02
  0
LINE
  8
0
  6
PHANTOM
 62
2
 10
-5.36217556E+01
 20
-1.68370476E+02
 11
-6.25401058E+01
 21
-1.68370476E+02
  0
LINE
  8
0
  6
PHANTOM
 62
2
 10
-5.28217525E+01
 20
-1.62770473E+02
 11
-5.34217510E+01
 21
-1.62770473E+02
  0
LINE
  8
0
  6
PHANTOM
 62
2
 10
-4.49450406E+01
 20
-1.45570473E+02
 11
-4.54450408E+01
 21
-1.44570473E+02
  0
LINE
  8
0
  6
PHANTOM
 62
2
 10
-5.09450418E+01
 20
-1.44570475E+02
 11
-5.13299170E+01
 21
-1.45373215E+02
  0
LINE
  8
0
  6
PHANTOM
 62
2
 10
-5.38217525E+01
 20
-1.50570477E+02
 11
-5.38217525E+01
 21
-1.53570477E+02
  0
LINE
  8
0
  6
PHANTOM
 62
2
 10
-5.38217525E+01
 20
-1.53570477E+02
 11
-5.28217525E+01
 21
-1.53570477E+02
  0
LINE
  8
0
  6
PHANTOM
 62
2
 10
-5.36217556E+01
 20
-1.70170475E+02
 11
-5.36217556E+01
 21
-1.62970474E+02
  0
LINE
  8
0
  6
PHANTOM
 62
2
 10
-4.54450436E+01
 20
-1.44570477E+02
 11
-5.09450436E+01
 21
-1.44570477E+02
  0
LINE
  8
0
  6
PHANTOM
 62
2
 10
-5.28217525E+01
 20
-1.70370476E+02
 11
-5.34217510E+01
 21
-1.70370476E+02
  0
LINE
  8
0
 62
7
 10
-2.88217525E+01
 20
-1.02366051E+02
 11
-2.88217525E+01
 21
-1.13373215E+02
  0
LINE
  8
0
 62
6
 10
-4.38217525E+01
 20
-1.38974861E+02
 11
-4.38217525E+01
 21
-1.32284042E+02
  0
LINE
  8
0
 62
6
 10
-5.43117504E+01
 20
-1.26024864E+02
 11
-5.76217556E+01
 21
-1.26024864E+02
  0
LINE
  8
0
 62
6
 10
-5.39617519E+01
 20
-1.27324860E+02
 11
-5.76217556E+01
 21
-1.27324860E+02
  0
LINE
  8
0
 62
6
 10
-5.76217556E+01
 20
-1.26924858E+02
 11
-6.16217556E+01
 21
-1.26924858E+02
  0
LINE
  8
0
 62
6
 10
-5.76217556E+01
 20
-1.26424858E+02
 11
-6.16217556E+01
 21
-1.26424858E+02
  0
LINE
  8
0
 62
6
 10
-5.76217556E+01
 20
-1.26024864E+02
 11
-5.76217556E+01
 21
-1.27324860E+02
  0
LINE
  8
0
 62
6
 10
-6.16217556E+01
 20
-1.26424858E+02
 11
-6.16217556E+01
 21
-1.26924858E+02
  0
LINE
  8
0
 62
6
 10
-5.26717535E+01
 20
-1.28274856E+02
 11
-5.35317528E+01
 21
-1.25074859E+02
  0
LINE
  8
0
 62
6
 10
-5.37017544E+01
 20
-1.28274857E+02
 11
-5.45617537E+01
 21
-1.25074860E+02
  0
LINE
  8
0
 62
6
 10
-4.59217510E+01
 20
-1.30874863E+02
 11
-4.84217510E+01
 21
-1.30874863E+02
  0
LINE
  8
0
 62
6
 10
-4.92217541E+01
 20
-1.24674858E+02
 11
-4.84217510E+01
 21
-1.24674858E+02
  0
LINE
  8
0
 62
6
 10
-4.94217510E+01
 20
-1.28474861E+02
 11
-4.94217510E+01
 21
-1.27323212E+02
  0
LINE
  8
0
 62
6
 10
-4.92217541E+01
 20
-1.28674858E+02
 11
-4.84217510E+01
 21
-1.28674858E+02
  0
LINE
  8
0
 62
6
 10
-4.59217510E+01
 20
-1.30974861E+02
 11
-4.84217510E+01
 21
-1.30974861E+02
  0
LINE
  8
0
 62
6
 10
-4.38217494E+01
 20
-1.32284044E+02
 11
-4.84217539E+01
 21
-1.31472939E+02
  0
LINE
  8
0
 62
6
 10
-4.84217510E+01
 20
-1.31472939E+02
 11
-4.84217510E+01
 21
-1.30974861E+02
  0
LINE
  8
0
 62
6
 10
-4.78217525E+01
 20
-1.30874863E+02
 11
-4.78217525E+01
 21
-1.30974861E+02
  0
LINE
  8
0
  6
CENTER
 62
6
 10
-6.30382442E+01
 20
-1.26674858E+02
 11
-4.46050167E+01
 21
-1.26674858E+02
  0
LINE
  8
0
 62
6
 10
-4.03217525E+01
 20
-1.45374859E+02
 11
-4.03217525E+01
 21
-1.39592007E+02
  0
LINE
  8
0
 62
6
 10
-4.34217510E+01
 20
-1.37874859E+02
 11
-4.34217510E+01
 21
-1.35874859E+02
  0
LINE
  8
0
 62
6
 10
-4.29217510E+01
 20
-1.35374859E+02
 11
-4.28217525E+01
 21
-1.35374859E+02
  0
LINE
  8
0
 62
6
 10
-4.29217510E+01
 20
-1.38374859E+02
 11
-4.28217525E+01
 21
-1.38374859E+02
  0
LINE
  8
0
 62
6
 10
-4.38217525E+01
 20
-1.38474861E+02
 11
-4.28217525E+01
 21
-1.38474861E+02
  0
LINE
  8
0
 62
6
 10
-4.38217525E+01
 20
-1.35274860E+02
 11
-4.28217525E+01
 21
-1.35274860E+02
  0
LINE
  8
0
 62
6
 10
-4.28217525E+01
 20
-1.38474861E+02
 11
-4.28217525E+01
 21
-1.35274860E+02
  0
LINE
  8
0
 62
6
 10
-4.03217552E+01
 20
-1.39592004E+02
 11
-4.38217552E+01
 21
-1.38974860E+02
  0
LINE
  8
0
 62
6
 10
-3.96217556E+01
 20
-1.43874859E+02
 11
-3.96217556E+01
 21
-1.44674862E+02
  0
LINE
  8
0
 62
6
 10
-3.96217556E+01
 20
-1.43874859E+02
 11
-3.78217525E+01
 21
-1.43874859E+02
  0
LINE
  8
0
 62
6
 10
-3.96217556E+01
 20
-1.44674862E+02
 11
-3.78217525E+01
 21
-1.44674862E+02
  0
LINE
  8
0
 62
6
 10
-4.84217510E+01
 20
-8.48732147E+01
 11
-4.84217510E+01
 21
-8.84160538E+01
  0
LINE
  8
0
  6
CENTER
 62
6
 10
-6.30382442E+01
 20
-8.90732117E+01
 11
-4.46050167E+01
 21
-8.90732117E+01
  0
LINE
  8
0
 62
6
 10
-3.96217556E+01
 20
-7.10732117E+01
 11
-3.78217525E+01
 21
-7.10732117E+01
  0
LINE
  8
0
 62
6
 10
-3.96217556E+01
 20
-7.18732147E+01
 11
-3.78217525E+01
 21
-7.18732147E+01
  0
LINE
  8
0
 62
6
 10
-3.96217556E+01
 20
-7.18732147E+01
 11
-3.96217556E+01
 21
-7.10732117E+01
  0
LINE
  8
0
 62
6
 10
-4.03217525E+01
 20
-7.03732147E+01
 11
-4.03217525E+01
 21
-7.61560669E+01
  0
LINE
  8
0
 62
6
 10
-4.78217525E+01
 20
-8.48732147E+01
 11
-4.78217525E+01
 21
-8.47732162E+01
  0
LINE
  8
0
 62
6
 10
-4.84217510E+01
 20
-8.42751389E+01
 11
-4.84217510E+01
 21
-8.47732162E+01
  0
LINE
  8
0
 62
6
 10
-4.38217509E+01
 20
-8.34640378E+01
 11
-4.84217517E+01
 21
-8.42751420E+01
  0
LINE
  8
0
 62
6
 10
-4.59217510E+01
 20
-8.47732162E+01
 11
-4.84217510E+01
 21
-8.47732162E+01
  0
LINE
  8
0
 62
6
 10
-4.38217525E+01
 20
-7.67732162E+01
 11
-4.38217525E+01
 21
-8.34640350E+01
  0
LINE
  8
0
 62
6
 10
-4.92217541E+01
 20
-8.70732117E+01
 11
-4.84217510E+01
 21
-8.70732117E+01
  0
LINE
  8
0
 62
6
 10
-4.94217510E+01
 20
-8.72732162E+01
 11
-4.94217510E+01
 21
-8.84160538E+01
  0
LINE
  8
0
 62
6
 10
-4.92217541E+01
 20
-9.10732117E+01
 11
-4.84217510E+01
 21
-9.10732117E+01
  0
LINE
  8
0
 62
6
 10
-4.59217510E+01
 20
-8.48732147E+01
 11
-4.84217510E+01
 21
-8.48732147E+01
  0
LINE
  8
0
 62
6
 10
-4.28217525E+01
 20
-7.72732162E+01
 11
-4.28217525E+01
 21
-8.04732132E+01
  0
LINE
  8
0
 62
6
 10
-4.38217525E+01
 20
-8.04732132E+01
 11
-4.28217525E+01
 21
-8.04732132E+01
  0
LINE
  8
0
 62
6
 10
-4.38217525E+01
 20
-7.72732162E+01
 11
-4.28217525E+01
 21
-7.72732162E+01
  0
LINE
  8
0
 62
6
 10
-4.29217510E+01
 20
-7.73732147E+01
 11
-4.28217525E+01
 21
-7.73732147E+01
  0
LINE
  8
0
 62
6
 10
-4.29217510E+01
 20
-8.03732147E+01
 11
-4.28217525E+01
 21
-8.03732147E+01
  0
LINE
  8
0
 62
6
 10
-4.34217510E+01
 20
-7.78732147E+01
 11
-4.34217510E+01
 21
-7.98732147E+01
  0
LINE
  8
0
 62
6
 10
-5.37017532E+01
 20
-9.06732136E+01
 11
-5.45617525E+01
 21
-8.74732163E+01
  0
LINE
  8
0
 62
6
 10
-5.26717523E+01
 20
-9.06732130E+01
 11
-5.35317536E+01
 21
-8.74732083E+01
  0
LINE
  8
0
 62
6
 10
-6.16217556E+01
 20
-8.93232117E+01
 11
-6.16217556E+01
 21
-8.88232117E+01
  0
LINE
  8
0
 62
6
 10
-5.76217556E+01
 20
-8.84232178E+01
 11
-5.76217556E+01
 21
-8.97232132E+01
  0
LINE
  8
0
 62
6
 10
-5.76217556E+01
 20
-8.88232117E+01
 11
-6.16217556E+01
 21
-8.88232117E+01
  0
LINE
  8
0
 62
6
 10
-5.76217556E+01
 20
-8.93232117E+01
 11
-6.16217556E+01
 21
-8.93232117E+01
  0
LINE
  8
0
 62
6
 10
-4.69217510E+01
 20
-8.97232132E+01
 11
-5.29270687E+01
 21
-8.97232132E+01
  0
LINE
  8
0
 62
6
 10
-4.69217510E+01
 20
-8.84232178E+01
 11
-5.32764416E+01
 21
-8.84232178E+01
  0
LINE
  8
0
 62
6
 10
-4.03217536E+01
 20
-7.61560730E+01
 11
-4.38217536E+01
 21
-7.67732174E+01
  0
LINE
  8
0
 62
6
 10
-3.78217525E+01
 20
-7.03732147E+01
 11
-4.03217525E+01
 21
-7.03732147E+01
  0
LINE
  8
0
 62
6
 10
-4.59217510E+01
 20
-1.02373215E+02
 11
-4.84217510E+01
 21
-1.02373215E+02
  0
LINE
  8
0
 62
6
 10
-1.63217525E+01
 20
-1.65370476E+02
 11
-8.22175407E+00
 21
-1.65370476E+02
  0
LINE
  8
0
 62
6
 10
-1.63217525E+01
 20
-1.45370476E+02
 11
-1.63217525E+01
 21
-1.65370476E+02
  0
LINE
  8
0
  6
PHANTOM
 62
2
 10
-5.92942638E+01
 20
-1.50121845E+02
 11
-6.35223064E+01
 21
-1.50121845E+02
  0
LINE
  8
0
  6
PHANTOM
 62
2
 10
-6.03692608E+01
 20
-1.46121845E+02
 11
-6.35223064E+01
 21
-1.46121845E+02
  0
LINE
  8
0
 62
7
 10
-1.32175255E+00
 20
-5.86682129E+01
 11
2.67824554E+00
 21
-5.86682129E+01
  0
LINE
  8
0
 62
7
 10
2.67824554E+00
 20
-6.36682129E+01
 11
-1.32175255E+00
 21
-6.36682129E+01
  0
LINE
  8
0
 62
7
 10
-2.32175255E+00
 20
-6.63732147E+01
 11
3.67824554E+00
 21
-6.63732147E+01
  0
LINE
  8
0
 62
7
 10
-2.82175255E+00
 20
-6.88732147E+01
 11
-2.82175255E+00
 21
-6.68732147E+01
  0
LINE
  8
0
 62
7
 10
-5.71754456E-01
 20
-6.36682129E+01
 11
-5.71754456E-01
 21
-6.63732147E+01
  0
LINE
  8
0
 62
7
 10
-2.82175522E+00
 20
-6.68732164E+01
 11
-2.32175469E+00
 21
-6.63732159E+01
  0
LINE
  8
0
 62
7
 10
-1.82175416E+00
 20
-6.31682213E+01
 11
-1.32175362E+00
 21
-6.36682218E+01
  0
LINE
  8
0
 62
7
 10
-1.82175416E+00
 20
-5.91682170E+01
 11
-1.32175362E+00
 21
-5.86682165E+01
  0
LINE
  8
0
 62
7
 10
-1.82175255E+00
 20
-5.91682129E+01
 11
-1.82175255E+00
 21
-6.31682129E+01
  0
LINE
  8
0
 62
7
 10
4.17824682E+00
 20
-6.88732132E+01
 11
3.67824629E+00
 21
-6.93732137E+01
  0
LINE
  8
0
 62
7
 10
4.17824682E+00
 20
-6.68732218E+01
 11
3.67824629E+00
 21
-6.63732213E+01
  0
LINE
  8
0
 62
7
 10
3.17825115E+00
 20
-5.91682170E+01
 11
2.67825062E+00
 21
-5.86682165E+01
  0
LINE
  8
0
 62
7
 10
2.67824523E+00
 20
-6.36682164E+01
 11
3.17824576E+00
 21
-6.31682159E+01
  0
LINE
  8
0
 62
7
 10
3.17824554E+00
 20
-5.91682129E+01
 11
3.17824554E+00
 21
-6.31682129E+01
  0
LINE
  8
0
 62
7
 10
4.17824554E+00
 20
-6.88732147E+01
 11
4.17824554E+00
 21
-6.68732147E+01
  0
LINE
  8
0
 62
7
 10
1.92824554E+00
 20
-6.36682129E+01
 11
1.92824554E+00
 21
-6.63732147E+01
  0
LINE
  8
0
 62
7
 10
-2.82175522E+00
 20
-6.88732186E+01
 11
-2.32175469E+00
 21
-6.93732191E+01
  0
LINE
  8
0
 62
7
 10
4.37824631E+00
 20
-6.93732147E+01
 11
-3.02175331E+00
 21
-6.93732147E+01
  0
LINE
  8
0
 62
7
 10
-3.32175255E+00
 20
-7.03732147E+01
 11
-3.32175255E+00
 21
-6.96732178E+01
  0
LINE
  8
0
 62
7
 10
4.67824554E+00
 20
-7.03732147E+01
 11
4.67824554E+00
 21
-6.96732178E+01
  0
LINE
  8
0
 62
7
 10
4.67824735E+00
 20
-6.96732183E+01
 11
4.37824811E+00
 21
-6.93732191E+01
  0
LINE
  8
0
 62
7
 10
-3.02175111E+00
 20
-6.93732191E+01
 11
-3.32175035E+00
 21
-6.96732183E+01
  0
LINE
  8
0
 62
7
 10
4.67824554E+00
 20
-6.96732178E+01
 11
-3.32175255E+00
 21
-6.96732178E+01
  0
LINE
  8
0
  6
CENTER
 62
2
 10
6.78245544E-01
 20
-5.48869324E+01
 11
6.78245544E-01
 21
-7.18507614E+01
  0
LINE
  8
0
  6
PHANTOM
 62
2
 10
-5.01286068E+01
 20
-1.48121845E+02
 11
-6.99828930E+01
 21
-1.48121845E+02
  0
LINE
  8
0
  6
PHANTOM
 62
2
 10
-6.62768197E+01
 20
-1.49821845E+02
 11
-6.64127661E+01
 21
-1.49621846E+02
  0
LINE
  8
0
  6
PHANTOM
 62
2
 10
-6.54028759E+01
 20
-1.49821846E+02
 11
-6.62768230E+01
 21
-1.49821846E+02
  0
LINE
  8
0
  6
PHANTOM
 62
2
 10
-6.54028759E+01
 20
-1.49621845E+02
 11
-6.64127712E+01
 21
-1.49621845E+02
  0
LINE
  8
0
  6
PHANTOM
 62
2
 10
-6.62768177E+01
 20
-1.48821847E+02
 11
-6.64127641E+01
 21
-1.48621847E+02
  0
LINE
  8
0
  6
PHANTOM
 62
2
 10
-6.54028759E+01
 20
-1.48821846E+02
 11
-6.62768230E+01
 21
-1.48821846E+02
  0
LINE
  8
0
  6
PHANTOM
 62
2
 10
-6.54028759E+01
 20
-1.48621845E+02
 11
-6.64127712E+01
 21
-1.48621845E+02
  0
LINE
  8
0
  6
PHANTOM
 62
2
 10
-6.62768231E+01
 20
-1.47821844E+02
 11
-6.64127696E+01
 21
-1.47621845E+02
  0
LINE
  8
0
  6
PHANTOM
 62
2
 10
-6.54028759E+01
 20
-1.47821846E+02
 11
-6.62768230E+01
 21
-1.47821846E+02
  0
LINE
  8
0
  6
PHANTOM
 62
2
 10
-6.54028759E+01
 20
-1.47621845E+02
 11
-6.64127712E+01
 21
-1.47621845E+02
  0
LINE
  8
0
  6
PHANTOM
 62
2
 10
-6.62768211E+01
 20
-1.46821846E+02
 11
-6.64127676E+01
 21
-1.46621846E+02
  0
LINE
  8
0
  6
PHANTOM
 62
2
 10
-6.54028759E+01
 20
-1.46821846E+02
 11
-6.62768230E+01
 21
-1.46821846E+02
  0
LINE
  8
0
  6
PHANTOM
 62
2
 10
-6.54028759E+01
 20
-1.46621845E+02
 11
-6.64127712E+01
 21
-1.46621845E+02
  0
LINE
  8
0
  6
PHANTOM
 62
2
 10
-6.54028759E+01
 20
-1.49471844E+02
 11
-6.54028759E+01
 21
-1.49971844E+02
  0
LINE
  8
0
  6
PHANTOM
 62
2
 10
-6.54028759E+01
 20
-1.48471844E+02
 11
-6.54028759E+01
 21
-1.48971844E+02
  0
LINE
  8
0
  6
PHANTOM
 62
2
 10
-6.54028759E+01
 20
-1.47471844E+02
 11
-6.54028759E+01
 21
-1.47971844E+02
  0
LINE
  8
0
  6
PHANTOM
 62
2
 10
-6.54028759E+01
 20
-1.46471844E+02
 11
-6.54028759E+01
 21
-1.46971844E+02
  0
LINE
  8
0
  6
PHANTOM
 62
2
 10
-6.35223064E+01
 20
-1.49971844E+02
 11
-6.54028759E+01
 21
-1.49971844E+02
  0
LINE
  8
0
  6
PHANTOM
 62
2
 10
-6.35223064E+01
 20
-1.49471844E+02
 11
-6.54028759E+01
 21
-1.49471844E+02
  0
LINE
  8
0
  6
PHANTOM
 62
2
 10
-6.35223064E+01
 20
-1.48971844E+02
 11
-6.54028759E+01
 21
-1.48971844E+02
  0
LINE
  8
0
  6
PHANTOM
 62
2
 10
-6.35223064E+01
 20
-1.48471844E+02
 11
-6.54028759E+01
 21
-1.48471844E+02
  0
LINE
  8
0
  6
PHANTOM
 62
2
 10
-6.35223064E+01
 20
-1.47971844E+02
 11
-6.54028759E+01
 21
-1.47971844E+02
  0
LINE
  8
0
  6
PHANTOM
 62
2
 10
-6.35223064E+01
 20
-1.47471844E+02
 11
-6.54028759E+01
 21
-1.47471844E+02
  0
LINE
  8
0
  6
PHANTOM
 62
2
 10
-6.35223064E+01
 20
-1.46971844E+02
 11
-6.54028759E+01
 21
-1.46971844E+02
  0
LINE
  8
0
  6
PHANTOM
 62
2
 10
-6.35223064E+01
 20
-1.46471844E+02
 11
-6.54028759E+01
 21
-1.46471844E+02
  0
LINE
  8
0
  6
PHANTOM
 62
2
 10
-6.07327157E+01
 20
-1.44769479E+02
 11
-5.87505153E+01
 21
-1.52145108E+02
  0
LINE
  8
0
  6
PHANTOM
 62
2
 10
-5.97027148E+01
 20
-1.44769478E+02
 11
-5.77205144E+01
 21
-1.52145108E+02
  0
LINE
  8
0
  6
PHANTOM
 62
2
 10
-6.35223064E+01
 20
-1.46121845E+02
 11
-6.35223064E+01
 21
-1.50121845E+02
  0
LINE
  8
0
  6
PHANTOM
 62
2
 10
-5.37223110E+01
 20
-1.50121845E+02
 11
-5.82642651E+01
 21
-1.50121845E+02
  0
LINE
  8
0
  6
PHANTOM
 62
2
 10
-5.37223110E+01
 20
-1.46121845E+02
 11
-5.93392620E+01
 21
-1.46121845E+02
  0
LINE
  8
0
  6
PHANTOM
 62
2
 10
-5.37223110E+01
 20
-1.45721844E+02
 11
-5.37223110E+01
 21
-1.50521843E+02
  0
LINE
  8
0
  6
PHANTOM
 62
2
 10
-5.37223110E+01
 20
-1.50521843E+02
 11
-5.28217525E+01
 21
-1.50521843E+02
  0
LINE
  8
0
  6
PHANTOM
 62
2
 10
-5.37223110E+01
 20
-1.45721844E+02
 11
-5.28217525E+01
 21
-1.45721844E+02
  0
LINE
  8
0
  6
PHANTOM
 62
2
 10
-5.28217525E+01
 20
-1.45373215E+02
 11
-5.28217525E+01
 21
-1.65370476E+02
  0
LINE
  8
0
 62
7
 10
-5.31217509E+01
 20
-1.86320477E+02
 11
-5.28217517E+01
 21
-1.86020478E+02
  0
LINE
  8
0
 62
7
 10
-5.31217509E+01
 20
-1.76420475E+02
 11
-5.28217517E+01
 21
-1.76720474E+02
  0
LINE
  8
0
 62
7
 10
-6.08217525E+01
 20
-1.77920475E+02
 11
-6.08217525E+01
 21
-1.84820475E+02
  0
LINE
  8
0
 62
7
 10
-5.31217556E+01
 20
-1.86320475E+02
 11
-5.93217525E+01
 21
-1.86320475E+02
  0
LINE
  8
0
 62
7
 10
-5.31217556E+01
 20
-1.76420475E+02
 11
-5.93217525E+01
 21
-1.76420475E+02
  0
LINE
  8
0
 62
7
 10
-5.28217525E+01
 20
-1.65370476E+02
 11
-8.22175407E+00
 21
-1.65370476E+02
  0
LINE
  8
0
 62
7
 10
-5.28217525E+01
 20
-1.88370475E+02
 11
-8.22175407E+00
 21
-1.88370475E+02
  0
LINE
  8
0
 62
7
 10
-5.28217525E+01
 20
-1.65370476E+02
 11
-5.28217525E+01
 21
-1.88370475E+02
  0
LINE
  8
0
  6
PHANTOM
 62
2
 10
-3.78217525E+01
 20
-1.45373215E+02
 11
-5.28217525E+01
 21
-1.45373215E+02
  0
LINE
  8
0
 62
6
 10
-2.63217525E+01
 20
-7.03634949E+01
 11
-3.78217525E+01
 21
-7.03634949E+01
  0
LINE
  8
0
 62
7
 10
-2.63217525E+01
 20
-1.31868355E+02
 11
-8.22175407E+00
 21
-1.31868355E+02
  0
LINE
  8
0
 62
7
 10
-2.63217525E+01
 20
-7.03660507E+01
 11
-2.63217525E+01
 21
-1.45373215E+02
  0
LINE
  8
0
 62
7
 10
-7.82175255E+00
 20
-7.03660507E+01
 11
-2.63217525E+01
 21
-7.03660507E+01
  0
LINE
  8
0
 62
7
 10
-8.22175407E+00
 20
-1.45373215E+02
 11
-2.63217525E+01
 21
-1.45373215E+02
  0
LINE
  8
0
 62
6
 10
-4.69217510E+01
 20
-1.26023216E+02
 11
-5.32768841E+01
 21
-1.26023216E+02
  0
LINE
  8
0
 62
6
 10
-4.69217510E+01
 20
-1.27323212E+02
 11
-5.29275112E+01
 21
-1.27323212E+02
  0
LINE
  8
0
 62
6
 10
-3.78217525E+01
 20
-1.45373215E+02
 11
-3.78217525E+01
 21
-1.39590359E+02
  0
LINE
  8
0
 62
6
 10
-3.78217503E+01
 20
-1.39590359E+02
 11
-4.13217503E+01
 21
-1.38973215E+02
  0
LINE
  8
0
 62
6
 10
-4.00217571E+01
 20
-1.14873215E+02
 11
-2.75217533E+01
 21
-1.14873215E+02
  0
LINE
  8
0
 62
6
 10
-4.53217525E+01
 20
-1.30873215E+02
 11
-4.53217525E+01
 21
-1.30973213E+02
  0
LINE
  8
0
 62
6
 10
-4.59217510E+01
 20
-1.31471291E+02
 11
-4.59217510E+01
 21
-1.30973213E+02
  0
LINE
  8
0
 62
6
 10
-4.13217520E+01
 20
-1.32282397E+02
 11
-4.59217490E+01
 21
-1.31471294E+02
  0
LINE
  8
0
 62
6
 10
-4.00217571E+01
 20
-1.30973213E+02
 11
-4.59217510E+01
 21
-1.30973213E+02
  0
LINE
  8
0
 62
6
 10
-4.13217525E+01
 20
-1.38973213E+02
 11
-4.13217525E+01
 21
-1.32282394E+02
  0
LINE
  8
0
 62
6
 10
-4.67217541E+01
 20
-1.28673218E+02
 11
-4.59217510E+01
 21
-1.28673218E+02
  0
LINE
  8
0
 62
6
 10
-4.69217510E+01
 20
-1.28473213E+02
 11
-4.69217510E+01
 21
-1.24873215E+02
  0
LINE
  8
0
 62
6
 10
-4.67217541E+01
 20
-1.24673218E+02
 11
-4.59217510E+01
 21
-1.24673218E+02
  0
LINE
  8
0
 62
6
 10
-4.00217571E+01
 20
-1.30873215E+02
 11
-4.59217510E+01
 21
-1.30873215E+02
  0
LINE
  8
0
 62
6
 10
-2.75217533E+01
 20
-1.13373215E+02
 11
-2.75217533E+01
 21
-1.14873215E+02
  0
LINE
  8
0
 62
6
 10
-4.59217510E+01
 20
-1.30873215E+02
 11
-4.59217510E+01
 21
-1.13373215E+02
  0
LINE
  8
0
 62
6
 10
-4.00217571E+01
 20
-1.14873215E+02
 11
-4.00217571E+01
 21
-1.30973213E+02
  0
LINE
  8
0
 62
6
 10
-2.63217525E+01
 20
-1.13373215E+02
 11
-4.59217510E+01
 21
-1.13373215E+02
  0
LINE
  8
0
 62
6
 10
-4.03217525E+01
 20
-1.38473213E+02
 11
-4.03217525E+01
 21
-1.35273216E+02
  0
LINE
  8
0
 62
6
 10
-4.13217525E+01
 20
-1.35273216E+02
 11
-4.03217525E+01
 21
-1.35273216E+02
  0
LINE
  8
0
 62
6
 10
-4.13217525E+01
 20
-1.38473213E+02
 11
-4.03217525E+01
 21
-1.38473213E+02
  0
LINE
  8
0
 62
6
 10
-4.04217510E+01
 20
-1.38373215E+02
 11
-4.03217525E+01
 21
-1.38373215E+02
  0
LINE
  8
0
 62
6
 10
-4.04217510E+01
 20
-1.35373215E+02
 11
-4.03217525E+01
 21
-1.35373215E+02
  0
LINE
  8
0
 62
6
 10
-4.09217510E+01
 20
-1.37873215E+02
 11
-4.09217510E+01
 21
-1.35873215E+02
  0
LINE
  8
0
 62
6
 10
-3.71217556E+01
 20
-1.44673214E+02
 11
-2.95217533E+01
 21
-1.44673214E+02
  0
LINE
  8
0
 62
6
 10
-3.71217556E+01
 20
-1.43873215E+02
 11
-2.95217533E+01
 21
-1.43873215E+02
  0
LINE
  8
0
 62
6
 10
-3.71217556E+01
 20
-1.43873215E+02
 11
-3.71217556E+01
 21
-1.44673214E+02
  0
LINE
  8
0
 62
6
 10
-2.95217533E+01
 20
-1.44673214E+02
 11
-2.95217533E+01
 21
-1.43873215E+02
  0
LINE
  8
0
 62
6
 10
-2.63217525E+01
 20
-1.45373215E+02
 11
-3.78217525E+01
 21
-1.45373215E+02
  0
LINE
  8
0
 62
6
 10
-3.78217530E+01
 20
-7.61489065E+01
 11
-4.13217530E+01
 21
-7.67660510E+01
  0
LINE
  8
0
 62
6
 10
-4.00217571E+01
 20
-1.00866051E+02
 11
-2.75217533E+01
 21
-1.00866051E+02
  0
LINE
  8
0
 62
6
 10
-4.09217510E+01
 20
-7.78660507E+01
 11
-4.09217510E+01
 21
-7.98660507E+01
  0
LINE
  8
0
 62
6
 10
-4.04217510E+01
 20
-8.03660507E+01
 11
-4.03217525E+01
 21
-8.03660507E+01
  0
LINE
  8
0
 62
6
 10
-4.04217510E+01
 20
-7.73660507E+01
 11
-4.03217525E+01
 21
-7.73660507E+01
  0
LINE
  8
0
 62
6
 10
-4.13217525E+01
 20
-7.72660522E+01
 11
-4.03217525E+01
 21
-7.72660522E+01
  0
LINE
  8
0
 62
6
 10
-4.13217525E+01
 20
-8.04660492E+01
 11
-4.03217525E+01
 21
-8.04660492E+01
  0
LINE
  8
0
 62
6
 10
-4.03217525E+01
 20
-7.72660522E+01
 11
-4.03217525E+01
 21
-8.04660492E+01
  0
LINE
  8
0
 62
6
 10
-4.00217571E+01
 20
-1.00866051E+02
 11
-4.00217571E+01
 21
-8.47660522E+01
  0
LINE
  8
0
 62
6
 10
-4.59217510E+01
 20
-8.48660507E+01
 11
-4.59217510E+01
 21
-1.02366051E+02
  0
LINE
  8
0
 62
6
 10
-4.00217571E+01
 20
-8.48660507E+01
 11
-4.59217510E+01
 21
-8.48660507E+01
  0
LINE
  8
0
 62
6
 10
-4.67217541E+01
 20
-9.10660477E+01
 11
-4.59217510E+01
 21
-9.10660477E+01
  0
LINE
  8
0
 62
6
 10
-4.69217510E+01
 20
-8.72660522E+01
 11
-4.69217510E+01
 21
-9.08660507E+01
  0
LINE
  8
0
 62
6
 10
-4.67217541E+01
 20
-8.70660477E+01
 11
-4.59217510E+01
 21
-8.70660477E+01
  0
LINE
  8
0
 62
6
 10
-4.13217525E+01
 20
-7.67660522E+01
 11
-4.13217525E+01
 21
-8.34568710E+01
  0
LINE
  8
0
 62
6
 10
-4.00217571E+01
 20
-8.47660522E+01
 11
-4.59217510E+01
 21
-8.47660522E+01
  0
LINE
  8
0
 62
6
 10
-4.13217541E+01
 20
-8.34568720E+01
 11
-4.59217511E+01
 21
-8.42679756E+01
  0
LINE
  8
0
 62
6
 10
-4.59217510E+01
 20
-8.42679749E+01
 11
-4.59217510E+01
 21
-8.47660522E+01
  0
LINE
  8
0
 62
6
 10
-4.53217525E+01
 20
-8.48660507E+01
 11
-4.53217525E+01
 21
-8.47660522E+01
  0
LINE
  8
0
 62
6
 10
-3.78217525E+01
 20
-7.03660507E+01
 11
-3.78217525E+01
 21
-7.61489029E+01
  0
LINE
  8
0
 62
6
 10
-2.95217533E+01
 20
-7.10660477E+01
 11
-2.95217533E+01
 21
-7.18660507E+01
  0
LINE
  8
0
 62
6
 10
-3.71217556E+01
 20
-7.18660507E+01
 11
-3.71217556E+01
 21
-7.10660477E+01
  0
LINE
  8
0
 62
6
 10
-3.71217556E+01
 20
-7.18660507E+01
 11
-2.95217533E+01
 21
-7.18660507E+01
  0
LINE
  8
0
 62
6
 10
-3.71217556E+01
 20
-7.10660477E+01
 11
-2.95217533E+01
 21
-7.10660477E+01
  0
LINE
  8
0
 62
6
 10
-2.63217525E+01
 20
-1.02366051E+02
 11
-4.59217510E+01
 21
-1.02366051E+02
  0
LINE
  8
0
 62
6
 10
-2.75217533E+01
 20
-1.02366051E+02
 11
-2.75217533E+01
 21
-1.00866051E+02
  0
LINE
  8
0
 62
7
 10
-2.63217525E+01
 20
-9.92655258E+01
 11
-2.53217525E+01
 21
-9.92655258E+01
  0
LINE
  8
0
 62
7
 10
-2.63217525E+01
 20
-1.02465530E+02
 11
-2.53217525E+01
 21
-1.02465530E+02
  0
LINE
  8
0
 62
7
 10
-2.53217525E+01
 20
-9.92655258E+01
 11
-2.53217525E+01
 21
-1.02465530E+02
  0
LINE
  8
0
 62
7
 10
-2.63217525E+01
 20
-7.96720200E+01
 11
-1.96217556E+01
 21
-7.96720200E+01
  0
LINE
  8
0
 62
7
 10
-2.63217525E+01
 20
-7.80720215E+01
 11
-1.96217556E+01
 21
-7.80720215E+01
  0
LINE
  8
0
  6
CENTER
 62
2
 10
-1.96217556E+01
 20
-6.89792938E+01
 11
-1.96217556E+01
 21
-7.30575027E+01
  0
LINE
  8
0
 62
7
 10
-1.80217533E+01
 20
-7.03657150E+01
 11
-1.80217533E+01
 21
-7.13657150E+01
  0
LINE
  8
0
 62
7
 10
-2.12217541E+01
 20
-7.03657150E+01
 11
-2.12217541E+01
 21
-7.13657150E+01
  0
LINE
  8
0
 62
7
 10
-2.11217556E+01
 20
-7.08657150E+01
 11
-2.11217556E+01
 21
-7.13657150E+01
  0
LINE
  8
0
 62
7
 10
-1.81217556E+01
 20
-7.08657150E+01
 11
-1.81217556E+01
 21
-7.13657150E+01
  0
LINE
  8
0
 62
7
 10
-1.80217533E+01
 20
-7.13657150E+01
 11
-2.12217541E+01
 21
-7.13657150E+01
  0
LINE
  8
0
 62
7
 10
-1.96217556E+01
 20
-7.80720215E+01
 11
-1.96217556E+01
 21
-7.96720200E+01
  0
LINE
  8
0
 62
7
 10
-2.63217525E+01
 20
-1.37665668E+02
 11
-1.96217556E+01
 21
-1.37665668E+02
  0
LINE
  8
0
 62
7
 10
-2.63217525E+01
 20
-1.36065670E+02
 11
-1.96217556E+01
 21
-1.36065670E+02
  0
LINE
  8
0
 62
7
 10
-1.23217525E+01
 20
-1.45371975E+02
 11
-1.23217525E+01
 21
-1.44371975E+02
  0
LINE
  8
0
  6
CENTER
 62
2
 10
-1.07217541E+01
 20
-1.46758400E+02
 11
-1.07217541E+01
 21
-1.42680195E+02
  0
LINE
  8
0
 62
7
 10
-9.12175560E+00
 20
-1.44371975E+02
 11
-1.23217525E+01
 21
-1.44371975E+02
  0
LINE
  8
0
 62
7
 10
-1.22217541E+01
 20
-1.44871975E+02
 11
-1.22217541E+01
 21
-1.44371975E+02
  0
LINE
  8
0
 62
7
 10
-1.96217556E+01
 20
-1.37665668E+02
 11
-1.96217556E+01
 21
-1.36065670E+02
  0
LINE
  8
0
 62
7
 10
-9.12175560E+00
 20
-1.45371975E+02
 11
-9.12175560E+00
 21
-1.44371975E+02
  0
LINE
  8
0
 62
7
 10
-9.22175407E+00
 20
-1.44871975E+02
 11
-9.22175407E+00
 21
-1.44371975E+02
  0
LINE
  8
0
 62
7
 10
-2.58217525E+01
 20
-9.93655243E+01
 11
-2.53217525E+01
 21
-9.93655243E+01
  0
LINE
  8
0
 62
7
 10
-2.58217525E+01
 20
-1.02365524E+02
 11
-2.53217525E+01
 21
-1.02365524E+02
  0
LINE
  8
0
 62
7
 10
-1.13217525E+01
 20
-6.08759613E+01
 11
-1.13217525E+01
 21
-6.13759613E+01
  0
LINE
  8
0
 62
7
 10
-8.32175255E+00
 20
-6.08759613E+01
 11
-8.32175255E+00
 21
-6.13759613E+01
  0
LINE
  8
0
  6
CENTER
 62
2
 10
-9.82175255E+00
 20
-5.89282227E+01
 11
-9.82175255E+00
 21
-6.35016327E+01
  0
LINE
  8
0
 62
7
 10
-1.14217548E+01
 20
-6.13759613E+01
 11
-7.82175255E+00
 21
-6.13759613E+01
  0
LINE
  8
0
 62
7
 10
-1.14217548E+01
 20
-6.03759613E+01
 11
-1.14217548E+01
 21
-6.13759613E+01
  0
LINE
  8
0
 62
7
 10
-2.88217525E+01
 20
-6.03759613E+01
 11
-2.88217525E+01
 21
-7.03660507E+01
  0
LINE
  8
0
 62
6
 10
-4.84217510E+01
 20
-1.30875954E+02
 11
-4.84217510E+01
 21
-1.13375954E+02
  0
LINE
  8
0
 62
6
 10
-4.25217571E+01
 20
-7.65439911E+01
 11
-4.25217571E+01
 21
-7.47759552E+01
  0
LINE
  8
0
 62
6
 10
-4.84217510E+01
 20
-7.48759537E+01
 11
-4.84217510E+01
 21
-8.42751389E+01
  0
LINE
  8
0
  6
CENTER
 62
6
 10
-6.30382442E+01
 20
-7.90759583E+01
 11
-4.73097515E+01
 21
-7.90759583E+01
  0
LINE
  8
0
 62
6
 10
-3.96217556E+01
 20
-6.10759583E+01
 11
-3.20217533E+01
 21
-6.10759583E+01
  0
LINE
  8
0
 62
6
 10
-3.96217556E+01
 20
-6.18759613E+01
 11
-3.20217533E+01
 21
-6.18759613E+01
  0
LINE
  8
0
 62
6
 10
-3.96217556E+01
 20
-6.18759613E+01
 11
-3.96217556E+01
 21
-6.10759583E+01
  0
LINE
  8
0
 62
6
 10
-3.20217533E+01
 20
-6.10759583E+01
 11
-3.20217533E+01
 21
-6.18759613E+01
  0
LINE
  8
0
 62
6
 10
-4.03217525E+01
 20
-6.03759613E+01
 11
-4.03217525E+01
 21
-6.61588135E+01
  0
LINE
  8
0
 62
6
 10
-4.94217510E+01
 20
-7.84259567E+01
 11
-5.32717571E+01
 21
-7.84259567E+01
  0
LINE
  8
0
 62
6
 10
-4.94217510E+01
 20
-7.97259521E+01
 11
-5.29217510E+01
 21
-7.97259521E+01
  0
LINE
  8
0
 62
6
 10
-4.78217525E+01
 20
-7.48759537E+01
 11
-4.78217525E+01
 21
-7.47759552E+01
  0
LINE
  8
0
 62
6
 10
-4.84217510E+01
 20
-7.42778778E+01
 11
-4.84217510E+01
 21
-7.47759552E+01
  0
LINE
  8
0
 62
6
 10
-4.38217537E+01
 20
-7.34667749E+01
 11
-4.84217544E+01
 21
-7.42778791E+01
  0
LINE
  8
0
 62
6
 10
-4.25217571E+01
 20
-7.47759552E+01
 11
-4.84217510E+01
 21
-7.47759552E+01
  0
LINE
  8
0
 62
6
 10
-4.38217525E+01
 20
-6.67759552E+01
 11
-4.38217525E+01
 21
-7.34667740E+01
  0
LINE
  8
0
 62
6
 10
-4.92217541E+01
 20
-7.70759583E+01
 11
-4.84217510E+01
 21
-7.70759583E+01
  0
LINE
  8
0
 62
6
 10
-4.94217510E+01
 20
-7.72759552E+01
 11
-4.94217510E+01
 21
-8.08759537E+01
  0
LINE
  8
0
 62
6
 10
-4.92217541E+01
 20
-8.10759583E+01
 11
-4.84217510E+01
 21
-8.10759583E+01
  0
LINE
  8
0
 62
6
 10
-4.25217571E+01
 20
-7.48759537E+01
 11
-4.84217510E+01
 21
-7.48759537E+01
  0
LINE
  8
0
 62
6
 10
-4.28217525E+01
 20
-6.72759552E+01
 11
-4.28217525E+01
 21
-7.04759521E+01
  0
LINE
  8
0
 62
6
 10
-4.38217525E+01
 20
-7.04759521E+01
 11
-4.28217525E+01
 21
-7.04759521E+01
  0
LINE
  8
0
 62
6
 10
-4.38217525E+01
 20
-6.72759552E+01
 11
-4.28217525E+01
 21
-6.72759552E+01
  0
LINE
  8
0
 62
6
 10
-4.29217510E+01
 20
-6.73759613E+01
 11
-4.28217525E+01
 21
-6.73759613E+01
  0
LINE
  8
0
 62
6
 10
-4.29217510E+01
 20
-7.03759537E+01
 11
-4.28217525E+01
 21
-7.03759537E+01
  0
LINE
  8
0
 62
6
 10
-4.34217510E+01
 20
-6.78759613E+01
 11
-4.34217510E+01
 21
-6.98759537E+01
  0
LINE
  8
0
 62
6
 10
-5.37017537E+01
 20
-8.06759593E+01
 11
-5.45617549E+01
 21
-7.74759546E+01
  0
LINE
  8
0
 62
6
 10
-5.26717548E+01
 20
-8.06759513E+01
 11
-5.35317521E+01
 21
-7.74759613E+01
  0
LINE
  8
0
 62
6
 10
-6.16217556E+01
 20
-7.93259583E+01
 11
-6.16217556E+01
 21
-7.88259583E+01
  0
LINE
  8
0
 62
6
 10
-5.76217556E+01
 20
-7.84259567E+01
 11
-5.76217556E+01
 21
-7.97259521E+01
  0
LINE
  8
0
 62
6
 10
-5.76217556E+01
 20
-7.88259583E+01
 11
-6.16217556E+01
 21
-7.88259583E+01
  0
LINE
  8
0
 62
6
 10
-5.76217556E+01
 20
-7.93259583E+01
 11
-6.16217556E+01
 21
-7.93259583E+01
  0
LINE
  8
0
 62
6
 10
-5.39617519E+01
 20
-7.97259521E+01
 11
-5.76217556E+01
 21
-7.97259521E+01
  0
LINE
  8
0
 62
6
 10
-5.43117504E+01
 20
-7.84259567E+01
 11
-5.76217556E+01
 21
-7.84259567E+01
  0
LINE
  8
0
 62
6
 10
-4.03217526E+01
 20
-6.61588094E+01
 11
-4.38217526E+01
 21
-6.67759539E+01
  0
LINE
  8
0
 62
6
 10
-4.03217525E+01
 20
-6.03759613E+01
 11
-2.88217525E+01
 21
-6.03759613E+01
  0
LINE
  8
0
 62
7
 10
-2.32175255E+00
 20
-4.86709595E+01
 11
1.67824554E+00
 21
-4.86709595E+01
  0
LINE
  8
0
 62
7
 10
1.67824554E+00
 20
-5.36709595E+01
 11
-2.32175255E+00
 21
-5.36709595E+01
  0
LINE
  8
0
 62
7
 10
-3.32175255E+00
 20
-5.63759613E+01
 11
2.67824554E+00
 21
-5.63759613E+01
  0
LINE
  8
0
 62
7
 10
-3.82175255E+00
 20
-5.88759613E+01
 11
-3.82175255E+00
 21
-5.68759613E+01
  0
LINE
  8
0
 62
7
 10
-1.57175255E+00
 20
-5.36709595E+01
 11
-1.57175255E+00
 21
-5.63759613E+01
  0
LINE
  8
0
 62
7
 10
-3.82175628E+00
 20
-5.68759572E+01
 11
-3.32175575E+00
 21
-5.63759566E+01
  0
LINE
  8
0
 62
7
 10
-2.82174982E+00
 20
-5.31709566E+01
 11
-2.32174929E+00
 21
-5.36709571E+01
  0
LINE
  8
0
 62
7
 10
-2.82174982E+00
 20
-4.91709631E+01
 11
-2.32174929E+00
 21
-4.86709626E+01
  0
LINE
  8
0
 62
7
 10
-2.82175255E+00
 20
-4.91709595E+01
 11
-2.82175255E+00
 21
-5.31709595E+01
  0
LINE
  8
0
 62
7
 10
3.17824576E+00
 20
-5.88759539E+01
 11
3.03211690E+00
 21
-5.90220828E+01
  0
LINE
  8
0
 62
7
 10
3.17825115E+00
 20
-5.68759572E+01
 11
2.67825062E+00
 21
-5.63759566E+01
  0
LINE
  8
0
 62
7
 10
2.17825009E+00
 20
-4.91709577E+01
 11
1.67824956E+00
 21
-4.86709572E+01
  0
LINE
  8
0
 62
7
 10
1.67824417E+00
 20
-5.36709571E+01
 11
2.17824470E+00
 21
-5.31709566E+01
  0
LINE
  8
0
 62
7
 10
2.17824554E+00
 20
-4.91709595E+01
 11
2.17824554E+00
 21
-5.31709595E+01
  0
LINE
  8
0
 62
7
 10
3.17824554E+00
 20
-5.88759613E+01
 11
3.17824554E+00
 21
-5.68759613E+01
  0
LINE
  8
0
 62
7
 10
9.28245544E-01
 20
-5.36709595E+01
 11
9.28245544E-01
 21
-5.63759613E+01
  0
LINE
  8
0
 62
7
 10
-3.82175628E+00
 20
-5.88759593E+01
 11
-3.32175575E+00
 21
-5.93759598E+01
  0
LINE
  8
0
 62
7
 10
3.37824631E+00
 20
-5.93759613E+01
 11
3.17824554E+00
 21
-5.93759613E+01
  0
LINE
  8
0
 62
7
 10
-4.32175255E+00
 20
-6.03759613E+01
 11
-4.32175255E+00
 21
-5.96759491E+01
  0
LINE
  8
0
 62
7
 10
3.67824554E+00
 20
-6.03759613E+01
 11
3.67824554E+00
 21
-5.96759491E+01
  0
LINE
  8
0
 62
7
 10
3.67824629E+00
 20
-5.96759591E+01
 11
3.37824705E+00
 21
-5.93759598E+01
  0
LINE
  8
0
 62
7
 10
-4.02175217E+00
 20
-5.93759598E+01
 11
-4.32175141E+00
 21
-5.96759591E+01
  0
LINE
  8
0
 62
7
 10
3.67824554E+00
 20
-5.96759491E+01
 11
3.17824554E+00
 21
-5.96759491E+01
  0
LINE
  8
0
 62
7
 10
-2.88217525E+01
 20
-6.03759613E+01
 11
-7.82175255E+00
 21
-6.03759613E+01
  0
LINE
  8
0
  6
CENTER
 62
6
 10
-4.61295376E+01
 20
-6.88759613E+01
 11
-2.69385242E+01
 21
-6.88759613E+01
  0
LINE
  8
0
 62
7
 10
-8.22175407E+00
 20
-1.06530640E+02
 11
-8.22175407E+00
 21
-7.03732147E+01
  0
LINE
  8
0
 62
7
 10
-1.92217541E+01
 20
-1.88373215E+02
 11
-8.22175407E+00
 21
-1.88373215E+02
  0
LINE
  8
0
  6
CENTER
 62
2
 10
8.27824593E+00
 20
-7.86232147E+01
 11
8.27824593E+00
 21
-7.01232147E+01
  0
LINE
  8
0
 62
7
 10
8.27824693E+00
 20
-7.58082146E+01
 11
9.52824830E+00
 21
-7.50780010E+01
  0
LINE
  8
0
 62
7
 10
-8.22175407E+00
 20
-1.09215790E+02
 11
-8.22175407E+00
 21
-1.88373215E+02
  0
LINE
  8
0
 62
7
 10
8.27824156E+00
 20
-7.58082154E+01
 11
7.02824348E+00
 21
-7.50780037E+01
  0
LINE
  8
0
 62
7
 10
8.27824859E+00
 20
-7.29382142E+01
 11
7.02824721E+00
 21
-7.36684278E+01
  0
LINE
  8
0
 62
7
 10
8.27824320E+00
 20
-7.29382169E+01
 11
9.52824128E+00
 21
-7.36684286E+01
  0
LINE
  8
0
 62
7
 10
7.02824593E+00
 20
-7.50780029E+01
 11
7.02824593E+00
 21
-7.36684265E+01
  0
LINE
  8
0
 62
7
 10
9.52824593E+00
 20
-7.50780029E+01
 11
9.52824593E+00
 21
-7.36684265E+01
  0
LINE
  8
0
 62
7
 10
2.57782459E+01
 20
-1.88373215E+02
 11
3.67782459E+01
 21
-1.88373215E+02
  0
LINE
  8
0
 62
7
 10
-1.92217541E+01
 20
-1.88373215E+02
 11
-1.92217541E+01
 21
-1.97373215E+02
  0
LINE
  8
0
 62
7
 10
3.67782459E+01
 20
-1.88373215E+02
 11
3.67782459E+01
 21
-1.97373215E+02
  0
LINE
  8
0
  6
CENTER
 62
2
 10
3.60541534E+00
 20
-8.58732147E+01
 11
1.75738134E+01
 21
-8.58732147E+01
  0
LINE
  8
0
  6
CENTER
 62
2
 10
1.07782459E+01
 20
-7.98527451E+01
 11
1.07782459E+01
 21
-9.23409271E+01
  0
LINE
  8
0
 62
7
 10
3.67782459E+01
 20
-1.97373215E+02
 11
2.57782459E+01
 21
-1.97373215E+02
  0
LINE
  8
0
 62
7
 10
-8.22175407E+00
 20
-1.97373215E+02
 11
-1.92217541E+01
 21
-1.97373215E+02
  0
LINE
  8
0
 62
7
 10
-8.22175407E+00
 20
-1.96370475E+02
 11
-8.22175407E+00
 21
-1.97373215E+02
  0
LINE
  8
0
 62
7
 10
2.57782459E+01
 20
-1.96370475E+02
 11
2.57782459E+01
 21
-1.97373215E+02
  0
LINE
  8
0
 62
7
 10
2.57782459E+01
 20
-7.03732147E+01
 11
-8.22175407E+00
 21
-7.03732147E+01
  0
LINE
  8
0
 62
7
 10
2.57782459E+01
 20
-1.96370475E+02
 11
-8.22175407E+00
 21
-1.96370475E+02
  0
LINE
  8
0
  6
CENTER
 62
2
 10
4.02824593E+00
 20
-7.43732147E+01
 11
1.25282459E+01
 21
-7.43732147E+01
  0
LINE
  8
0
  6
CENTER
 62
2
 10
-3.21754456E-01
 20
-4.48896790E+01
 11
-3.21754456E-01
 21
-7.18507614E+01
  0
LINE
  8
0
 62
6
 10
-3.78217525E+01
 20
-1.45373215E+02
 11
-4.03217525E+01
 21
-1.45373215E+02
  0
LINE
  8
0
  6
CENTER
 62
2
 10
-1.32217541E+01
 20
-2.02138281E+02
 11
-1.32217541E+01
 21
-1.83613784E+02
  0
LINE
  8
0
  6
CENTER
 62
2
 10
3.07782459E+01
 20
-2.02138281E+02
 11
3.07782459E+01
 21
-1.83613784E+02
  0
LINE
  8
0
  6
CENTER
 62
2
 10
-9.21068382E+00
 20
-1.07867935E+02
 11
-2.50391960E+00
 21
-1.07867935E+02
  0
LINE
  8
0
  6
CENTER
 62
2
 10
1.92893152E+01
 20
-9.88732147E+01
 11
2.59960818E+01
 21
-9.88732147E+01
  0
LINE
  8
0
  6
CENTER
 62
2
 10
1.92893152E+01
 20
-1.16873215E+02
 11
2.59960818E+01
 21
-1.16873215E+02
  0
LINE
  8
0
 62
7
 10
2.57782459E+01
 20
-9.43732147E+01
 11
-8.22175407E+00
 21
-9.43732147E+01
  0
LINE
  8
0
 62
7
 10
-8.22175407E+00
 20
-1.21373215E+02
 11
2.57782459E+01
 21
-1.21373215E+02
  0
LINE
  8
0
  6
CENTER
 62
2
 10
-5.82175255E+00
 20
-1.04556213E+02
 11
-5.82175255E+00
 21
-1.11179665E+02
  0
LINE
  8
0
 62
7
 10
-4.57175255E+00
 20
-1.08578003E+02
 11
-4.57175255E+00
 21
-1.07168427E+02
  0
LINE
  8
0
 62
7
 10
-7.07175255E+00
 20
-1.08578003E+02
 11
-7.07175255E+00
 21
-1.07168427E+02
  0
LINE
  8
0
 62
7
 10
-5.82175503E+00
 20
-1.06438215E+02
 11
-4.57175695E+00
 21
-1.07168427E+02
  0
LINE
  8
0
 62
7
 10
-5.82175336E+00
 20
-1.06438211E+02
 11
-7.07175391E+00
 21
-1.07168424E+02
  0
LINE
  8
0
 62
7
 10
-5.82175420E+00
 20
-1.09308211E+02
 11
-4.57175365E+00
 21
-1.08577998E+02
  0
LINE
  8
0
 62
7
 10
-5.82175667E+00
 20
-1.09308214E+02
 11
-7.07175475E+00
 21
-1.08578002E+02
  0
LINE
  8
0
  6
CENTER
 62
2
 10
2.26782455E+01
 20
-1.13556213E+02
 11
2.26782455E+01
 21
-1.20179665E+02
  0
LINE
  8
0
 62
7
 10
2.39282460E+01
 20
-1.17578003E+02
 11
2.39282460E+01
 21
-1.16168427E+02
  0
LINE
  8
0
 62
7
 10
2.14282455E+01
 20
-1.17578003E+02
 11
2.14282455E+01
 21
-1.16168427E+02
  0
LINE
  8
0
 62
7
 10
2.26782420E+01
 20
-1.15438216E+02
 11
2.39282434E+01
 21
-1.16168429E+02
  0
LINE
  8
0
 62
7
 10
2.26782469E+01
 20
-1.15438212E+02
 11
2.14282455E+01
 21
-1.16168426E+02
  0
LINE
  8
0
 62
7
 10
2.26782453E+01
 20
-1.18308212E+02
 11
2.39282466E+01
 21
-1.17577999E+02
  0
LINE
  8
0
 62
7
 10
2.26782437E+01
 20
-1.18308216E+02
 11
2.14282423E+01
 21
-1.17578002E+02
  0
LINE
  8
0
  6
CENTER
 62
2
 10
2.26782455E+01
 20
-9.55562134E+01
 11
2.26782455E+01
 21
-1.02179665E+02
  0
LINE
  8
0
 62
7
 10
2.39282460E+01
 20
-9.95780029E+01
 11
2.39282460E+01
 21
-9.81684265E+01
  0
LINE
  8
0
 62
7
 10
2.14282455E+01
 20
-9.95780029E+01
 11
2.14282455E+01
 21
-9.81684265E+01
  0
LINE
  8
0
 62
7
 10
2.26782444E+01
 20
-9.74382140E+01
 11
2.39282425E+01
 21
-9.81684257E+01
  0
LINE
  8
0
 62
7
 10
2.26782483E+01
 20
-9.74382171E+01
 11
2.14282503E+01
 21
-9.81684287E+01
  0
LINE
  8
0
 62
7
 10
2.26782500E+01
 20
-1.00308216E+02
 11
2.39282481E+01
 21
-9.95780039E+01
  0
LINE
  8
0
 62
7
 10
2.26782428E+01
 20
-1.00308212E+02
 11
2.14282447E+01
 21
-9.95780008E+01
  0
LINE
  8
0
 62
7
 10
2.52782459E+01
 20
-9.44732132E+01
 11
-7.72175407E+00
 21
-9.44732132E+01
  0
LINE
  8
0
 62
7
 10
-7.72175407E+00
 20
-1.21273216E+02
 11
2.52782459E+01
 21
-1.21273216E+02
  0
ARC
  8
0
 62
7
 10
-5.93217525E+01
 20
-1.86120475E+02
 40
1.50000000E+00
 50
1.79999995E+02
 51
2.70000000E+02
  0
ARC
  8
0
  6
PHANTOM
 62
2
 10
-5.34217510E+01
 20
-1.70170475E+02
 40
2.00000003E-01
 50
1.79999995E+02
 51
2.70000000E+02
  0
ARC
  8
0
  6
PHANTOM
 62
2
 10
-5.34217510E+01
 20
-1.62970474E+02
 40
2.00000003E-01
 50
9.00000002E+01
 51
1.80000005E+02
  0
ARC
  8
0
 62
6
 10
-4.92224636E+01
 20
-1.24874146E+02
 40
1.99289829E-01
 50
9.00000002E+01
 51
1.80204542E+02
  0
ARC
  8
0
 62
6
 10
-4.92224636E+01
 20
-1.28475571E+02
 40
1.99289829E-01
 50
1.79795468E+02
 51
2.70000000E+02
  0
ARC
  8
0
 62
6
 10
-4.29217510E+01
 20
-1.37874859E+02
 40
5.00000000E-01
 50
1.79999995E+02
 51
2.70000000E+02
  0
ARC
  8
0
 62
6
 10
-4.29217510E+01
 20
-1.35874859E+02
 40
5.00000000E-01
 50
9.00000002E+01
 51
1.80000005E+02
  0
ARC
  8
0
 62
6
 10
-4.92224636E+01
 20
-8.72725067E+01
 40
1.99289829E-01
 50
9.00000002E+01
 51
1.80204542E+02
  0
ARC
  8
0
 62
6
 10
-4.92224636E+01
 20
-9.08739243E+01
 40
1.99289829E-01
 50
1.79795468E+02
 51
2.70000000E+02
  0
ARC
  8
0
 62
6
 10
-4.29217510E+01
 20
-7.98732147E+01
 40
5.00000000E-01
 50
1.79999995E+02
 51
2.70000000E+02
  0
ARC
  8
0
 62
6
 10
-4.29217510E+01
 20
-7.78732147E+01
 40
5.00000000E-01
 50
9.00000002E+01
 51
1.80000005E+02
  0
CIRCLE
  8
0
  6
PHANTOM
 62
2
 10
-1.51443157E+01
 20
-1.60075592E+02
 40
1.39999998E+00
  0
CIRCLE
  8
0
  6
PHANTOM
 62
2
 10
-1.51443157E+01
 20
-1.50668098E+02
 40
1.39999998E+00
  0
ARC
  8
0
 62
7
 10
-5.93217525E+01
 20
-1.84820475E+02
 40
1.50000000E+00
 50
1.79999995E+02
 51
2.70000000E+02
  0
ARC
  8
0
 62
7
 10
-5.93217525E+01
 20
-1.77920475E+02
 40
1.50000000E+00
 50
9.00000002E+01
 51
1.80000005E+02
  0
ARC
  8
0
 62
6
 10
-4.67224636E+01
 20
-1.28473923E+02
 40
1.99289829E-01
 50
1.79795468E+02
 51
2.70000000E+02
  0
ARC
  8
0
 62
6
 10
-4.67224636E+01
 20
-1.24872505E+02
 40
1.99289829E-01
 50
9.00000002E+01
 51
1.80204542E+02
  0
ARC
  8
0
 62
6
 10
-4.04217510E+01
 20
-1.35873215E+02
 40
5.00000000E-01
 50
9.00000002E+01
 51
1.80000005E+02
  0
ARC
  8
0
 62
6
 10
-4.04217510E+01
 20
-1.37873215E+02
 40
5.00000000E-01
 50
1.79999995E+02
 51
2.70000000E+02
  0
ARC
  8
0
 62
6
 10
-4.04217510E+01
 20
-7.78660507E+01
 40
5.00000000E-01
 50
9.00000002E+01
 51
1.80000005E+02
  0
ARC
  8
0
 62
6
 10
-4.04217510E+01
 20
-7.98660507E+01
 40
5.00000000E-01
 50
1.79999995E+02
 51
2.70000000E+02
  0
ARC
  8
0
 62
6
 10
-4.67224636E+01
 20
-9.08667603E+01
 40
1.99289829E-01
 50
1.79795468E+02
 51
2.70000000E+02
  0
ARC
  8
0
 62
6
 10
-4.67224636E+01
 20
-8.72653427E+01
 40
1.99289829E-01
 50
9.00000002E+01
 51
1.80204542E+02
  0
ARC
  8
0
 62
7
 10
-1.96217556E+01
 20
-7.28657150E+01
 40
2.50000000E+00
 50
5.31301018E+01
 51
1.26869903E+02
  0
ARC
  8
0
 62
7
 10
-1.07217541E+01
 20
-1.42871975E+02
 40
2.50000000E+00
 50
2.33130097E+02
 51
3.06869898E+02
  0
ARC
  8
0
 62
7
 10
-2.38217525E+01
 20
-1.00865524E+02
 40
2.50000000E+00
 50
1.43130097E+02
 51
2.16869899E+02
  0
ARC
  8
0
 62
7
 10
-9.82175255E+00
 20
-6.28759613E+01
 40
2.50000000E+00
 50
5.31301018E+01
 51
1.26869903E+02
  0
ARC
  8
0
 62
6
 10
-4.92224636E+01
 20
-7.72752457E+01
 40
1.99289829E-01
 50
9.00000002E+01
 51
1.80204542E+02
  0
ARC
  8
0
 62
6
 10
-4.92224636E+01
 20
-8.08766632E+01
 40
1.99289829E-01
 50
1.79795468E+02
 51
2.70000000E+02
  0
ARC
  8
0
 62
6
 10
-4.29217510E+01
 20
-6.98759537E+01
 40
5.00000000E-01
 50
1.79999995E+02
 51
2.70000000E+02
  0
ARC
  8
0
 62
6
 10
-4.29217510E+01
 20
-6.78759613E+01
 40
5.00000000E-01
 50
9.00000002E+01
 51
1.80000005E+02
  0
CIRCLE
  8
0
 62
7
 10
8.27824593E+00
 20
-7.43732147E+01
 40
2.75000000E+00
  0
ARC
  8
0
 62
7
 10
2.52704325E+01
 20
-1.65427122E+02
 40
5.00000000E-01
 50
2.70000000E+02
 51
0.00000000E+00
  0
ARC
  8
0
 62
7
 10
-7.72956657E+00
 20
-1.65427122E+02
 40
5.00000000E-01
 50
1.79999995E+02
 51
2.70000000E+02
  0
CIRCLE
  8
0
 62
7
 10
8.27824593E+00
 20
-7.43732147E+01
 40
3.25000000E+00
  0
CIRCLE
  8
0
 62
7
 10
1.07782459E+01
 20
-8.58732147E+01
 40
4.04500008E+00
  0
CIRCLE
  8
0
 62
7
 10
1.07782459E+01
 20
-8.58732147E+01
 40
4.28299999E+00
  0
CIRCLE
  8
0
 62
7
 10
1.07782459E+01
 20
-8.58732147E+01
 40
4.86399984E+00
  0
ARC
  8
0
 62
7
 10
-7.72175407E+00
 20
-9.49732132E+01
 40
5.00000000E-01
 50
9.00000002E+01
 51
1.80000005E+02
  0
ARC
  8
0
 62
7
 10
-7.72175407E+00
 20
-1.20773216E+02
 40
5.00000000E-01
 50
1.79999995E+02
 51
2.70000000E+02
  0
ARC
  8
0
 62
7
 10
2.52782459E+01
 20
-1.20773216E+02
 40
5.00000000E-01
 50
2.70000000E+02
 51
0.00000000E+00
  0
ARC
  8
0
 62
7
 10
2.52782459E+01
 20
-9.49732132E+01
 40
5.00000000E-01
 50
0.00000000E+00
 51
9.00000002E+01
  0
CIRCLE
  8
0
 62
7
 10
-5.82175255E+00
 20
-1.07873215E+02
 40
2.75000000E+00
  0
CIRCLE
  8
0
 62
7
 10
2.26782455E+01
 20
-1.16873215E+02
 40
2.75000000E+00
  0
CIRCLE
  8
0
 62
7
 10
2.26782455E+01
 20
-9.88732147E+01
 40
2.75000000E+00
  0
LINE
  8
0
 62
7
 10
1.63648397E+02
 20
-8.03694684E+01
 11
1.63898397E+02
 21
-8.03694868E+01
  0
LINE
  8
0
 62
7
 10
1.63644195E+02
 20
-1.37669464E+02
 11
1.63894195E+02
 21
-1.37669482E+02
  0
LINE
  8
0
 62
7
 10
2.36647201E+02
 20
-9.66748173E+01
 11
2.36397201E+02
 21
-9.66747989E+01
  0
LINE
  8
0
 62
7
 10
2.36644194E+02
 20
-1.37674817E+02
 11
2.36394194E+02
 21
-1.37674799E+02
  0
LINE
  8
0
 62
7
 10
1.67249197E+02
 20
-1.57946646E+02
 11
1.70430405E+02
 21
-1.52437567E+02
  0
LINE
  8
0
 62
7
 10
1.67855389E+02
 20
-1.58296691E+02
 11
1.71036597E+02
 21
-1.52787611E+02
  0
LINE
  8
0
  6
CENTER
 62
2
 10
1.69149387E+02
 20
-6.68604419E+01
 11
1.69140312E+02
 21
-1.90620314E+02
  0
LINE
  8
0
  6
CENTER
 62
2
 10
1.67897562E+02
 20
-9.17574525E+01
 11
1.67898182E+02
 21
-8.32947908E+01
  0
LINE
  8
0
 62
7
 10
1.63899130E+02
 20
-7.03694868E+01
 11
1.74399130E+02
 21
-7.03702568E+01
  0
LINE
  8
0
 62
7
 10
1.74399130E+02
 20
-7.03702568E+01
 11
1.74393630E+02
 21
-1.45370253E+02
  0
LINE
  8
0
 62
7
 10
1.63899130E+02
 20
-7.03694868E+01
 11
1.63893630E+02
 21
-1.45369483E+02
  0
LINE
  8
0
 62
7
 10
1.63893630E+02
 20
-1.45369483E+02
 11
1.74393630E+02
 21
-1.45370253E+02
  0
LINE
  8
0
  6
CENTER
 62
2
 10
1.65885727E+02
 20
-1.74366890E+02
 11
1.73105088E+02
 21
-1.74367419E+02
  0
LINE
  8
0
 62
7
 10
1.74390477E+02
 20
-1.88367513E+02
 11
1.63890477E+02
 21
-1.88366743E+02
  0
LINE
  8
0
 62
7
 10
1.74393630E+02
 20
-1.45370253E+02
 11
1.74390477E+02
 21
-1.88367513E+02
  0
LINE
  8
0
 62
7
 10
1.63890477E+02
 20
-1.88366743E+02
 11
1.63893630E+02
 21
-1.45369483E+02
  0
LINE
  8
0
  6
CENTER
 62
2
 10
1.63891747E+02
 20
-8.78694863E+01
 11
1.72054425E+02
 21
-8.78700849E+01
  0
LINE
  8
0
  6
CENTER
 62
2
 10
1.70100267E+02
 20
-5.48836592E+01
 11
1.70099022E+02
 21
-7.18474882E+01
  0
LINE
  8
0
 62
7
 10
1.66099181E+02
 20
-6.96696436E+01
 11
1.74099182E+02
 21
-6.96702302E+01
  0
LINE
  8
0
 62
7
 10
1.73799201E+02
 20
-6.93702130E+01
 11
1.74099178E+02
 21
-6.96702342E+01
  0
LINE
  8
0
 62
7
 10
1.66099180E+02
 20
-6.96696475E+01
 11
1.66399201E+02
 21
-6.93696703E+01
  0
LINE
  8
0
 62
7
 10
1.66099130E+02
 20
-7.03696481E+01
 11
1.66099181E+02
 21
-6.96696436E+01
  0
LINE
  8
0
 62
7
 10
1.74099131E+02
 20
-7.03702348E+01
 11
1.74099182E+02
 21
-6.96702302E+01
  0
LINE
  8
0
 62
7
 10
1.66399203E+02
 20
-6.93696701E+01
 11
1.73799203E+02
 21
-6.93702128E+01
  0
LINE
  8
0
 62
7
 10
1.73599241E+02
 20
-6.88701978E+01
 11
1.73099204E+02
 21
-6.93701616E+01
  0
LINE
  8
0
 62
7
 10
1.68849622E+02
 20
-6.36648480E+01
 11
1.68849423E+02
 21
-6.63698498E+01
  0
LINE
  8
0
 62
7
 10
1.66599240E+02
 20
-6.88696848E+01
 11
1.66599387E+02
 21
-6.68696848E+01
  0
LINE
  8
0
 62
7
 10
1.67599952E+02
 20
-5.91647563E+01
 11
1.67599658E+02
 21
-6.31647563E+01
  0
LINE
  8
0
 62
7
 10
1.68099623E+02
 20
-6.36647923E+01
 11
1.67599659E+02
 21
-6.31647551E+01
  0
LINE
  8
0
 62
7
 10
1.67599952E+02
 20
-5.91647616E+01
 11
1.68099989E+02
 21
-5.86647978E+01
  0
LINE
  8
0
 62
7
 10
1.66599386E+02
 20
-6.68696877E+01
 11
1.67099423E+02
 21
-6.63697238E+01
  0
LINE
  8
0
 62
7
 10
1.66599239E+02
 20
-6.88696790E+01
 11
1.67099203E+02
 21
-6.93697162E+01
  0
LINE
  8
0
 62
7
 10
1.72599953E+02
 20
-5.91651230E+01
 11
1.72599659E+02
 21
-6.31651230E+01
  0
LINE
  8
0
 62
7
 10
1.72599952E+02
 20
-5.91651229E+01
 11
1.72099988E+02
 21
-5.86650857E+01
  0
LINE
  8
0
 62
7
 10
1.72599659E+02
 20
-6.31651271E+01
 11
1.72099621E+02
 21
-6.36650910E+01
  0
LINE
  8
0
 62
7
 10
1.73599388E+02
 20
-6.68701957E+01
 11
1.73099424E+02
 21
-6.63701585E+01
  0
LINE
  8
0
 62
7
 10
1.71349623E+02
 20
-6.36650313E+01
 11
1.71349424E+02
 21
-6.63700332E+01
  0
LINE
  8
0
 62
7
 10
1.73599241E+02
 20
-6.88701982E+01
 11
1.73599388E+02
 21
-6.68701982E+01
  0
LINE
  8
0
 62
7
 10
1.73099424E+02
 20
-6.63701615E+01
 11
1.67099423E+02
 21
-6.63697215E+01
  0
LINE
  8
0
 62
7
 10
1.68099622E+02
 20
-6.36647930E+01
 11
1.72099623E+02
 21
-6.36650863E+01
  0
LINE
  8
0
 62
7
 10
1.72099989E+02
 20
-5.86650864E+01
 11
1.68099988E+02
 21
-5.86647930E+01
  0
LINE
  8
0
 62
7
 10
1.78249197E+02
 20
-1.57947453E+02
 11
1.81430404E+02
 21
-1.52438373E+02
  0
LINE
  8
0
 62
7
 10
1.78855389E+02
 20
-1.58297497E+02
 11
1.82036597E+02
 21
-1.52788418E+02
  0
LINE
  8
0
  6
CENTER
 62
2
 10
1.80149387E+02
 20
-6.68612486E+01
 11
1.80140312E+02
 21
-1.90621121E+02
  0
LINE
  8
0
  6
CENTER
 62
2
 10
1.78897562E+02
 20
-9.17582592E+01
 11
1.78898182E+02
 21
-8.32955975E+01
  0
LINE
  8
0
 62
7
 10
1.74899130E+02
 20
-7.03702935E+01
 11
1.85399130E+02
 21
-7.03710635E+01
  0
LINE
  8
0
 62
7
 10
1.85399130E+02
 20
-7.03710635E+01
 11
1.85393630E+02
 21
-1.45371059E+02
  0
LINE
  8
0
 62
7
 10
1.74899130E+02
 20
-7.03702935E+01
 11
1.74893630E+02
 21
-1.45370289E+02
  0
LINE
  8
0
 62
7
 10
1.74893630E+02
 20
-1.45370289E+02
 11
1.85393630E+02
 21
-1.45371059E+02
  0
LINE
  8
0
  6
CENTER
 62
2
 10
1.76885728E+02
 20
-1.74367697E+02
 11
1.84105088E+02
 21
-1.74368226E+02
  0
LINE
  8
0
 62
7
 10
1.85390477E+02
 20
-1.88368319E+02
 11
1.74890477E+02
 21
-1.88367549E+02
  0
LINE
  8
0
 62
7
 10
1.85393630E+02
 20
-1.45371059E+02
 11
1.85390477E+02
 21
-1.88368319E+02
  0
LINE
  8
0
 62
7
 10
1.74890477E+02
 20
-1.88367549E+02
 11
1.74893630E+02
 21
-1.45370289E+02
  0
LINE
  8
0
  6
CENTER
 62
2
 10
1.74891747E+02
 20
-8.78702930E+01
 11
1.83054425E+02
 21
-8.78708916E+01
  0
LINE
  8
0
  6
CENTER
 62
2
 10
1.81100266E+02
 20
-5.48844659E+01
 11
1.81099022E+02
 21
-7.18482949E+01
  0
LINE
  8
0
 62
7
 10
1.77099182E+02
 20
-6.96704503E+01
 11
1.85099182E+02
 21
-6.96710369E+01
  0
LINE
  8
0
 62
7
 10
1.84799201E+02
 20
-6.93710197E+01
 11
1.85099179E+02
 21
-6.96710409E+01
  0
LINE
  8
0
 62
7
 10
1.77099181E+02
 20
-6.96704542E+01
 11
1.77399202E+02
 21
-6.93704770E+01
  0
LINE
  8
0
 62
7
 10
1.77099131E+02
 20
-7.03704548E+01
 11
1.77099182E+02
 21
-6.96704503E+01
  0
LINE
  8
0
 62
7
 10
1.85099131E+02
 20
-7.03710415E+01
 11
1.85099182E+02
 21
-6.96710369E+01
  0
LINE
  8
0
 62
7
 10
1.77399203E+02
 20
-6.93704768E+01
 11
1.84799203E+02
 21
-6.93710195E+01
  0
LINE
  8
0
 62
7
 10
1.84599242E+02
 20
-6.88710045E+01
 11
1.84099205E+02
 21
-6.93709683E+01
  0
LINE
  8
0
 62
7
 10
1.79849623E+02
 20
-6.36656547E+01
 11
1.79849424E+02
 21
-6.63706565E+01
  0
LINE
  8
0
 62
7
 10
1.77599241E+02
 20
-6.88704915E+01
 11
1.77599387E+02
 21
-6.68704915E+01
  0
LINE
  8
0
 62
7
 10
1.78599953E+02
 20
-5.91655630E+01
 11
1.78599659E+02
 21
-6.31655630E+01
  0
LINE
  8
0
 62
7
 10
1.79099623E+02
 20
-6.36655989E+01
 11
1.78599660E+02
 21
-6.31655618E+01
  0
LINE
  8
0
 62
7
 10
1.78599948E+02
 20
-5.91655629E+01
 11
1.79099985E+02
 21
-5.86655990E+01
  0
LINE
  8
0
 62
7
 10
1.77599387E+02
 20
-6.68704944E+01
 11
1.78099424E+02
 21
-6.63705305E+01
  0
LINE
  8
0
 62
7
 10
1.77599240E+02
 20
-6.88704857E+01
 11
1.78099204E+02
 21
-6.93705229E+01
  0
LINE
  8
0
 62
7
 10
1.83599953E+02
 20
-5.91659297E+01
 11
1.83599659E+02
 21
-6.31659297E+01
  0
LINE
  8
0
 62
7
 10
1.83599953E+02
 20
-5.91659296E+01
 11
1.83099989E+02
 21
-5.86658924E+01
  0
LINE
  8
0
 62
7
 10
1.83599659E+02
 20
-6.31659338E+01
 11
1.83099622E+02
 21
-6.36658977E+01
  0
LINE
  8
0
 62
7
 10
1.84599389E+02
 20
-6.68710023E+01
 11
1.84099425E+02
 21
-6.63709651E+01
  0
LINE
  8
0
 62
7
 10
1.82349623E+02
 20
-6.36658380E+01
 11
1.82349424E+02
 21
-6.63708398E+01
  0
LINE
  8
0
 62
7
 10
1.84599241E+02
 20
-6.88710048E+01
 11
1.84599387E+02
 21
-6.68710048E+01
  0
LINE
  8
0
 62
7
 10
1.84099424E+02
 20
-6.63709682E+01
 11
1.78099424E+02
 21
-6.63705282E+01
  0
LINE
  8
0
 62
7
 10
1.79099623E+02
 20
-6.36655997E+01
 11
1.83099623E+02
 21
-6.36658930E+01
  0
LINE
  8
0
 62
7
 10
1.83099989E+02
 20
-5.86658930E+01
 11
1.79099989E+02
 21
-5.86655997E+01
  0
LINE
  8
0
 62
7
 10
1.91852848E+02
 20
-1.61668449E+02
 11
1.96038770E+02
 21
-1.54419447E+02
  0
LINE
  8
0
 62
7
 10
1.91246656E+02
 20
-1.61318405E+02
 11
1.95432578E+02
 21
-1.54069403E+02
  0
LINE
  8
0
  6
CENTER
 62
2
 10
1.86939995E+02
 20
-1.80368434E+02
 11
2.00562305E+02
 21
-1.80369433E+02
  0
LINE
  8
0
  6
CENTER
 62
2
 10
1.86946814E+02
 20
-8.73711771E+01
 11
2.00459144E+02
 21
-8.73721680E+01
  0
LINE
  8
0
 62
7
 10
1.93648030E+02
 20
-8.53716685E+01
 11
1.89860673E+02
 21
-8.53713907E+01
  0
LINE
  8
0
 62
7
 10
1.93648030E+02
 20
-8.53716685E+01
 11
1.93647700E+02
 21
-8.98716685E+01
  0
LINE
  8
0
 62
7
 10
1.89647996E+02
 20
-8.58403311E+01
 11
1.89647771E+02
 21
-8.89024115E+01
  0
LINE
  8
0
 62
7
 10
1.90170043E+02
 20
-8.98714134E+01
 11
1.93647700E+02
 21
-8.98716685E+01
  0
LINE
  8
0
 62
7
 10
1.85899130E+02
 20
-7.03711002E+01
 11
2.01399130E+02
 21
-7.03722369E+01
  0
LINE
  8
0
 62
7
 10
1.85899130E+02
 20
-7.03711002E+01
 11
1.85893630E+02
 21
-1.45371096E+02
  0
LINE
  8
0
 62
7
 10
2.01399130E+02
 20
-7.03722369E+01
 11
2.01393630E+02
 21
-1.45372233E+02
  0
LINE
  8
0
 62
7
 10
1.85893630E+02
 20
-1.45371096E+02
 11
2.01393630E+02
 21
-1.45372233E+02
  0
LINE
  8
0
  6
CENTER
 62
2
 10
1.92384570E+02
 20
-1.82668833E+02
 11
1.94899699E+02
 21
-1.82669017E+02
  0
LINE
  8
0
 62
7
 10
1.91641338E+02
 20
-1.76618779E+02
 11
1.91640788E+02
 21
-1.84118778E+02
  0
LINE
  8
0
 62
7
 10
1.95641338E+02
 20
-1.76619072E+02
 11
1.95640788E+02
 21
-1.84119071E+02
  0
LINE
  8
0
 62
7
 10
1.91941099E+02
 20
-1.79868801E+02
 11
1.95341101E+02
 21
-1.79869050E+02
  0
LINE
  8
0
 62
7
 10
2.01390477E+02
 20
-1.88369493E+02
 11
1.85890477E+02
 21
-1.88368356E+02
  0
LINE
  8
0
 62
7
 10
2.01393630E+02
 20
-1.45372233E+02
 11
2.01390477E+02
 21
-1.88369493E+02
  0
LINE
  8
0
 62
7
 10
1.85890477E+02
 20
-1.88368356E+02
 11
1.85893630E+02
 21
-1.45371096E+02
  0
LINE
  8
0
  6
CENTER
 62
2
 10
1.93649491E+02
 20
-6.54465129E+01
 11
1.93640311E+02
 21
-1.90622111E+02
  0
LINE
  8
0
 62
7
 10
1.97649988E+02
 20
-5.86669601E+01
 11
1.93649988E+02
 21
-5.86666667E+01
  0
LINE
  8
0
 62
7
 10
1.93649622E+02
 20
-6.36666667E+01
 11
1.97649622E+02
 21
-6.36669600E+01
  0
LINE
  8
0
 62
7
 10
1.98649423E+02
 20
-6.63720352E+01
 11
1.92649423E+02
 21
-6.63715952E+01
  0
LINE
  8
0
 62
7
 10
1.99149240E+02
 20
-6.88720719E+01
 11
1.99149387E+02
 21
-6.68720719E+01
  0
LINE
  8
0
 62
7
 10
1.96899622E+02
 20
-6.36669050E+01
 11
1.96899423E+02
 21
-6.63719069E+01
  0
LINE
  8
0
 62
7
 10
1.99149384E+02
 20
-6.68720721E+01
 11
1.98649420E+02
 21
-6.63720349E+01
  0
LINE
  8
0
 62
7
 10
1.98149658E+02
 20
-6.31669954E+01
 11
1.97649620E+02
 21
-6.36669593E+01
  0
LINE
  8
0
 62
7
 10
1.98149951E+02
 20
-5.91670020E+01
 11
1.97649987E+02
 21
-5.86669648E+01
  0
LINE
  8
0
 62
7
 10
1.98149952E+02
 20
-5.91669967E+01
 11
1.98149658E+02
 21
-6.31669967E+01
  0
LINE
  8
0
 62
7
 10
1.92149238E+02
 20
-6.88715581E+01
 11
1.92649202E+02
 21
-6.93715953E+01
  0
LINE
  8
0
 62
7
 10
1.92149385E+02
 20
-6.68715560E+01
 11
1.92649422E+02
 21
-6.63715922E+01
  0
LINE
  8
0
 62
7
 10
1.93149951E+02
 20
-5.91666299E+01
 11
1.93649988E+02
 21
-5.86666661E+01
  0
LINE
  8
0
 62
7
 10
1.93649622E+02
 20
-6.36666714E+01
 11
1.93149658E+02
 21
-6.31666342E+01
  0
LINE
  8
0
 62
7
 10
1.93149952E+02
 20
-5.91666301E+01
 11
1.93149658E+02
 21
-6.31666300E+01
  0
LINE
  8
0
 62
7
 10
1.92149240E+02
 20
-6.88715585E+01
 11
1.92149387E+02
 21
-6.68715585E+01
  0
LINE
  8
0
 62
7
 10
1.94399622E+02
 20
-6.36667217E+01
 11
1.94399423E+02
 21
-6.63717235E+01
  0
LINE
  8
0
 62
7
 10
1.99149243E+02
 20
-6.88720688E+01
 11
1.98649206E+02
 21
-6.93720326E+01
  0
LINE
  8
0
 62
7
 10
1.91949203E+02
 20
-6.93715439E+01
 11
1.99349204E+02
 21
-6.93720865E+01
  0
LINE
  8
0
 62
7
 10
1.99649130E+02
 20
-7.03721085E+01
 11
1.99649181E+02
 21
-6.96721040E+01
  0
LINE
  8
0
 62
7
 10
1.91649130E+02
 20
-7.03715218E+01
 11
1.91649181E+02
 21
-6.96715173E+01
  0
LINE
  8
0
 62
7
 10
1.91649182E+02
 20
-6.96715185E+01
 11
1.91949203E+02
 21
-6.93715413E+01
  0
LINE
  8
0
 62
7
 10
1.99349202E+02
 20
-6.93720840E+01
 11
1.99649182E+02
 21
-6.96721079E+01
  0
LINE
  8
0
 62
7
 10
1.91649181E+02
 20
-6.96715173E+01
 11
1.99649181E+02
 21
-6.96721040E+01
  0
LINE
  8
0
  6
CENTER
 62
2
 10
1.95650266E+02
 20
-5.48855329E+01
 11
1.95649022E+02
 21
-7.18493619E+01
  0
LINE
  8
0
 62
7
 10
2.07852848E+02
 20
-1.61669623E+02
 11
2.12038770E+02
 21
-1.54420621E+02
  0
LINE
  8
0
 62
7
 10
2.07246656E+02
 20
-1.61319578E+02
 11
2.11432578E+02
 21
-1.54070576E+02
  0
LINE
  8
0
  6
CENTER
 62
2
 10
2.02939994E+02
 20
-1.80369607E+02
 11
2.16562305E+02
 21
-1.80370606E+02
  0
LINE
  8
0
  6
CENTER
 62
2
 10
2.02946814E+02
 20
-8.73723504E+01
 11
2.16459143E+02
 21
-8.73733413E+01
  0
LINE
  8
0
 62
7
 10
2.09648030E+02
 20
-8.53728418E+01
 11
2.05860673E+02
 21
-8.53725641E+01
  0
LINE
  8
0
 62
7
 10
2.09648030E+02
 20
-8.53728418E+01
 11
2.09647700E+02
 21
-8.98728418E+01
  0
LINE
  8
0
 62
7
 10
2.05647996E+02
 20
-8.58415045E+01
 11
2.05647771E+02
 21
-8.89035849E+01
  0
LINE
  8
0
 62
7
 10
2.06170043E+02
 20
-8.98725868E+01
 11
2.09647700E+02
 21
-8.98728418E+01
  0
LINE
  8
0
 62
7
 10
2.01899130E+02
 20
-7.03722735E+01
 11
2.17399130E+02
 21
-7.03734102E+01
  0
LINE
  8
0
 62
7
 10
2.01899130E+02
 20
-7.03722735E+01
 11
2.01893630E+02
 21
-1.45372270E+02
  0
LINE
  8
0
 62
7
 10
2.17399130E+02
 20
-7.03734102E+01
 11
2.17393630E+02
 21
-1.45373406E+02
  0
LINE
  8
0
 62
7
 10
2.01893630E+02
 20
-1.45372270E+02
 11
2.17393630E+02
 21
-1.45373406E+02
  0
LINE
  8
0
  6
CENTER
 62
2
 10
2.08384570E+02
 20
-1.82670006E+02
 11
2.10899699E+02
 21
-1.82670190E+02
  0
LINE
  8
0
 62
7
 10
2.07641338E+02
 20
-1.76619952E+02
 11
2.07640788E+02
 21
-1.84119951E+02
  0
LINE
  8
0
 62
7
 10
2.11641338E+02
 20
-1.76620245E+02
 11
2.11640788E+02
 21
-1.84120245E+02
  0
LINE
  8
0
 62
7
 10
2.07941099E+02
 20
-1.79869974E+02
 11
2.11341101E+02
 21
-1.79870223E+02
  0
LINE
  8
0
 62
7
 10
2.17390477E+02
 20
-1.88370666E+02
 11
2.01890477E+02
 21
-1.88369529E+02
  0
LINE
  8
0
 62
7
 10
2.17393630E+02
 20
-1.45373406E+02
 11
2.17390477E+02
 21
-1.88370666E+02
  0
LINE
  8
0
 62
7
 10
2.01890477E+02
 20
-1.88369529E+02
 11
2.01893630E+02
 21
-1.45372270E+02
  0
LINE
  8
0
  6
CENTER
 62
2
 10
2.09649491E+02
 20
-6.54476862E+01
 11
2.09640311E+02
 21
-1.90623285E+02
  0
LINE
  8
0
 62
7
 10
2.13649988E+02
 20
-5.86681334E+01
 11
2.09649988E+02
 21
-5.86678401E+01
  0
LINE
  8
0
 62
7
 10
2.09649622E+02
 20
-6.36678401E+01
 11
2.13649622E+02
 21
-6.36681334E+01
  0
LINE
  8
0
 62
7
 10
2.14649423E+02
 20
-6.63732086E+01
 11
2.08649423E+02
 21
-6.63727686E+01
  0
LINE
  8
0
 62
7
 10
2.15149240E+02
 20
-6.88732452E+01
 11
2.15149387E+02
 21
-6.68732452E+01
  0
LINE
  8
0
 62
7
 10
2.12899622E+02
 20
-6.36680784E+01
 11
2.12899423E+02
 21
-6.63730802E+01
  0
LINE
  8
0
 62
7
 10
2.15149382E+02
 20
-6.68732481E+01
 11
2.14649418E+02
 21
-6.63732109E+01
  0
LINE
  8
0
 62
7
 10
2.14149661E+02
 20
-6.31681661E+01
 11
2.13649624E+02
 21
-6.36681300E+01
  0
LINE
  8
0
 62
7
 10
2.14149946E+02
 20
-5.91681754E+01
 11
2.13649982E+02
 21
-5.86681382E+01
  0
LINE
  8
0
 62
7
 10
2.14149952E+02
 20
-5.91681701E+01
 11
2.14149658E+02
 21
-6.31681701E+01
  0
LINE
  8
0
 62
7
 10
2.08149242E+02
 20
-6.88727288E+01
 11
2.08649206E+02
 21
-6.93727660E+01
  0
LINE
  8
0
 62
7
 10
2.08149388E+02
 20
-6.68727267E+01
 11
2.08649426E+02
 21
-6.63727628E+01
  0
LINE
  8
0
 62
7
 10
2.09149954E+02
 20
-5.91678006E+01
 11
2.09649992E+02
 21
-5.86678367E+01
  0
LINE
  8
0
 62
7
 10
2.09649622E+02
 20
-6.36678393E+01
 11
2.09149658E+02
 21
-6.31678021E+01
  0
LINE
  8
0
 62
7
 10
2.09149952E+02
 20
-5.91678034E+01
 11
2.09149658E+02
 21
-6.31678034E+01
  0
LINE
  8
0
 62
7
 10
2.08149240E+02
 20
-6.88727319E+01
 11
2.08149387E+02
 21
-6.68727319E+01
  0
LINE
  8
0
 62
7
 10
2.10399622E+02
 20
-6.36678951E+01
 11
2.10399423E+02
 21
-6.63728969E+01
  0
LINE
  8
0
 62
7
 10
2.15149233E+02
 20
-6.88732475E+01
 11
2.14649207E+02
 21
-6.93732006E+01
  0
LINE
  8
0
 62
7
 10
2.07949203E+02
 20
-6.93727172E+01
 11
2.15349204E+02
 21
-6.93732599E+01
  0
LINE
  8
0
 62
7
 10
2.15649130E+02
 20
-7.03732819E+01
 11
2.15649181E+02
 21
-6.96732773E+01
  0
LINE
  8
0
 62
7
 10
2.07649130E+02
 20
-7.03726952E+01
 11
2.07649181E+02
 21
-6.96726906E+01
  0
LINE
  8
0
 62
7
 10
2.07649185E+02
 20
-6.96726892E+01
 11
2.07949201E+02
 21
-6.93727174E+01
  0
LINE
  8
0
 62
7
 10
2.15349200E+02
 20
-6.93732600E+01
 11
2.15649178E+02
 21
-6.96732813E+01
  0
LINE
  8
0
 62
7
 10
2.07649181E+02
 20
-6.96726906E+01
 11
2.15649181E+02
 21
-6.96732773E+01
  0
LINE
  8
0
  6
CENTER
 62
2
 10
2.11650266E+02
 20
-5.48867062E+01
 11
2.11649022E+02
 21
-7.18505352E+01
  0
LINE
  8
0
 62
7
 10
2.24746655E+02
 20
-1.61323601E+02
 11
2.28932577E+02
 21
-1.54074599E+02
  0
LINE
  8
0
 62
7
 10
2.25352848E+02
 20
-1.61673646E+02
 11
2.29538770E+02
 21
-1.54424644E+02
  0
LINE
  8
0
 62
7
 10
2.17899863E+02
 20
-6.03761782E+01
 11
2.36399863E+02
 21
-6.03775349E+01
  0
LINE
  8
0
 62
7
 10
2.17899863E+02
 20
-6.03761782E+01
 11
2.17890476E+02
 21
-1.88373443E+02
  0
LINE
  8
0
 62
7
 10
2.36399863E+02
 20
-6.03775349E+01
 11
2.36390476E+02
 21
-1.88374799E+02
  0
LINE
  8
0
 62
7
 10
2.17893630E+02
 20
-1.45376182E+02
 11
2.36393630E+02
 21
-1.45377539E+02
  0
LINE
  8
0
 62
7
 10
2.29147772E+02
 20
-8.88886075E+01
 11
2.29148288E+02
 21
-8.18566709E+01
  0
LINE
  8
0
 62
7
 10
2.25147772E+02
 20
-8.88883141E+01
 11
2.25148288E+02
 21
-8.18563775E+01
  0
LINE
  8
0
 62
7
 10
2.29861113E+02
 20
-8.83726915E+01
 11
2.29147810E+02
 21
-8.83726392E+01
  0
LINE
  8
0
 62
7
 10
2.24434507E+02
 20
-8.83722935E+01
 11
2.25147810E+02
 21
-8.83723458E+01
  0
LINE
  8
0
  6
CENTER
 62
2
 10
2.19680516E+02
 20
-8.53719449E+01
 11
2.34303799E+02
 21
-8.53730173E+01
  0
LINE
  8
0
 62
7
 10
2.36390476E+02
 20
-1.88374799E+02
 11
2.17890476E+02
 21
-1.88373443E+02
  0
LINE
  8
0
  6
CENTER
 62
2
 10
2.19862224E+02
 20
-1.80373587E+02
 11
2.34868656E+02
 21
-1.80374688E+02
  0
LINE
  8
0
 62
7
 10
2.23653905E+02
 20
-1.80873865E+02
 11
2.30628148E+02
 21
-1.80874377E+02
  0
LINE
  8
0
 62
7
 10
2.29150721E+02
 20
-4.86720015E+01
 11
2.25150721E+02
 21
-4.86717081E+01
  0
LINE
  8
0
 62
7
 10
2.25150355E+02
 20
-5.36717081E+01
 11
2.29150355E+02
 21
-5.36720014E+01
  0
LINE
  8
0
 62
7
 10
2.30150156E+02
 20
-5.63770766E+01
 11
2.24150156E+02
 21
-5.63766366E+01
  0
LINE
  8
0
 62
7
 10
2.30649973E+02
 20
-5.88771133E+01
 11
2.30650120E+02
 21
-5.68771133E+01
  0
LINE
  8
0
 62
7
 10
2.28400355E+02
 20
-5.36719464E+01
 11
2.28400156E+02
 21
-5.63769483E+01
  0
LINE
  8
0
 62
7
 10
2.30650124E+02
 20
-5.68771175E+01
 11
2.30150160E+02
 21
-5.63770803E+01
  0
LINE
  8
0
 62
7
 10
2.29650392E+02
 20
-5.31720462E+01
 11
2.29150355E+02
 21
-5.36720101E+01
  0
LINE
  8
0
 62
7
 10
2.29650688E+02
 20
-4.91720447E+01
 11
2.29150724E+02
 21
-4.86720075E+01
  0
LINE
  8
0
 62
7
 10
2.29650685E+02
 20
-4.91720381E+01
 11
2.29650391E+02
 21
-5.31720381E+01
  0
LINE
  8
0
 62
7
 10
2.23649972E+02
 20
-5.88766089E+01
 11
2.24149934E+02
 21
-5.93766434E+01
  0
LINE
  8
0
 62
7
 10
2.23650119E+02
 20
-5.68766068E+01
 11
2.24150156E+02
 21
-5.63766430E+01
  0
LINE
  8
0
 62
7
 10
2.24650685E+02
 20
-4.91716807E+01
 11
2.25150722E+02
 21
-4.86717169E+01
  0
LINE
  8
0
 62
7
 10
2.25150353E+02
 20
-5.36717195E+01
 11
2.24650389E+02
 21
-5.31716823E+01
  0
LINE
  8
0
 62
7
 10
2.24650685E+02
 20
-4.91716714E+01
 11
2.24650391E+02
 21
-5.31716714E+01
  0
LINE
  8
0
 62
7
 10
2.23649973E+02
 20
-5.88765999E+01
 11
2.23650120E+02
 21
-5.68765999E+01
  0
LINE
  8
0
 62
7
 10
2.25900355E+02
 20
-5.36717631E+01
 11
2.25900156E+02
 21
-5.63767649E+01
  0
LINE
  8
0
 62
7
 10
2.30649974E+02
 20
-5.88771169E+01
 11
2.30149937E+02
 21
-5.93770807E+01
  0
LINE
  8
0
 62
7
 10
2.23449939E+02
 20
-5.93765852E+01
 11
2.30849933E+02
 21
-5.93771279E+01
  0
LINE
  8
0
 62
7
 10
2.31149863E+02
 20
-6.03771499E+01
 11
2.31149914E+02
 21
-5.96771530E+01
  0
LINE
  8
0
 62
7
 10
2.23149863E+02
 20
-6.03765632E+01
 11
2.23149914E+02
 21
-5.96765663E+01
  0
LINE
  8
0
 62
7
 10
2.23149916E+02
 20
-5.96765693E+01
 11
2.23449932E+02
 21
-5.93765975E+01
  0
LINE
  8
0
 62
7
 10
2.30849931E+02
 20
-5.93771402E+01
 11
2.31149908E+02
 21
-5.96771614E+01
  0
LINE
  8
0
 62
7
 10
2.23149914E+02
 20
-5.96765663E+01
 11
2.31149914E+02
 21
-5.96771530E+01
  0
LINE
  8
0
  6
CENTER
 62
2
 10
2.27150999E+02
 20
-4.48905895E+01
 11
2.27140162E+02
 21
-1.92667159E+02
  0
LINE
  8
0
  6
CENTER
 62
2
 10
2.14643887E+02
 20
-1.41873205E+02
 11
2.39643886E+02
 21
-1.41875038E+02
  0
LINE
  8
0
  6
CENTER
 62
2
 10
1.61648837E+02
 20
-7.43693218E+01
 11
2.39648837E+02
 21
-7.43750419E+01
  0
LINE
  8
0
  6
CENTER
 62
2
 10
1.61643887E+02
 20
-1.41866579E+02
 11
2.19643887E+02
 21
-1.41870832E+02
  0
LINE
  8
0
 62
7
 10
1.74398397E+02
 20
-8.03702568E+01
 11
1.74648397E+02
 21
-8.03702751E+01
  0
LINE
  8
0
 62
7
 10
1.74647590E+02
 20
-9.13702751E+01
 11
1.74397590E+02
 21
-9.13702568E+01
  0
LINE
  8
0
 62
7
 10
1.74397135E+02
 20
-9.75702537E+01
 11
1.74647135E+02
 21
-9.75702720E+01
  0
LINE
  8
0
 62
7
 10
1.74394195E+02
 20
-1.37670252E+02
 11
1.74644195E+02
 21
-1.37670270E+02
  0
LINE
  8
0
 62
7
 10
1.74648397E+02
 20
-8.03702751E+01
 11
1.74898397E+02
 21
-8.03702935E+01
  0
LINE
  8
0
 62
7
 10
1.74897590E+02
 20
-9.13702934E+01
 11
1.74647590E+02
 21
-9.13702751E+01
  0
LINE
  8
0
 62
7
 10
1.74647135E+02
 20
-9.75702720E+01
 11
1.74897135E+02
 21
-9.75702904E+01
  0
LINE
  8
0
 62
7
 10
1.74644195E+02
 20
-1.37670270E+02
 11
1.74894195E+02
 21
-1.37670289E+02
  0
LINE
  8
0
 62
7
 10
1.85398397E+02
 20
-8.03710635E+01
 11
1.85648397E+02
 21
-8.03710818E+01
  0
LINE
  8
0
 62
7
 10
1.85647590E+02
 20
-9.13710818E+01
 11
1.85397590E+02
 21
-9.13710635E+01
  0
LINE
  8
0
 62
7
 10
1.85397135E+02
 20
-9.75710604E+01
 11
1.85647135E+02
 21
-9.75710787E+01
  0
LINE
  8
0
 62
7
 10
1.85394195E+02
 20
-1.37671059E+02
 11
1.85644195E+02
 21
-1.37671077E+02
  0
LINE
  8
0
 62
7
 10
1.85648397E+02
 20
-8.03710818E+01
 11
1.85898397E+02
 21
-8.03711001E+01
  0
LINE
  8
0
 62
7
 10
1.85897590E+02
 20
-9.13711001E+01
 11
1.85647590E+02
 21
-9.13710818E+01
  0
LINE
  8
0
 62
7
 10
1.85647135E+02
 20
-9.75710787E+01
 11
1.85897135E+02
 21
-9.75710970E+01
  0
LINE
  8
0
 62
7
 10
1.85644195E+02
 20
-1.37671077E+02
 11
1.85894195E+02
 21
-1.37671095E+02
  0
LINE
  8
0
 62
7
 10
2.01398397E+02
 20
-8.03722368E+01
 11
2.01648397E+02
 21
-8.03722552E+01
  0
LINE
  8
0
 62
7
 10
2.01647590E+02
 20
-9.13722551E+01
 11
2.01397590E+02
 21
-9.13722368E+01
  0
LINE
  8
0
 62
7
 10
2.01397135E+02
 20
-9.75722337E+01
 11
2.01647135E+02
 21
-9.75722521E+01
  0
LINE
  8
0
 62
7
 10
2.01394195E+02
 20
-1.37672232E+02
 11
2.01644195E+02
 21
-1.37672250E+02
  0
LINE
  8
0
 62
7
 10
2.01648397E+02
 20
-8.03722552E+01
 11
2.01898397E+02
 21
-8.03722735E+01
  0
LINE
  8
0
 62
7
 10
2.01897590E+02
 20
-9.13722735E+01
 11
2.01647590E+02
 21
-9.13722551E+01
  0
LINE
  8
0
 62
7
 10
2.01647135E+02
 20
-9.75722521E+01
 11
2.01897135E+02
 21
-9.75722704E+01
  0
LINE
  8
0
 62
7
 10
2.01644195E+02
 20
-1.37672250E+02
 11
2.01894195E+02
 21
-1.37672269E+02
  0
LINE
  8
0
 62
7
 10
2.17398397E+02
 20
-8.03734102E+01
 11
2.17648397E+02
 21
-8.03734285E+01
  0
LINE
  8
0
 62
7
 10
2.17647590E+02
 20
-9.13734285E+01
 11
2.17397590E+02
 21
-9.13734102E+01
  0
LINE
  8
0
 62
7
 10
2.17397135E+02
 20
-9.75734071E+01
 11
2.17647135E+02
 21
-9.75734254E+01
  0
LINE
  8
0
 62
7
 10
2.17394195E+02
 20
-1.37673405E+02
 11
2.17644195E+02
 21
-1.37673424E+02
  0
LINE
  8
0
 62
7
 10
2.17648397E+02
 20
-8.03734285E+01
 11
2.17898397E+02
 21
-8.03734469E+01
  0
LINE
  8
0
 62
7
 10
2.17897590E+02
 20
-9.13734468E+01
 11
2.17647590E+02
 21
-9.13734285E+01
  0
LINE
  8
0
 62
7
 10
2.17647135E+02
 20
-9.75734254E+01
 11
2.17897135E+02
 21
-9.75734438E+01
  0
LINE
  8
0
 62
7
 10
2.17644195E+02
 20
-1.37673424E+02
 11
2.17894195E+02
 21
-1.37673442E+02
  0
LINE
  8
0
 62
7
 10
2.52139817E+02
 20
-1.97373215E+02
 11
2.36639817E+02
 21
-1.97372078E+02
  0
LINE
  8
0
 62
7
 10
1.63649130E+02
 20
-7.03667219E+01
 11
1.63639817E+02
 21
-1.97366725E+02
  0
LINE
  8
0
 62
7
 10
2.52140477E+02
 20
-1.88373215E+02
 11
2.43140477E+02
 21
-1.88372555E+02
  0
LINE
  8
0
 62
7
 10
2.52145500E+02
 20
-1.19873212E+02
 11
2.52139817E+02
 21
-1.97373215E+02
  0
LINE
  8
0
 62
7
 10
2.52149130E+02
 20
-7.03732120E+01
 11
2.36649130E+02
 21
-7.03720753E+01
  0
LINE
  8
0
 62
7
 10
2.52145449E+02
 20
-1.20573216E+02
 11
2.51145449E+02
 21
-1.20573143E+02
  0
LINE
  8
0
 62
7
 10
2.52149130E+02
 20
-7.03732120E+01
 11
2.52147355E+02
 21
-9.45732165E+01
  0
LINE
  8
0
 62
7
 10
1.48145449E+02
 20
-1.20565590E+02
 11
1.48139816E+02
 21
-1.97372848E+02
  0
LINE
  8
0
 62
7
 10
1.48149131E+02
 20
-7.03628463E+01
 11
1.48147356E+02
 21
-9.45628508E+01
  0
LINE
  8
0
 62
7
 10
1.48149131E+02
 20
-7.03628463E+01
 11
1.63649131E+02
 21
-7.03639829E+01
  0
LINE
  8
0
 62
7
 10
1.48140477E+02
 20
-1.88362848E+02
 11
1.57140477E+02
 21
-1.88363508E+02
  0
LINE
  8
0
 62
7
 10
1.48139816E+02
 20
-1.97372848E+02
 11
1.63639816E+02
 21
-1.97373985E+02
  0
LINE
  8
0
 62
7
 10
1.47547356E+02
 20
-9.45655457E+01
 11
1.49147356E+02
 21
-9.45656631E+01
  0
LINE
  8
0
 62
7
 10
1.49147356E+02
 20
-9.45656631E+01
 11
1.49145449E+02
 21
-1.20565663E+02
  0
LINE
  8
0
 62
7
 10
1.47545449E+02
 20
-1.20565546E+02
 11
1.49145449E+02
 21
-1.20565663E+02
  0
LINE
  8
0
 62
7
 10
2.36649130E+02
 20
-7.03693364E+01
 11
2.36639816E+02
 21
-1.97379338E+02
  0
LINE
  8
0
 62
7
 10
1.47547356E+02
 20
-9.45655457E+01
 11
1.47545449E+02
 21
-1.20565546E+02
  0
LINE
  8
0
 62
7
 10
1.57139816E+02
 20
-1.97373508E+02
 11
1.57140477E+02
 21
-1.88363508E+02
  0
LINE
  8
0
 62
7
 10
2.43139817E+02
 20
-1.97372555E+02
 11
2.43140477E+02
 21
-1.88372555E+02
  0
LINE
  8
0
 62
7
 10
2.51147355E+02
 20
-9.45731432E+01
 11
2.51145449E+02
 21
-1.20573143E+02
  0
LINE
  8
0
 62
7
 10
2.52147355E+02
 20
-9.45732165E+01
 11
2.51147355E+02
 21
-9.45731432E+01
  0
LINE
  8
0
 62
7
 10
2.77742547E+02
 20
-1.60125093E+02
 11
2.77742143E+02
 21
-1.65625093E+02
  0
LINE
  8
0
 62
7
 10
2.74742547E+02
 20
-1.60124873E+02
 11
2.77742547E+02
 21
-1.60125093E+02
  0
LINE
  8
0
 62
7
 10
2.74742143E+02
 20
-1.65624873E+02
 11
2.77742143E+02
 21
-1.65625093E+02
  0
LINE
  8
0
  6
CENTER
 62
2
 10
2.74352506E+02
 20
-1.62874844E+02
 11
2.78147817E+02
 21
-1.62875123E+02
  0
LINE
  8
0
 62
7
 10
2.77746580E+02
 20
-1.05125089E+02
 11
2.77746177E+02
 21
-1.10625089E+02
  0
LINE
  8
0
 62
7
 10
2.74746580E+02
 20
-1.05124869E+02
 11
2.77746580E+02
 21
-1.05125089E+02
  0
LINE
  8
0
 62
7
 10
2.74746177E+02
 20
-1.10624869E+02
 11
2.77746177E+02
 21
-1.10625089E+02
  0
LINE
  8
0
  6
CENTER
 62
2
 10
2.74356539E+02
 20
-1.07874841E+02
 11
2.78151850E+02
 21
-1.07875119E+02
  0
LINE
  8
0
 62
7
 10
2.77747240E+02
 20
-9.61250893E+01
 11
2.77746837E+02
 21
-1.01625089E+02
  0
LINE
  8
0
 62
7
 10
2.74747240E+02
 20
-9.61248693E+01
 11
2.77747240E+02
 21
-9.61250893E+01
  0
LINE
  8
0
 62
7
 10
2.74746837E+02
 20
-1.01624869E+02
 11
2.77746837E+02
 21
-1.01625089E+02
  0
LINE
  8
0
  6
CENTER
 62
2
 10
2.74357199E+02
 20
-9.88748407E+01
 11
2.78152510E+02
 21
-9.88751190E+01
  0
LINE
  8
0
 62
7
 10
2.74742125E+02
 20
-1.65874873E+02
 11
2.74747258E+02
 21
-9.58748693E+01
  0
LINE
  8
0
 62
7
 10
2.74747258E+02
 20
-9.58748693E+01
 11
2.51147260E+02
 21
-9.58731386E+01
  0
LINE
  8
0
 62
7
 10
2.74742125E+02
 20
-1.65874873E+02
 11
2.52142127E+02
 21
-1.65873216E+02
  0
LINE
  8
0
 62
7
 10
2.51145500E+02
 20
-1.19873139E+02
 11
2.52145500E+02
 21
-1.19873212E+02
  0
LINE
  8
0
 62
7
 10
2.73142127E+02
 20
-1.65874756E+02
 11
2.73147260E+02
 21
-9.58747520E+01
  0
LINE
  8
0
 62
7
 10
2.36648397E+02
 20
-8.03748219E+01
 11
2.36398397E+02
 21
-8.03748036E+01
  0
LINE
  8
0
 62
7
 10
2.36647590E+02
 20
-9.13748219E+01
 11
2.36397590E+02
 21
-9.13748035E+01
  0
LINE
  8
0
 62
7
 10
2.36647135E+02
 20
-9.75748188E+01
 11
2.36397135E+02
 21
-9.75748005E+01
  0
LINE
  8
0
 62
7
 10
1.63647135E+02
 20
-9.75694654E+01
 11
1.63897135E+02
 21
-9.75694837E+01
  0
LINE
  8
0
 62
7
 10
1.63647590E+02
 20
-9.13694684E+01
 11
1.63897590E+02
 21
-9.13694868E+01
  0
LINE
  8
0
 62
7
 10
1.44547242E+02
 20
-9.61153211E+01
 11
1.44546838E+02
 21
-1.01615321E+02
  0
LINE
  8
0
 62
7
 10
1.47547242E+02
 20
-9.61155411E+01
 11
1.44547242E+02
 21
-9.61153211E+01
  0
LINE
  8
0
 62
7
 10
1.47546839E+02
 20
-1.01615541E+02
 11
1.44546838E+02
 21
-1.01615321E+02
  0
LINE
  8
0
 62
7
 10
1.44546582E+02
 20
-1.05115321E+02
 11
1.44546178E+02
 21
-1.10615321E+02
  0
LINE
  8
0
 62
7
 10
1.47546582E+02
 20
-1.05115541E+02
 11
1.44546582E+02
 21
-1.05115321E+02
  0
LINE
  8
0
 62
7
 10
1.47546179E+02
 20
-1.10615541E+02
 11
1.44546178E+02
 21
-1.10615321E+02
  0
LINE
  8
0
 62
7
 10
1.44545922E+02
 20
-1.14115321E+02
 11
1.44545518E+02
 21
-1.19615321E+02
  0
LINE
  8
0
 62
7
 10
1.47545922E+02
 20
-1.14115541E+02
 11
1.44545922E+02
 21
-1.14115321E+02
  0
LINE
  8
0
 62
7
 10
1.47545519E+02
 20
-1.19615541E+02
 11
1.44545518E+02
 21
-1.19615321E+02
  0
LINE
  8
0
  6
CENTER
 62
2
 10
1.52047040E+02
 20
-9.88658711E+01
 11
1.41930676E+02
 21
-9.88651293E+01
  0
LINE
  8
0
  6
CENTER
 62
2
 10
1.52046380E+02
 20
-1.07865871E+02
 11
1.41930016E+02
 21
-1.07865129E+02
  0
LINE
  8
0
  6
CENTER
 62
2
 10
1.52045720E+02
 20
-1.16865871E+02
 11
1.41929356E+02
 21
-1.16865129E+02
  0
LINE
  8
0
  6
CENTER
 62
2
 10
1.53139467E+02
 20
-2.02138281E+02
 11
1.53140825E+02
 21
-1.83613784E+02
  0
LINE
  8
0
  6
CENTER
 62
2
 10
2.47139467E+02
 20
-2.02145175E+02
 11
2.47140825E+02
 21
-1.83620677E+02
  0
CIRCLE
  8
0
 62
7
 10
1.69142897E+02
 20
-1.55367129E+02
 40
2.70000005E+00
  0
CIRCLE
  8
0
 62
7
 10
1.69142897E+02
 20
-1.55367129E+02
 40
3.25000000E+00
  0
CIRCLE
  8
0
 62
7
 10
1.69142897E+02
 20
-1.55367129E+02
 40
3.20000005E+00
  0
CIRCLE
  8
0
 62
2
 10
1.67897847E+02
 20
-8.78697801E+01
 40
2.50000000E+00
  0
CIRCLE
  8
0
 62
7
 10
1.67897847E+02
 20
-8.78697801E+01
 40
2.00000000E+00
  0
CIRCLE
  8
0
 62
7
 10
1.69141503E+02
 20
-1.74367129E+02
 40
2.00000000E+00
  0
CIRCLE
  8
0
 62
2
 10
1.69141503E+02
 20
-1.74367129E+02
 40
2.50000000E+00
  0
CIRCLE
  8
0
 62
7
 10
1.80142897E+02
 20
-1.55367936E+02
 40
2.70000005E+00
  0
CIRCLE
  8
0
 62
7
 10
1.80142897E+02
 20
-1.55367936E+02
 40
3.25000000E+00
  0
CIRCLE
  8
0
 62
7
 10
1.80142897E+02
 20
-1.55367936E+02
 40
3.20000005E+00
  0
CIRCLE
  8
0
 62
2
 10
1.78897847E+02
 20
-8.78705868E+01
 40
2.50000000E+00
  0
CIRCLE
  8
0
 62
7
 10
1.78897847E+02
 20
-8.78705868E+01
 40
2.00000000E+00
  0
CIRCLE
  8
0
 62
7
 10
1.80141503E+02
 20
-1.74367935E+02
 40
2.00000000E+00
  0
CIRCLE
  8
0
 62
2
 10
1.80141503E+02
 20
-1.74367935E+02
 40
2.50000000E+00
  0
CIRCLE
  8
0
 62
7
 10
1.93642713E+02
 20
-1.57868926E+02
 40
4.30000019E+00
  0
CIRCLE
  8
0
 62
7
 10
1.93642713E+02
 20
-1.57868926E+02
 40
4.19999981E+00
  0
CIRCLE
  8
0
 62
7
 10
1.93642713E+02
 20
-1.57868926E+02
 40
3.70000005E+00
  0
CIRCLE
  8
0
 62
2
 10
1.93647883E+02
 20
-8.73716685E+01
 40
4.86399984E+00
  0
CIRCLE
  8
0
 62
7
 10
1.93647883E+02
 20
-8.73716685E+01
 40
4.28299999E+00
  0
CIRCLE
  8
0
 62
7
 10
1.93640895E+02
 20
-1.82668925E+02
 40
8.00000012E-01
  0
CIRCLE
  8
0
 62
7
 10
1.93641063E+02
 20
-1.80368925E+02
 40
4.25000000E+00
  0
ARC
  8
0
 62
7
 10
1.91941121E+02
 20
-1.79568800E+02
 40
3.00000012E-01
 50
1.79995793E+02
 51
2.70000000E+02
  0
ARC
  8
0
 62
7
 10
1.95341123E+02
 20
-1.79569049E+02
 40
3.00000012E-01
 50
2.70000000E+02
 51
3.59995798E+02
  0
ARC
  8
0
 62
7
 10
1.93641210E+02
 20
-1.78368925E+02
 40
2.00000000E+00
 50
3.59995798E+02
 51
1.79995803E+02
  0
CIRCLE
  8
0
 62
2
 10
1.93641063E+02
 20
-1.80368925E+02
 40
4.86399984E+00
  0
CIRCLE
  8
0
 62
7
 10
2.09642713E+02
 20
-1.57870099E+02
 40
4.30000019E+00
  0
CIRCLE
  8
0
 62
7
 10
2.09642713E+02
 20
-1.57870099E+02
 40
4.19999981E+00
  0
CIRCLE
  8
0
 62
7
 10
2.09642713E+02
 20
-1.57870099E+02
 40
3.70000005E+00
  0
CIRCLE
  8
0
 62
2
 10
2.09647883E+02
 20
-8.73728418E+01
 40
4.86399984E+00
  0
CIRCLE
  8
0
 62
7
 10
2.09647883E+02
 20
-8.73728418E+01
 40
4.28299999E+00
  0
CIRCLE
  8
0
 62
7
 10
2.09640895E+02
 20
-1.82670098E+02
 40
8.00000012E-01
  0
CIRCLE
  8
0
 62
7
 10
2.09641063E+02
 20
-1.80370099E+02
 40
4.25000000E+00
  0
ARC
  8
0
 62
7
 10
2.07941121E+02
 20
-1.79569973E+02
 40
3.00000012E-01
 50
1.79995793E+02
 51
2.70000000E+02
  0
ARC
  8
0
 62
7
 10
2.11341123E+02
 20
-1.79570222E+02
 40
3.00000012E-01
 50
2.70000000E+02
 51
3.59995798E+02
  0
ARC
  8
0
 62
7
 10
2.09641210E+02
 20
-1.78370099E+02
 40
2.00000000E+00
 50
3.59995798E+02
 51
1.79995803E+02
  0
CIRCLE
  8
0
 62
2
 10
2.09641063E+02
 20
-1.80370099E+02
 40
4.86399984E+00
  0
CIRCLE
  8
0
 62
7
 10
2.27142713E+02
 20
-1.57874121E+02
 40
3.70000005E+00
  0
CIRCLE
  8
0
 62
7
 10
2.27142713E+02
 20
-1.57874121E+02
 40
4.19999981E+00
  0
CIRCLE
  8
0
 62
7
 10
2.27142713E+02
 20
-1.57874121E+02
 40
4.30000019E+00
  0
CIRCLE
  8
0
 62
2
 10
2.27148030E+02
 20
-8.53724925E+01
 40
4.86399984E+00
  0
CIRCLE
  8
0
 62
7
 10
2.27148030E+02
 20
-8.53724925E+01
 40
4.04500008E+00
  0
CIRCLE
  8
0
 62
2
 10
2.27141063E+02
 20
-1.80374121E+02
 40
4.86399984E+00
  0
CIRCLE
  8
0
 62
7
 10
2.27141063E+02
 20
-1.80374121E+02
 40
4.28299999E+00
  0
ARC
  8
0
 62
7
 10
2.27141026E+02
 20
-1.80874121E+02
 40
3.79999995E+00
 50
4.91289837E+00
 51
1.75078696E+02
  0
ARC
  8
0
 62
7
 10
2.23653927E+02
 20
-1.80573866E+02
 40
3.00000012E-01
 50
1.75078696E+02
 51
2.70000000E+02
  0
ARC
  8
0
 62
7
 10
2.30628170E+02
 20
-1.80574378E+02
 40
3.00000012E-01
 50
2.70000000E+02
 51
4.91289837E+00
  0
INSERT
  8
0
  2
ARROW
  6
BYBLOCK
 62
2
 10
1.53139816E+02
 20
2.81766968E+01
 41
1.00000000E+00
 42
1.00000000E+00
 50
0.00000000E+00
  0
LINE
  8
0
 62
2
 10
1.53139816E+02
 20
2.81766968E+01
 11
1.53639816E+02
 21
2.81766968E+01
  0
LINE
  8
0
 62
2
 10
2.44639816E+02
 20
2.81766968E+01
 11
1.53139816E+02
 21
2.81766968E+01
  0
TEXT
  8
0
 62
2
 10
1.57053878E+02
 20
2.91766968E+01
 40
6.30000019E+00
  1
P=(L
 41
1.00000000E+00
  7
MONOTXT
  0
TEXT
  8
0
 62
2
 10
1.81909347E+02
 20
2.81923221E+01
 40
3.15000010E+00
  1
1
 41
1.00000000E+00
  7
MONOTXT
  0
TEXT
  8
0
 62
2
 10
1.85403879E+02
 20
2.91766968E+01
 40
6.30000019E+00
  1
+L
 41
1.00000000E+00
  7
MONOTXT
  0
TEXT
  8
0
 62
2
 10
1.97659347E+02
 20
2.81923221E+01
 40
3.15000010E+00
  1
2
 41
1.00000000E+00
  7
MONOTXT
  0
TEXT
  8
0
 62
2
 10
2.01153879E+02
 20
2.91766968E+01
 40
6.30000019E+00
  1
+L
 41
1.00000000E+00
  7
MONOTXT
  0
TEXT
  8
0
 62
2
 10
2.13409348E+02
 20
2.81923221E+01
 40
3.15000010E+00
  1
3
 41
1.00000000E+00
  7
MONOTXT
  0
TEXT
  8
0
 62
2
 10
2.16903880E+02
 20
2.91766968E+01
 40
6.30000019E+00
  1
+21)
 41
1.00000000E+00
  7
MONOTXT
  0
DIMENSION
  8
0
  2
*D1
 10
1.63639816E+02
 20
-4.20582428E+01
 11
1.19474880E+02
 21
-3.63332427E+01
 13
1.48139816E+02
 23
-6.88659592E+01
 14
1.63639816E+02
 24
-6.88659592E+01
  0
DIMENSION
  8
0
  2
*D2
 10
1.85639816E+02
 20
-4.20582428E+01
 11
1.72178878E+02
 21
-3.63332427E+01
 13
1.63639816E+02
 23
-6.88659592E+01
 14
1.85639816E+02
 24
-7.88686981E+01
  0
DIMENSION
  8
0
  2
*D3
 10
2.17639816E+02
 20
-4.20582428E+01
 11
1.99178878E+02
 21
-3.63332427E+01
 13
1.85639816E+02
 23
-7.88686981E+01
 14
2.17639816E+02
 24
-7.88686981E+01
  0
DIMENSION
  8
0
  2
*D4
 10
2.36639816E+02
 20
-4.20582428E+01
 11
2.24678878E+02
 21
-3.63332427E+01
 13
2.17639816E+02
 23
-7.88686981E+01
 14
2.36639816E+02
 24
-6.88632202E+01
  0
DIMENSION
  8
0
  2
*D5
 10
2.52139816E+02
 20
-4.20582428E+01
 11
2.53283642E+02
 21
-3.63332427E+01
 13
2.36639816E+02
 23
-6.88632202E+01
 14
2.52139816E+02
 24
-6.88632202E+01
  0
LINE
  8
0
 62
2
 10
1.48139816E+02
 20
-3.03659592E+01
 11
1.48139816E+02
 21
-2.88659592E+01
  0
LINE
  8
0
 62
2
 10
1.48139816E+02
 20
-6.88659592E+01
 11
1.48139816E+02
 21
-3.03659592E+01
  0
LINE
  8
0
 62
2
 10
2.52139816E+02
 20
-3.03659592E+01
 11
2.52139816E+02
 21
-2.88659592E+01
  0
LINE
  8
0
 62
2
 10
2.52139816E+02
 20
-6.88632202E+01
 11
2.52139816E+02
 21
-3.03659592E+01
  0
INSERT
  8
0
  2
ARROW
  6
BYBLOCK
 62
2
 10
1.48139816E+02
 20
-3.03659592E+01
 41
1.00000000E+00
 42
1.00000000E+00
 50
0.00000000E+00
  0
LINE
  8
0
 62
2
 10
1.48139816E+02
 20
-3.03659592E+01
 11
1.48639816E+02
 21
-3.03659592E+01
  0
INSERT
  8
0
  2
ARROW
  6
BYBLOCK
 62
2
 10
2.52139816E+02
 20
-3.03659592E+01
 41
1.00000000E+00
 42
1.00000000E+00
 50
1.80000000E+02
  0
LINE
  8
0
 62
2
 10
2.52139816E+02
 20
-3.03659592E+01
 11
2.51639816E+02
 21
-3.03659592E+01
  0
LINE
  8
0
 62
2
 10
1.48139816E+02
 20
-3.03659592E+01
 11
2.52139816E+02
 21
-3.03659592E+01
  0
TEXT
  8
0
 62
2
 10
1.57639816E+02
 20
-2.93659591E+01
 40
6.40000010E+00
  1
L=(L
 41
1.00000000E+00
  7
MONOTXT
  0
TEXT
  8
0
 62
2
 10
1.82889816E+02
 20
-3.03659590E+01
 40
3.20000005E+00
  1
1
 41
1.00000000E+00
  7
MONOTXT
  0
TEXT
  8
0
 62
2
 10
1.86439816E+02
 20
-2.93659591E+01
 40
6.40000010E+00
  1
+L
 41
1.00000000E+00
  7
MONOTXT
  0
TEXT
  8
0
 62
2
 10
1.98889816E+02
 20
-3.03659590E+01
 40
3.20000005E+00
  1
2
 41
1.00000000E+00
  7
MONOTXT
  0
TEXT
  8
0
 62
2
 10
2.02439816E+02
 20
-2.93659591E+01
 40
6.40000010E+00
  1
+L
 41
1.00000000E+00
  7
MONOTXT
  0
TEXT
  8
0
 62
2
 10
2.14889816E+02
 20
-3.03659590E+01
 40
3.20000005E+00
  1
3
 41
1.00000000E+00
  7
MONOTXT
  0
TEXT
  8
0
 62
2
 10
2.18439817E+02
 20
-2.93659591E+01
 40
6.40000010E+00
  1
+31)
 41
1.00000000E+00
  7
MONOTXT
  0
DIMENSION
  8
0
  2
*D6
 10
1.48139816E+02
 20
2.81766968E+01
 11
1.38935226E+02
 21
3.39016969E+01
 13
1.53139816E+02
 23
6.29579391E+01
 14
1.48139816E+02
 24
6.16340408E+01
 50
1.80000000E+02
  0
DIMENSION
  8
0
  2
*D7
 10
2.47139816E+02
 20
2.81766968E+01
 11
2.54208924E+02
 21
3.39016969E+01
 13
2.52139816E+02
 23
6.16340408E+01
 14
2.47139816E+02
 24
6.36340408E+01
 50
1.80000000E+02
  0
TEXT
  8
0
 62
7
 10
-3.69850268E+02
 20
2.63100000E+02
 40
6.29999924E+00
  1
GME SERIES
 41
1.06382946E+00
  7
MONOTXT
  0
TEXT
  8
0
 62
7
 10
-3.85600561E+02
 20
2.38100000E+02
 40
6.29999924E+00
  1
MODEL:GMEM5A-KR
 41
9.99999697E-01
  7
MONOTXT
  0
TEXT
  8
0
 62
7
 10
3.15499656E+02
 20
2.63100000E+02
 40
6.29999924E+00
  1
Ver. 1.0
 41
1.08108075E+00
  7
MONOTXT
  0
TEXT
  8
0
 62
7
 10
2.87585227E+02
 20
-2.71250000E+02
 40
9.00000000E+00
  1
KOGANEI CORP.
 41
1.04838732E+00
  7
MONOTXT
  0
TEXT
  8
0
 62
7
 10
-6.76924233E+01
 20
8.79887176E+01
 40
6.30000019E+00
  1
95
 41
1.00000000E+00
  7
MONOTXT
  0
TEXT
  8
0
 62
7
 10
-6.76924233E+01
 20
9.79887179E+01
 40
6.30000019E+00
  1
76
 41
1.00000000E+00
  7
MONOTXT
  0
TEXT
  8
0
 62
7
 10
-6.76924233E+01
 20
1.07988718E+02
 40
6.30000019E+00
  1
57
 41
1.00000000E+00
  7
MONOTXT
  0
TEXT
  8
0
 62
7
 10
-6.76924233E+01
 20
1.17988718E+02
 40
6.30000019E+00
  1
38
 41
1.00000000E+00
  7
MONOTXT
  0
TEXT
  8
0
 62
7
 10
-6.76924233E+01
 20
1.27988718E+02
 40
6.30000019E+00
  1
19
 41
1.00000000E+00
  7
MONOTXT
  0
TEXT
  8
0
 62
7
 10
-1.25192427E+02
 20
8.80480895E+01
 40
6.30000019E+00
  1
80
 41
1.00000000E+00
  7
MONOTXT
  0
TEXT
  8
0
 62
7
 10
-1.25192427E+02
 20
9.80480899E+01
 40
6.30000019E+00
  1
64
 41
1.00000000E+00
  7
MONOTXT
  0
TEXT
  8
0
 62
7
 10
-1.25192427E+02
 20
1.08048090E+02
 40
6.30000019E+00
  1
48
 41
1.00000000E+00
  7
MONOTXT
  0
TEXT
  8
0
 62
7
 10
-1.25192427E+02
 20
1.18048090E+02
 40
6.30000019E+00
  1
32
 41
1.00000000E+00
  7
MONOTXT
  0
TEXT
  8
0
 62
7
 10
-1.25192427E+02
 20
1.28048090E+02
 40
6.30000019E+00
  1
16
 41
1.00000000E+00
  7
MONOTXT
  0
TEXT
  8
0
 62
7
 10
-1.85192419E+02
 20
8.80480895E+01
 40
6.30000019E+00
  1
55
 41
1.00000000E+00
  7
MONOTXT
  0
TEXT
  8
0
 62
7
 10
-1.85192419E+02
 20
9.80480899E+01
 40
6.30000019E+00
  1
44
 41
1.00000000E+00
  7
MONOTXT
  0
TEXT
  8
0
 62
7
 10
-1.85192419E+02
 20
1.08048090E+02
 40
6.30000019E+00
  1
33
 41
1.00000000E+00
  7
MONOTXT
  0
TEXT
  8
0
 62
7
 10
-1.85192419E+02
 20
1.18048090E+02
 40
6.30000019E+00
  1
22
 41
1.00000000E+00
  7
MONOTXT
  0
TEXT
  8
0
 62
7
 10
-1.85192419E+02
 20
1.28048090E+02
 40
6.30000019E+00
  1
11
 41
1.00000000E+00
  7
MONOTXT
  0
TEXT
  8
0
 62
7
 10
-2.69742420E+02
 20
1.48166839E+02
 40
6.30000019E+00
  1
NUMBER
 41
1.00000000E+00
  7
MONOTXT
  0
TEXT
  8
0
 62
7
 10
-2.69742420E+02
 20
1.37929340E+02
 40
6.30000019E+00
  1
 OF UNITS
 41
1.15384615E+00
  7
MONOTXT
  0
TEXT
  8
0
 62
7
 10
-2.05667420E+02
 20
1.43107462E+02
 40
6.30000019E+00
  1
L
 41
1.00000000E+00
  7
MONOTXT
  0
TEXT
  8
0
 62
7
 10
-1.99711952E+02
 20
1.42123087E+02
 40
3.15000010E+00
  1
1
 41
1.00000000E+00
  7
MONOTXT
  0
TEXT
  8
0
 62
7
 10
-1.96217419E+02
 20
1.43107462E+02
 40
6.30000019E+00
  1
(GME05)
 41
1.00000000E+00
  7
MONOTXT
  0
TEXT
  8
0
 62
7
 10
-1.45667427E+02
 20
1.43107462E+02
 40
6.30000019E+00
  1
L
 41
1.00000000E+00
  7
MONOTXT
  0
TEXT
  8
0
 62
7
 10
-1.39711959E+02
 20
1.42123087E+02
 40
3.15000010E+00
  1
2
 41
1.00000000E+00
  7
MONOTXT
  0
TEXT
  8
0
 62
7
 10
-1.36217427E+02
 20
1.43107462E+02
 40
6.30000019E+00
  1
(GME07)
 41
1.00000000E+00
  7
MONOTXT
  0
TEXT
  8
0
 62
7
 10
-8.81674240E+01
 20
1.43048090E+02
 40
6.30000019E+00
  1
L
 41
1.00000000E+00
  7
MONOTXT
  0
TEXT
  8
0
 62
7
 10
-8.22119551E+01
 20
1.42063715E+02
 40
3.15000010E+00
  1
3
 41
1.00000000E+00
  7
MONOTXT
  0
TEXT
  8
0
 62
7
 10
-7.87174237E+01
 20
1.43048090E+02
 40
6.30000019E+00
  1
(GME10)
 41
1.00000000E+00
  7
MONOTXT
  0
TEXT
  8
0
 62
7
 10
-2.44542419E+02
 20
1.28048090E+02
 40
6.30000019E+00
  1
1
 41
1.00000000E+00
  7
MONOTXT
  0
TEXT
  8
0
 62
7
 10
-2.44542419E+02
 20
1.18048090E+02
 40
6.30000019E+00
  1
2
 41
1.00000000E+00
  7
MONOTXT
  0
TEXT
  8
0
 62
7
 10
-2.44542419E+02
 20
1.08048090E+02
 40
6.30000019E+00
  1
3
 41
1.00000000E+00
  7
MONOTXT
  0
TEXT
  8
0
 62
7
 10
-2.44542419E+02
 20
9.80480899E+01
 40
6.30000019E+00
  1
4
 41
1.00000000E+00
  7
MONOTXT
  0
TEXT
  8
0
 62
7
 10
-2.44542419E+02
 20
8.80480895E+01
 40
6.30000019E+00
  1
5
 41
1.00000000E+00
  7
MONOTXT
  0
LINE
  8
0
 62
7
 10
3.99799805E+02
 20
2.76250000E+02
 11
3.99799805E+02
 21
-2.76750000E+02
  0
LINE
  8
0
 62
7
 10
-3.99250000E+02
 20
2.76250000E+02
 11
-3.99250000E+02
 21
-2.76750000E+02
  0
LINE
  8
0
 62
7
 10
-3.99250000E+02
 20
2.76250000E+02
 11
3.99799805E+02
 21
2.76250000E+02
  0
LINE
  8
0
 62
7
 10
-3.99250000E+02
 20
-2.76750000E+02
 11
3.99799805E+02
 21
-2.76750000E+02
  0
LINE
  8
0
 62
7
 10
-2.79250000E+02
 20
2.76250000E+02
 11
-2.79250000E+02
 21
2.56250000E+02
  0
LINE
  8
0
 62
7
 10
-3.99250000E+02
 20
2.56250000E+02
 11
-2.79250000E+02
 21
2.56250000E+02
  0
LINE
  8
0
 62
7
 10
2.79799927E+02
 20
2.76250000E+02
 11
2.79799927E+02
 21
2.56250000E+02
  0
LINE
  8
0
 62
7
 10
2.79799927E+02
 20
2.56250000E+02
 11
3.99799805E+02
 21
2.56250000E+02
  0
LINE
  8
0
 62
7
 10
2.79799927E+02
 20
-2.56750000E+02
 11
2.79799927E+02
 21
-2.76750000E+02
  0
LINE
  8
0
 62
7
 10
2.79799927E+02
 20
-2.56750000E+02
 11
3.99799805E+02
 21
-2.56750000E+02
  0
LINE
  8
0
 62
7
 10
-2.72081482E+02
 20
8.61980896E+01
 11
-2.72081482E+02
 21
1.56198090E+02
  0
LINE
  8
0
 62
7
 10
-2.72081482E+02
 20
8.61980896E+01
 11
-3.20814857E+01
 21
8.61980896E+01
  0
LINE
  8
0
 62
7
 10
-2.72081482E+02
 20
9.61980896E+01
 11
-3.20814857E+01
 21
9.61980896E+01
  0
LINE
  8
0
 62
7
 10
-2.72081482E+02
 20
1.06198090E+02
 11
-3.20814857E+01
 21
1.06198090E+02
  0
LINE
  8
0
 62
7
 10
-2.72081482E+02
 20
1.16198090E+02
 11
-3.20814857E+01
 21
1.16198090E+02
  0
LINE
  8
0
 62
7
 10
-2.72081482E+02
 20
1.26198090E+02
 11
-3.20814857E+01
 21
1.26198090E+02
  0
LINE
  8
0
 62
7
 10
-2.72081482E+02
 20
1.36198090E+02
 11
-3.20814857E+01
 21
1.36198090E+02
  0
LINE
  8
0
 62
7
 10
-2.12081482E+02
 20
8.61980896E+01
 11
-2.12081482E+02
 21
1.56198090E+02
  0
LINE
  8
0
 62
7
 10
-2.72081482E+02
 20
1.56198090E+02
 11
-3.20814857E+01
 21
1.56198090E+02
  0
LINE
  8
0
 62
7
 10
-1.52081482E+02
 20
8.61980896E+01
 11
-1.52081482E+02
 21
1.56198090E+02
  0
LINE
  8
0
 62
7
 10
-9.20814896E+01
 20
8.61980896E+01
 11
-9.20814896E+01
 21
1.56198090E+02
  0
LINE
  8
0
 62
7
 10
-3.20814857E+01
 20
8.61980896E+01
 11
-3.20814857E+01
 21
1.56198090E+02
  0
ENDSEC
  0
EOF
