  0
SECTION
  2
HEADER
  9
$ACADVER
  1
AC1012
  9
$DWGCODEPAGE
  3
dos932
  9
$INSBASE
 10
0.0
 20
0.0
 30
0.0
  9
$EXTMIN
 10
-194.25
 20
-133.5
 30
0.0
  9
$EXTMAX
 10
196.2723600854633
 20
132.60000610351562
 30
0.0
  9
$LIMMIN
 10
-194.25
 20
-133.5
  9
$LIMMAX
 10
196.2723600854633
 20
132.60000610351562
  9
$ORTHOMODE
 70
               0
  9
$REGENMODE
 70
               1
  9
$FILLMODE
 70
               1
  9
$QTEXTMODE
 70
               0
  9
$MIRRTEXT
 70
               1
  9
$DRAGMODE
 70
               2
  9
$LTSCALE
 40
1.0
  9
$OSMODE
 70
               0
  9
$ATTMODE
 70
               1
  9
$TEXTSIZE
 40
3.2000000476837158
  9
$TRACEWID
 40
0.05
  9
$TEXTSTYLE
  7
MX_NOTE_STANDARD
  9
$CLAYER
  8
0
  9
$CELTYPE
  6
CONTINUOUS
  9
$CECOLOR
 62
             256
  9
$CELTSCALE
 40
1.0
  9
$DELOBJ
 70
               1
  9
$DISPSILH
 70
               0
  9
$DIMSCALE
 40
1.0
  9
$DIMASZ
 40
2.5
  9
$DIMEXO
 40
1.5
  9
$DIMDLI
 40
3.75
  9
$DIMRND
 40
0.0
  9
$DIMDLE
 40
0.0
  9
$DIMEXE
 40
1.5
  9
$DIMTP
 40
0.0
  9
$DIMTM
 40
0.0
  9
$DIMTXT
 40
3.2000000476837158
  9
$DIMCEN
 40
2.5
  9
$DIMTSZ
 40
0.0
  9
$DIMTOL
 70
               0
  9
$DIMLIM
 70
               0
  9
$DIMTIH
 70
               0
  9
$DIMTOH
 70
               0
  9
$DIMSE1
 70
               0
  9
$DIMSE2
 70
               0
  9
$DIMTAD
 70
               1
  9
$DIMZIN
 70
               8
  9
$DIMBLK
  1

  9
$DIMASO
 70
               1
  9
$DIMSHO
 70
               1
  9
$DIMPOST
  1

  9
$DIMAPOST
  1

  9
$DIMALT
 70
               0
  9
$DIMALTD
 70
               4
  9
$DIMALTF
 40
0.03937007874016
  9
$DIMLFAC
 40
1.0
  9
$DIMTOFL
 70
               1
  9
$DIMTVP
 40
0.0
  9
$DIMTIX
 70
               0
  9
$DIMSOXD
 70
               0
  9
$DIMSAH
 70
               0
  9
$DIMBLK1
  1

  9
$DIMBLK2
  1

  9
$DIMSTYLE
  2
MXDIMSTYLE
  9
$DIMCLRD
 70
               0
  9
$DIMCLRE
 70
               0
  9
$DIMCLRT
 70
               0
  9
$DIMTFAC
 40
1.0
  9
$DIMGAP
 40
1.0
  9
$DIMJUST
 70
               0
  9
$DIMSD1
 70
               0
  9
$DIMSD2
 70
               0
  9
$DIMTOLJ
 70
               1
  9
$DIMTZIN
 70
               0
  9
$DIMALTZ
 70
               0
  9
$DIMALTTZ
 70
               0
  9
$DIMFIT
 70
               3
  9
$DIMUPT
 70
               1
  9
$DIMUNIT
 70
               2
  9
$DIMDEC
 70
               4
  9
$DIMTDEC
 70
               4
  9
$DIMALTU
 70
               2
  9
$DIMALTTD
 70
               4
  9
$DIMTXSTY
  7
MX_NOTE_STANDARD
  9
$DIMAUNIT
 70
               0
  9
$LUNITS
 70
               2
  9
$LUPREC
 70
               4
  9
$SKETCHINC
 40
0.1
  9
$FILLETRAD
 40
0.0
  9
$AUNITS
 70
               0
  9
$AUPREC
 70
               0
  9
$MENU
  1
acad
  9
$ELEVATION
 40
0.0
  9
$PELEVATION
 40
0.0
  9
$THICKNESS
 40
0.0
  9
$LIMCHECK
 70
               0
  9
$BLIPMODE
 70
               1
  9
$CHAMFERA
 40
0.0
  9
$CHAMFERB
 40
0.0
  9
$CHAMFERC
 40
0.0
  9
$CHAMFERD
 40
0.0
  9
$SKPOLY
 70
               0
  9
$TDCREATE
 40
2453378.356724537
  9
$TDUPDATE
 40
2453378.356724537
  9
$TDINDWG
 40
0.0000000000
  9
$TDUSRTIMER
 40
0.0000000000
  9
$USRTIMER
 70
               1
  9
$ANGBASE
 50
0.0
  9
$ANGDIR
 70
               0
  9
$PDMODE
 70
               0
  9
$PDSIZE
 40
0.0
  9
$PLINEWID
 40
0.0
  9
$COORDS
 70
               1
  9
$SPLFRAME
 70
               0
  9
$SPLINETYPE
 70
               6
  9
$SPLINESEGS
 70
               8
  9
$ATTDIA
 70
               0
  9
$ATTREQ
 70
               1
  9
$HANDLING
 70
               1
  9
$HANDSEED
  5
49B
  9
$SURFTAB1
 70
               6
  9
$SURFTAB2
 70
               6
  9
$SURFTYPE
 70
               6
  9
$SURFU
 70
               6
  9
$SURFV
 70
               6
  9
$UCSNAME
  2

  9
$UCSORG
 10
0.0
 20
0.0
 30
0.0
  9
$UCSXDIR
 10
1.0
 20
0.0
 30
0.0
  9
$UCSYDIR
 10
0.0
 20
1.0
 30
0.0
  9
$PUCSNAME
  2

  9
$PUCSORG
 10
0.0
 20
0.0
 30
0.0
  9
$PUCSXDIR
 10
1.0
 20
0.0
 30
0.0
  9
$PUCSYDIR
 10
0.0
 20
1.0
 30
0.0
  9
$USERI1
 70
               0
  9
$USERI2
 70
               0
  9
$USERI3
 70
               0
  9
$USERI4
 70
               0
  9
$USERI5
 70
               0
  9
$USERR1
 40
0.0
  9
$USERR2
 40
0.0
  9
$USERR3
 40
0.0
  9
$USERR4
 40
0.0
  9
$USERR5
 40
0.0
  9
$WORLDVIEW
 70
               1
  9
$SHADEDGE
 70
               3
  9
$SHADEDIF
 70
              70
  9
$TILEMODE
 70
               1
  9
$MAXACTVP
 70
              16
  9
$PINSBASE
 10
0.0
 20
0.0
 30
0.0
  9
$PLIMCHECK
 70
               0
  9
$PEXTMIN
 10
1.0000000000000000E+20
 20
1.0000000000000000E+20
 30
1.0000000000000000E+20
  9
$PEXTMAX
 10
-1.0000000000000000E+20
 20
-1.0000000000000000E+20
 30
-1.0000000000000000E+20
  9
$PLIMMIN
 10
0.0
 20
0.0
  9
$PLIMMAX
 10
12.0
 20
9.0
  9
$UNITMODE
 70
               0
  9
$VISRETAIN
 70
               0
  9
$PLINEGEN
 70
               1
  9
$PSLTSCALE
 70
               0
  9
$TREEDEPTH
 70
            3020
  9
$PICKSTYLE
 70
               1
  9
$CMLSTYLE
  2
Standard
  9
$CMLJUST
 70
               0
  9
$CMLSCALE
 40
1.0
  9
$SAVEIMAGES
 70
               0
  0
ENDSEC
  0
SECTION
  2
CLASSES
  0
CLASS
  1
LWPOLYLINE
  2
AcDbPolyline
  3
"AutoCAD"
 90
        0
280
               0
281
               1
  0
CLASS
  1
IMAGE
  2
AcDbRasterImage
  3
ISM
 90
      127
280
               0
281
               1
  0
CLASS
  1
OLE2FRAME
  2
AcDbOle2Frame
  3
""
 90
        0
280
               0
281
               1
  0
CLASS
  1
HATCH
  2
AcDbHatch
  3
"ACAD_SEDONA"
 90
        0
280
               0
281
               1
  0
CLASS
  1
DICTIONARYVAR
  2
AcDbDictionaryVar
  3
"AutoCAD"
 90
        0
280
               0
281
               0
  0
CLASS
  1
RASTERVARIABLES
  2
AcDbRasterVariables
  3
ISM
 90
        0
280
               0
281
               0
  0
CLASS
  1
IMAGEDEF
  2
AcDbRasterImageDef
  3
ISM
 90
        0
280
               0
281
               0
  0
CLASS
  1
IMAGEDEF_REACTOR
  2
AcDbRasterImageDefReactor
  3
ISM
 90
        1
280
               0
281
               0
  0
CLASS
  1
IDBUFFER
  2
AcDbIdBuffer
  3
"Acad"
 90
        0
280
               0
281
               0
  0
CLASS
  1
SPATIAL_FILTER
  2
AcDbSpatialFilter
  3
"Acad"
 90
        0
280
               0
281
               0
  0
CLASS
  1
XRECORD
  2
AcDbXrecord
  3
"<Built In>"
 90
        0
280
               0
281
               0
  0
CLASS
  1
SORTENTSTABLE
  2
AcDbSortentsTable
  3
"AutoCAD"
 90
        0
280
               0
281
               0
  0
CLASS
  1
LAYER_INDEX
  2
AcDbLayerIndex
  3
"Acad"
 90
        0
280
               0
281
               0
  0
CLASS
  1
SPATIAL_INDEX
  2
AcDbSpatialIndex
  3
"Acad"
 90
        0
280
               0
281
               0
  0
CLASS
  1
OBJECT_PTR
  2
CAseDLPNTableRecord
  3
"ASE-LPNTableRecord"
 90
        1
280
               0
281
               0
  0
CLASS
  1
LAYOUT
  2
AcDbLayout
  3
"AutoCAD 2000"
 90
        1
280
               0
281
               0
  0
CLASS
  1
PLOTSETTINGS
  2
AcDbPlotSettings
  3
"AutoCAD 2000"
 90
        1
280
               0
281
               0
  0
CLASS
  1
ACDBDICTIONARYWDFLT
  2
AcDbDictionaryWithDefault
  3
"AutoCAD 2000"
 90
        1
280
               0
281
               0
  0
CLASS
  1
ACDBPLACEHOLDER
  2
AcDbPlaceHolder
  3
"AutoCAD 2000"
 90
        1
280
               0
281
               0
  0
ENDSEC
  0
SECTION
  2
TABLES
  0
TABLE
  2
VPORT
  5
7
100
AcDbSymbolTable
 70
               1
  0
VPORT
  5
15
100
AcDbSymbolTableRecord
100
AcDbViewportTableRecord
  2
*ACTIVE
 70
               0
 10
0.0
 20
0.0
 11
1.0
 21
1.0
 12
1.0111800427316666
 22
-0.4499969482421875
 13
0.0
 23
0.0
 14
1.0
 24
1.0
 15
0.0
 25
0.0
 16
0.0
 26
0.0
 36
1.0
 17
0.0
 27
0.0
 37
0.0
 40
268.76100616455079
 41
1.7320508075688772
 42
50.0
 43
0.0
 44
0.0
 50
0.0
 51
0.0
 71
               0
 72
             100
 73
               1
 74
               1
 75
               0
 76
               0
 77
               0
 78
               0
  0
ENDTAB
  0
TABLE
  2
LTYPE
  5
4
100
AcDbSymbolTable
 70
               5
  0
LTYPE
  5
11
100
AcDbSymbolTableRecord
100
AcDbLinetypeTableRecord
  2
BYBLOCK
 70
              64
  3

 72
              65
 73
               0
 40
0.0
  0
LTYPE
  5
12
100
AcDbSymbolTableRecord
100
AcDbLinetypeTableRecord
  2
BYLAYER
 70
              64
  3

 72
              65
 73
               0
 40
0.0
  0
LTYPE
  5
13
100
AcDbSymbolTableRecord
100
AcDbLinetypeTableRecord
  2
CONTINUOUS
 70
              64
  3
Solid line
 72
              65
 73
               0
 40
0.0
  0
LTYPE
  5
38
100
AcDbSymbolTableRecord
100
AcDbLinetypeTableRecord
  2
CENTER
 70
              64
  3
Center ____ _ ____ _ ____ _ ____ _ ____ _ ____
 72
              65
 73
               4
 40
26.0
 49
20.0
 74
               0
 49
-2.0
 74
               0
 49
2.0
 74
               0
 49
-2.0
 74
               0
  0
LTYPE
  5
291
100
AcDbSymbolTableRecord
100
AcDbLinetypeTableRecord
  2
PHANTOM
 70
              64
  3
Phantom ______  __  __  ______  __  __  ______
 72
              65
 73
               6
 40
30.0
 49
20.0
 74
               0
 49
-2.0
 74
               0
 49
2.0
 74
               0
 49
-2.0
 74
               0
 49
2.0
 74
               0
 49
-2.0
 74
               0
  0
ENDTAB
  0
TABLE
  2
LAYER
  5
2
100
AcDbSymbolTable
 70
               2
  0
LAYER
  5
14
100
AcDbSymbolTableRecord
100
AcDbLayerTableRecord
  2
0
 70
               0
 62
               7
  6
CONTINUOUS
  0
LAYER
  5
1D
100
AcDbSymbolTableRecord
100
AcDbLayerTableRecord
  2
DEFPOINTS
 70
               0
 62
               7
  6
CONTINUOUS
  0
ENDTAB
  0
TABLE
  2
STYLE
  5
3
100
AcDbSymbolTable
 70
               1
  0
STYLE
  5
17
100
AcDbSymbolTableRecord
100
AcDbTextStyleTableRecord
  2
MX_NOTE_STANDARD
 70
               0
 40
0.0
 41
1.0
 50
0.0
 71
               0
 42
3.2000000476837158
  3
txt.shx
  4
extfont.shx
  0
ENDTAB
  0
TABLE
  2
VIEW
  5
5
100
AcDbSymbolTable
 70
               0
  0
ENDTAB
  0
TABLE
  2
UCS
  5
6
100
AcDbSymbolTable
 70
               0
  0
ENDTAB
  0
TABLE
  2
APPID
  5
8
100
AcDbSymbolTable
 70
               1
  0
APPID
  5
16
100
AcDbSymbolTableRecord
100
AcDbRegAppTableRecord
  2
ACAD
 70
               0
  0
ENDTAB
  0
TABLE
  2
DIMSTYLE
  5
9
100
AcDbSymbolTable
 70
               1
  0
DIMSTYLE
105
18
100
AcDbSymbolTableRecord
100
AcDbDimStyleTableRecord
  2
MXDIMSTYLE
 70
               0
  3

  4

  5

  6

  7

 40
1.0
 41
2.5
 42
1.5
 43
3.75
 44
1.5
 45
0.0
 46
0.0
 47
0.0
 48
0.0
 71
               0
 72
               0
 73
               0
 74
               0
 75
               0
 76
               0
 77
               1
 78
               8
140
3.2000000476837158
141
2.5
142
0.0
143
0.03937007874016
144
1.0
145
0.0
146
1.0
147
1.0
170
               0
171
               4
172
               1
173
               0
174
               0
175
               0
176
               0
177
               0
178
               0
270
               2
271
               4
272
               4
273
               2
274
               4
275
               0
280
               0
281
               0
282
               0
283
               1
284
               0
285
               0
286
               0
287
               3
288
               1
340
17
  0
ENDTAB
  0
TABLE
  2
BLOCK_RECORD
  5
1
100
AcDbSymbolTable
 70
              14
  0
BLOCK_RECORD
  5
A
100
AcDbSymbolTableRecord
100
AcDbBlockTableRecord
  2
*MODEL_SPACE
  0
BLOCK_RECORD
  5
B
100
AcDbSymbolTableRecord
100
AcDbBlockTableRecord
  2
*PAPER_SPACE
  0
BLOCK_RECORD
  5
1E
100
AcDbSymbolTableRecord
100
AcDbBlockTableRecord
  2
MV030MA-11-1
  0
BLOCK_RECORD
  5
1F
100
AcDbSymbolTableRecord
100
AcDbBlockTableRecord
  2
MV030MA-11-2
  0
BLOCK_RECORD
  5
20
100
AcDbSymbolTableRecord
100
AcDbBlockTableRecord
  2
MV030MA-11-3
  0
BLOCK_RECORD
  5
21
100
AcDbSymbolTableRecord
100
AcDbBlockTableRecord
  2
MV030MA-11-4
  0
BLOCK_RECORD
  5
22
100
AcDbSymbolTableRecord
100
AcDbBlockTableRecord
  2
MV030MA-11-5
  0
BLOCK_RECORD
  5
23
100
AcDbSymbolTableRecord
100
AcDbBlockTableRecord
  2
MV030MA-11-6
  0
BLOCK_RECORD
  5
24
100
AcDbSymbolTableRecord
100
AcDbBlockTableRecord
  2
MV030MA-11-7
  0
BLOCK_RECORD
  5
25
100
AcDbSymbolTableRecord
100
AcDbBlockTableRecord
  2
MV030MA-11-8
  0
BLOCK_RECORD
  5
26
100
AcDbSymbolTableRecord
100
AcDbBlockTableRecord
  2
MV030MA-11-9
  0
BLOCK_RECORD
  5
431
100
AcDbSymbolTableRecord
100
AcDbBlockTableRecord
  2
*D9
  0
BLOCK_RECORD
  5
436
100
AcDbSymbolTableRecord
100
AcDbBlockTableRecord
  2
_OPEN30
  0
BLOCK_RECORD
  5
444
100
AcDbSymbolTableRecord
100
AcDbBlockTableRecord
  2
*D11
  0
BLOCK_RECORD
  5
452
100
AcDbSymbolTableRecord
100
AcDbBlockTableRecord
  2
*D12
  0
BLOCK_RECORD
  5
460
100
AcDbSymbolTableRecord
100
AcDbBlockTableRecord
  2
*D13
  0
ENDTAB
  0
ENDSEC
  0
SECTION
  2
BLOCKS
  0
BLOCK
  5
D
100
AcDbEntity
  8
0
100
AcDbBlockBegin
  2
*MODEL_SPACE
 70
               0
 10
0.0
 20
0.0
 30
0.0
  3
*MODEL_SPACE
  1

  0
ENDBLK
  5
E
100
AcDbEntity
  8
0
100
AcDbBlockEnd
  0
BLOCK
  5
F
100
AcDbEntity
 67
               1
  8
0
100
AcDbBlockBegin
  2
*PAPER_SPACE
 70
               0
 10
0.0
 20
0.0
 30
0.0
  3
*PAPER_SPACE
  1

  0
ENDBLK
  5
10
100
AcDbEntity
 67
               1
  8
0
100
AcDbBlockEnd
  0
BLOCK
  5
27
100
AcDbEntity
  8
0
100
AcDbBlockBegin
  2
MV030MA-11-1
 70
               0
 10
0.0
 20
0.0
 30
0.0
  3
MV030MA-11-1
  1

  0
INSERT
  5
28
100
AcDbEntity
  8
0
  6
ByBlock
100
AcDbBlockReference
  2
MV030MA-11-5
 10
89.999999999999972
 20
55.000000000000057
 30
0.0
  0
INSERT
  5
29
100
AcDbEntity
  8
0
  6
ByBlock
100
AcDbBlockReference
  2
MV030MA-11-5
 10
79.799999999999955
 20
55.000000000000057
 30
0.0
  0
INSERT
  5
2A
100
AcDbEntity
  8
0
  6
ByBlock
100
AcDbBlockReference
  2
MV030MA-11-5
 10
69.599999999999966
 20
55.000000000000057
 30
0.0
  0
INSERT
  5
2B
100
AcDbEntity
  8
0
  6
ByBlock
100
AcDbBlockReference
  2
MV030MA-11-5
 10
59.399999999999977
 20
55.000000000000057
 30
0.0
  0
INSERT
  5
2C
100
AcDbEntity
  8
0
  6
ByBlock
100
AcDbBlockReference
  2
MV030MA-11-5
 10
49.19999999999996
 20
55.000000000000057
 30
0.0
  0
INSERT
  5
2D
100
AcDbEntity
  8
0
  6
ByBlock
100
AcDbBlockReference
  2
MV030MA-11-5
 10
38.999999999999957
 20
55.000000000000057
 30
0.0
  0
INSERT
  5
2E
100
AcDbEntity
  8
0
  6
ByBlock
100
AcDbBlockReference
  2
MV030MA-11-5
 10
28.799999999999955
 20
55.000000000000057
 30
0.0
  0
INSERT
  5
2F
100
AcDbEntity
  8
0
  6
ByBlock
100
AcDbBlockReference
  2
MV030MA-11-5
 10
18.599999999999952
 20
55.000000000000057
 30
0.0
  0
CIRCLE
  5
30
100
AcDbEntity
  8
0
  6
CONTINUOUS
 62
               7
100
AcDbCircle
 10
9.0
 20
38.0
 30
0.0
 40
1.25
  0
CIRCLE
  5
31
100
AcDbEntity
  8
0
  6
CONTINUOUS
 62
               2
100
AcDbCircle
 10
9.0
 20
38.0
 30
0.0
 40
1.5
  0
CIRCLE
  5
32
100
AcDbEntity
  8
0
  6
CONTINUOUS
 62
               7
100
AcDbCircle
 10
98.39999999999992
 20
38.0
 30
0.0
 40
1.25
  0
CIRCLE
  5
33
100
AcDbEntity
  8
0
  6
CONTINUOUS
 62
               2
100
AcDbCircle
 10
98.39999999999992
 20
38.0
 30
0.0
 40
1.5
  0
LINE
  5
34
100
AcDbEntity
  8
0
  6
CONTINUOUS
 62
               7
100
AcDbLine
 10
6.0
 20
55.000000000000057
 30
0.0
 11
101.39999999999992
 21
55.000000000000057
 31
0.0
  0
LINE
  5
35
100
AcDbEntity
  8
0
  6
CONTINUOUS
 62
               7
100
AcDbLine
 10
101.39999999999992
 20
0.0
 30
0.0
 11
6.0
 21
0.0
 31
0.0
  0
LINE
  5
36
100
AcDbEntity
  8
0
  6
CONTINUOUS
 62
               7
100
AcDbLine
 10
101.39999999999992
 20
55.000000000000057
 30
0.0
 11
101.39999999999992
 21
0.0
 31
0.0
  0
LINE
  5
37
100
AcDbEntity
  8
0
  6
CONTINUOUS
 62
               7
100
AcDbLine
 10
6.0
 20
55.000000000000057
 30
0.0
 11
6.0
 21
0.0
 31
0.0
  0
LINE
  5
39
100
AcDbEntity
  8
0
  6
CENTER
 62
               2
100
AcDbLine
 10
6.5
 20
38.0
 30
0.0
 11
11.5
 21
38.0
 31
0.0
  0
LINE
  5
3A
100
AcDbEntity
  8
0
  6
CENTER
 62
               2
100
AcDbLine
 10
9.0
 20
35.5
 30
0.0
 11
9.0
 21
40.5
 31
0.0
  0
LINE
  5
3B
100
AcDbEntity
  8
0
  6
CENTER
 62
               2
100
AcDbLine
 10
95.927533570559262
 20
38.0
 30
0.0
 11
100.89999999999992
 21
38.0
 31
0.0
  0
LINE
  5
3C
100
AcDbEntity
  8
0
  6
CENTER
 62
               2
100
AcDbLine
 10
98.39999999999992
 20
35.5
 30
0.0
 11
98.39999999999992
 21
40.5
 31
0.0
  0
LINE
  5
3D
100
AcDbEntity
  8
0
  6
CENTER
 62
               2
100
AcDbLine
 10
89.399999999999906
 20
10.858917218113532
 30
0.0
 11
89.399999999999906
 21
1.4688175404542392
 31
0.0
  0
LINE
  5
3E
100
AcDbEntity
  8
0
  6
CENTER
 62
               2
100
AcDbLine
 10
86.399999999999906
 20
6.5000000000000426
 30
0.0
 11
92.39999999999992
 21
6.5000000000000426
 31
0.0
  0
CIRCLE
  5
3F
100
AcDbEntity
  8
0
  6
CONTINUOUS
 62
               2
100
AcDbCircle
 10
89.39999999999992
 20
6.5000000000000426
 30
0.0
 40
2.5
  0
CIRCLE
  5
40
100
AcDbEntity
  8
0
  6
CONTINUOUS
 62
               7
100
AcDbCircle
 10
89.39999999999992
 20
6.5000000000000426
 30
0.0
 40
2.1000000000000001
  0
LINE
  5
41
100
AcDbEntity
  8
0
  6
CENTER
 62
               2
100
AcDbLine
 10
79.199999999999889
 20
10.858917218113532
 30
0.0
 11
79.199999999999889
 21
1.4688175404542392
 31
0.0
  0
LINE
  5
42
100
AcDbEntity
  8
0
  6
CENTER
 62
               2
100
AcDbLine
 10
76.199999999999889
 20
6.5000000000000426
 30
0.0
 11
82.199999999999903
 21
6.5000000000000426
 31
0.0
  0
CIRCLE
  5
43
100
AcDbEntity
  8
0
  6
CONTINUOUS
 62
               2
100
AcDbCircle
 10
79.199999999999903
 20
6.5000000000000426
 30
0.0
 40
2.5
  0
CIRCLE
  5
44
100
AcDbEntity
  8
0
  6
CONTINUOUS
 62
               7
100
AcDbCircle
 10
79.199999999999903
 20
6.5000000000000426
 30
0.0
 40
2.1000000000000001
  0
LINE
  5
45
100
AcDbEntity
  8
0
  6
CENTER
 62
               2
100
AcDbLine
 10
68.999999999999901
 20
10.858917218113532
 30
0.0
 11
68.999999999999901
 21
1.4688175404542392
 31
0.0
  0
LINE
  5
46
100
AcDbEntity
  8
0
  6
CENTER
 62
               2
100
AcDbLine
 10
65.999999999999901
 20
6.5000000000000426
 30
0.0
 11
71.999999999999915
 21
6.5000000000000426
 31
0.0
  0
CIRCLE
  5
47
100
AcDbEntity
  8
0
  6
CONTINUOUS
 62
               2
100
AcDbCircle
 10
68.999999999999915
 20
6.5000000000000426
 30
0.0
 40
2.5
  0
CIRCLE
  5
48
100
AcDbEntity
  8
0
  6
CONTINUOUS
 62
               7
100
AcDbCircle
 10
68.999999999999915
 20
6.5000000000000426
 30
0.0
 40
2.1000000000000001
  0
LINE
  5
49
100
AcDbEntity
  8
0
  6
CENTER
 62
               2
100
AcDbLine
 10
58.799999999999912
 20
10.858917218113532
 30
0.0
 11
58.799999999999912
 21
1.4688175404542392
 31
0.0
  0
LINE
  5
4A
100
AcDbEntity
  8
0
  6
CENTER
 62
               2
100
AcDbLine
 10
55.799999999999912
 20
6.5000000000000426
 30
0.0
 11
61.799999999999926
 21
6.5000000000000426
 31
0.0
  0
CIRCLE
  5
4B
100
AcDbEntity
  8
0
  6
CONTINUOUS
 62
               2
100
AcDbCircle
 10
58.799999999999926
 20
6.5000000000000426
 30
0.0
 40
2.5
  0
CIRCLE
  5
4C
100
AcDbEntity
  8
0
  6
CONTINUOUS
 62
               7
100
AcDbCircle
 10
58.799999999999926
 20
6.5000000000000426
 30
0.0
 40
2.1000000000000001
  0
LINE
  5
4D
100
AcDbEntity
  8
0
  6
CENTER
 62
               2
100
AcDbLine
 10
48.599999999999895
 20
10.858917218113532
 30
0.0
 11
48.599999999999895
 21
1.4688175404542392
 31
0.0
  0
LINE
  5
4E
100
AcDbEntity
  8
0
  6
CENTER
 62
               2
100
AcDbLine
 10
45.599999999999895
 20
6.5000000000000426
 30
0.0
 11
51.599999999999909
 21
6.5000000000000426
 31
0.0
  0
CIRCLE
  5
4F
100
AcDbEntity
  8
0
  6
CONTINUOUS
 62
               2
100
AcDbCircle
 10
48.599999999999909
 20
6.5000000000000426
 30
0.0
 40
2.5
  0
CIRCLE
  5
50
100
AcDbEntity
  8
0
  6
CONTINUOUS
 62
               7
100
AcDbCircle
 10
48.599999999999909
 20
6.5000000000000426
 30
0.0
 40
2.1000000000000001
  0
LINE
  5
51
100
AcDbEntity
  8
0
  6
CENTER
 62
               2
100
AcDbLine
 10
38.399999999999892
 20
10.858917218113532
 30
0.0
 11
38.399999999999892
 21
1.4688175404542392
 31
0.0
  0
LINE
  5
52
100
AcDbEntity
  8
0
  6
CENTER
 62
               2
100
AcDbLine
 10
35.399999999999892
 20
6.5000000000000426
 30
0.0
 11
41.399999999999906
 21
6.5000000000000426
 31
0.0
  0
CIRCLE
  5
53
100
AcDbEntity
  8
0
  6
CONTINUOUS
 62
               2
100
AcDbCircle
 10
38.399999999999906
 20
6.5000000000000426
 30
0.0
 40
2.5
  0
CIRCLE
  5
54
100
AcDbEntity
  8
0
  6
CONTINUOUS
 62
               7
100
AcDbCircle
 10
38.399999999999906
 20
6.5000000000000426
 30
0.0
 40
2.1000000000000001
  0
LINE
  5
55
100
AcDbEntity
  8
0
  6
CENTER
 62
               2
100
AcDbLine
 10
28.199999999999889
 20
10.858917218113532
 30
0.0
 11
28.199999999999889
 21
1.4688175404542392
 31
0.0
  0
LINE
  5
56
100
AcDbEntity
  8
0
  6
CENTER
 62
               2
100
AcDbLine
 10
25.199999999999889
 20
6.5000000000000426
 30
0.0
 11
31.199999999999903
 21
6.5000000000000426
 31
0.0
  0
CIRCLE
  5
57
100
AcDbEntity
  8
0
  6
CONTINUOUS
 62
               2
100
AcDbCircle
 10
28.199999999999903
 20
6.5000000000000426
 30
0.0
 40
2.5
  0
CIRCLE
  5
58
100
AcDbEntity
  8
0
  6
CONTINUOUS
 62
               7
100
AcDbCircle
 10
28.199999999999903
 20
6.5000000000000426
 30
0.0
 40
2.1000000000000001
  0
LINE
  5
59
100
AcDbEntity
  8
0
  6
CENTER
 62
               2
100
AcDbLine
 10
17.999999999999886
 20
10.858917218113532
 30
0.0
 11
17.999999999999886
 21
1.4688175404542392
 31
0.0
  0
LINE
  5
5A
100
AcDbEntity
  8
0
  6
CENTER
 62
               2
100
AcDbLine
 10
14.999999999999886
 20
6.5000000000000426
 30
0.0
 11
20.999999999999901
 21
6.5000000000000426
 31
0.0
  0
CIRCLE
  5
5B
100
AcDbEntity
  8
0
  6
CONTINUOUS
 62
               2
100
AcDbCircle
 10
17.999999999999901
 20
6.5000000000000426
 30
0.0
 40
2.5
  0
CIRCLE
  5
5C
100
AcDbEntity
  8
0
  6
CONTINUOUS
 62
               7
100
AcDbCircle
 10
17.999999999999901
 20
6.5000000000000426
 30
0.0
 40
2.1000000000000001
  0
LINE
  5
5D
100
AcDbEntity
  8
0
  6
CENTER
 62
             200
100
AcDbLine
 10
0.3486132506551058
 20
6.0
 30
0.0
 11
7.7000000000000028
 21
6.0
 31
0.0
  0
LINE
  5
5E
100
AcDbEntity
  8
0
  6
CENTER
 62
             200
100
AcDbLine
 10
0.0
 20
-1.7000000000000028
 30
0.0
 11
0.0
 21
3.2999999999999972
 31
0.0
  0
LINE
  5
5F
100
AcDbEntity
  8
0
  6
CENTER
 62
             200
100
AcDbLine
 10
-10.0
 20
-1.7000000000000028
 30
0.0
 11
-10.0
 21
3.2999999999999972
 31
0.0
  0
LINE
  5
60
100
AcDbEntity
  8
0
  6
CENTER
 62
             200
100
AcDbLine
 10
-13.0
 20
-1.7000000000000028
 30
0.0
 11
-13.0
 21
3.2999999999999972
 31
0.0
  0
ARC
  5
61
100
AcDbEntity
  8
0
  6
CONTINUOUS
 62
               4
100
AcDbCircle
 10
5.5
 20
0.5
 30
0.0
 40
0.5
100
AcDbArc
 50
269.99999999999937
 51
0.0
  0
ARC
  5
62
100
AcDbEntity
  8
0
  6
CONTINUOUS
 62
               4
100
AcDbCircle
 10
4.0
 20
2.0
 30
0.0
 40
0.4
100
AcDbArc
 50
269.99999999999937
 51
0.0
  0
ARC
  5
63
100
AcDbEntity
  8
0
  6
CENTER
 62
             200
100
AcDbCircle
 10
4.0
 20
2.0
 30
0.0
 40
2.0
100
AcDbArc
 50
269.99999999999937
 51
0.0
  0
ARC
  5
64
100
AcDbEntity
  8
0
  6
CONTINUOUS
 62
               4
100
AcDbCircle
 10
5.5
 20
9.5
 30
0.0
 40
0.5
100
AcDbArc
 50
0.0
 51
89.999999999999815
  0
ARC
  5
65
100
AcDbEntity
  8
0
  6
CONTINUOUS
 62
               4
100
AcDbCircle
 10
4.8999999999999986
 20
9.5
 30
0.0
 40
0.5
100
AcDbArc
 50
89.999999999999815
 51
179.99999999999963
  0
ARC
  5
66
100
AcDbEntity
  8
0
  6
CONTINUOUS
 62
               4
100
AcDbCircle
 10
-16.5
 20
1.0999999999999943
 30
0.0
 40
0.5
100
AcDbArc
 50
89.999999999999815
 51
179.99999999999963
  0
ARC
  5
67
100
AcDbEntity
  8
0
  6
CONTINUOUS
 62
               4
100
AcDbCircle
 10
-16.5
 20
0.5
 30
0.0
 40
0.5
100
AcDbArc
 50
179.99999999999963
 51
269.99999999999937
  0
LINE
  5
68
100
AcDbEntity
  8
0
  6
CONTINUOUS
 62
               4
100
AcDbLine
 10
-17.0
 20
0.5
 30
0.0
 11
-17.0
 21
1.0999999999999943
 31
0.0
  0
LINE
  5
69
100
AcDbEntity
  8
0
  6
CONTINUOUS
 62
               4
100
AcDbLine
 10
4.3999999999999986
 20
9.5
 30
0.0
 11
4.3999999999999986
 21
0.0404082057734456
 31
0.0
  0
LINE
  5
6A
100
AcDbEntity
  8
0
  6
CONTINUOUS
 62
               4
100
AcDbLine
 10
-16.5
 20
1.5999999999999943
 30
0.0
 11
4.0
 21
1.5999999999999943
 31
0.0
  0
LINE
  5
6B
100
AcDbEntity
  8
0
  6
CONTINUOUS
 62
               4
100
AcDbLine
 10
-16.5
 20
0.0
 30
0.0
 11
5.5
 21
0.0
 31
0.0
  0
LINE
  5
6C
100
AcDbEntity
  8
0
  6
CONTINUOUS
 62
               4
100
AcDbLine
 10
4.8999999999999986
 20
10.0
 30
0.0
 11
5.5
 21
10.0
 31
0.0
  0
LINE
  5
6D
100
AcDbEntity
  8
0
  6
CONTINUOUS
 62
               4
100
AcDbLine
 10
102.49999999999991
 20
10.0
 30
0.0
 11
101.89999999999992
 21
10.0
 31
0.0
  0
LINE
  5
6E
100
AcDbEntity
  8
0
  6
CONTINUOUS
 62
               4
100
AcDbLine
 10
123.89999999999992
 20
0.0
 30
0.0
 11
101.89999999999992
 21
0.0
 31
0.0
  0
LINE
  5
6F
100
AcDbEntity
  8
0
  6
CONTINUOUS
 62
               4
100
AcDbLine
 10
123.89999999999992
 20
1.5999999999999943
 30
0.0
 11
103.39999999999992
 21
1.5999999999999943
 31
0.0
  0
LINE
  5
70
100
AcDbEntity
  8
0
  6
CONTINUOUS
 62
               4
100
AcDbLine
 10
102.99999999999991
 20
9.5
 30
0.0
 11
102.99999999999991
 21
2.0
 31
0.0
  0
LINE
  5
71
100
AcDbEntity
  8
0
  6
CONTINUOUS
 62
               4
100
AcDbLine
 10
124.39999999999992
 20
0.5
 30
0.0
 11
124.39999999999992
 21
1.0999999999999943
 31
0.0
  0
ARC
  5
72
100
AcDbEntity
  8
0
  6
CONTINUOUS
 62
               4
100
AcDbCircle
 10
123.89999999999992
 20
0.5
 30
0.0
 40
0.5
100
AcDbArc
 50
269.99999999999937
 51
0.0
  0
ARC
  5
73
100
AcDbEntity
  8
0
  6
CONTINUOUS
 62
               4
100
AcDbCircle
 10
123.89999999999992
 20
1.0999999999999943
 30
0.0
 40
0.5
100
AcDbArc
 50
0.0
 51
89.999999999999815
  0
ARC
  5
74
100
AcDbEntity
  8
0
  6
CONTINUOUS
 62
               4
100
AcDbCircle
 10
102.49999999999991
 20
9.5
 30
0.0
 40
0.5
100
AcDbArc
 50
0.0
 51
89.999999999999815
  0
ARC
  5
75
100
AcDbEntity
  8
0
  6
CONTINUOUS
 62
               4
100
AcDbCircle
 10
101.89999999999992
 20
9.5
 30
0.0
 40
0.5
100
AcDbArc
 50
89.999999999999815
 51
179.99999999999963
  0
ARC
  5
76
100
AcDbEntity
  8
0
  6
CONTINUOUS
 62
               4
100
AcDbCircle
 10
103.39999999999992
 20
2.0
 30
0.0
 40
2.0
100
AcDbArc
 50
179.99999999999963
 51
269.99999999999937
  0
ARC
  5
77
100
AcDbEntity
  8
0
  6
CONTINUOUS
 62
               4
100
AcDbCircle
 10
103.39999999999992
 20
2.0
 30
0.0
 40
0.4
100
AcDbArc
 50
179.99999999999963
 51
269.99999999999937
  0
ARC
  5
78
100
AcDbEntity
  8
0
  6
CONTINUOUS
 62
               4
100
AcDbCircle
 10
101.89999999999992
 20
0.5
 30
0.0
 40
0.5
100
AcDbArc
 50
179.99999999999963
 51
269.99999999999937
  0
LINE
  5
79
100
AcDbEntity
  8
0
  6
CENTER
 62
             200
100
AcDbLine
 10
120.39999999999992
 20
-1.7000000000000028
 30
0.0
 11
120.39999999999992
 21
3.2999999999999972
 31
0.0
  0
LINE
  5
7A
100
AcDbEntity
  8
0
  6
CENTER
 62
             200
100
AcDbLine
 10
117.39999999999992
 20
-1.7000000000000028
 30
0.0
 11
117.39999999999992
 21
3.2999999999999972
 31
0.0
  0
LINE
  5
7B
100
AcDbEntity
  8
0
  6
CENTER
 62
             200
100
AcDbLine
 10
107.39999999999992
 20
-1.7000000000000028
 30
0.0
 11
107.39999999999992
 21
3.2999999999999972
 31
0.0
  0
LINE
  5
7C
100
AcDbEntity
  8
0
  6
CENTER
 62
             200
100
AcDbLine
 10
107.12039957811407
 20
6.0
 30
0.0
 11
99.699999999999932
 21
6.0
 31
0.0
  0
LINE
  5
7D
100
AcDbEntity
  8
0
  6
CONTINUOUS
 62
               4
100
AcDbLine
 10
1.6999999999999957
 20
8.75
 30
0.0
 11
1.6999999999999957
 21
3.25
 31
0.0
  0
LINE
  5
7E
100
AcDbEntity
  8
0
  6
CONTINUOUS
 62
               4
100
AcDbLine
 10
1.6999999999999957
 20
8.75
 30
0.0
 11
1.3999999999999986
 21
8.4500000000000028
 31
0.0
  0
LINE
  5
7F
100
AcDbEntity
  8
0
  6
CONTINUOUS
 62
               4
100
AcDbLine
 10
1.3999999999999986
 20
3.5499999999999972
 30
0.0
 11
1.6999999999999957
 21
3.25
 31
0.0
  0
LINE
  5
80
100
AcDbEntity
  8
0
  6
CONTINUOUS
 62
               4
100
AcDbLine
 10
1.3999999999999986
 20
3.5499999999999972
 30
0.0
 11
1.3999999999999986
 21
8.4500000000000028
 31
0.0
  0
LINE
  5
81
100
AcDbEntity
  8
0
  6
CONTINUOUS
 62
               4
100
AcDbLine
 10
1.6999999999999957
 20
3.25
 30
0.0
 11
4.3999999991494221
 21
3.25
 31
0.0
  0
LINE
  5
82
100
AcDbEntity
  8
0
  6
CONTINUOUS
 62
               4
100
AcDbLine
 10
1.6999999999999957
 20
8.75
 30
0.0
 11
4.3999999991494221
 21
8.75
 31
0.0
  0
LINE
  5
83
100
AcDbEntity
  8
0
  6
CONTINUOUS
 62
               4
100
AcDbLine
 10
105.69999999999993
 20
3.25
 30
0.0
 11
103.00000000085049
 21
3.25
 31
0.0
  0
LINE
  5
84
100
AcDbEntity
  8
0
  6
CONTINUOUS
 62
               4
100
AcDbLine
 10
105.69999999999993
 20
8.75
 30
0.0
 11
103.00000000085049
 21
8.75
 31
0.0
  0
LINE
  5
85
100
AcDbEntity
  8
0
  6
CONTINUOUS
 62
               4
100
AcDbLine
 10
105.99999999999991
 20
8.4500000000000028
 30
0.0
 11
105.99999999999991
 21
3.5499999999999972
 31
0.0
  0
LINE
  5
86
100
AcDbEntity
  8
0
  6
CONTINUOUS
 62
               4
100
AcDbLine
 10
105.99999999999991
 20
8.4500000000000028
 30
0.0
 11
105.69999999999993
 21
8.75
 31
0.0
  0
LINE
  5
87
100
AcDbEntity
  8
0
  6
CONTINUOUS
 62
               4
100
AcDbLine
 10
105.69999999999993
 20
3.25
 30
0.0
 11
105.99999999999991
 21
3.5499999999999972
 31
0.0
  0
LINE
  5
88
100
AcDbEntity
  8
0
  6
CONTINUOUS
 62
               4
100
AcDbLine
 10
105.69999999999993
 20
3.25
 30
0.0
 11
105.69999999999993
 21
8.75
 31
0.0
  0
ENDBLK
  5
89
100
AcDbEntity
  8
0
100
AcDbBlockEnd
  0
BLOCK
  5
8A
100
AcDbEntity
  8
0
100
AcDbBlockBegin
  2
MV030MA-11-2
 70
               0
 10
0.0
 20
0.0
 30
0.0
  3
MV030MA-11-2
  1

  0
LINE
  5
8B
100
AcDbEntity
  8
0
  6
CONTINUOUS
 62
               7
100
AcDbLine
 10
-20.599999999999966
 20
12.650000000000052
 30
0.0
 11
-20.599999999999966
 21
12.200000000000045
 31
0.0
  0
LINE
  5
8C
100
AcDbEntity
  8
0
  6
CONTINUOUS
 62
               7
100
AcDbLine
 10
-25.69999999999996
 20
13.050000000000042
 30
0.0
 11
-25.69999999999996
 21
12.700000000000045
 31
0.0
  0
LINE
  5
8D
100
AcDbEntity
  8
0
  6
CONTINUOUS
 62
               7
100
AcDbLine
 10
-20.599999999999966
 20
53.850000000000065
 30
0.0
 11
-20.599999999999966
 21
54.300000000000068
 31
0.0
  0
LINE
  5
8E
100
AcDbEntity
  8
0
  6
CONTINUOUS
 62
               7
100
AcDbLine
 10
-25.69999999999996
 20
53.450000000000067
 30
0.0
 11
-25.69999999999996
 21
53.800000000000068
 31
0.0
  0
LINE
  5
8F
100
AcDbEntity
  8
0
  6
CONTINUOUS
 62
               7
100
AcDbLine
 10
-9.1999999999999957
 20
65.000000000000057
 30
0.0
 11
-9.2000000000000046
 21
48.900000000000055
 31
0.0
  0
LINE
  5
90
100
AcDbEntity
  8
0
  6
CONTINUOUS
 62
               7
100
AcDbLine
 10
-9.1999999999999957
 20
65.000000000000057
 30
0.0
 11
3.3000000000000114
 21
65.000000000000057
 31
0.0
  0
LINE
  5
91
100
AcDbEntity
  8
0
  6
CONTINUOUS
 62
               7
100
AcDbLine
 10
-14.500000000000004
 20
49.000000000000071
 30
0.0
 11
-14.500000000000004
 21
48.900000000000063
 31
0.0
  0
LINE
  5
92
100
AcDbEntity
  8
0
  6
CONTINUOUS
 62
               7
100
AcDbLine
 10
3.3000000000000114
 20
66.500000000000057
 30
0.0
 11
3.3000000000000114
 21
65.000000000000057
 31
0.0
  0
LINE
  5
93
100
AcDbEntity
  8
0
  6
CONTINUOUS
 62
               7
100
AcDbLine
 10
3.3000000000000114
 20
66.500000000000057
 30
0.0
 11
-14.800000000000004
 21
66.500000000000057
 31
0.0
  0
LINE
  5
94
100
AcDbEntity
  8
0
  6
CONTINUOUS
 62
               7
100
AcDbLine
 10
-15.900000000000002
 20
51.20000000000006
 30
0.0
 11
-15.100000000000005
 21
51.20000000000006
 31
0.0
  0
ARC
  5
95
100
AcDbEntity
  8
0
  6
CONTINUOUS
 62
               7
100
AcDbCircle
 10
-15.900711437663755
 20
51.399288562336302
 30
0.0
 40
0.1992898322082596
100
AcDbArc
 50
179.79546140589522
 51
270.20453859410389
  0
LINE
  5
96
100
AcDbEntity
  8
0
  6
CONTINUOUS
 62
               7
100
AcDbLine
 10
-16.100000000000005
 20
51.400000000000063
 30
0.0
 11
-16.100000000000001
 21
55.000000000000064
 31
0.0
  0
ARC
  5
97
100
AcDbEntity
  8
0
  6
CONTINUOUS
 62
               7
100
AcDbCircle
 10
-15.900711437663738
 20
55.000711437663817
 30
0.0
 40
0.1992898322082596
100
AcDbArc
 50
89.795461405895324
 51
180.20453859410418
  0
LINE
  5
98
100
AcDbEntity
  8
0
  6
CONTINUOUS
 62
               7
100
AcDbLine
 10
-15.899999999999999
 20
55.20000000000006
 30
0.0
 11
-15.100000000000001
 21
55.20000000000006
 31
0.0
  0
ARC
  5
99
100
AcDbEntity
  8
0
  6
CONTINUOUS
 62
               7
100
AcDbCircle
 10
-14.800000000000004
 20
66.200000000000045
 30
0.0
 40
0.3
100
AcDbArc
 50
89.999999999999815
 51
179.99999999999963
  0
LINE
  5
9A
100
AcDbEntity
  8
0
  6
CONTINUOUS
 62
               7
100
AcDbLine
 10
-16.100000000000005
 20
52.550000000000068
 30
0.0
 11
-17.954687499999995
 21
52.550000000000068
 31
0.0
  0
LINE
  5
9B
100
AcDbEntity
  8
0
  6
CONTINUOUS
 62
               7
100
AcDbLine
 10
-16.100000000000001
 20
53.850000000000065
 30
0.0
 11
-17.6053125
 21
53.850000000000065
 31
0.0
  0
LINE
  5
9C
100
AcDbEntity
  8
0
  6
CONTINUOUS
 62
               2
100
AcDbLine
 10
-18.380000000000003
 20
54.800000000000068
 30
0.0
 11
-19.240000000000006
 21
51.600000000000065
 31
0.0
  0
LINE
  5
9D
100
AcDbEntity
  8
0
  6
CONTINUOUS
 62
               2
100
AcDbLine
 10
-17.350000000000001
 20
54.800000000000068
 30
0.0
 11
-18.209999999999997
 21
51.600000000000065
 31
0.0
  0
LINE
  5
9E
100
AcDbEntity
  8
0
  6
CONTINUOUS
 62
               7
100
AcDbLine
 10
-28.299999999999997
 20
53.450000000000067
 30
0.0
 11
-28.299999999999997
 21
52.950000000000067
 31
0.0
  0
LINE
  5
9F
100
AcDbEntity
  8
0
  6
CONTINUOUS
 62
               7
100
AcDbLine
 10
-24.299999999999997
 20
53.850000000000065
 30
0.0
 11
-24.299999999999997
 21
52.550000000000068
 31
0.0
  0
LINE
  5
A0
100
AcDbEntity
  8
0
  6
CONTINUOUS
 62
               7
100
AcDbLine
 10
-24.299999999999997
 20
53.450000000000067
 30
0.0
 11
-28.299999999999997
 21
53.450000000000067
 31
0.0
  0
LINE
  5
A1
100
AcDbEntity
  8
0
  6
CONTINUOUS
 62
               7
100
AcDbLine
 10
-24.299999999999997
 20
52.950000000000067
 30
0.0
 11
-28.299999999999997
 21
52.950000000000067
 31
0.0
  0
LINE
  5
A2
100
AcDbEntity
  8
0
  6
CONTINUOUS
 62
               7
100
AcDbLine
 10
-18.635312500000005
 20
53.850000000000065
 30
0.0
 11
-24.299999999999997
 21
53.850000000000065
 31
0.0
  0
LINE
  5
A3
100
AcDbEntity
  8
0
  6
CONTINUOUS
 62
               7
100
AcDbLine
 10
-18.984687500000003
 20
52.550000000000068
 30
0.0
 11
-24.299999999999997
 21
52.550000000000068
 31
0.0
  0
LINE
  5
A4
100
AcDbEntity
  8
0
  6
CONTINUOUS
 62
               7
100
AcDbLine
 10
-15.100000000000012
 20
49.000000000000071
 30
0.0
 11
-15.100000000000001
 21
66.200000000000045
 31
0.0
  0
LINE
  5
A5
100
AcDbEntity
  8
0
  6
CONTINUOUS
 62
               7
100
AcDbLine
 10
-15.100000000000016
 20
17.500000000000036
 30
0.0
 11
-15.100000000000001
 21
0.3000000000000587
 31
0.0
  0
LINE
  5
A6
100
AcDbEntity
  8
0
  6
CONTINUOUS
 62
               7
100
AcDbLine
 10
-18.635312500000005
 20
13.950000000000053
 30
0.0
 11
-24.300000000000001
 21
13.950000000000044
 31
0.0
  0
LINE
  5
A7
100
AcDbEntity
  8
0
  6
CONTINUOUS
 62
               7
100
AcDbLine
 10
-18.984687500000003
 20
12.650000000000055
 30
0.0
 11
-24.300000000000001
 21
12.650000000000047
 31
0.0
  0
LINE
  5
A8
100
AcDbEntity
  8
0
  6
CONTINUOUS
 62
               7
100
AcDbLine
 10
-24.300000000000001
 20
13.550000000000042
 30
0.0
 11
-28.300000000000001
 21
13.55000000000004
 31
0.0
  0
LINE
  5
A9
100
AcDbEntity
  8
0
  6
CONTINUOUS
 62
               7
100
AcDbLine
 10
-24.300000000000001
 20
13.050000000000042
 30
0.0
 11
-28.300000000000001
 21
13.05000000000004
 31
0.0
  0
LINE
  5
AA
100
AcDbEntity
  8
0
  6
CONTINUOUS
 62
               7
100
AcDbLine
 10
-24.300000000000001
 20
12.650000000000043
 30
0.0
 11
-24.300000000000001
 21
13.95000000000004
 31
0.0
  0
LINE
  5
AB
100
AcDbEntity
  8
0
  6
CONTINUOUS
 62
               7
100
AcDbLine
 10
-28.300000000000001
 20
13.05000000000004
 30
0.0
 11
-28.300000000000001
 21
13.55000000000004
 31
0.0
  0
LINE
  5
AC
100
AcDbEntity
  8
0
  6
CONTINUOUS
 62
               2
100
AcDbLine
 10
-17.350000000000005
 20
14.900000000000041
 30
0.0
 11
-18.209999999999997
 21
11.700000000000042
 31
0.0
  0
LINE
  5
AD
100
AcDbEntity
  8
0
  6
CONTINUOUS
 62
               2
100
AcDbLine
 10
-18.380000000000006
 20
14.900000000000041
 30
0.0
 11
-19.240000000000006
 21
11.700000000000042
 31
0.0
  0
LINE
  5
AE
100
AcDbEntity
  8
0
  6
CONTINUOUS
 62
               7
100
AcDbLine
 10
-16.100000000000005
 20
13.950000000000051
 30
0.0
 11
-17.6053125
 21
13.950000000000049
 31
0.0
  0
LINE
  5
AF
100
AcDbEntity
  8
0
  6
CONTINUOUS
 62
               7
100
AcDbLine
 10
-16.100000000000005
 20
12.650000000000055
 30
0.0
 11
-17.954687499999995
 21
12.650000000000055
 31
0.0
  0
ARC
  5
B0
100
AcDbEntity
  8
0
  6
CONTINUOUS
 62
               7
100
AcDbCircle
 10
-14.800000000000004
 20
0.3000000000000588
 30
0.0
 40
0.3
100
AcDbArc
 50
179.99999999999963
 51
269.99999999999937
  0
LINE
  5
B1
100
AcDbEntity
  8
0
  6
CONTINUOUS
 62
               7
100
AcDbLine
 10
-15.900000000000002
 20
11.300000000000049
 30
0.0
 11
-15.100000000000005
 21
11.300000000000049
 31
0.0
  0
ARC
  5
B2
100
AcDbEntity
  8
0
  6
CONTINUOUS
 62
               7
100
AcDbCircle
 10
-15.900711437663741
 20
11.499288562336291
 30
0.0
 40
0.1992898322082596
100
AcDbArc
 50
179.79546140589503
 51
270.20453859410389
  0
LINE
  5
B3
100
AcDbEntity
  8
0
  6
CONTINUOUS
 62
               7
100
AcDbLine
 10
-16.100000000000005
 20
15.100000000000044
 30
0.0
 11
-16.100000000000005
 21
11.500000000000046
 31
0.0
  0
ARC
  5
B4
100
AcDbEntity
  8
0
  6
CONTINUOUS
 62
               7
100
AcDbCircle
 10
-15.900711437663755
 20
15.100711437663806
 30
0.0
 40
0.1992898322082596
100
AcDbArc
 50
89.795461405895423
 51
180.20453859410404
  0
LINE
  5
B5
100
AcDbEntity
  8
0
  6
CONTINUOUS
 62
               7
100
AcDbLine
 10
-15.900000000000002
 20
15.300000000000049
 30
0.0
 11
-15.100000000000005
 21
15.300000000000049
 31
0.0
  0
LINE
  5
B6
100
AcDbEntity
  8
0
  6
CONTINUOUS
 62
               7
100
AcDbLine
 10
-3.5
 20
0.0000000000000547
 30
0.0
 11
-14.800000000000004
 21
0.000000000000051
 31
0.0
  0
LINE
  5
B7
100
AcDbEntity
  8
0
  6
CONTINUOUS
 62
               7
100
AcDbLine
 10
-14.500000000000007
 20
17.500000000000036
 30
0.0
 11
-14.500000000000007
 21
17.600000000000051
 31
0.0
  0
LINE
  5
B8
100
AcDbEntity
  8
0
  6
CONTINUOUS
 62
               7
100
AcDbLine
 10
-9.1999999999999957
 20
1.5000000000000528
 30
0.0
 11
-4.0
 21
1.5000000000000544
 31
0.0
  0
LINE
  5
B9
100
AcDbEntity
  8
0
  6
CONTINUOUS
 62
               7
100
AcDbLine
 10
-9.1999999999999957
 20
1.5000000000000528
 30
0.0
 11
-9.2000000000000082
 21
17.600000000000055
 31
0.0
  0
LINE
  5
BA
100
AcDbEntity
  8
0
  6
CONTINUOUS
 62
               7
100
AcDbLine
 10
4.0
 20
0.0
 30
0.0
 11
6.5
 21
0.0
 31
0.0
  0
LINE
  5
BB
100
AcDbEntity
  8
0
  6
CONTINUOUS
 62
               4
100
AcDbLine
 10
6.5
 20
0.0
 30
0.0
 11
20.5
 21
0.0
 31
0.0
  0
LINE
  5
BC
100
AcDbEntity
  8
0
  6
CONTINUOUS
 62
               7
100
AcDbLine
 10
4.5
 20
1.8000000000000114
 30
0.0
 11
4.5
 21
0.0
 31
0.0
  0
LINE
  5
BD
100
AcDbEntity
  8
0
  6
CONTINUOUS
 62
               7
100
AcDbLine
 10
12.25
 20
58.839181962474811
 30
0.0
 11
12.25
 21
58.199999999999989
 31
0.0
  0
LINE
  5
BE
100
AcDbEntity
  8
0
  6
CONTINUOUS
 62
               2
100
AcDbLine
 10
12.425000000000011
 20
58.839181962474811
 30
0.0
 11
12.425000000000011
 21
58.199999999999989
 31
0.0
  0
LINE
  5
BF
100
AcDbEntity
  8
0
  6
CONTINUOUS
 62
               7
100
AcDbLine
 10
10.25
 20
57.699999999999989
 30
0.0
 11
10.75
 21
58.199999999999989
 31
0.0
  0
LINE
  5
C0
100
AcDbEntity
  8
0
  6
CONTINUOUS
 62
               7
100
AcDbLine
 10
16.25
 20
58.199999999999989
 30
0.0
 11
10.75
 21
58.199999999999989
 31
0.0
  0
LINE
  5
C1
100
AcDbEntity
  8
0
  6
CONTINUOUS
 62
               7
100
AcDbLine
 10
16.75
 20
57.699999999999989
 30
0.0
 11
16.25
 21
58.199999999999989
 31
0.0
  0
LINE
  5
C2
100
AcDbEntity
  8
0
  6
CONTINUOUS
 62
               7
100
AcDbLine
 10
16.0
 20
68.544181962474823
 30
0.0
 11
16.0
 21
63.544181962474823
 31
0.0
  0
LINE
  5
C3
100
AcDbEntity
  8
0
  6
CONTINUOUS
 62
               7
100
AcDbLine
 10
11.0
 20
68.544181962474823
 30
0.0
 11
11.0
 21
63.544181962474823
 31
0.0
  0
LINE
  5
C4
100
AcDbEntity
  8
0
  6
CONTINUOUS
 62
               7
100
AcDbLine
 10
10.5
 20
59.339181962474811
 30
0.0
 11
10.5
 21
61.339181962474811
 31
0.0
  0
LINE
  5
C5
100
AcDbEntity
  8
0
  6
CONTINUOUS
 62
               7
100
AcDbLine
 10
11.5
 20
63.044181962474823
 30
0.0
 11
15.5
 21
63.044181962474823
 31
0.0
  0
LINE
  5
C6
100
AcDbEntity
  8
0
  6
CONTINUOUS
 62
               7
100
AcDbLine
 10
16.0
 20
63.544181962474823
 30
0.0
 11
15.5
 21
63.044181962474823
 31
0.0
  0
LINE
  5
C7
100
AcDbEntity
  8
0
  6
CONTINUOUS
 62
               7
100
AcDbLine
 10
11.5
 20
63.044181962474823
 30
0.0
 11
11.0
 21
63.544181962474823
 31
0.0
  0
LINE
  5
C8
100
AcDbEntity
  8
0
  6
CONTINUOUS
 62
               7
100
AcDbLine
 10
16.0
 20
61.839181962474811
 30
0.0
 11
11.0
 21
61.839181962474811
 31
0.0
  0
LINE
  5
C9
100
AcDbEntity
  8
0
  6
CONTINUOUS
 62
               7
100
AcDbLine
 10
10.5
 20
61.339181962474811
 30
0.0
 11
11.0
 21
61.839181962474811
 31
0.0
  0
LINE
  5
CA
100
AcDbEntity
  8
0
  6
CONTINUOUS
 62
               7
100
AcDbLine
 10
10.5
 20
59.339181962474811
 30
0.0
 11
11.0
 21
58.839181962474811
 31
0.0
  0
LINE
  5
CB
100
AcDbEntity
  8
0
  6
CONTINUOUS
 62
               7
100
AcDbLine
 10
16.5
 20
61.339181962474811
 30
0.0
 11
16.0
 21
61.839181962474811
 31
0.0
  0
LINE
  5
CC
100
AcDbEntity
  8
0
  6
CONTINUOUS
 62
               7
100
AcDbLine
 10
16.5
 20
59.339181962474811
 30
0.0
 11
16.0
 21
58.839181962474811
 31
0.0
  0
LINE
  5
CD
100
AcDbEntity
  8
0
  6
CONTINUOUS
 62
               7
100
AcDbLine
 10
16.5
 20
59.339181962474811
 30
0.0
 11
16.5
 21
61.339181962474811
 31
0.0
  0
LINE
  5
CE
100
AcDbEntity
  8
0
  6
CONTINUOUS
 62
               7
100
AcDbLine
 10
16.0
 20
58.839181962474811
 30
0.0
 11
11.0
 21
58.839181962474811
 31
0.0
  0
LINE
  5
CF
100
AcDbEntity
  8
0
  6
CONTINUOUS
 62
               2
100
AcDbLine
 10
12.425000000000011
 20
63.044181962474823
 30
0.0
 11
12.425000000000011
 21
61.839181962474811
 31
0.0
  0
LINE
  5
D0
100
AcDbEntity
  8
0
  6
CONTINUOUS
 62
               7
100
AcDbLine
 10
12.25
 20
63.044181962474823
 30
0.0
 11
12.25
 21
61.839181962474811
 31
0.0
  0
LINE
  5
D1
100
AcDbEntity
  8
0
  6
CONTINUOUS
 62
               2
100
AcDbLine
 10
14.574999999999989
 20
63.044181962474823
 30
0.0
 11
14.574999999999989
 21
61.839181962474811
 31
0.0
  0
LINE
  5
D2
100
AcDbEntity
  8
0
  6
CONTINUOUS
 62
               7
100
AcDbLine
 10
14.75
 20
63.044181962474823
 30
0.0
 11
14.75
 21
61.839181962474811
 31
0.0
  0
LINE
  5
D3
100
AcDbEntity
  8
0
  6
CONTINUOUS
 62
               7
100
AcDbLine
 10
13.0
 20
69.044181962474823
 30
0.0
 11
11.5
 21
69.044181962474823
 31
0.0
  0
LINE
  5
D4
100
AcDbEntity
  8
0
  6
CONTINUOUS
 62
               7
100
AcDbLine
 10
16.0
 20
68.544181962474823
 30
0.0
 11
15.5
 21
69.044181962474823
 31
0.0
  0
LINE
  5
D5
100
AcDbEntity
  8
0
  6
CONTINUOUS
 62
               7
100
AcDbLine
 10
11.0
 20
68.544181962474823
 30
0.0
 11
11.5
 21
69.044181962474823
 31
0.0
  0
LINE
  5
D6
100
AcDbEntity
  8
0
  6
CONTINUOUS
 62
               7
100
AcDbLine
 10
14.75
 20
58.839181962474811
 30
0.0
 11
14.75
 21
58.199999999999989
 31
0.0
  0
LINE
  5
D7
100
AcDbEntity
  8
0
  6
CONTINUOUS
 62
               2
100
AcDbLine
 10
14.574999999999989
 20
58.839181962474811
 30
0.0
 11
14.574999999999989
 21
58.199999999999989
 31
0.0
  0
LINE
  5
D8
100
AcDbEntity
  8
0
  6
CONTINUOUS
 62
               7
100
AcDbLine
 10
11.0
 20
68.544181962474823
 30
0.0
 11
13.0
 21
68.544181962474823
 31
0.0
  0
LINE
  5
D9
100
AcDbEntity
  8
0
  6
CONTINUOUS
 62
               7
100
AcDbLine
 10
11.0
 20
63.544181962474823
 30
0.0
 11
16.0
 21
63.544181962474823
 31
0.0
  0
LINE
  5
DA
100
AcDbEntity
  8
0
  6
CONTINUOUS
 62
               7
100
AcDbLine
 10
10.5
 20
61.339181962474811
 30
0.0
 11
16.5
 21
61.339181962474811
 31
0.0
  0
LINE
  5
DB
100
AcDbEntity
  8
0
  6
CONTINUOUS
 62
               7
100
AcDbLine
 10
10.5
 20
59.339181962474811
 30
0.0
 11
16.5
 21
59.339181962474811
 31
0.0
  0
LINE
  5
DC
100
AcDbEntity
  8
0
  6
CONTINUOUS
 62
               7
100
AcDbLine
 10
10.25
 20
57.699999999999989
 30
0.0
 11
16.75
 21
57.699999999999989
 31
0.0
  0
LINE
  5
DD
100
AcDbEntity
  8
0
  6
CONTINUOUS
 62
               7
100
AcDbLine
 10
16.75
 20
55.000000000000057
 30
0.0
 11
16.75
 21
57.699999999999989
 31
0.0
  0
LINE
  5
DE
100
AcDbEntity
  8
0
  6
CONTINUOUS
 62
               7
100
AcDbLine
 10
10.25
 20
55.000000000000057
 30
0.0
 11
10.25
 21
57.699999999999989
 31
0.0
  0
LINE
  5
DF
100
AcDbEntity
  8
0
  6
CONTINUOUS
 62
               7
100
AcDbLine
 10
13.0
 20
69.044181962474823
 30
0.0
 11
13.0
 21
68.044181962474823
 31
0.0
  0
LINE
  5
E0
100
AcDbEntity
  8
0
  6
CONTINUOUS
 62
               7
100
AcDbLine
 10
14.0
 20
69.044181962474823
 30
0.0
 11
14.0
 21
68.044181962474823
 31
0.0
  0
LINE
  5
E1
100
AcDbEntity
  8
0
  6
CONTINUOUS
 62
               7
100
AcDbLine
 10
13.0
 20
68.044181962474823
 30
0.0
 11
14.0
 21
68.044181962474823
 31
0.0
  0
LINE
  5
E2
100
AcDbEntity
  8
0
  6
CONTINUOUS
 62
               7
100
AcDbLine
 10
14.0
 20
69.044181962474823
 30
0.0
 11
15.5
 21
69.044181962474823
 31
0.0
  0
LINE
  5
E3
100
AcDbEntity
  8
0
  6
CONTINUOUS
 62
               7
100
AcDbLine
 10
16.0
 20
68.544181962474823
 30
0.0
 11
14.0
 21
68.544181962474823
 31
0.0
  0
LINE
  5
E4
100
AcDbEntity
  8
0
  6
CENTER
 62
               2
100
AcDbLine
 10
13.5
 20
54.106536674243898
 30
0.0
 11
13.5
 21
69.7473895195821
 31
0.0
  0
LINE
  5
E5
100
AcDbEntity
  8
0
  6
CENTER
 62
               2
100
AcDbLine
 10
10.5
 20
20.228299184667549
 30
0.0
 11
10.5
 21
13.717203744223468
 31
0.0
  0
LINE
  5
E6
100
AcDbEntity
  8
0
  6
CENTER
 62
               2
100
AcDbLine
 10
8.5
 20
50.095178376038632
 30
0.0
 11
8.5
 21
44.255323625957431
 31
0.0
  0
CIRCLE
  5
E7
100
AcDbEntity
  8
0
  6
CONTINUOUS
 62
               7
100
AcDbCircle
 10
8.5
 20
47.500000000000057
 30
0.0
 40
2.1000000000000001
  0
CIRCLE
  5
E8
100
AcDbEntity
  8
0
  6
CONTINUOUS
 62
               2
100
AcDbCircle
 10
8.5
 20
47.500000000000057
 30
0.0
 40
2.5
  0
LINE
  5
E9
100
AcDbEntity
  8
0
  6
CENTER
 62
               2
100
AcDbLine
 10
11.5
 20
47.500000000000057
 30
0.0
 11
5.5
 21
47.500000000000057
 31
0.0
  0
CIRCLE
  5
EA
100
AcDbEntity
  8
0
  6
CONTINUOUS
 62
               7
100
AcDbCircle
 10
10.5
 20
17.0
 30
0.0
 40
2.1000000000000001
  0
CIRCLE
  5
EB
100
AcDbEntity
  8
0
  6
CONTINUOUS
 62
               2
100
AcDbCircle
 10
10.5
 20
17.0
 30
0.0
 40
2.5
  0
LINE
  5
EC
100
AcDbEntity
  8
0
  6
CENTER
 62
               2
100
AcDbLine
 10
13.5
 20
17.0
 30
0.0
 11
7.5
 21
17.0
 31
0.0
  0
CIRCLE
  5
ED
100
AcDbEntity
  8
0
  6
CONTINUOUS
 62
               7
100
AcDbCircle
 10
10.5
 20
30.0
 30
0.0
 40
4.25
  0
CIRCLE
  5
EE
100
AcDbEntity
  8
0
  6
CONTINUOUS
 62
               2
100
AcDbCircle
 10
10.5
 20
30.0
 30
0.0
 40
5.0
  0
LINE
  5
EF
100
AcDbEntity
  8
0
  6
CENTER
 62
               2
100
AcDbLine
 10
5.1238561121030131
 20
30.0
 30
0.0
 11
16.129336015862492
 21
30.0
 31
0.0
  0
LINE
  5
F0
100
AcDbEntity
  8
0
  6
CENTER
 62
               2
100
AcDbLine
 10
10.5
 20
24.204100825292699
 30
0.0
 11
10.5
 21
35.670543238110156
 31
0.0
  0
LINE
  5
F1
100
AcDbEntity
  8
0
  6
CONTINUOUS
 62
               2
100
AcDbLine
 10
-29.709999999999951
 20
18.540000000000077
 30
0.0
 11
-31.309999999999974
 21
12.540000000000077
 31
0.0
  0
LINE
  5
F2
100
AcDbEntity
  8
0
  6
CONTINUOUS
 62
               7
100
AcDbLine
 10
-41.129999999999967
 20
15.10000000000008
 30
0.0
 11
-41.129999999999967
 21
15.900000000000091
 31
0.0
  0
LINE
  5
F3
100
AcDbEntity
  8
0
  6
CONTINUOUS
 62
               7
100
AcDbLine
 10
-36.129999999999967
 20
14.785000000000082
 30
0.0
 11
-36.129999999999967
 21
16.215000000000089
 31
0.0
  0
LINE
  5
F4
100
AcDbEntity
  8
0
  6
CONTINUOUS
 62
               7
100
AcDbLine
 10
-36.129999999999967
 20
15.900000000000091
 30
0.0
 11
-41.129999999999967
 21
15.900000000000091
 31
0.0
  0
LINE
  5
F5
100
AcDbEntity
  8
0
  6
CONTINUOUS
 62
               7
100
AcDbLine
 10
-36.129999999999967
 20
15.10000000000008
 30
0.0
 11
-41.129999999999967
 21
15.10000000000008
 31
0.0
  0
LINE
  5
F6
100
AcDbEntity
  8
0
  6
CONTINUOUS
 62
               7
100
AcDbLine
 10
-31.951333333333281
 20
14.785000000000082
 30
0.0
 11
-36.129999999999967
 21
14.785000000000082
 31
0.0
  0
LINE
  5
F7
100
AcDbEntity
  8
0
  6
CONTINUOUS
 62
               2
100
AcDbLine
 10
-30.94999999999996
 20
18.540000000000077
 30
0.0
 11
-32.549999999999983
 21
12.540000000000077
 31
0.0
  0
LINE
  5
F8
100
AcDbEntity
  8
0
  6
CONTINUOUS
 62
               7
100
AcDbLine
 10
-31.569999999999965
 20
16.215000000000089
 30
0.0
 11
-36.129999999999967
 21
16.215000000000089
 31
0.0
  0
LINE
  5
F9
100
AcDbEntity
  8
0
  6
CONTINUOUS
 62
               7
100
AcDbLine
 10
-25.69999999999996
 20
14.785000000000082
 30
0.0
 11
-30.711333333333272
 21
14.785000000000082
 31
0.0
  0
LINE
  5
FA
100
AcDbEntity
  8
0
  6
CONTINUOUS
 62
               7
100
AcDbLine
 10
-25.69999999999996
 20
16.215000000000089
 30
0.0
 11
-30.329999999999956
 21
16.215000000000089
 31
0.0
  0
LINE
  5
FB
100
AcDbEntity
  8
0
  6
CONTINUOUS
 62
               7
100
AcDbLine
 10
-41.129999999999967
 20
50.900000000000091
 30
0.0
 11
-41.129999999999967
 21
51.700000000000045
 31
0.0
  0
LINE
  5
FC
100
AcDbEntity
  8
0
  6
CONTINUOUS
 62
               7
100
AcDbLine
 10
-36.129999999999967
 20
50.585000000000036
 30
0.0
 11
-36.129999999999967
 21
52.015000000000043
 31
0.0
  0
LINE
  5
FD
100
AcDbEntity
  8
0
  6
CONTINUOUS
 62
               7
100
AcDbLine
 10
-36.129999999999967
 20
51.700000000000045
 30
0.0
 11
-41.129999999999967
 21
51.700000000000045
 31
0.0
  0
LINE
  5
FE
100
AcDbEntity
  8
0
  6
CONTINUOUS
 62
               7
100
AcDbLine
 10
-36.129999999999967
 20
50.900000000000091
 30
0.0
 11
-41.129999999999967
 21
50.900000000000091
 31
0.0
  0
LINE
  5
FF
100
AcDbEntity
  8
0
  6
CONTINUOUS
 62
               7
100
AcDbLine
 10
-31.951333333333281
 20
50.585000000000036
 30
0.0
 11
-36.129999999999967
 21
50.585000000000036
 31
0.0
  0
LINE
  5
100
100
AcDbEntity
  8
0
  6
CONTINUOUS
 62
               7
100
AcDbLine
 10
-31.569999999999965
 20
52.015000000000043
 30
0.0
 11
-36.129999999999967
 21
52.015000000000043
 31
0.0
  0
LINE
  5
101
100
AcDbEntity
  8
0
  6
CONTINUOUS
 62
               2
100
AcDbLine
 10
-30.94999999999996
 20
54.340000000000032
 30
0.0
 11
-32.549999999999983
 21
48.340000000000032
 31
0.0
  0
LINE
  5
102
100
AcDbEntity
  8
0
  6
CONTINUOUS
 62
               2
100
AcDbLine
 10
-29.709999999999951
 20
54.340000000000032
 30
0.0
 11
-31.309999999999974
 21
48.340000000000032
 31
0.0
  0
LINE
  5
103
100
AcDbEntity
  8
0
  6
CONTINUOUS
 62
               7
100
AcDbLine
 10
-25.69999999999996
 20
50.585000000000036
 30
0.0
 11
-30.711333333333272
 21
50.585000000000036
 31
0.0
  0
LINE
  5
104
100
AcDbEntity
  8
0
  6
CONTINUOUS
 62
               7
100
AcDbLine
 10
-25.69999999999996
 20
52.015000000000043
 30
0.0
 11
-30.329999999999956
 21
52.015000000000043
 31
0.0
  0
LINE
  5
105
100
AcDbEntity
  8
0
  6
CONTINUOUS
 62
               7
100
AcDbLine
 10
-16.299999999999955
 20
12.200000000000045
 30
0.0
 11
-17.166025403784403
 21
11.700000000000045
 31
0.0
  0
LINE
  5
106
100
AcDbEntity
  8
0
  6
CONTINUOUS
 62
               7
100
AcDbLine
 10
-20.599999999999966
 20
17.500000000000057
 30
0.0
 11
-20.599999999999966
 21
13.950000000000049
 31
0.0
  0
LINE
  5
107
100
AcDbEntity
  8
0
  6
CONTINUOUS
 62
               7
100
AcDbLine
 10
-20.69999999999996
 20
17.500000000000057
 30
0.0
 11
-24.69999999999996
 21
17.500000000000057
 31
0.0
  0
LINE
  5
108
100
AcDbEntity
  8
0
  6
CONTINUOUS
 62
               7
100
AcDbLine
 10
-24.69999999999996
 20
12.400244132795649
 30
0.0
 11
-24.69999999999996
 21
11.200000000000045
 31
0.0
  0
LINE
  5
109
100
AcDbEntity
  8
0
  6
CONTINUOUS
 62
               7
100
AcDbLine
 10
-20.69999999999996
 20
13.950000000000049
 30
0.0
 11
-20.69999999999996
 21
17.500000000000057
 31
0.0
  0
LINE
  5
10A
100
AcDbEntity
  8
0
  6
CONTINUOUS
 62
               7
100
AcDbLine
 10
-24.300000000000001
 20
12.700000000000045
 30
0.0
 11
-25.69999999999996
 21
12.700000000000045
 31
0.0
  0
LINE
  5
10B
100
AcDbEntity
  8
0
  6
CONTINUOUS
 62
               7
100
AcDbLine
 10
-24.69999999999996
 20
12.400244132795649
 30
0.0
 11
-23.283564090980811
 21
12.650000000000048
 31
0.0
  0
LINE
  5
10C
100
AcDbEntity
  8
0
  6
CONTINUOUS
 62
               7
100
AcDbLine
 10
-25.69999999999996
 20
18.000000000000057
 30
0.0
 11
-25.69999999999996
 21
13.55000000000004
 31
0.0
  0
LINE
  5
10D
100
AcDbEntity
  8
0
  6
CONTINUOUS
 62
               7
100
AcDbLine
 10
-20.599999999999966
 20
16.800000000000068
 30
0.0
 11
-20.69999999999996
 21
16.800000000000068
 31
0.0
  0
LINE
  5
10E
100
AcDbEntity
  8
0
  6
CONTINUOUS
 62
               7
100
AcDbLine
 10
-23.988675134594757
 20
11.200000000000045
 30
0.0
 11
-24.69999999999996
 21
11.200000000000045
 31
0.0
  0
LINE
  5
10F
100
AcDbEntity
  8
0
  6
CONTINUOUS
 62
               7
100
AcDbLine
 10
-23.69999999999996
 20
11.700000000000045
 30
0.0
 11
-23.988675134594757
 21
11.200000000000045
 31
0.0
  0
LINE
  5
110
100
AcDbEntity
  8
0
  6
CONTINUOUS
 62
               7
100
AcDbLine
 10
-24.988675134594757
 20
18.000000000000057
 30
0.0
 11
-25.69999999999996
 21
18.000000000000057
 31
0.0
  0
LINE
  5
111
100
AcDbEntity
  8
0
  6
CONTINUOUS
 62
               7
100
AcDbLine
 10
-24.69999999999996
 20
17.500000000000057
 30
0.0
 11
-24.988675134594757
 21
18.000000000000057
 31
0.0
  0
LINE
  5
112
100
AcDbEntity
  8
0
  6
CONTINUOUS
 62
               7
100
AcDbLine
 10
-17.166025403784403
 20
11.700000000000045
 30
0.0
 11
-23.69999999999996
 21
11.700000000000045
 31
0.0
  0
LINE
  5
113
100
AcDbEntity
  8
0
  6
CONTINUOUS
 62
               7
100
AcDbLine
 10
-20.599999999833642
 20
12.200000000000045
 30
0.0
 11
-16.100000000000005
 21
12.200000000000045
 31
0.0
  0
LINE
  5
114
100
AcDbEntity
  8
0
  6
CONTINUOUS
 62
               7
100
AcDbLine
 10
-20.599999999833642
 20
17.500000000000057
 30
0.0
 11
-9.1999999999999886
 21
17.500000000000057
 31
0.0
  0
ARC
  5
115
100
AcDbEntity
  8
0
  6
CONTINUOUS
 62
               7
100
AcDbCircle
 10
-9.5999999999999943
 20
24.500000000000057
 30
0.0
 40
0.5
100
AcDbArc
 50
89.999999999999815
 51
179.99999999999963
  0
ARC
  5
116
100
AcDbEntity
  8
0
  6
CONTINUOUS
 62
               7
100
AcDbCircle
 10
-9.5999999999999943
 20
22.500000000000057
 30
0.0
 40
0.5
100
AcDbArc
 50
179.99999999999963
 51
269.99999999999937
  0
LINE
  5
117
100
AcDbEntity
  8
0
  6
CONTINUOUS
 62
               7
100
AcDbLine
 10
-10.099999999999994
 20
24.500000000000057
 30
0.0
 11
-10.099999999999994
 21
22.500000000000057
 31
0.0
  0
LINE
  5
118
100
AcDbEntity
  8
0
  6
CONTINUOUS
 62
               7
100
AcDbLine
 10
-9.5999999999999943
 20
22.000000000000057
 30
0.0
 11
-9.5
 21
22.000000000000057
 31
0.0
  0
LINE
  5
119
100
AcDbEntity
  8
0
  6
CONTINUOUS
 62
               7
100
AcDbLine
 10
-9.5999999999999943
 20
25.000000000000057
 30
0.0
 11
-9.5
 21
25.000000000000057
 31
0.0
  0
LINE
  5
11A
100
AcDbEntity
  8
0
  6
CONTINUOUS
 62
               7
100
AcDbLine
 10
-10.5
 20
25.10000000000008
 30
0.0
 11
-9.5
 21
25.10000000000008
 31
0.0
  0
LINE
  5
11B
100
AcDbEntity
  8
0
  6
CONTINUOUS
 62
               7
100
AcDbLine
 10
-10.5
 20
21.900000000000091
 30
0.0
 11
-9.5
 21
21.900000000000091
 31
0.0
  0
LINE
  5
11C
100
AcDbEntity
  8
0
  6
CONTINUOUS
 62
               7
100
AcDbLine
 10
-9.5
 20
25.10000000000008
 30
0.0
 11
-9.5
 21
21.900000000000091
 31
0.0
  0
LINE
  5
11D
100
AcDbEntity
  8
0
  6
CONTINUOUS
 62
               7
100
AcDbLine
 10
-10.5
 20
25.60000000000008
 30
0.0
 11
-10.5
 21
18.909182548228898
 31
0.0
  0
LINE
  5
11E
100
AcDbEntity
  8
0
  6
CONTINUOUS
 62
               7
100
AcDbLine
 10
-9.2000000000000028
 20
17.60000000000008
 30
0.0
 11
-15.099999999999994
 21
17.60000000000008
 31
0.0
  0
LINE
  5
11F
100
AcDbEntity
  8
0
  6
CONTINUOUS
 62
               7
100
AcDbLine
 10
-10.5
 20
18.909182548228898
 30
0.0
 11
-15.099999999999994
 21
18.098078436969956
 31
0.0
  0
LINE
  5
120
100
AcDbEntity
  8
0
  6
CONTINUOUS
 62
               7
100
AcDbLine
 10
-15.099999999999994
 20
18.098078436969956
 30
0.0
 11
-15.099999999999994
 21
17.60000000000008
 31
0.0
  0
LINE
  5
121
100
AcDbEntity
  8
0
  6
CONTINUOUS
 62
               7
100
AcDbLine
 10
-7.0
 20
26.217144432479699
 30
0.0
 11
-10.5
 21
25.60000000000008
 31
0.0
  0
LINE
  5
122
100
AcDbEntity
  8
0
  6
CONTINUOUS
 62
               7
100
AcDbLine
 10
-7.0
 20
32.000000000000057
 30
0.0
 11
-7.0
 21
26.217144432479699
 31
0.0
  0
LINE
  5
123
100
AcDbEntity
  8
0
  6
CONTINUOUS
 62
               7
100
AcDbLine
 10
4.5
 20
32.000000000000057
 30
0.0
 11
-7.0
 21
32.000000000000057
 31
0.0
  0
LINE
  5
124
100
AcDbEntity
  8
0
  6
CONTINUOUS
 62
               7
100
AcDbLine
 10
1.3000000000000114
 20
31.300000000000068
 30
0.0
 11
1.3000000000000114
 21
30.500000000000057
 31
0.0
  0
LINE
  5
125
100
AcDbEntity
  8
0
  6
CONTINUOUS
 62
               7
100
AcDbLine
 10
-6.2999999999999972
 20
30.500000000000057
 30
0.0
 11
-6.2999999999999972
 21
31.300000000000068
 31
0.0
  0
LINE
  5
126
100
AcDbEntity
  8
0
  6
CONTINUOUS
 62
               7
100
AcDbLine
 10
-6.2999999999999972
 20
30.500000000000057
 30
0.0
 11
1.3000000000000114
 21
30.500000000000057
 31
0.0
  0
LINE
  5
127
100
AcDbEntity
  8
0
  6
CONTINUOUS
 62
               7
100
AcDbLine
 10
-6.2999999999999972
 20
31.300000000000068
 30
0.0
 11
1.3000000000000114
 21
31.300000000000068
 31
0.0
  0
LINE
  5
128
100
AcDbEntity
  8
0
  6
CONTINUOUS
 62
               7
100
AcDbLine
 10
-6.2999999999999972
 20
35.200000000000045
 30
0.0
 11
1.3000000000000114
 21
35.200000000000045
 31
0.0
  0
LINE
  5
129
100
AcDbEntity
  8
0
  6
CONTINUOUS
 62
               7
100
AcDbLine
 10
-6.2999999999999972
 20
36.000000000000057
 30
0.0
 11
1.3000000000000114
 21
36.000000000000057
 31
0.0
  0
LINE
  5
12A
100
AcDbEntity
  8
0
  6
CONTINUOUS
 62
               7
100
AcDbLine
 10
-6.2999999999999972
 20
36.000000000000057
 30
0.0
 11
-6.2999999999999972
 21
35.200000000000045
 31
0.0
  0
LINE
  5
12B
100
AcDbEntity
  8
0
  6
CONTINUOUS
 62
               7
100
AcDbLine
 10
1.3000000000000114
 20
35.200000000000045
 30
0.0
 11
1.3000000000000114
 21
36.000000000000057
 31
0.0
  0
LINE
  5
12C
100
AcDbEntity
  8
0
  6
CONTINUOUS
 62
               7
100
AcDbLine
 10
4.5
 20
34.500000000000057
 30
0.0
 11
-7.0
 21
34.500000000000057
 31
0.0
  0
LINE
  5
12D
100
AcDbEntity
  8
0
  6
CONTINUOUS
 62
               7
100
AcDbLine
 10
4.5
 20
66.500000000000057
 30
0.0
 11
3.5999999999999943
 21
66.500000000000057
 31
0.0
  0
LINE
  5
12E
100
AcDbEntity
  8
0
  6
CONTINUOUS
 62
               7
100
AcDbLine
 10
-7.0
 20
34.500000000000057
 30
0.0
 11
-7.0
 21
40.282855567520414
 31
0.0
  0
LINE
  5
12F
100
AcDbEntity
  8
0
  6
CONTINUOUS
 62
               7
100
AcDbLine
 10
-7.0
 20
40.282855567520414
 30
0.0
 11
-10.5
 21
40.900000000000034
 31
0.0
  0
LINE
  5
130
100
AcDbEntity
  8
0
  6
CONTINUOUS
 62
               7
100
AcDbLine
 10
3.5999999999999943
 20
66.500000000000057
 30
0.0
 11
3.3000000000000114
 21
66.200000000000045
 31
0.0
  0
LINE
  5
131
100
AcDbEntity
  8
0
  6
CONTINUOUS
 62
               7
100
AcDbLine
 10
-15.099999999999994
 20
48.401921563030157
 30
0.0
 11
-15.099999999999994
 21
48.900000000000034
 31
0.0
  0
LINE
  5
132
100
AcDbEntity
  8
0
  6
CONTINUOUS
 62
               7
100
AcDbLine
 10
-10.5
 20
47.590817451771215
 30
0.0
 11
-15.099999999999994
 21
48.401921563030157
 31
0.0
  0
LINE
  5
133
100
AcDbEntity
  8
0
  6
CONTINUOUS
 62
               7
100
AcDbLine
 10
-9.2000000000000028
 20
48.900000000000034
 30
0.0
 11
-15.099999999999994
 21
48.900000000000034
 31
0.0
  0
LINE
  5
134
100
AcDbEntity
  8
0
  6
CONTINUOUS
 62
               7
100
AcDbLine
 10
-10.5
 20
40.900000000000034
 30
0.0
 11
-10.5
 21
47.590817451771215
 31
0.0
  0
LINE
  5
135
100
AcDbEntity
  8
0
  6
CONTINUOUS
 62
               7
100
AcDbLine
 10
-9.5
 20
41.400000000000034
 30
0.0
 11
-9.5
 21
44.600000000000023
 31
0.0
  0
LINE
  5
136
100
AcDbEntity
  8
0
  6
CONTINUOUS
 62
               7
100
AcDbLine
 10
-10.5
 20
44.600000000000023
 30
0.0
 11
-9.5
 21
44.600000000000023
 31
0.0
  0
LINE
  5
137
100
AcDbEntity
  8
0
  6
CONTINUOUS
 62
               7
100
AcDbLine
 10
-10.5
 20
41.400000000000034
 30
0.0
 11
-9.5
 21
41.400000000000034
 31
0.0
  0
LINE
  5
138
100
AcDbEntity
  8
0
  6
CONTINUOUS
 62
               7
100
AcDbLine
 10
-9.5999999999999943
 20
41.500000000000057
 30
0.0
 11
-9.5
 21
41.500000000000057
 31
0.0
  0
LINE
  5
139
100
AcDbEntity
  8
0
  6
CONTINUOUS
 62
               7
100
AcDbLine
 10
-9.5999999999999943
 20
44.500000000000057
 30
0.0
 11
-9.5
 21
44.500000000000057
 31
0.0
  0
LINE
  5
13A
100
AcDbEntity
  8
0
  6
CONTINUOUS
 62
               7
100
AcDbLine
 10
-10.099999999999994
 20
42.000000000000057
 30
0.0
 11
-10.099999999999994
 21
44.000000000000057
 31
0.0
  0
ARC
  5
13B
100
AcDbEntity
  8
0
  6
CONTINUOUS
 62
               7
100
AcDbCircle
 10
-9.5999999999999943
 20
44.000000000000057
 30
0.0
 40
0.5
100
AcDbArc
 50
89.999999999999815
 51
179.99999999999963
  0
ARC
  5
13C
100
AcDbEntity
  8
0
  6
CONTINUOUS
 62
               7
100
AcDbCircle
 10
-9.5999999999999943
 20
42.000000000000057
 30
0.0
 40
0.5
100
AcDbArc
 50
179.99999999999963
 51
269.99999999999937
  0
LINE
  5
13D
100
AcDbEntity
  8
0
  6
CONTINUOUS
 62
               7
100
AcDbLine
 10
-20.599999999833642
 20
49.000000000000057
 30
0.0
 11
-9.1999999999999886
 21
49.000000000000057
 31
0.0
  0
LINE
  5
13E
100
AcDbEntity
  8
0
  6
CONTINUOUS
 62
               7
100
AcDbLine
 10
-20.599999999833642
 20
54.300000000000068
 30
0.0
 11
-16.100000000000001
 21
54.300000000000068
 31
0.0
  0
LINE
  5
13F
100
AcDbEntity
  8
0
  6
CONTINUOUS
 62
               7
100
AcDbLine
 10
-17.166025403784403
 20
54.800000000000068
 30
0.0
 11
-23.69999999999996
 21
54.800000000000068
 31
0.0
  0
LINE
  5
140
100
AcDbEntity
  8
0
  6
CONTINUOUS
 62
               7
100
AcDbLine
 10
-24.69999999999996
 20
49.000000000000057
 30
0.0
 11
-24.988675134594757
 21
48.500000000000057
 31
0.0
  0
LINE
  5
141
100
AcDbEntity
  8
0
  6
CONTINUOUS
 62
               7
100
AcDbLine
 10
-24.988675134594757
 20
48.500000000000057
 30
0.0
 11
-25.69999999999996
 21
48.500000000000057
 31
0.0
  0
LINE
  5
142
100
AcDbEntity
  8
0
  6
CONTINUOUS
 62
               7
100
AcDbLine
 10
-23.69999999999996
 20
54.800000000000068
 30
0.0
 11
-23.988675134594757
 21
55.300000000000068
 31
0.0
  0
LINE
  5
143
100
AcDbEntity
  8
0
  6
CONTINUOUS
 62
               7
100
AcDbLine
 10
-23.988675134594757
 20
55.300000000000068
 30
0.0
 11
-24.69999999999996
 21
55.300000000000068
 31
0.0
  0
LINE
  5
144
100
AcDbEntity
  8
0
  6
CONTINUOUS
 62
               7
100
AcDbLine
 10
-20.599999999999966
 20
49.700000000000045
 30
0.0
 11
-20.69999999999996
 21
49.700000000000045
 31
0.0
  0
LINE
  5
145
100
AcDbEntity
  8
0
  6
CONTINUOUS
 62
               7
100
AcDbLine
 10
-25.69999999999996
 20
48.500000000000057
 30
0.0
 11
-25.69999999999996
 21
52.950000000000067
 31
0.0
  0
LINE
  5
146
100
AcDbEntity
  8
0
  6
CONTINUOUS
 62
               7
100
AcDbLine
 10
-24.69999999999996
 20
54.099755867204465
 30
0.0
 11
-23.283564090980811
 21
53.850000000000065
 31
0.0
  0
LINE
  5
147
100
AcDbEntity
  8
0
  6
CONTINUOUS
 62
               7
100
AcDbLine
 10
-24.299999999999997
 20
53.800000000000068
 30
0.0
 11
-25.69999999999996
 21
53.800000000000068
 31
0.0
  0
LINE
  5
148
100
AcDbEntity
  8
0
  6
CONTINUOUS
 62
               7
100
AcDbLine
 10
-20.69999999999996
 20
52.550000000000068
 30
0.0
 11
-20.69999999999996
 21
49.000000000000057
 31
0.0
  0
LINE
  5
149
100
AcDbEntity
  8
0
  6
CONTINUOUS
 62
               7
100
AcDbLine
 10
-24.69999999999996
 20
54.099755867204465
 30
0.0
 11
-24.69999999999996
 21
55.300000000000068
 31
0.0
  0
LINE
  5
14A
100
AcDbEntity
  8
0
  6
CONTINUOUS
 62
               7
100
AcDbLine
 10
-20.69999999999996
 20
49.000000000000057
 30
0.0
 11
-24.69999999999996
 21
49.000000000000057
 31
0.0
  0
LINE
  5
14B
100
AcDbEntity
  8
0
  6
CONTINUOUS
 62
               7
100
AcDbLine
 10
-20.599999999999966
 20
49.000000000000057
 30
0.0
 11
-20.599999999999966
 21
52.550000000000068
 31
0.0
  0
LINE
  5
14C
100
AcDbEntity
  8
0
  6
CONTINUOUS
 62
               7
100
AcDbLine
 10
-16.299999999999955
 20
54.300000000000068
 30
0.0
 11
-17.166025403784403
 21
54.800000000000068
 31
0.0
  0
LINE
  5
14D
100
AcDbEntity
  8
0
  6
CONTINUOUS
 62
               7
100
AcDbLine
 10
18.5
 20
9.708099243547835
 30
0.0
 11
18.5
 21
55.000000000000057
 31
0.0
  0
LINE
  5
14E
100
AcDbEntity
  8
0
  6
CONTINUOUS
 62
               7
100
AcDbLine
 10
4.5
 20
66.500000000000057
 30
0.0
 11
4.5
 21
10.0
 31
0.0
  0
LINE
  5
14F
100
AcDbEntity
  8
0
  6
CONTINUOUS
 62
               7
100
AcDbLine
 10
18.5
 20
55.000000000000057
 30
0.0
 11
4.5
 21
55.000000000000057
 31
0.0
  0
ARC
  5
150
100
AcDbEntity
  8
0
  6
CONTINUOUS
 62
               4
100
AcDbCircle
 10
-3.5
 20
1.0999999999999943
 30
0.0
 40
0.5
100
AcDbArc
 50
89.999999999999815
 51
179.99999999999963
  0
LINE
  5
151
100
AcDbEntity
  8
0
  6
CONTINUOUS
 62
               4
100
AcDbLine
 10
-3.5
 20
1.5999999999999943
 30
0.0
 11
4.0
 21
1.5999999999999943
 31
0.0
  0
LINE
  5
152
100
AcDbEntity
  8
0
  6
CONTINUOUS
 62
               4
100
AcDbLine
 10
-4.0
 20
6.0
 30
0.0
 11
-4.0
 21
0.5
 31
0.0
  0
LINE
  5
153
100
AcDbEntity
  8
0
  6
CONTINUOUS
 62
               4
100
AcDbLine
 10
0.0
 20
10.0
 30
0.0
 11
17.0
 21
10.0
 31
0.0
  0
LINE
  5
154
100
AcDbEntity
  8
0
  6
CONTINUOUS
 62
               4
100
AcDbLine
 10
-3.5
 20
0.0
 30
0.0
 11
4.0
 21
0.0
 31
0.0
  0
LINE
  5
155
100
AcDbEntity
  8
0
  6
CONTINUOUS
 62
               4
100
AcDbLine
 10
21.0
 20
6.0
 30
0.0
 11
21.0
 21
0.5
 31
0.0
  0
LINE
  5
156
100
AcDbEntity
  8
0
  6
CENTER
 62
             200
100
AcDbLine
 10
6.5
 20
2.3167404597447927
 30
0.0
 11
6.5
 21
9.437462670352943
 31
0.0
  0
LINE
  5
157
100
AcDbEntity
  8
0
  6
CENTER
 62
             200
100
AcDbLine
 10
9.9372786029153986
 20
6.0
 30
0.0
 11
2.732783189829501
 21
6.0
 31
0.0
  0
LINE
  5
158
100
AcDbEntity
  8
0
  6
CENTER
 62
             200
100
AcDbLine
 10
13.036887094591894
 20
6.0
 30
0.0
 11
19.864403096527951
 21
6.0
 31
0.0
  0
LINE
  5
159
100
AcDbEntity
  8
0
  6
CENTER
 62
             200
100
AcDbLine
 10
16.5
 20
2.3167404597447927
 30
0.0
 11
16.5
 21
9.437462670352943
 31
0.0
  0
ARC
  5
15A
100
AcDbEntity
  8
0
  6
CONTINUOUS
 62
               4
100
AcDbCircle
 10
0.0
 20
6.0
 30
0.0
 40
4.0
100
AcDbArc
 50
89.999999999999815
 51
179.99999999999963
  0
ARC
  5
15B
100
AcDbEntity
  8
0
  6
CONTINUOUS
 62
               4
100
AcDbCircle
 10
17.0
 20
6.0
 30
0.0
 40
4.0
100
AcDbArc
 50
0.0
 51
89.999999999999815
  0
ARC
  5
15C
100
AcDbEntity
  8
0
  6
CONTINUOUS
 62
               4
100
AcDbCircle
 10
20.5
 20
0.5
 30
0.0
 40
0.5
100
AcDbArc
 50
269.99999999999937
 51
0.0
  0
ARC
  5
15D
100
AcDbEntity
  8
0
  6
CONTINUOUS
 62
               4
100
AcDbCircle
 10
-3.5
 20
0.5
 30
0.0
 40
0.5
100
AcDbArc
 50
179.99999999999963
 51
269.99999999999937
  0
LINE
  5
15E
100
AcDbEntity
  8
0
  6
CONTINUOUS
 62
               4
100
AcDbLine
 10
4.0
 20
1.5999999999999943
 30
0.0
 11
4.0
 21
0.0
 31
0.0
  0
LINE
  5
15F
100
AcDbEntity
  8
0
  6
CONTINUOUS
 62
               4
100
AcDbLine
 10
6.5
 20
1.3000000000000114
 30
0.0
 11
6.5
 21
0.0
 31
0.0
  0
LINE
  5
160
100
AcDbEntity
  8
0
  6
CONTINUOUS
 62
               4
100
AcDbLine
 10
4.2000000000000028
 20
1.8000000000000114
 30
0.0
 11
6.0
 21
1.8000000000000114
 31
0.0
  0
ARC
  5
161
100
AcDbEntity
  8
0
  6
CONTINUOUS
 62
               4
100
AcDbCircle
 10
4.2000000000000028
 20
1.5999999999999943
 30
0.0
 40
0.2
100
AcDbArc
 50
89.999999999999815
 51
179.99999999999963
  0
ARC
  5
162
100
AcDbEntity
  8
0
  6
CONTINUOUS
 62
               4
100
AcDbCircle
 10
6.0
 20
1.3000000000000114
 30
0.0
 40
0.5
100
AcDbArc
 50
0.0
 51
89.999999999999815
  0
LINE
  5
163
100
AcDbEntity
  8
0
  6
CONTINUOUS
 62
               4
100
AcDbLine
 10
7.7500000197610532
 20
5.2783122062683105
 30
0.0
 11
6.4999999005517637
 21
4.5566242933273315
 31
0.0
  0
LINE
  5
164
100
AcDbEntity
  8
0
  6
CONTINUOUS
 62
               4
100
AcDbLine
 10
6.4999999303540861
 20
7.4433756470680237
 30
0.0
 11
5.25
 21
6.7216878507910849
 31
0.0
  0
LINE
  5
165
100
AcDbEntity
  8
0
  6
CONTINUOUS
 62
               4
100
AcDbLine
 10
6.4999999303540861
 20
4.5566243529319763
 30
0.0
 11
5.2500000197610532
 21
5.2783121466636658
 31
0.0
  0
LINE
  5
166
100
AcDbEntity
  8
0
  6
CONTINUOUS
 62
               4
100
AcDbLine
 10
7.7499999899587309
 20
6.7216878235340118
 30
0.0
 11
6.4999999601564085
 21
7.4433756768703461
 31
0.0
  0
LINE
  5
167
100
AcDbEntity
  8
0
  6
CONTINUOUS
 62
               4
100
AcDbLine
 10
7.75
 20
5.2783121466636658
 30
0.0
 11
7.75
 21
6.7216878257524684
 31
0.0
  0
LINE
  5
168
100
AcDbEntity
  8
0
  6
CONTINUOUS
 62
               4
100
AcDbLine
 10
5.25
 20
5.2783121466636658
 30
0.0
 11
5.25
 21
6.7216878533363342
 31
0.0
  0
CIRCLE
  5
169
100
AcDbEntity
  8
0
  6
CONTINUOUS
 62
               4
100
AcDbCircle
 10
6.5
 20
6.0
 30
0.0
 40
2.75
  0
CIRCLE
  5
16A
100
AcDbEntity
  8
0
  6
CONTINUOUS
 62
               4
100
AcDbCircle
 10
6.5
 20
6.0
 30
0.0
 40
2.450000000000002
  0
LINE
  5
16B
100
AcDbEntity
  8
0
  6
CONTINUOUS
 62
               4
100
AcDbLine
 10
17.750000019761053
 20
5.2783122062683105
 30
0.0
 11
16.499999900551764
 21
4.5566242933273315
 31
0.0
  0
LINE
  5
16C
100
AcDbEntity
  8
0
  6
CONTINUOUS
 62
               4
100
AcDbLine
 10
16.499999930354086
 20
7.4433756470680237
 30
0.0
 11
15.25
 21
6.7216878507910849
 31
0.0
  0
LINE
  5
16D
100
AcDbEntity
  8
0
  6
CONTINUOUS
 62
               4
100
AcDbLine
 10
16.499999930354086
 20
4.5566243529319763
 30
0.0
 11
15.250000019761053
 21
5.2783121466636658
 31
0.0
  0
LINE
  5
16E
100
AcDbEntity
  8
0
  6
CONTINUOUS
 62
               4
100
AcDbLine
 10
17.749999989958731
 20
6.7216878235340118
 30
0.0
 11
16.499999960156408
 21
7.4433756768703461
 31
0.0
  0
LINE
  5
16F
100
AcDbEntity
  8
0
  6
CONTINUOUS
 62
               4
100
AcDbLine
 10
17.75
 20
5.2783121466636658
 30
0.0
 11
17.75
 21
6.7216878257524684
 31
0.0
  0
LINE
  5
170
100
AcDbEntity
  8
0
  6
CONTINUOUS
 62
               4
100
AcDbLine
 10
15.25
 20
5.2783121466636658
 30
0.0
 11
15.25
 21
6.7216878533363342
 31
0.0
  0
CIRCLE
  5
171
100
AcDbEntity
  8
0
  6
CONTINUOUS
 62
               4
100
AcDbCircle
 10
16.5
 20
6.0
 30
0.0
 40
2.75
  0
CIRCLE
  5
172
100
AcDbEntity
  8
0
  6
CONTINUOUS
 62
               4
100
AcDbCircle
 10
16.5
 20
6.0
 30
0.0
 40
2.450000000000002
  0
LINE
  5
173
100
AcDbEntity
  8
0
  6
CENTER
 62
             200
100
AcDbLine
 10
0.0
 20
-1.6999999999999744
 30
0.0
 11
0.0
 21
3.3000000000000256
 31
0.0
  0
ENDBLK
  5
174
100
AcDbEntity
  8
0
100
AcDbBlockEnd
  0
BLOCK
  5
175
100
AcDbEntity
  8
0
100
AcDbBlockBegin
  2
MV030MA-11-3
 70
               0
 10
0.0
 20
0.0
 30
0.0
  3
MV030MA-11-3
  1

  0
INSERT
  5
176
100
AcDbEntity
  8
0
  6
ByBlock
100
AcDbBlockReference
  2
MV030MA-11-7
 10
48.599999999999994
 20
-4.5000000000000124
 30
0.0
  0
INSERT
  5
177
100
AcDbEntity
  8
0
  6
ByBlock
100
AcDbBlockReference
  2
MV030MA-11-7
 10
38.400000000000006
 20
-4.5000000000000098
 30
0.0
  0
INSERT
  5
178
100
AcDbEntity
  8
0
  6
ByBlock
100
AcDbBlockReference
  2
MV030MA-11-7
 10
28.200000000000003
 20
-4.5000000000000062
 30
0.0
  0
INSERT
  5
179
100
AcDbEntity
  8
0
  6
ByBlock
100
AcDbBlockReference
  2
MV030MA-11-7
 10
18.0
 20
-4.5000000000000036
 30
0.0
  0
INSERT
  5
17A
100
AcDbEntity
  8
0
  6
ByBlock
100
AcDbBlockReference
  2
MV030MA-11-6
 10
89.399999999999949
 20
-4.5000000000000249
 30
0.0
  0
INSERT
  5
17B
100
AcDbEntity
  8
0
  6
ByBlock
100
AcDbBlockReference
  2
MV030MA-11-6
 10
79.19999999999996
 20
-4.5000000000000222
 30
0.0
  0
INSERT
  5
17C
100
AcDbEntity
  8
0
  6
ByBlock
100
AcDbBlockReference
  2
MV030MA-11-6
 10
68.999999999999972
 20
-4.5000000000000187
 30
0.0
  0
INSERT
  5
17D
100
AcDbEntity
  8
0
  6
ByBlock
100
AcDbBlockReference
  2
MV030MA-11-6
 10
58.799999999999983
 20
-4.500000000000016
 30
0.0
  0
LINE
  5
17E
100
AcDbEntity
  8
0
  6
CENTER
 62
               2
100
AcDbLine
 10
90.000000000000028
 20
-17.719862768212948
 30
0.0
 11
90.000000000000028
 21
-9.4710478221569758
 31
0.0
  0
CIRCLE
  5
17F
100
AcDbEntity
  8
0
  6
CONTINUOUS
 62
               7
100
AcDbCircle
 10
90.000000000000028
 20
-13.5
 30
0.0
 40
3.25
  0
LINE
  5
180
100
AcDbEntity
  8
0
  6
CONTINUOUS
 62
               7
100
AcDbLine
 10
87.550510257216857
 20
-14.0
 30
0.0
 11
92.4494897427832
 21
-14.0
 31
0.0
  0
LINE
  5
181
100
AcDbEntity
  8
0
  6
CONTINUOUS
 62
               7
100
AcDbLine
 10
87.550510257216857
 20
-13.0
 30
0.0
 11
92.4494897427832
 21
-13.0
 31
0.0
  0
CIRCLE
  5
182
100
AcDbEntity
  8
0
  6
CONTINUOUS
 62
               7
100
AcDbCircle
 10
90.000000000000028
 20
-13.5
 30
0.0
 40
2.5
  0
CIRCLE
  5
183
100
AcDbEntity
  8
0
  6
CONTINUOUS
 62
               7
100
AcDbCircle
 10
90.000000000000028
 20
-13.5
 30
0.0
 40
3.0
  0
LINE
  5
184
100
AcDbEntity
  8
0
  6
CENTER
 62
               2
100
AcDbLine
 10
94.218634804236615
 20
-13.5
 30
0.0
 11
85.574806184707541
 21
-13.5
 31
0.0
  0
LINE
  5
185
100
AcDbEntity
  8
0
  6
CENTER
 62
               2
100
AcDbLine
 10
79.80000000000004
 20
-17.719862768212948
 30
0.0
 11
79.80000000000004
 21
-9.4710478221569758
 31
0.0
  0
CIRCLE
  5
186
100
AcDbEntity
  8
0
  6
CONTINUOUS
 62
               7
100
AcDbCircle
 10
79.80000000000004
 20
-13.5
 30
0.0
 40
3.25
  0
LINE
  5
187
100
AcDbEntity
  8
0
  6
CONTINUOUS
 62
               7
100
AcDbLine
 10
77.350510257216868
 20
-14.0
 30
0.0
 11
82.249489742783211
 21
-14.0
 31
0.0
  0
LINE
  5
188
100
AcDbEntity
  8
0
  6
CONTINUOUS
 62
               7
100
AcDbLine
 10
77.350510257216868
 20
-13.0
 30
0.0
 11
82.249489742783211
 21
-13.0
 31
0.0
  0
CIRCLE
  5
189
100
AcDbEntity
  8
0
  6
CONTINUOUS
 62
               7
100
AcDbCircle
 10
79.80000000000004
 20
-13.5
 30
0.0
 40
2.5
  0
CIRCLE
  5
18A
100
AcDbEntity
  8
0
  6
CONTINUOUS
 62
               7
100
AcDbCircle
 10
79.80000000000004
 20
-13.5
 30
0.0
 40
3.0
  0
LINE
  5
18B
100
AcDbEntity
  8
0
  6
CENTER
 62
               2
100
AcDbLine
 10
84.018634804236626
 20
-13.5
 30
0.0
 11
75.374806184707523
 21
-13.5
 31
0.0
  0
LINE
  5
18C
100
AcDbEntity
  8
0
  6
CENTER
 62
               2
100
AcDbLine
 10
69.600000000000023
 20
-17.719862768212948
 30
0.0
 11
69.600000000000023
 21
-9.4710478221569758
 31
0.0
  0
CIRCLE
  5
18D
100
AcDbEntity
  8
0
  6
CONTINUOUS
 62
               7
100
AcDbCircle
 10
69.600000000000023
 20
-13.5
 30
0.0
 40
3.25
  0
LINE
  5
18E
100
AcDbEntity
  8
0
  6
CONTINUOUS
 62
               7
100
AcDbLine
 10
67.150510257216851
 20
-14.0
 30
0.0
 11
72.049489742783194
 21
-14.0
 31
0.0
  0
LINE
  5
18F
100
AcDbEntity
  8
0
  6
CONTINUOUS
 62
               7
100
AcDbLine
 10
67.150510257216851
 20
-13.0
 30
0.0
 11
72.049489742783194
 21
-13.0
 31
0.0
  0
CIRCLE
  5
190
100
AcDbEntity
  8
0
  6
CONTINUOUS
 62
               7
100
AcDbCircle
 10
69.600000000000023
 20
-13.5
 30
0.0
 40
2.5
  0
CIRCLE
  5
191
100
AcDbEntity
  8
0
  6
CONTINUOUS
 62
               7
100
AcDbCircle
 10
69.600000000000023
 20
-13.5
 30
0.0
 40
3.0
  0
LINE
  5
192
100
AcDbEntity
  8
0
  6
CENTER
 62
               2
100
AcDbLine
 10
73.818634804236638
 20
-13.5
 30
0.0
 11
65.174806184707506
 21
-13.5
 31
0.0
  0
LINE
  5
193
100
AcDbEntity
  8
0
  6
CENTER
 62
               2
100
AcDbLine
 10
59.400000000000034
 20
-17.719862768212948
 30
0.0
 11
59.400000000000034
 21
-9.4710478221569758
 31
0.0
  0
CIRCLE
  5
194
100
AcDbEntity
  8
0
  6
CONTINUOUS
 62
               7
100
AcDbCircle
 10
59.400000000000034
 20
-13.5
 30
0.0
 40
3.25
  0
LINE
  5
195
100
AcDbEntity
  8
0
  6
CONTINUOUS
 62
               7
100
AcDbLine
 10
56.950510257216855
 20
-14.0
 30
0.0
 11
61.849489742783213
 21
-14.0
 31
0.0
  0
LINE
  5
196
100
AcDbEntity
  8
0
  6
CONTINUOUS
 62
               7
100
AcDbLine
 10
56.950510257216855
 20
-13.0
 30
0.0
 11
61.849489742783213
 21
-13.0
 31
0.0
  0
CIRCLE
  5
197
100
AcDbEntity
  8
0
  6
CONTINUOUS
 62
               7
100
AcDbCircle
 10
59.400000000000034
 20
-13.5
 30
0.0
 40
2.5
  0
CIRCLE
  5
198
100
AcDbEntity
  8
0
  6
CONTINUOUS
 62
               7
100
AcDbCircle
 10
59.400000000000034
 20
-13.5
 30
0.0
 40
3.0
  0
LINE
  5
199
100
AcDbEntity
  8
0
  6
CENTER
 62
               2
100
AcDbLine
 10
63.618634804236621
 20
-13.5
 30
0.0
 11
54.974806184707518
 21
-13.5
 31
0.0
  0
LINE
  5
19A
100
AcDbEntity
  8
0
  6
CENTER
 62
               2
100
AcDbLine
 10
49.200000000000031
 20
-17.719862768212948
 30
0.0
 11
49.200000000000031
 21
-9.4710478221569758
 31
0.0
  0
CIRCLE
  5
19B
100
AcDbEntity
  8
0
  6
CONTINUOUS
 62
               7
100
AcDbCircle
 10
49.200000000000031
 20
-13.5
 30
0.0
 40
3.25
  0
LINE
  5
19C
100
AcDbEntity
  8
0
  6
CONTINUOUS
 62
               7
100
AcDbLine
 10
46.750510257216852
 20
-14.0
 30
0.0
 11
51.64948974278321
 21
-14.0
 31
0.0
  0
LINE
  5
19D
100
AcDbEntity
  8
0
  6
CONTINUOUS
 62
               7
100
AcDbLine
 10
46.750510257216852
 20
-13.0
 30
0.0
 11
51.64948974278321
 21
-13.0
 31
0.0
  0
CIRCLE
  5
19E
100
AcDbEntity
  8
0
  6
CONTINUOUS
 62
               7
100
AcDbCircle
 10
49.200000000000031
 20
-13.5
 30
0.0
 40
2.5
  0
CIRCLE
  5
19F
100
AcDbEntity
  8
0
  6
CONTINUOUS
 62
               7
100
AcDbCircle
 10
49.200000000000031
 20
-13.5
 30
0.0
 40
3.0
  0
LINE
  5
1A0
100
AcDbEntity
  8
0
  6
CENTER
 62
               2
100
AcDbLine
 10
53.418634804236618
 20
-13.5
 30
0.0
 11
44.774806184707515
 21
-13.5
 31
0.0
  0
LINE
  5
1A1
100
AcDbEntity
  8
0
  6
CENTER
 62
               2
100
AcDbLine
 10
39.000000000000028
 20
-17.719862768212948
 30
0.0
 11
39.000000000000028
 21
-9.4710478221569758
 31
0.0
  0
CIRCLE
  5
1A2
100
AcDbEntity
  8
0
  6
CONTINUOUS
 62
               7
100
AcDbCircle
 10
39.000000000000028
 20
-13.5
 30
0.0
 40
3.25
  0
LINE
  5
1A3
100
AcDbEntity
  8
0
  6
CONTINUOUS
 62
               7
100
AcDbLine
 10
36.55051025721685
 20
-14.0
 30
0.0
 11
41.449489742783207
 21
-14.0
 31
0.0
  0
LINE
  5
1A4
100
AcDbEntity
  8
0
  6
CONTINUOUS
 62
               7
100
AcDbLine
 10
36.55051025721685
 20
-13.0
 30
0.0
 11
41.449489742783207
 21
-13.0
 31
0.0
  0
CIRCLE
  5
1A5
100
AcDbEntity
  8
0
  6
CONTINUOUS
 62
               7
100
AcDbCircle
 10
39.000000000000028
 20
-13.5
 30
0.0
 40
2.5
  0
CIRCLE
  5
1A6
100
AcDbEntity
  8
0
  6
CONTINUOUS
 62
               7
100
AcDbCircle
 10
39.000000000000028
 20
-13.5
 30
0.0
 40
3.0
  0
LINE
  5
1A7
100
AcDbEntity
  8
0
  6
CENTER
 62
               2
100
AcDbLine
 10
43.218634804236615
 20
-13.5
 30
0.0
 11
34.574806184707512
 21
-13.5
 31
0.0
  0
LINE
  5
1A8
100
AcDbEntity
  8
0
  6
CENTER
 62
               2
100
AcDbLine
 10
28.800000000000026
 20
-17.719862768212948
 30
0.0
 11
28.800000000000026
 21
-9.4710478221569758
 31
0.0
  0
CIRCLE
  5
1A9
100
AcDbEntity
  8
0
  6
CONTINUOUS
 62
               7
100
AcDbCircle
 10
28.800000000000026
 20
-13.5
 30
0.0
 40
3.25
  0
LINE
  5
1AA
100
AcDbEntity
  8
0
  6
CONTINUOUS
 62
               7
100
AcDbLine
 10
26.350510257216847
 20
-14.0
 30
0.0
 11
31.249489742783204
 21
-14.0
 31
0.0
  0
LINE
  5
1AB
100
AcDbEntity
  8
0
  6
CONTINUOUS
 62
               7
100
AcDbLine
 10
26.350510257216847
 20
-13.0
 30
0.0
 11
31.249489742783204
 21
-13.0
 31
0.0
  0
CIRCLE
  5
1AC
100
AcDbEntity
  8
0
  6
CONTINUOUS
 62
               7
100
AcDbCircle
 10
28.800000000000026
 20
-13.5
 30
0.0
 40
2.5
  0
CIRCLE
  5
1AD
100
AcDbEntity
  8
0
  6
CONTINUOUS
 62
               7
100
AcDbCircle
 10
28.800000000000026
 20
-13.5
 30
0.0
 40
3.0
  0
LINE
  5
1AE
100
AcDbEntity
  8
0
  6
CENTER
 62
               2
100
AcDbLine
 10
33.018634804236612
 20
-13.5
 30
0.0
 11
24.374806184707509
 21
-13.5
 31
0.0
  0
CIRCLE
  5
1AF
100
AcDbEntity
  8
0
  6
CONTINUOUS
 62
               7
100
AcDbCircle
 10
18.600000000000023
 20
-13.5
 30
0.0
 40
3.0
  0
CIRCLE
  5
1B0
100
AcDbEntity
  8
0
  6
CONTINUOUS
 62
               7
100
AcDbCircle
 10
18.600000000000023
 20
-13.5
 30
0.0
 40
2.5
  0
LINE
  5
1B1
100
AcDbEntity
  8
0
  6
CONTINUOUS
 62
               7
100
AcDbLine
 10
16.150510257216844
 20
-13.0
 30
0.0
 11
21.049489742783202
 21
-13.0
 31
0.0
  0
LINE
  5
1B2
100
AcDbEntity
  8
0
  6
CONTINUOUS
 62
               7
100
AcDbLine
 10
16.150510257216844
 20
-14.0
 30
0.0
 11
21.049489742783202
 21
-14.0
 31
0.0
  0
CIRCLE
  5
1B3
100
AcDbEntity
  8
0
  6
CONTINUOUS
 62
               7
100
AcDbCircle
 10
18.600000000000023
 20
-13.5
 30
0.0
 40
3.25
  0
LINE
  5
1B4
100
AcDbEntity
  8
0
  6
CENTER
 62
               2
100
AcDbLine
 10
18.600000000000023
 20
-17.719862768212948
 30
0.0
 11
18.600000000000023
 21
-9.4710478221569758
 31
0.0
  0
LINE
  5
1B5
100
AcDbEntity
  8
0
  6
CENTER
 62
               2
100
AcDbLine
 10
22.818634804236609
 20
-13.5
 30
0.0
 11
14.174806184707506
 21
-13.5
 31
0.0
  0
LINE
  5
1B6
100
AcDbEntity
  8
0
  6
CONTINUOUS
 62
               7
100
AcDbLine
 10
101.39999999999986
 20
-4.5000000000000284
 30
0.0
 11
101.39999999999986
 21
-18.500000000000028
 31
0.0
  0
LINE
  5
1B7
100
AcDbEntity
  8
0
  6
CONTINUOUS
 62
               7
100
AcDbLine
 10
6.0
 20
-4.5
 30
0.0
 11
6.0
 21
-18.5
 31
0.0
  0
LINE
  5
1B8
100
AcDbEntity
  8
0
  6
CONTINUOUS
 62
               7
100
AcDbLine
 10
101.39999999999986
 20
-18.500000000000028
 30
0.0
 11
6.0
 21
-18.5
 31
0.0
  0
LINE
  5
1B9
100
AcDbEntity
  8
0
  6
CONTINUOUS
 62
               7
100
AcDbLine
 10
101.39999999999986
 20
-4.5000000000000284
 30
0.0
 11
6.0
 21
-4.5
 31
0.0
  0
LINE
  5
1BA
100
AcDbEntity
  8
0
  6
CENTER
 62
             200
100
AcDbLine
 10
107.40533723752904
 20
-6.5
 30
0.0
 11
99.699999999999875
 21
-6.5
 31
0.0
  0
LINE
  5
1BB
100
AcDbEntity
  8
0
  6
CENTER
 62
             200
100
AcDbLine
 10
107.40533723752904
 20
-16.5
 30
0.0
 11
99.699999999999875
 21
-16.5
 31
0.0
  0
ARC
  5
1BC
100
AcDbEntity
  8
0
  6
CONTINUOUS
 62
               4
100
AcDbCircle
 10
119.23380962103079
 20
-21.5
 30
0.0
 40
0.1
100
AcDbArc
 50
269.99999999999937
 51
307.86364636172885
  0
LINE
  5
1BD
100
AcDbEntity
  8
0
  6
CENTER
 62
             200
100
AcDbLine
 10
117.39999999999986
 20
-20.471124524314881
 30
0.0
 11
117.39999999999986
 21
-25.5
 31
0.0
  0
LINE
  5
1BE
100
AcDbEntity
  8
0
  6
CONTINUOUS
 62
               4
100
AcDbLine
 10
117.39999999999986
 20
-21.600000000000001
 30
0.0
 11
119.23380962103079
 21
-21.600000000000001
 31
0.0
  0
LINE
  5
1BF
100
AcDbEntity
  8
0
  6
CONTINUOUS
 62
               4
100
AcDbLine
 10
117.39999999999986
 20
-24.399999999999999
 30
0.0
 11
119.26862915010139
 21
-24.399999999999999
 31
0.0
  0
ARC
  5
1C0
100
AcDbEntity
  8
0
  6
CONTINUOUS
 62
               4
100
AcDbCircle
 10
117.39999999999986
 20
-23.0
 30
0.0
 40
1.3999999999999999
100
AcDbArc
 50
89.999999999999815
 51
269.99999999999937
  0
ARC
  5
1C1
100
AcDbEntity
  8
0
  6
CONTINUOUS
 62
               4
100
AcDbCircle
 10
102.49999999999986
 20
-2.5
 30
0.0
 40
0.5
100
AcDbArc
 50
0.0
 51
89.999999999999815
  0
ARC
  5
1C2
100
AcDbEntity
  8
0
  6
CONTINUOUS
 62
               4
100
AcDbCircle
 10
101.89999999999986
 20
-2.5
 30
0.0
 40
0.5
100
AcDbArc
 50
89.999999999999815
 51
179.99999999999963
  0
ARC
  5
1C3
100
AcDbEntity
  8
0
  6
CONTINUOUS
 62
               4
100
AcDbCircle
 10
101.89999999999986
 20
-26.5
 30
0.0
 40
0.5
100
AcDbArc
 50
179.99999999999963
 51
269.99999999999937
  0
LINE
  5
1C4
100
AcDbEntity
  8
0
  6
CONTINUOUS
 62
               4
100
AcDbLine
 10
102.49999999999986
 20
-2.0
 30
0.0
 11
101.89999999999986
 21
-2.0
 31
0.0
  0
LINE
  5
1C5
100
AcDbEntity
  8
0
  6
CONTINUOUS
 62
               4
100
AcDbLine
 10
102.99999999999986
 20
-27.0
 30
0.0
 11
102.99999999999986
 21
-2.5
 31
0.0
  0
LINE
  5
1C6
100
AcDbEntity
  8
0
  6
CONTINUOUS
 62
               4
100
AcDbLine
 10
101.39999999999986
 20
-26.5
 30
0.0
 11
101.39999999999986
 21
-18.500000000000028
 31
0.0
  0
LINE
  5
1C7
100
AcDbEntity
  8
0
  6
CONTINUOUS
 62
               4
100
AcDbLine
 10
120.39999999999986
 20
-19.0
 30
0.0
 11
105.94999999999987
 21
-19.0
 31
0.0
  0
LINE
  5
1C8
100
AcDbEntity
  8
0
  6
CONTINUOUS
 62
               4
100
AcDbLine
 10
120.39999999999986
 20
-27.0
 30
0.0
 11
101.89999999999986
 21
-27.0
 31
0.0
  0
ARC
  5
1C9
100
AcDbEntity
  8
0
  6
CONTINUOUS
 62
               4
100
AcDbCircle
 10
120.39999999999986
 20
-23.0
 30
0.0
 40
4.0
100
AcDbArc
 50
269.99999999999937
 51
89.999999999999801
  0
CIRCLE
  5
1CA
100
AcDbEntity
  8
0
  6
CONTINUOUS
 62
               4
100
AcDbCircle
 10
107.39999999999986
 20
-23.0
 30
0.0
 40
1.8
  0
ARC
  5
1CB
100
AcDbEntity
  8
0
  6
CONTINUOUS
 62
               4
100
AcDbCircle
 10
120.39999999999986
 20
-23.0
 30
0.0
 40
1.8
100
AcDbArc
 50
231.05755873101808
 51
127.86364636173013
  0
LINE
  5
1CC
100
AcDbEntity
  8
0
  6
CENTER
 62
             200
100
AcDbLine
 10
114.95740968675085
 20
-23.0
 30
0.0
 11
122.89999999999986
 21
-23.0
 31
0.0
  0
LINE
  5
1CD
100
AcDbEntity
  8
0
  6
CENTER
 62
             200
100
AcDbLine
 10
120.39999999999986
 20
-20.471124524314881
 30
0.0
 11
120.39999999999986
 21
-25.5
 31
0.0
  0
LINE
  5
1CE
100
AcDbEntity
  8
0
  6
CENTER
 62
             200
100
AcDbLine
 10
104.89999999999986
 20
-23.0
 30
0.0
 11
109.89999999999986
 21
-23.0
 31
0.0
  0
LINE
  5
1CF
100
AcDbEntity
  8
0
  6
CENTER
 62
             200
100
AcDbLine
 10
107.39999999999986
 20
-20.471124524314881
 30
0.0
 11
107.39999999999986
 21
-25.5
 31
0.0
  0
LINE
  5
1D0
100
AcDbEntity
  8
0
  6
CENTER
 62
             200
100
AcDbLine
 10
0.2319170511998721
 20
-16.5
 30
0.0
 11
7.7000000000000028
 21
-16.5
 31
0.0
  0
LINE
  5
1D1
100
AcDbEntity
  8
0
  6
CENTER
 62
             200
100
AcDbLine
 10
-0.0056298598844648
 20
-6.5
 30
0.0
 11
7.7000000000000028
 21
-6.5
 31
0.0
  0
ARC
  5
1D2
100
AcDbEntity
  8
0
  6
CONTINUOUS
 62
               4
100
AcDbCircle
 10
-11.833809621030937
 20
-1.5
 30
0.0
 40
0.1
100
AcDbArc
 50
89.999999999999815
 51
127.86364636172927
  0
LINE
  5
1D3
100
AcDbEntity
  8
0
  6
CENTER
 62
             200
100
AcDbLine
 10
-10.0
 20
-2.5288754756851191
 30
0.0
 11
-10.0
 21
2.5
 31
0.0
  0
LINE
  5
1D4
100
AcDbEntity
  8
0
  6
CONTINUOUS
 62
               4
100
AcDbLine
 10
-10.0
 20
-1.3999999999999986
 30
0.0
 11
-11.833809621030937
 21
-1.3999999999999986
 31
0.0
  0
LINE
  5
1D5
100
AcDbEntity
  8
0
  6
CONTINUOUS
 62
               4
100
AcDbLine
 10
-10.0
 20
1.3999999999999986
 30
0.0
 11
-11.868629150101526
 21
1.3999999999999986
 31
0.0
  0
ARC
  5
1D6
100
AcDbEntity
  8
0
  6
CONTINUOUS
 62
               4
100
AcDbCircle
 10
-10.0
 20
0.0
 30
0.0
 40
1.3999999999999999
100
AcDbArc
 50
269.99999999999937
 51
89.999999999999801
  0
ARC
  5
1D7
100
AcDbEntity
  8
0
  6
CONTINUOUS
 62
               4
100
AcDbCircle
 10
4.8999999999999986
 20
-20.5
 30
0.0
 40
0.5
100
AcDbArc
 50
179.99999999999963
 51
269.99999999999937
  0
ARC
  5
1D8
100
AcDbEntity
  8
0
  6
CONTINUOUS
 62
               4
100
AcDbCircle
 10
5.5
 20
-20.5
 30
0.0
 40
0.5
100
AcDbArc
 50
269.99999999999937
 51
0.0
  0
ARC
  5
1D9
100
AcDbEntity
  8
0
  6
CONTINUOUS
 62
               4
100
AcDbCircle
 10
5.5
 20
3.5
 30
0.0
 40
0.5
100
AcDbArc
 50
0.0
 51
89.999999999999815
  0
LINE
  5
1DA
100
AcDbEntity
  8
0
  6
CONTINUOUS
 62
               4
100
AcDbLine
 10
4.8999999999999986
 20
-21.0
 30
0.0
 11
5.5
 21
-21.0
 31
0.0
  0
LINE
  5
1DB
100
AcDbEntity
  8
0
  6
CONTINUOUS
 62
               4
100
AcDbLine
 10
4.3999999999999986
 20
4.0
 30
0.0
 11
4.3999999999999986
 21
-20.5
 31
0.0
  0
LINE
  5
1DC
100
AcDbEntity
  8
0
  6
CONTINUOUS
 62
               4
100
AcDbLine
 10
6.0
 20
3.5
 30
0.0
 11
6.0
 21
-4.5
 31
0.0
  0
LINE
  5
1DD
100
AcDbEntity
  8
0
  6
CONTINUOUS
 62
               4
100
AcDbLine
 10
-13.0
 20
-4.0
 30
0.0
 11
1.4499999999999957
 21
-4.0
 31
0.0
  0
LINE
  5
1DE
100
AcDbEntity
  8
0
  6
CONTINUOUS
 62
               4
100
AcDbLine
 10
-13.0
 20
4.0
 30
0.0
 11
5.5
 21
4.0
 31
0.0
  0
ARC
  5
1DF
100
AcDbEntity
  8
0
  6
CONTINUOUS
 62
               4
100
AcDbCircle
 10
-13.0
 20
0.0
 30
0.0
 40
4.0
100
AcDbArc
 50
89.999999999999815
 51
269.99999999999937
  0
CIRCLE
  5
1E0
100
AcDbEntity
  8
0
  6
CONTINUOUS
 62
               4
100
AcDbCircle
 10
0.0
 20
0.0
 30
0.0
 40
1.8
  0
ARC
  5
1E1
100
AcDbEntity
  8
0
  6
CONTINUOUS
 62
               4
100
AcDbCircle
 10
-13.0
 20
0.0
 30
0.0
 40
1.8
100
AcDbArc
 50
51.057558731018446
 51
307.86364636172982
  0
LINE
  5
1E2
100
AcDbEntity
  8
0
  6
CENTER
 62
             200
100
AcDbLine
 10
-7.5574096867509866
 20
0.0
 30
0.0
 11
-15.5
 21
0.0
 31
0.0
  0
LINE
  5
1E3
100
AcDbEntity
  8
0
  6
CENTER
 62
             200
100
AcDbLine
 10
-13.0
 20
-2.5288754756851191
 30
0.0
 11
-13.0
 21
2.5
 31
0.0
  0
LINE
  5
1E4
100
AcDbEntity
  8
0
  6
CENTER
 62
             200
100
AcDbLine
 10
2.5
 20
0.0
 30
0.0
 11
-2.5
 21
0.0
 31
0.0
  0
LINE
  5
1E5
100
AcDbEntity
  8
0
  6
CENTER
 62
             200
100
AcDbLine
 10
0.0
 20
-2.5288754756851191
 30
0.0
 11
0.0
 21
2.5
 31
0.0
  0
LINE
  5
1E6
100
AcDbEntity
  8
0
  6
CONTINUOUS
 62
               4
100
AcDbLine
 10
1.6999999999999957
 20
-3.75
 30
0.0
 11
4.3999999991494221
 21
-3.75
 31
0.0
  0
LINE
  5
1E7
100
AcDbEntity
  8
0
  6
CONTINUOUS
 62
               4
100
AcDbLine
 10
1.6999999999999957
 20
-9.25
 30
0.0
 11
4.3999999991494221
 21
-9.25
 31
0.0
  0
LINE
  5
1E8
100
AcDbEntity
  8
0
  6
CONTINUOUS
 62
               4
100
AcDbLine
 10
1.3999999999999986
 20
-8.9500000000000028
 30
0.0
 11
1.3999999999999986
 21
-4.0499999999999972
 31
0.0
  0
LINE
  5
1E9
100
AcDbEntity
  8
0
  6
CONTINUOUS
 62
               4
100
AcDbLine
 10
1.3999999999999986
 20
-8.9500000000000028
 30
0.0
 11
1.6999999999999957
 21
-9.25
 31
0.0
  0
LINE
  5
1EA
100
AcDbEntity
  8
0
  6
CONTINUOUS
 62
               4
100
AcDbLine
 10
1.6999999999999957
 20
-3.75
 30
0.0
 11
1.3999999999999986
 21
-4.0499999999999972
 31
0.0
  0
LINE
  5
1EB
100
AcDbEntity
  8
0
  6
CONTINUOUS
 62
               4
100
AcDbLine
 10
1.6999999999999957
 20
-3.75
 30
0.0
 11
1.6999999999999957
 21
-9.25
 31
0.0
  0
LINE
  5
1EC
100
AcDbEntity
  8
0
  6
CONTINUOUS
 62
               4
100
AcDbLine
 10
1.6999999999999957
 20
-13.75
 30
0.0
 11
4.3999999991494221
 21
-13.75
 31
0.0
  0
LINE
  5
1ED
100
AcDbEntity
  8
0
  6
CONTINUOUS
 62
               4
100
AcDbLine
 10
1.6999999999999957
 20
-19.25
 30
0.0
 11
4.3999999991494221
 21
-19.25
 31
0.0
  0
LINE
  5
1EE
100
AcDbEntity
  8
0
  6
CONTINUOUS
 62
               4
100
AcDbLine
 10
1.3999999999999986
 20
-18.950000000000003
 30
0.0
 11
1.3999999999999986
 21
-14.049999999999997
 31
0.0
  0
LINE
  5
1EF
100
AcDbEntity
  8
0
  6
CONTINUOUS
 62
               4
100
AcDbLine
 10
1.3999999999999986
 20
-18.950000000000003
 30
0.0
 11
1.6999999999999957
 21
-19.25
 31
0.0
  0
LINE
  5
1F0
100
AcDbEntity
  8
0
  6
CONTINUOUS
 62
               4
100
AcDbLine
 10
1.6999999999999957
 20
-13.75
 30
0.0
 11
1.3999999999999986
 21
-14.049999999999997
 31
0.0
  0
LINE
  5
1F1
100
AcDbEntity
  8
0
  6
CONTINUOUS
 62
               4
100
AcDbLine
 10
1.6999999999999957
 20
-13.75
 30
0.0
 11
1.6999999999999957
 21
-19.25
 31
0.0
  0
LINE
  5
1F2
100
AcDbEntity
  8
0
  6
CONTINUOUS
 62
               4
100
AcDbLine
 10
105.69999999999987
 20
-9.25
 30
0.0
 11
103.00000000085043
 21
-9.25
 31
0.0
  0
LINE
  5
1F3
100
AcDbEntity
  8
0
  6
CONTINUOUS
 62
               4
100
AcDbLine
 10
105.69999999999987
 20
-3.75
 30
0.0
 11
103.00000000085043
 21
-3.75
 31
0.0
  0
LINE
  5
1F4
100
AcDbEntity
  8
0
  6
CONTINUOUS
 62
               4
100
AcDbLine
 10
105.99999999999986
 20
-4.0499999999999972
 30
0.0
 11
105.99999999999986
 21
-8.9500000000000028
 31
0.0
  0
LINE
  5
1F5
100
AcDbEntity
  8
0
  6
CONTINUOUS
 62
               4
100
AcDbLine
 10
105.99999999999986
 20
-4.0499999999999972
 30
0.0
 11
105.69999999999987
 21
-3.75
 31
0.0
  0
LINE
  5
1F6
100
AcDbEntity
  8
0
  6
CONTINUOUS
 62
               4
100
AcDbLine
 10
105.69999999999987
 20
-9.25
 30
0.0
 11
105.99999999999986
 21
-8.9500000000000028
 31
0.0
  0
LINE
  5
1F7
100
AcDbEntity
  8
0
  6
CONTINUOUS
 62
               4
100
AcDbLine
 10
105.69999999999987
 20
-9.25
 30
0.0
 11
105.69999999999987
 21
-3.75
 31
0.0
  0
LINE
  5
1F8
100
AcDbEntity
  8
0
  6
CONTINUOUS
 62
               4
100
AcDbLine
 10
105.69999999999987
 20
-19.25
 30
0.0
 11
103.00000000085043
 21
-19.25
 31
0.0
  0
LINE
  5
1F9
100
AcDbEntity
  8
0
  6
CONTINUOUS
 62
               4
100
AcDbLine
 10
105.69999999999987
 20
-13.75
 30
0.0
 11
103.00000000085043
 21
-13.75
 31
0.0
  0
LINE
  5
1FA
100
AcDbEntity
  8
0
  6
CONTINUOUS
 62
               4
100
AcDbLine
 10
105.99999999999986
 20
-14.049999999999997
 30
0.0
 11
105.99999999999986
 21
-18.950000000000003
 31
0.0
  0
LINE
  5
1FB
100
AcDbEntity
  8
0
  6
CONTINUOUS
 62
               4
100
AcDbLine
 10
105.99999999999986
 20
-14.049999999999997
 30
0.0
 11
105.69999999999987
 21
-13.75
 31
0.0
  0
LINE
  5
1FC
100
AcDbEntity
  8
0
  6
CONTINUOUS
 62
               4
100
AcDbLine
 10
105.69999999999987
 20
-19.25
 30
0.0
 11
105.99999999999986
 21
-18.950000000000003
 31
0.0
  0
LINE
  5
1FD
100
AcDbEntity
  8
0
  6
CONTINUOUS
 62
               4
100
AcDbLine
 10
105.69999999999987
 20
-19.25
 30
0.0
 11
105.69999999999987
 21
-13.75
 31
0.0
  0
LINE
  5
1FE
100
AcDbEntity
  8
0
  6
CONTINUOUS
 62
               4
100
AcDbLine
 10
6.0
 20
-18.5
 30
0.0
 11
6.0
 21
-20.5
 31
0.0
  0
LINE
  5
1FF
100
AcDbEntity
  8
0
  6
CONTINUOUS
 62
               4
100
AcDbLine
 10
101.39999999999986
 20
-4.5000000000000284
 30
0.0
 11
101.39999999999986
 21
-2.5
 31
0.0
  0
ENDBLK
  5
200
100
AcDbEntity
  8
0
100
AcDbBlockEnd
  0
BLOCK
  5
201
100
AcDbEntity
  8
0
100
AcDbBlockBegin
  2
MV030MA-11-4
 70
               0
 10
0.0
 20
0.0
 30
0.0
  3
MV030MA-11-4
  1

  0
INSERT
  5
202
100
AcDbEntity
  8
0
  6
ByBlock
100
AcDbBlockReference
  2
MV030MA-11-9
 10
-17.399999999999967
 20
0.0
 30
0.0
 50
359.99999999999903
  0
INSERT
  5
203
100
AcDbEntity
  8
0
  6
ByBlock
100
AcDbBlockReference
  2
MV030MA-11-9
 10
-47.999999999999957
 20
0.0
 30
0.0
 50
359.99999999999903
  0
INSERT
  5
204
100
AcDbEntity
  8
0
  6
ByBlock
100
AcDbBlockReference
  2
MV030MA-11-9
 10
-27.599999999999966
 20
0.0
 30
0.0
 50
359.99999999999903
  0
INSERT
  5
205
100
AcDbEntity
  8
0
  6
ByBlock
100
AcDbBlockReference
  2
MV030MA-11-9
 10
-37.799999999999955
 20
0.0
 30
0.0
 50
359.99999999999903
  0
INSERT
  5
206
100
AcDbEntity
  8
0
  6
ByBlock
100
AcDbBlockReference
  2
MV030MA-11-8
 10
-58.19999999999996
 20
0.0
 30
0.0
  0
INSERT
  5
207
100
AcDbEntity
  8
0
  6
ByBlock
100
AcDbBlockReference
  2
MV030MA-11-8
 10
-68.399999999999963
 20
0.0
 30
0.0
  0
INSERT
  5
208
100
AcDbEntity
  8
0
  6
ByBlock
100
AcDbBlockReference
  2
MV030MA-11-8
 10
-78.599999999999966
 20
0.0
 30
0.0
  0
INSERT
  5
209
100
AcDbEntity
  8
0
  6
ByBlock
100
AcDbBlockReference
  2
MV030MA-11-8
 10
-88.799999999999969
 20
0.0
 30
0.0
  0
LINE
  5
20A
100
AcDbEntity
  8
0
  6
CONTINUOUS
 62
               7
100
AcDbLine
 10
-12.3999999999998
 20
55.000000000000057
 30
0.0
 11
-6.0
 21
55.000000000000057
 31
0.0
  0
LINE
  5
20B
100
AcDbEntity
  8
0
  6
CONTINUOUS
 62
               4
100
AcDbLine
 10
-1.6999999999999886
 20
3.25
 30
0.0
 11
-1.6999999999999886
 21
8.75
 31
0.0
  0
LINE
  5
20C
100
AcDbEntity
  8
0
  6
CONTINUOUS
 62
               4
100
AcDbLine
 10
-1.6999999999999886
 20
3.25
 30
0.0
 11
-1.4000000000000057
 21
3.5499999999999972
 31
0.0
  0
LINE
  5
20D
100
AcDbEntity
  8
0
  6
CONTINUOUS
 62
               4
100
AcDbLine
 10
-1.4000000000000057
 20
8.4500000000000028
 30
0.0
 11
-1.6999999999999886
 21
8.75
 31
0.0
  0
LINE
  5
20E
100
AcDbEntity
  8
0
  6
CONTINUOUS
 62
               4
100
AcDbLine
 10
-1.4000000000000057
 20
8.4500000000000028
 30
0.0
 11
-1.4000000000000057
 21
3.5499999999999972
 31
0.0
  0
LINE
  5
20F
100
AcDbEntity
  8
0
  6
CONTINUOUS
 62
               4
100
AcDbLine
 10
-1.6999999999999886
 20
8.75
 30
0.0
 11
-4.3999999991494292
 21
8.75
 31
0.0
  0
LINE
  5
210
100
AcDbEntity
  8
0
  6
CONTINUOUS
 62
               4
100
AcDbLine
 10
-1.6999999999999886
 20
3.25
 30
0.0
 11
-4.3999999991494292
 21
3.25
 31
0.0
  0
LINE
  5
211
100
AcDbEntity
  8
0
  6
CONTINUOUS
 62
               4
100
AcDbLine
 10
-105.69999999999993
 20
8.75
 30
0.0
 11
-103.00000000085049
 21
8.75
 31
0.0
  0
LINE
  5
212
100
AcDbEntity
  8
0
  6
CONTINUOUS
 62
               4
100
AcDbLine
 10
-105.69999999999993
 20
3.25
 30
0.0
 11
-103.00000000085049
 21
3.25
 31
0.0
  0
LINE
  5
213
100
AcDbEntity
  8
0
  6
CONTINUOUS
 62
               4
100
AcDbLine
 10
-105.99999999999991
 20
3.5499999999999972
 30
0.0
 11
-105.99999999999991
 21
8.4500000000000028
 31
0.0
  0
LINE
  5
214
100
AcDbEntity
  8
0
  6
CONTINUOUS
 62
               4
100
AcDbLine
 10
-105.99999999999991
 20
3.5499999999999972
 30
0.0
 11
-105.69999999999993
 21
3.25
 31
0.0
  0
LINE
  5
215
100
AcDbEntity
  8
0
  6
CONTINUOUS
 62
               4
100
AcDbLine
 10
-105.69999999999993
 20
8.75
 30
0.0
 11
-105.99999999999991
 21
8.4500000000000028
 31
0.0
  0
LINE
  5
216
100
AcDbEntity
  8
0
  6
CONTINUOUS
 62
               4
100
AcDbLine
 10
-105.69999999999993
 20
8.75
 30
0.0
 11
-105.69999999999993
 21
3.25
 31
0.0
  0
LINE
  5
217
100
AcDbEntity
  8
0
  6
CENTER
 62
             200
100
AcDbLine
 10
-0.2796004218858457
 20
6.0
 30
0.0
 11
-7.6999999999999886
 21
6.0
 31
0.0
  0
LINE
  5
218
100
AcDbEntity
  8
0
  6
CENTER
 62
             200
100
AcDbLine
 10
0.0
 20
-1.7000000000000028
 30
0.0
 11
0.0
 21
3.2999999999999972
 31
0.0
  0
LINE
  5
219
100
AcDbEntity
  8
0
  6
CENTER
 62
             200
100
AcDbLine
 10
10.0
 20
-1.7000000000000028
 30
0.0
 11
10.0
 21
3.2999999999999972
 31
0.0
  0
LINE
  5
21A
100
AcDbEntity
  8
0
  6
CENTER
 62
             200
100
AcDbLine
 10
13.0
 20
-1.7000000000000028
 30
0.0
 11
13.0
 21
3.2999999999999972
 31
0.0
  0
ARC
  5
21B
100
AcDbEntity
  8
0
  6
CONTINUOUS
 62
               4
100
AcDbCircle
 10
-5.5
 20
0.5
 30
0.0
 40
0.5
100
AcDbArc
 50
179.99999999999963
 51
269.99999999999937
  0
ARC
  5
21C
100
AcDbEntity
  8
0
  6
CONTINUOUS
 62
               4
100
AcDbCircle
 10
-4.0
 20
2.0
 30
0.0
 40
0.4
100
AcDbArc
 50
179.99999999999963
 51
269.99999999999937
  0
ARC
  5
21D
100
AcDbEntity
  8
0
  6
CONTINUOUS
 62
               4
100
AcDbCircle
 10
-4.0
 20
2.0
 30
0.0
 40
2.0
100
AcDbArc
 50
179.99999999999963
 51
269.99999999999937
  0
ARC
  5
21E
100
AcDbEntity
  8
0
  6
CONTINUOUS
 62
               4
100
AcDbCircle
 10
-5.5
 20
9.5
 30
0.0
 40
0.5
100
AcDbArc
 50
89.999999999999815
 51
179.99999999999963
  0
ARC
  5
21F
100
AcDbEntity
  8
0
  6
CONTINUOUS
 62
               4
100
AcDbCircle
 10
-4.9000000000000057
 20
9.5
 30
0.0
 40
0.5
100
AcDbArc
 50
0.0
 51
89.999999999999815
  0
ARC
  5
220
100
AcDbEntity
  8
0
  6
CONTINUOUS
 62
               4
100
AcDbCircle
 10
16.5
 20
1.0999999999999943
 30
0.0
 40
0.5
100
AcDbArc
 50
0.0
 51
89.999999999999815
  0
ARC
  5
221
100
AcDbEntity
  8
0
  6
CONTINUOUS
 62
               4
100
AcDbCircle
 10
16.5
 20
0.5
 30
0.0
 40
0.5
100
AcDbArc
 50
269.99999999999937
 51
0.0
  0
LINE
  5
222
100
AcDbEntity
  8
0
  6
CONTINUOUS
 62
               4
100
AcDbLine
 10
17.0
 20
0.5
 30
0.0
 11
17.0
 21
1.0999999999999943
 31
0.0
  0
LINE
  5
223
100
AcDbEntity
  8
0
  6
CONTINUOUS
 62
               4
100
AcDbLine
 10
-4.4000000000000057
 20
9.5
 30
0.0
 11
-4.4000000000000057
 21
2.0
 31
0.0
  0
LINE
  5
224
100
AcDbEntity
  8
0
  6
CONTINUOUS
 62
               4
100
AcDbLine
 10
16.5
 20
1.5999999999999943
 30
0.0
 11
-4.0
 21
1.5999999999999943
 31
0.0
  0
LINE
  5
225
100
AcDbEntity
  8
0
  6
CONTINUOUS
 62
               4
100
AcDbLine
 10
16.5
 20
0.0
 30
0.0
 11
-5.5
 21
0.0
 31
0.0
  0
LINE
  5
226
100
AcDbEntity
  8
0
  6
CONTINUOUS
 62
               4
100
AcDbLine
 10
-4.9000000000000057
 20
10.0
 30
0.0
 11
-5.5
 21
10.0
 31
0.0
  0
LINE
  5
227
100
AcDbEntity
  8
0
  6
CONTINUOUS
 62
               4
100
AcDbLine
 10
-102.49999999999991
 20
10.0
 30
0.0
 11
-101.89999999999992
 21
10.0
 31
0.0
  0
LINE
  5
228
100
AcDbEntity
  8
0
  6
CONTINUOUS
 62
               4
100
AcDbLine
 10
-123.89999999999992
 20
0.0
 30
0.0
 11
-101.89999999999992
 21
0.0
 31
0.0
  0
LINE
  5
229
100
AcDbEntity
  8
0
  6
CONTINUOUS
 62
               4
100
AcDbLine
 10
-123.89999999999992
 20
1.5999999999999943
 30
0.0
 11
-103.39999999999992
 21
1.5999999999999943
 31
0.0
  0
LINE
  5
22A
100
AcDbEntity
  8
0
  6
CONTINUOUS
 62
               4
100
AcDbLine
 10
-102.99999999999991
 20
9.5
 30
0.0
 11
-102.99999999999991
 21
0.0404082057734456
 31
0.0
  0
LINE
  5
22B
100
AcDbEntity
  8
0
  6
CONTINUOUS
 62
               4
100
AcDbLine
 10
-124.39999999999992
 20
0.5
 30
0.0
 11
-124.39999999999992
 21
1.0999999999999943
 31
0.0
  0
ARC
  5
22C
100
AcDbEntity
  8
0
  6
CONTINUOUS
 62
               4
100
AcDbCircle
 10
-123.89999999999992
 20
0.5
 30
0.0
 40
0.5
100
AcDbArc
 50
179.99999999999963
 51
269.99999999999937
  0
ARC
  5
22D
100
AcDbEntity
  8
0
  6
CONTINUOUS
 62
               4
100
AcDbCircle
 10
-123.89999999999992
 20
1.0999999999999943
 30
0.0
 40
0.5
100
AcDbArc
 50
89.999999999999815
 51
179.99999999999963
  0
ARC
  5
22E
100
AcDbEntity
  8
0
  6
CONTINUOUS
 62
               4
100
AcDbCircle
 10
-102.49999999999991
 20
9.5
 30
0.0
 40
0.5
100
AcDbArc
 50
89.999999999999815
 51
179.99999999999963
  0
ARC
  5
22F
100
AcDbEntity
  8
0
  6
CONTINUOUS
 62
               4
100
AcDbCircle
 10
-101.89999999999992
 20
9.5
 30
0.0
 40
0.5
100
AcDbArc
 50
0.0
 51
89.999999999999815
  0
ARC
  5
230
100
AcDbEntity
  8
0
  6
CENTER
 62
             200
100
AcDbCircle
 10
-103.39999999999992
 20
2.0
 30
0.0
 40
2.0
100
AcDbArc
 50
269.99999999999937
 51
0.0
  0
ARC
  5
231
100
AcDbEntity
  8
0
  6
CONTINUOUS
 62
               4
100
AcDbCircle
 10
-103.39999999999992
 20
2.0
 30
0.0
 40
0.4
100
AcDbArc
 50
269.99999999999937
 51
0.0
  0
ARC
  5
232
100
AcDbEntity
  8
0
  6
CONTINUOUS
 62
               4
100
AcDbCircle
 10
-101.89999999999992
 20
0.5
 30
0.0
 40
0.5
100
AcDbArc
 50
269.99999999999937
 51
0.0
  0
LINE
  5
233
100
AcDbEntity
  8
0
  6
CENTER
 62
             200
100
AcDbLine
 10
-120.39999999999992
 20
-1.7000000000000028
 30
0.0
 11
-120.39999999999992
 21
3.2999999999999972
 31
0.0
  0
LINE
  5
234
100
AcDbEntity
  8
0
  6
CENTER
 62
             200
100
AcDbLine
 10
-117.39999999999992
 20
-1.7000000000000028
 30
0.0
 11
-117.39999999999992
 21
3.2999999999999972
 31
0.0
  0
LINE
  5
235
100
AcDbEntity
  8
0
  6
CENTER
 62
             200
100
AcDbLine
 10
-107.39999999999992
 20
-1.7000000000000028
 30
0.0
 11
-107.39999999999992
 21
3.2999999999999972
 31
0.0
  0
LINE
  5
236
100
AcDbEntity
  8
0
  6
CENTER
 62
             200
100
AcDbLine
 10
-107.05138674934481
 20
6.0
 30
0.0
 11
-99.699999999999918
 21
6.0
 31
0.0
  0
LINE
  5
237
100
AcDbEntity
  8
0
  6
CENTER
 62
               2
100
AcDbLine
 10
-9.0
 20
35.5
 30
0.0
 11
-9.0
 21
40.5
 31
0.0
  0
LINE
  5
238
100
AcDbEntity
  8
0
  6
CENTER
 62
               2
100
AcDbLine
 10
-11.472466429440658
 20
38.0
 30
0.0
 11
-6.5
 21
38.0
 31
0.0
  0
LINE
  5
239
100
AcDbEntity
  8
0
  6
CENTER
 62
               2
100
AcDbLine
 10
-98.39999999999992
 20
35.5
 30
0.0
 11
-98.39999999999992
 21
40.5
 31
0.0
  0
LINE
  5
23A
100
AcDbEntity
  8
0
  6
CENTER
 62
               2
100
AcDbLine
 10
-100.89999999999992
 20
38.0
 30
0.0
 11
-95.89999999999992
 21
38.0
 31
0.0
  0
LINE
  5
23B
100
AcDbEntity
  8
0
  6
CONTINUOUS
 62
               7
100
AcDbLine
 10
-101.39999999999992
 20
55.000000000000057
 30
0.0
 11
-101.39999999999992
 21
0.0
 31
0.0
  0
LINE
  5
23C
100
AcDbEntity
  8
0
  6
CONTINUOUS
 62
               7
100
AcDbLine
 10
-6.0
 20
55.000000000000057
 30
0.0
 11
-6.0
 21
0.0
 31
0.0
  0
LINE
  5
23D
100
AcDbEntity
  8
0
  6
CONTINUOUS
 62
               7
100
AcDbLine
 10
-6.0
 20
0.0
 30
0.0
 11
-101.39999999999992
 21
0.0
 31
0.0
  0
LINE
  5
23E
100
AcDbEntity
  8
0
  6
CONTINUOUS
 62
               7
100
AcDbLine
 10
-101.39999999999992
 20
55.000000000000057
 30
0.0
 11
-93.799999999999969
 21
55.000000000000057
 31
0.0
  0
CIRCLE
  5
23F
100
AcDbEntity
  8
0
  6
CONTINUOUS
 62
               2
100
AcDbCircle
 10
-9.0
 20
38.0
 30
0.0
 40
1.5
  0
CIRCLE
  5
240
100
AcDbEntity
  8
0
  6
CONTINUOUS
 62
               7
100
AcDbCircle
 10
-9.0
 20
38.0
 30
0.0
 40
1.25
  0
CIRCLE
  5
241
100
AcDbEntity
  8
0
  6
CONTINUOUS
 62
               2
100
AcDbCircle
 10
-98.39999999999992
 20
38.0
 30
0.0
 40
1.5
  0
CIRCLE
  5
242
100
AcDbEntity
  8
0
  6
CONTINUOUS
 62
               7
100
AcDbCircle
 10
-98.39999999999992
 20
38.0
 30
0.0
 40
1.25
  0
ENDBLK
  5
243
100
AcDbEntity
  8
0
100
AcDbBlockEnd
  0
BLOCK
  5
244
100
AcDbEntity
  8
0
100
AcDbBlockBegin
  2
MV030MA-11-5
 70
               0
 10
0.0
 20
0.0
 30
0.0
  3
MV030MA-11-5
  1

  0
LINE
  5
245
100
AcDbEntity
  8
0
  6
CONTINUOUS
 62
               7
100
AcDbLine
 10
-1.25
 20
3.8391819624748109
 30
0.0
 11
-1.25
 21
3.1999999999999886
 31
0.0
  0
LINE
  5
246
100
AcDbEntity
  8
0
  6
CONTINUOUS
 62
               2
100
AcDbLine
 10
-1.0749999999999886
 20
3.8391819624748109
 30
0.0
 11
-1.0749999999999886
 21
3.1999999999999886
 31
0.0
  0
LINE
  5
247
100
AcDbEntity
  8
0
  6
CONTINUOUS
 62
               7
100
AcDbLine
 10
-3.25
 20
2.6999999999999886
 30
0.0
 11
-2.75
 21
3.1999999999999886
 31
0.0
  0
LINE
  5
248
100
AcDbEntity
  8
0
  6
CONTINUOUS
 62
               7
100
AcDbLine
 10
2.75
 20
3.1999999999999886
 30
0.0
 11
-2.75
 21
3.1999999999999886
 31
0.0
  0
LINE
  5
249
100
AcDbEntity
  8
0
  6
CONTINUOUS
 62
               7
100
AcDbLine
 10
3.25
 20
2.6999999999999886
 30
0.0
 11
2.75
 21
3.1999999999999886
 31
0.0
  0
LINE
  5
24A
100
AcDbEntity
  8
0
  6
CONTINUOUS
 62
               7
100
AcDbLine
 10
2.5
 20
13.544181962474795
 30
0.0
 11
2.5
 21
8.544181962474795
 31
0.0
  0
LINE
  5
24B
100
AcDbEntity
  8
0
  6
CONTINUOUS
 62
               7
100
AcDbLine
 10
-2.5
 20
13.544181962474795
 30
0.0
 11
-2.5
 21
8.544181962474795
 31
0.0
  0
LINE
  5
24C
100
AcDbEntity
  8
0
  6
CONTINUOUS
 62
               7
100
AcDbLine
 10
-3.0
 20
4.3391819624748109
 30
0.0
 11
-3.0
 21
6.3391819624748109
 31
0.0
  0
LINE
  5
24D
100
AcDbEntity
  8
0
  6
CONTINUOUS
 62
               7
100
AcDbLine
 10
-2.0
 20
8.044181962474795
 30
0.0
 11
2.0
 21
8.044181962474795
 31
0.0
  0
LINE
  5
24E
100
AcDbEntity
  8
0
  6
CONTINUOUS
 62
               7
100
AcDbLine
 10
2.5
 20
8.544181962474795
 30
0.0
 11
2.0
 21
8.044181962474795
 31
0.0
  0
LINE
  5
24F
100
AcDbEntity
  8
0
  6
CONTINUOUS
 62
               7
100
AcDbLine
 10
-2.0
 20
8.044181962474795
 30
0.0
 11
-2.5
 21
8.544181962474795
 31
0.0
  0
LINE
  5
250
100
AcDbEntity
  8
0
  6
CONTINUOUS
 62
               7
100
AcDbLine
 10
2.5
 20
6.8391819624748109
 30
0.0
 11
-2.5
 21
6.8391819624748109
 31
0.0
  0
LINE
  5
251
100
AcDbEntity
  8
0
  6
CONTINUOUS
 62
               7
100
AcDbLine
 10
-3.0
 20
6.3391819624748109
 30
0.0
 11
-2.5
 21
6.8391819624748109
 31
0.0
  0
LINE
  5
252
100
AcDbEntity
  8
0
  6
CONTINUOUS
 62
               7
100
AcDbLine
 10
-3.0
 20
4.3391819624748109
 30
0.0
 11
-2.5
 21
3.8391819624748109
 31
0.0
  0
LINE
  5
253
100
AcDbEntity
  8
0
  6
CONTINUOUS
 62
               7
100
AcDbLine
 10
3.0
 20
6.3391819624748109
 30
0.0
 11
2.5
 21
6.8391819624748109
 31
0.0
  0
LINE
  5
254
100
AcDbEntity
  8
0
  6
CONTINUOUS
 62
               7
100
AcDbLine
 10
3.0
 20
4.3391819624748109
 30
0.0
 11
2.5
 21
3.8391819624748109
 31
0.0
  0
LINE
  5
255
100
AcDbEntity
  8
0
  6
CONTINUOUS
 62
               7
100
AcDbLine
 10
3.0
 20
4.3391819624748109
 30
0.0
 11
3.0
 21
6.3391819624748109
 31
0.0
  0
LINE
  5
256
100
AcDbEntity
  8
0
  6
CONTINUOUS
 62
               7
100
AcDbLine
 10
2.5
 20
3.8391819624748109
 30
0.0
 11
-2.5
 21
3.8391819624748109
 31
0.0
  0
LINE
  5
257
100
AcDbEntity
  8
0
  6
CONTINUOUS
 62
               2
100
AcDbLine
 10
-1.0749999999999886
 20
8.044181962474795
 30
0.0
 11
-1.0749999999999886
 21
6.8391819624748109
 31
0.0
  0
LINE
  5
258
100
AcDbEntity
  8
0
  6
CONTINUOUS
 62
               7
100
AcDbLine
 10
-1.25
 20
8.044181962474795
 30
0.0
 11
-1.25
 21
6.8391819624748109
 31
0.0
  0
LINE
  5
259
100
AcDbEntity
  8
0
  6
CONTINUOUS
 62
               2
100
AcDbLine
 10
1.0749999999999886
 20
8.044181962474795
 30
0.0
 11
1.0749999999999886
 21
6.8391819624748109
 31
0.0
  0
LINE
  5
25A
100
AcDbEntity
  8
0
  6
CONTINUOUS
 62
               7
100
AcDbLine
 10
1.25
 20
8.044181962474795
 30
0.0
 11
1.25
 21
6.8391819624748109
 31
0.0
  0
LINE
  5
25B
100
AcDbEntity
  8
0
  6
CONTINUOUS
 62
               7
100
AcDbLine
 10
2.0
 20
14.044181962474795
 30
0.0
 11
-2.0
 21
14.044181962474795
 31
0.0
  0
LINE
  5
25C
100
AcDbEntity
  8
0
  6
CONTINUOUS
 62
               7
100
AcDbLine
 10
2.5
 20
13.544181962474795
 30
0.0
 11
2.0
 21
14.044181962474795
 31
0.0
  0
LINE
  5
25D
100
AcDbEntity
  8
0
  6
CONTINUOUS
 62
               7
100
AcDbLine
 10
-2.5
 20
13.544181962474795
 30
0.0
 11
-2.0
 21
14.044181962474795
 31
0.0
  0
LINE
  5
25E
100
AcDbEntity
  8
0
  6
CONTINUOUS
 62
               7
100
AcDbLine
 10
1.25
 20
3.8391819624748109
 30
0.0
 11
1.25
 21
3.1999999999999886
 31
0.0
  0
LINE
  5
25F
100
AcDbEntity
  8
0
  6
CONTINUOUS
 62
               2
100
AcDbLine
 10
1.0749999999999886
 20
3.8391819624748109
 30
0.0
 11
1.0749999999999886
 21
3.1999999999999886
 31
0.0
  0
LINE
  5
260
100
AcDbEntity
  8
0
  6
CONTINUOUS
 62
               7
100
AcDbLine
 10
-2.5
 20
11.500000000000014
 30
0.0
 11
-5.6000000000000227
 21
11.500000000000014
 31
0.0
  0
LINE
  5
261
100
AcDbEntity
  8
0
  6
CONTINUOUS
 62
               7
100
AcDbLine
 10
-2.5
 20
11.000000000000014
 30
0.0
 11
-3.6000000000000227
 21
11.000000000000014
 31
0.0
  0
LINE
  5
262
100
AcDbEntity
  8
0
  6
CONTINUOUS
 62
               7
100
AcDbLine
 10
-2.5
 20
10.500000000000014
 30
0.0
 11
-3.6000000000000227
 21
10.500000000000014
 31
0.0
  0
LINE
  5
263
100
AcDbEntity
  8
0
  6
CONTINUOUS
 62
               7
100
AcDbLine
 10
-3.6000000000000227
 20
11.000000000000014
 30
0.0
 11
-3.6000000000000227
 21
10.500000000000014
 31
0.0
  0
LINE
  5
264
100
AcDbEntity
  8
0
  6
CONTINUOUS
 62
               7
100
AcDbLine
 10
4.3999999999999773
 20
11.500000000000014
 30
0.0
 11
2.5
 21
11.500000000000014
 31
0.0
  0
LINE
  5
265
100
AcDbEntity
  8
0
  6
CONTINUOUS
 62
               7
100
AcDbLine
 10
-2.5
 20
13.544181962474795
 30
0.0
 11
2.5
 21
13.544181962474795
 31
0.0
  0
LINE
  5
266
100
AcDbEntity
  8
0
  6
CONTINUOUS
 62
               7
100
AcDbLine
 10
-2.5
 20
8.544181962474795
 30
0.0
 11
2.5
 21
8.544181962474795
 31
0.0
  0
LINE
  5
267
100
AcDbEntity
  8
0
  6
CONTINUOUS
 62
               7
100
AcDbLine
 10
-3.0
 20
6.3391819624748109
 30
0.0
 11
3.0
 21
6.3391819624748109
 31
0.0
  0
LINE
  5
268
100
AcDbEntity
  8
0
  6
CONTINUOUS
 62
               7
100
AcDbLine
 10
-3.0
 20
4.3391819624748109
 30
0.0
 11
3.0
 21
4.3391819624748109
 31
0.0
  0
LINE
  5
269
100
AcDbEntity
  8
0
  6
CONTINUOUS
 62
               7
100
AcDbLine
 10
-3.25
 20
2.6999999999999886
 30
0.0
 11
3.25
 21
2.6999999999999886
 31
0.0
  0
LINE
  5
26A
100
AcDbEntity
  8
0
  6
CONTINUOUS
 62
               7
100
AcDbLine
 10
4.3999999999999773
 20
11.500000000000014
 30
0.0
 11
4.3999999999999773
 21
0.0
 31
0.0
  0
LINE
  5
26B
100
AcDbEntity
  8
0
  6
CONTINUOUS
 62
               7
100
AcDbLine
 10
-5.6000000000000227
 20
0.0
 30
0.0
 11
-5.6000000000000227
 21
11.500000000000014
 31
0.0
  0
LINE
  5
26C
100
AcDbEntity
  8
0
  6
CONTINUOUS
 62
               7
100
AcDbLine
 10
3.25
 20
0.0
 30
0.0
 11
3.25
 21
2.6999999999999886
 31
0.0
  0
LINE
  5
26D
100
AcDbEntity
  8
0
  6
CONTINUOUS
 62
               7
100
AcDbLine
 10
-3.25
 20
0.0
 30
0.0
 11
-3.25
 21
2.6999999999999886
 31
0.0
  0
LINE
  5
26E
100
AcDbEntity
  8
0
  6
CENTER
 62
               2
100
AcDbLine
 10
0.0
 20
-0.893463325756116
 30
0.0
 11
0.0
 21
14.663777284131626
 31
0.0
  0
ENDBLK
  5
26F
100
AcDbEntity
  8
0
100
AcDbBlockEnd
  0
BLOCK
  5
270
100
AcDbEntity
  8
0
100
AcDbBlockBegin
  2
MV030MA-11-6
 70
               0
 10
0.0
 20
0.0
 30
0.0
  3
MV030MA-11-6
  1

  0
ARC
  5
271
100
AcDbEntity
  8
0
  6
CONTINUOUS
 62
               7
100
AcDbCircle
 10
4.7000000000000171
 20
19.299999999999986
 30
0.0
 40
0.3
100
AcDbArc
 50
359.99999999999972
 51
89.999999999999801
  0
LINE
  5
272
100
AcDbEntity
  8
0
  6
CONTINUOUS
 62
               7
100
AcDbLine
 10
-5.0
 20
1.1999999999999922
 30
0.0
 11
5.0
 21
1.1999999999999922
 31
0.0
  0
LINE
  5
273
100
AcDbEntity
  8
0
  6
CONTINUOUS
 62
               7
100
AcDbLine
 10
5.0
 20
0.9000000000000092
 30
0.0
 11
-5.0
 21
0.9000000000000092
 31
0.0
  0
LINE
  5
274
100
AcDbEntity
  8
0
  6
CONTINUOUS
 62
               7
100
AcDbLine
 10
4.7000000000000171
 20
25.099999999999998
 30
0.0
 11
4.7000000000000171
 21
30.099999999999998
 31
0.0
  0
LINE
  5
275
100
AcDbEntity
  8
0
  6
CONTINUOUS
 62
               7
100
AcDbLine
 10
5.0
 20
0.0000000000000036
 30
0.0
 11
5.0
 21
25.099999999999998
 31
0.0
  0
LINE
  5
276
100
AcDbEntity
  8
0
  6
CONTINUOUS
 62
               7
100
AcDbLine
 10
-2.1400000000000148
 20
45.629999999999995
 30
0.0
 11
-2.9400000000000261
 21
45.629999999999995
 31
0.0
  0
LINE
  5
277
100
AcDbEntity
  8
0
  6
CONTINUOUS
 62
               7
100
AcDbLine
 10
-1.8250000000000171
 20
40.629999999999995
 30
0.0
 11
-3.2550000000000239
 21
40.629999999999995
 31
0.0
  0
LINE
  5
278
100
AcDbEntity
  8
0
  6
CONTINUOUS
 62
               7
100
AcDbLine
 10
-2.9400000000000261
 20
40.629999999999995
 30
0.0
 11
-2.9400000000000261
 21
45.629999999999995
 31
0.0
  0
LINE
  5
279
100
AcDbEntity
  8
0
  6
CONTINUOUS
 62
               7
100
AcDbLine
 10
-2.1400000000000148
 20
40.629999999999995
 30
0.0
 11
-2.1400000000000148
 21
45.629999999999995
 31
0.0
  0
LINE
  5
27A
100
AcDbEntity
  8
0
  6
CONTINUOUS
 62
               7
100
AcDbLine
 10
-1.8250000000000171
 20
36.451333333333338
 30
0.0
 11
-1.8250000000000171
 21
40.629999999999995
 31
0.0
  0
LINE
  5
27B
100
AcDbEntity
  8
0
  6
CONTINUOUS
 62
               7
100
AcDbLine
 10
-3.2550000000000239
 20
36.069999999999993
 30
0.0
 11
-3.2550000000000239
 21
40.629999999999995
 31
0.0
  0
LINE
  5
27C
100
AcDbEntity
  8
0
  6
CONTINUOUS
 62
               7
100
AcDbLine
 10
-3.2550000000000239
 20
30.099999999999998
 30
0.0
 11
-3.2550000000000239
 21
34.829999999999984
 31
0.0
  0
LINE
  5
27D
100
AcDbEntity
  8
0
  6
CONTINUOUS
 62
               7
100
AcDbLine
 10
-1.8250000000000171
 20
30.099999999999998
 30
0.0
 11
-1.8250000000000171
 21
35.211333333333329
 31
0.0
  0
LINE
  5
27E
100
AcDbEntity
  8
0
  6
CONTINUOUS
 62
               7
100
AcDbLine
 10
3.2549999999999955
 20
40.629999999999995
 30
0.0
 11
1.8249999999999886
 21
40.629999999999995
 31
0.0
  0
LINE
  5
27F
100
AcDbEntity
  8
0
  6
CONTINUOUS
 62
               7
100
AcDbLine
 10
1.8249999999999886
 20
37.424666666666639
 30
0.0
 11
1.8249999999999886
 21
40.629999999999995
 31
0.0
  0
LINE
  5
280
100
AcDbEntity
  8
0
  6
CONTINUOUS
 62
               7
100
AcDbLine
 10
3.2549999999999955
 20
37.806000000000012
 30
0.0
 11
3.2549999999999955
 21
40.629999999999995
 31
0.0
  0
LINE
  5
281
100
AcDbEntity
  8
0
  6
CONTINUOUS
 62
               7
100
AcDbLine
 10
2.1399999999999864
 20
40.629999999999995
 30
0.0
 11
2.1399999999999864
 21
45.629999999999995
 31
0.0
  0
LINE
  5
282
100
AcDbEntity
  8
0
  6
CONTINUOUS
 62
               7
100
AcDbLine
 10
2.9399999999999693
 20
40.629999999999995
 30
0.0
 11
2.9399999999999693
 21
45.629999999999995
 31
0.0
  0
LINE
  5
283
100
AcDbEntity
  8
0
  6
CONTINUOUS
 62
               7
100
AcDbLine
 10
2.1399999999999864
 20
45.629999999999995
 30
0.0
 11
2.9399999999999693
 21
45.629999999999995
 31
0.0
  0
LINE
  5
284
100
AcDbEntity
  8
0
  6
CONTINUOUS
 62
               7
100
AcDbLine
 10
1.8249999999999886
 20
30.099999999999998
 30
0.0
 11
1.8249999999999886
 21
36.184666666666686
 31
0.0
  0
LINE
  5
285
100
AcDbEntity
  8
0
  6
CONTINUOUS
 62
               7
100
AcDbLine
 10
3.2549999999999955
 20
30.099999999999998
 30
0.0
 11
3.2549999999999955
 21
36.566000000000003
 31
0.0
  0
LINE
  5
286
100
AcDbEntity
  8
0
  6
CONTINUOUS
 62
               7
100
AcDbLine
 10
2.9000000000000057
 20
19.599999999999998
 30
0.0
 11
2.9000000000000057
 21
25.099999999999998
 31
0.0
  0
LINE
  5
287
100
AcDbEntity
  8
0
  6
CONTINUOUS
 62
               7
100
AcDbLine
 10
-2.9000000000000057
 20
19.599999999999998
 30
0.0
 11
-2.9000000000000057
 21
25.099999999999998
 31
0.0
  0
LINE
  5
288
100
AcDbEntity
  8
0
  6
CONTINUOUS
 62
               2
100
AcDbLine
 10
-1.5
 20
16.599999999999998
 30
0.0
 11
1.5
 21
16.599999999999998
 31
0.0
  0
LINE
  5
289
100
AcDbEntity
  8
0
  6
CONTINUOUS
 62
               2
100
AcDbLine
 10
1.5
 20
16.599999999999998
 30
0.0
 11
1.5
 21
19.599999999999998
 31
0.0
  0
LINE
  5
28A
100
AcDbEntity
  8
0
  6
CONTINUOUS
 62
               2
100
AcDbLine
 10
-1.5
 20
16.599999999999998
 30
0.0
 11
-1.5
 21
19.599999999999998
 31
0.0
  0
ARC
  5
28B
100
AcDbEntity
  8
0
  6
CONTINUOUS
 62
               7
100
AcDbCircle
 10
-4.7000000000000028
 20
19.299999999999986
 30
0.0
 40
0.3
100
AcDbArc
 50
89.999999999999815
 51
179.99999999999963
  0
LINE
  5
28C
100
AcDbEntity
  8
0
  6
CONTINUOUS
 62
               7
100
AcDbLine
 10
2.5
 20
20.599999999999998
 30
0.0
 11
-2.5
 21
20.599999999999998
 31
0.0
  0
LINE
  5
28D
100
AcDbEntity
  8
0
  6
CONTINUOUS
 62
               7
100
AcDbLine
 10
2.5
 20
29.099999999999998
 30
0.0
 11
-2.5
 21
29.099999999999998
 31
0.0
  0
LINE
  5
28E
100
AcDbEntity
  8
0
  6
CONTINUOUS
 62
               7
100
AcDbLine
 10
2.5
 20
20.599999999999998
 30
0.0
 11
2.5
 21
29.099999999999998
 31
0.0
  0
LINE
  5
28F
100
AcDbEntity
  8
0
  6
CONTINUOUS
 62
               7
100
AcDbLine
 10
-2.5
 20
28.388675134594823
 30
0.0
 11
2.5
 21
28.388675134594823
 31
0.0
  0
LINE
  5
290
100
AcDbEntity
  8
0
  6
CONTINUOUS
 62
               7
100
AcDbLine
 10
-2.5
 20
28.099999999999998
 30
0.0
 11
2.5
 21
28.099999999999998
 31
0.0
  0
LINE
  5
292
100
AcDbEntity
  8
0
  6
PHANTOM
 62
               2
100
AcDbLine
 10
0.0
 20
21.466025403784418
 30
0.0
 11
1.25
 21
21.466025403784418
 31
0.0
  0
LINE
  5
293
100
AcDbEntity
  8
0
  6
CONTINUOUS
 62
               7
100
AcDbLine
 10
3.5999999999999943
 20
25.099999999999998
 30
0.0
 11
3.5999999999999943
 21
30.099999999999998
 31
0.0
  0
LINE
  5
294
100
AcDbEntity
  8
0
  6
PHANTOM
 62
               2
100
AcDbLine
 10
0.0
 20
21.466025403784418
 30
0.0
 11
-1.25
 21
21.466025403784418
 31
0.0
  0
LINE
  5
295
100
AcDbEntity
  8
0
  6
CONTINUOUS
 62
               7
100
AcDbLine
 10
-3.5999999999999943
 20
25.099999999999998
 30
0.0
 11
-3.5999999999999943
 21
30.099999999999998
 31
0.0
  0
LINE
  5
296
100
AcDbEntity
  8
0
  6
CONTINUOUS
 62
               7
100
AcDbLine
 10
-2.5
 20
20.599999999999998
 30
0.0
 11
-2.5
 21
29.099999999999998
 31
0.0
  0
LINE
  5
297
100
AcDbEntity
  8
0
  6
CONTINUOUS
 62
               7
100
AcDbLine
 10
-4.7000000000000028
 20
25.099999999999998
 30
0.0
 11
-4.7000000000000028
 21
30.099999999999998
 31
0.0
  0
LINE
  5
298
100
AcDbEntity
  8
0
  6
CONTINUOUS
 62
               7
100
AcDbLine
 10
-2.5
 20
21.466025403784418
 30
0.0
 11
2.5
 21
21.466025403784418
 31
0.0
  0
LINE
  5
299
100
AcDbEntity
  8
0
  6
CONTINUOUS
 62
               7
100
AcDbLine
 10
-2.5
 20
25.099999999999998
 30
0.0
 11
-5.0
 21
25.099999999999998
 31
0.0
  0
LINE
  5
29A
100
AcDbEntity
  8
0
  6
CENTER
 62
               2
100
AcDbLine
 10
0.0
 20
-2.2990190924869829
 30
0.0
 11
0.0
 21
33.381003626860974
 31
0.0
  0
LINE
  5
29B
100
AcDbEntity
  8
0
  6
CONTINUOUS
 62
               7
100
AcDbLine
 10
4.7000000000000171
 20
30.099999999999998
 30
0.0
 11
-4.7000000000000028
 21
30.099999999999998
 31
0.0
  0
LINE
  5
29C
100
AcDbEntity
  8
0
  6
CONTINUOUS
 62
               7
100
AcDbLine
 10
5.0
 20
25.099999999999998
 30
0.0
 11
2.5
 21
25.099999999999998
 31
0.0
  0
LINE
  5
29D
100
AcDbEntity
  8
0
  6
CONTINUOUS
 62
               7
100
AcDbLine
 10
-5.0
 20
0.0000000000000036
 30
0.0
 11
-5.0
 21
25.099999999999998
 31
0.0
  0
LINE
  5
29E
100
AcDbEntity
  8
0
  6
CONTINUOUS
 62
               7
100
AcDbLine
 10
-4.7000000000000028
 20
19.599999999999998
 30
0.0
 11
4.7000000000000171
 21
19.599999999999998
 31
0.0
  0
LINE
  5
29F
100
AcDbEntity
  8
0
  6
CONTINUOUS
 62
               2
100
AcDbLine
 10
-5.5800000000000125
 20
35.449999999999989
 30
0.0
 11
5.5183137557572195
 21
38.409550334868584
 31
0.0
  0
LINE
  5
2A0
100
AcDbEntity
  8
0
  6
CONTINUOUS
 62
               2
100
AcDbLine
 10
-5.5800000000000125
 20
34.20999999999998
 30
0.0
 11
5.5183137557572195
 21
37.169550334868603
 31
0.0
  0
ENDBLK
  5
2A1
100
AcDbEntity
  8
0
100
AcDbBlockEnd
  0
BLOCK
  5
2A2
100
AcDbEntity
  8
0
100
AcDbBlockBegin
  2
MV030MA-11-7
 70
               0
 10
0.0
 20
0.0
 30
0.0
  3
MV030MA-11-7
  1

  0
ARC
  5
2A3
100
AcDbEntity
  8
0
  6
CONTINUOUS
 62
               7
100
AcDbCircle
 10
4.7000000000000037
 20
19.299999999999997
 30
0.0
 40
0.3
100
AcDbArc
 50
0.0
 51
89.999999999999815
  0
ARC
  5
2A4
100
AcDbEntity
  8
0
  6
CONTINUOUS
 62
               7
100
AcDbCircle
 10
-4.7000000000000028
 20
19.299999999999997
 30
0.0
 40
0.3
100
AcDbArc
 50
89.999999999999815
 51
179.99999999999963
  0
LINE
  5
2A5
100
AcDbEntity
  8
0
  6
CONTINUOUS
 62
               7
100
AcDbLine
 10
-1.4999999999999982
 20
16.599999999999994
 30
0.0
 11
-1.4999999999999982
 21
19.599999999999994
 31
0.0
  0
LINE
  5
2A6
100
AcDbEntity
  8
0
  6
CONTINUOUS
 62
               7
100
AcDbLine
 10
-1.4999999999999982
 20
16.599999999999994
 30
0.0
 11
0.0000000000000009
 21
16.599999999999994
 31
0.0
  0
LINE
  5
2A7
100
AcDbEntity
  8
0
  6
CONTINUOUS
 62
               7
100
AcDbLine
 10
1.5000000000000009
 20
16.599999999999994
 30
0.0
 11
1.5000000000000009
 21
19.599999999999994
 31
0.0
  0
LINE
  5
2A8
100
AcDbEntity
  8
0
  6
CONTINUOUS
 62
               7
100
AcDbLine
 10
1.5000000000000009
 20
16.599999999999994
 30
0.0
 11
0.0000000000000009
 21
16.599999999999994
 31
0.0
  0
ARC
  5
2A9
100
AcDbEntity
  8
0
  6
CONTINUOUS
 62
               7
100
AcDbCircle
 10
4.7007114376637569
 20
20.40071143766373
 30
0.0
 40
0.1992898322082596
100
AcDbArc
 50
359.79546140589559
 51
90.204538594104179
  0
LINE
  5
2AA
100
AcDbEntity
  8
0
  6
CONTINUOUS
 62
               7
100
AcDbLine
 10
4.9000000000000066
 20
20.399999999999991
 30
0.0
 11
4.9000000000000066
 21
19.523606797749977
 31
0.0
  0
LINE
  5
2AB
100
AcDbEntity
  8
0
  6
CONTINUOUS
 62
               7
100
AcDbLine
 10
-4.9000000000000057
 20
20.399999999999991
 30
0.0
 11
-4.9000000000000057
 21
19.523606797749963
 31
0.0
  0
ARC
  5
2AC
100
AcDbEntity
  8
0
  6
CONTINUOUS
 62
               7
100
AcDbCircle
 10
-4.700711437663756
 20
20.40071143766373
 30
0.0
 40
0.1992898322082596
100
AcDbArc
 50
89.795461405895423
 51
180.20453859410404
  0
LINE
  5
2AD
100
AcDbEntity
  8
0
  6
CONTINUOUS
 62
               7
100
AcDbLine
 10
4.7000000000000037
 20
20.599999999999994
 30
0.0
 11
-4.7000000000000028
 21
20.59999999999998
 31
0.0
  0
LINE
  5
2AE
100
AcDbEntity
  8
0
  6
CONTINUOUS
 62
               7
100
AcDbLine
 10
-5.0
 20
0.0
 30
0.0
 11
-5.0
 21
19.299999999999983
 31
0.0
  0
LINE
  5
2AF
100
AcDbEntity
  8
0
  6
CONTINUOUS
 62
               7
100
AcDbLine
 10
5.0
 20
0.0
 30
0.0
 11
5.0000000000000009
 21
19.299999999999997
 31
0.0
  0
LINE
  5
2B0
100
AcDbEntity
  8
0
  6
CONTINUOUS
 62
               7
100
AcDbLine
 10
5.0
 20
1.1999999999999886
 30
0.0
 11
-5.0
 21
1.1999999999999886
 31
0.0
  0
LINE
  5
2B1
100
AcDbEntity
  8
0
  6
CONTINUOUS
 62
               7
100
AcDbLine
 10
4.7000000000000037
 20
19.599999999999994
 30
0.0
 11
-4.7000000000000028
 21
19.599999999999994
 31
0.0
  0
LINE
  5
2B2
100
AcDbEntity
  8
0
  6
CONTINUOUS
 62
               7
100
AcDbLine
 10
5.0
 20
0.9000000000000057
 30
0.0
 11
-5.0
 21
0.9000000000000057
 31
0.0
  0
LINE
  5
2B3
100
AcDbEntity
  8
0
  6
CONTINUOUS
 62
               7
100
AcDbLine
 10
-3.5499999999999812
 20
20.599999999999994
 30
0.0
 11
-3.5499999999999803
 21
24.099999999999994
 31
0.0
  0
LINE
  5
2B4
100
AcDbEntity
  8
0
  6
CONTINUOUS
 62
               7
100
AcDbLine
 10
-2.2499999999999845
 20
20.599999999999994
 30
0.0
 11
-2.2499999999999836
 21
24.449999999999989
 31
0.0
  0
LINE
  5
2B5
100
AcDbEntity
  8
0
  6
CONTINUOUS
 62
               7
100
AcDbLine
 10
-2.2499999999999836
 20
25.489999999999995
 30
0.0
 11
-2.2499999999999827
 21
28.799999999999983
 31
0.0
  0
LINE
  5
2B6
100
AcDbEntity
  8
0
  6
CONTINUOUS
 62
               7
100
AcDbLine
 10
-3.5499999999999803
 20
25.139999999999986
 30
0.0
 11
-3.5499999999999798
 21
28.799999999999983
 31
0.0
  0
LINE
  5
2B7
100
AcDbEntity
  8
0
  6
CONTINUOUS
 62
               7
100
AcDbLine
 10
3.1499999999999932
 20
28.799999999999983
 30
0.0
 11
3.1499999999999937
 21
32.799999999999983
 31
0.0
  0
LINE
  5
2B8
100
AcDbEntity
  8
0
  6
CONTINUOUS
 62
               7
100
AcDbLine
 10
2.6499999999999932
 20
28.799999999999983
 30
0.0
 11
2.6499999999999932
 21
32.799999999999983
 31
0.0
  0
LINE
  5
2B9
100
AcDbEntity
  8
0
  6
CONTINUOUS
 62
               7
100
AcDbLine
 10
2.2499999999999876
 20
28.799999999999983
 30
0.0
 11
3.5499999999999847
 21
28.799999999999983
 31
0.0
  0
LINE
  5
2BA
100
AcDbEntity
  8
0
  6
CONTINUOUS
 62
               7
100
AcDbLine
 10
2.6499999999999932
 20
32.799999999999983
 30
0.0
 11
3.1499999999999937
 21
32.799999999999983
 31
0.0
  0
LINE
  5
2BB
100
AcDbEntity
  8
0
  6
CONTINUOUS
 62
               2
100
AcDbLine
 10
-4.499999999999984
 20
23.849999999999994
 30
0.0
 11
-1.2999999999999807
 21
24.70999999999998
 31
0.0
  0
LINE
  5
2BC
100
AcDbEntity
  8
0
  6
CONTINUOUS
 62
               2
100
AcDbLine
 10
-4.4999999999999831
 20
24.879999999999995
 30
0.0
 11
-1.2999999999999805
 21
25.739999999999995
 31
0.0
  0
LINE
  5
2BD
100
AcDbEntity
  8
0
  6
CONTINUOUS
 62
               7
100
AcDbLine
 10
2.2500000000000013
 20
20.599999999999994
 30
0.0
 11
2.2500000000000022
 21
24.099999999999994
 31
0.0
  0
LINE
  5
2BE
100
AcDbEntity
  8
0
  6
CONTINUOUS
 62
               7
100
AcDbLine
 10
3.5500000000000127
 20
20.599999999999994
 30
0.0
 11
3.5500000000000136
 21
24.449999999999989
 31
0.0
  0
LINE
  5
2BF
100
AcDbEntity
  8
0
  6
CONTINUOUS
 62
               7
100
AcDbLine
 10
3.5500000000000136
 20
25.489999999999995
 30
0.0
 11
3.5500000000000145
 21
28.799999999999983
 31
0.0
  0
LINE
  5
2C0
100
AcDbEntity
  8
0
  6
CONTINUOUS
 62
               7
100
AcDbLine
 10
2.2500000000000022
 20
25.139999999999986
 30
0.0
 11
2.2500000000000031
 21
28.799999999999983
 31
0.0
  0
LINE
  5
2C1
100
AcDbEntity
  8
0
  6
CONTINUOUS
 62
               7
100
AcDbLine
 10
-2.6500000000000039
 20
28.799999999999983
 30
0.0
 11
-2.6500000000000039
 21
32.799999999999983
 31
0.0
  0
LINE
  5
2C2
100
AcDbEntity
  8
0
  6
CONTINUOUS
 62
               7
100
AcDbLine
 10
-3.1500000000000039
 20
28.799999999999983
 30
0.0
 11
-3.1500000000000039
 21
32.799999999999983
 31
0.0
  0
LINE
  5
2C3
100
AcDbEntity
  8
0
  6
CONTINUOUS
 62
               7
100
AcDbLine
 10
-3.5500000000000096
 20
28.799999999999983
 30
0.0
 11
-2.2499999999999982
 21
28.799999999999983
 31
0.0
  0
LINE
  5
2C4
100
AcDbEntity
  8
0
  6
CONTINUOUS
 62
               7
100
AcDbLine
 10
-3.1500000000000039
 20
32.799999999999983
 30
0.0
 11
-2.6500000000000039
 21
32.799999999999983
 31
0.0
  0
LINE
  5
2C5
100
AcDbEntity
  8
0
  6
CONTINUOUS
 62
               2
100
AcDbLine
 10
1.3000000000000134
 20
23.849999999999994
 30
0.0
 11
4.5000000000000018
 21
24.70999999999998
 31
0.0
  0
LINE
  5
2C6
100
AcDbEntity
  8
0
  6
CONTINUOUS
 62
               2
100
AcDbLine
 10
1.3000000000000136
 20
24.879999999999995
 30
0.0
 11
4.5000000000000027
 21
25.739999999999995
 31
0.0
  0
LINE
  5
2C7
100
AcDbEntity
  8
0
  6
CENTER
 62
               2
100
AcDbLine
 10
-0.0000000000000004
 20
-2.2999999999999998
 30
0.0
 11
0.0000000000000018
 21
22.300082894946598
 31
0.0
  0
ENDBLK
  5
2C8
100
AcDbEntity
  8
0
100
AcDbBlockEnd
  0
BLOCK
  5
2C9
100
AcDbEntity
  8
0
100
AcDbBlockBegin
  2
MV030MA-11-8
 70
               0
 10
0.0
 20
0.0
 30
0.0
  3
MV030MA-11-8
  1

  0
LINE
  5
2CA
100
AcDbEntity
  8
0
  6
CONTINUOUS
 62
               7
100
AcDbLine
 10
1.8999999999999773
 20
68.544181962474866
 30
0.0
 11
1.3999999999999773
 21
69.044181962474866
 31
0.0
  0
LINE
  5
2CB
100
AcDbEntity
  8
0
  6
CONTINUOUS
 62
               7
100
AcDbLine
 10
1.8999999999999773
 20
68.544181962474866
 30
0.0
 11
1.8999999999999773
 21
66.499999999999943
 31
0.0
  0
LINE
  5
2CC
100
AcDbEntity
  8
0
  6
CONTINUOUS
 62
               7
100
AcDbLine
 10
-3.1000000000000227
 20
68.544181962474866
 30
0.0
 11
-2.6000000000000227
 21
69.044181962474866
 31
0.0
  0
LINE
  5
2CD
100
AcDbEntity
  8
0
  6
CONTINUOUS
 62
               7
100
AcDbLine
 10
-2.6000000000000227
 20
69.044181962474866
 30
0.0
 11
1.3999999999999773
 21
69.044181962474866
 31
0.0
  0
LINE
  5
2CE
100
AcDbEntity
  8
0
  6
CONTINUOUS
 62
               7
100
AcDbLine
 10
1.8999999999999773
 20
68.544181962474866
 30
0.0
 11
-3.1000000000000227
 21
68.544181962474866
 31
0.0
  0
LINE
  5
2CF
100
AcDbEntity
  8
0
  6
CONTINUOUS
 62
               7
100
AcDbLine
 10
-3.1000000000000227
 20
68.544181962474866
 30
0.0
 11
-3.1000000000000227
 21
66.499999999999943
 31
0.0
  0
LINE
  5
2D0
100
AcDbEntity
  8
0
  6
CONTINUOUS
 62
               7
100
AcDbLine
 10
-5.0999999999999996
 20
55.0
 30
0.0
 11
-5.0
 21
55.0
 31
0.0
  0
LINE
  5
2D1
100
AcDbEntity
  8
0
  6
CONTINUOUS
 62
               7
100
AcDbLine
 10
5.0999999999999996
 20
55.0
 30
0.0
 11
5.0
 21
55.0
 31
0.0
  0
ARC
  5
2D2
100
AcDbEntity
  8
0
  6
CONTINUOUS
 62
               7
100
AcDbCircle
 10
4.7000000000000455
 20
66.199999999999989
 30
0.0
 40
0.3
100
AcDbArc
 50
0.0
 51
89.999999999999815
  0
LINE
  5
2D3
100
AcDbEntity
  8
0
  6
CONTINUOUS
 62
               7
100
AcDbLine
 10
5.0
 20
66.199999999999989
 30
0.0
 11
5.0
 21
34.499999999999943
 31
0.0
  0
LINE
  5
2D4
100
AcDbEntity
  8
0
  6
CONTINUOUS
 62
               7
100
AcDbLine
 10
4.7000000000000455
 20
48.500000000000057
 30
0.0
 11
4.7000000000000455
 21
53.800000000000011
 31
0.0
  0
LINE
  5
2D5
100
AcDbEntity
  8
0
  6
CONTINUOUS
 62
               7
100
AcDbLine
 10
5.0
 20
48.89999999999992
 30
0.0
 11
4.7000000000000455
 21
48.89999999999992
 31
0.0
  0
ARC
  5
2D6
100
AcDbEntity
  8
0
  6
CONTINUOUS
 62
               7
100
AcDbCircle
 10
4.7000000000000455
 20
54.000000000000057
 30
0.0
 40
0.3
100
AcDbArc
 50
0.0
 51
89.999999999999815
  0
LINE
  5
2D7
100
AcDbEntity
  8
0
  6
CONTINUOUS
 62
               7
100
AcDbLine
 10
5.0
 20
49.000000000000057
 30
0.0
 11
4.7000000000000455
 21
49.000000000000057
 31
0.0
  0
LINE
  5
2D8
100
AcDbEntity
  8
0
  6
CONTINUOUS
 62
               7
100
AcDbLine
 10
-4.6999999999999318
 20
49.000000000000057
 30
0.0
 11
-5.0
 21
49.000000000000057
 31
0.0
  0
LINE
  5
2D9
100
AcDbEntity
  8
0
  6
CONTINUOUS
 62
               7
100
AcDbLine
 10
-4.6999999999999318
 20
48.89999999999992
 30
0.0
 11
-5.0
 21
48.89999999999992
 31
0.0
  0
ARC
  5
2DA
100
AcDbEntity
  8
0
  6
CONTINUOUS
 62
               7
100
AcDbCircle
 10
-4.7000000000000455
 20
54.000000000000057
 30
0.0
 40
0.3
100
AcDbArc
 50
89.999999999999815
 51
179.99999999999963
  0
LINE
  5
2DB
100
AcDbEntity
  8
0
  6
CONTINUOUS
 62
               7
100
AcDbLine
 10
-4.6999999999999318
 20
48.500000000000057
 30
0.0
 11
-4.6999999999999318
 21
53.800000000000011
 31
0.0
  0
ARC
  5
2DC
100
AcDbEntity
  8
0
  6
CONTINUOUS
 62
               7
100
AcDbCircle
 10
4.7000000000000455
 20
0.3000000000000114
 30
0.0
 40
0.3
100
AcDbArc
 50
270.00000000000023
 51
0.0
  0
ARC
  5
2DD
100
AcDbEntity
  8
0
  6
CONTINUOUS
 62
               7
100
AcDbCircle
 10
-4.6999999999999318
 20
0.3000000000000114
 30
0.0
 40
0.3
100
AcDbArc
 50
179.99999999999963
 51
269.99999999999937
  0
LINE
  5
2DE
100
AcDbEntity
  8
0
  6
CONTINUOUS
 62
               7
100
AcDbLine
 10
-5.0999999999999996
 20
0.0
 30
0.0
 11
5.0999999999999996
 21
0.0
 31
0.0
  0
LINE
  5
2DF
100
AcDbEntity
  8
0
  6
CONTINUOUS
 62
               7
100
AcDbLine
 10
3.6159999999999854
 20
16.088000000000022
 30
0.0
 11
3.4900000000000091
 21
14.199999999999989
 31
0.0
  0
LINE
  5
2E0
100
AcDbEntity
  8
0
  6
CONTINUOUS
 62
               7
100
AcDbLine
 10
3.7000000000000455
 20
13.699999999999989
 30
0.0
 11
3.7000000000000455
 21
12.699999999999989
 31
0.0
  0
LINE
  5
2E1
100
AcDbEntity
  8
0
  6
CONTINUOUS
 62
               7
100
AcDbLine
 10
4.7000000000000455
 20
12.699999999999989
 30
0.0
 11
3.7000000000000455
 21
12.699999999999989
 31
0.0
  0
LINE
  5
2E2
100
AcDbEntity
  8
0
  6
CONTINUOUS
 62
               7
100
AcDbLine
 10
4.7000000000000455
 20
18.0
 30
0.0
 11
4.7000000000000455
 21
12.699999999999989
 31
0.0
  0
LINE
  5
2E3
100
AcDbEntity
  8
0
  6
CONTINUOUS
 62
               7
100
AcDbLine
 10
4.7000000000000455
 20
17.5
 30
0.0
 11
5.0
 21
17.5
 31
0.0
  0
LINE
  5
2E4
100
AcDbEntity
  8
0
  6
CONTINUOUS
 62
               7
100
AcDbLine
 10
4.7000000000000455
 20
17.600000000000023
 30
0.0
 11
5.0
 21
17.600000000000023
 31
0.0
  0
ARC
  5
2E5
100
AcDbEntity
  8
0
  6
CONTINUOUS
 62
               7
100
AcDbCircle
 10
4.7000000000000455
 20
12.5
 30
0.0
 40
0.3
100
AcDbArc
 50
269.99999999999937
 51
0.0
  0
LINE
  5
2E6
100
AcDbEntity
  8
0
  6
CONTINUOUS
 62
               7
100
AcDbLine
 10
-4.7000000000000455
 20
18.0
 30
0.0
 11
-4.7000000000000455
 21
12.699999999999989
 31
0.0
  0
LINE
  5
2E7
100
AcDbEntity
  8
0
  6
CONTINUOUS
 62
               7
100
AcDbLine
 10
-5.0
 20
17.5
 30
0.0
 11
-4.7000000000000455
 21
17.5
 31
0.0
  0
ARC
  5
2E8
100
AcDbEntity
  8
0
  6
CONTINUOUS
 62
               7
100
AcDbCircle
 10
-4.6999999999999318
 20
12.5
 30
0.0
 40
0.3
100
AcDbArc
 50
179.99999999999963
 51
269.99999999999937
  0
LINE
  5
2E9
100
AcDbEntity
  8
0
  6
CONTINUOUS
 62
               7
100
AcDbLine
 10
-5.0
 20
17.600000000000023
 30
0.0
 11
-4.7000000000000455
 21
17.600000000000023
 31
0.0
  0
LINE
  5
2EA
100
AcDbEntity
  8
0
  6
CONTINUOUS
 62
               7
100
AcDbLine
 10
5.0
 20
0.3000000000000114
 30
0.0
 11
5.0
 21
32.000000000000057
 31
0.0
  0
LINE
  5
2EB
100
AcDbEntity
  8
0
  6
CONTINUOUS
 62
               7
100
AcDbLine
 10
3.5
 20
25.100000000000023
 30
0.0
 11
5.0
 21
25.100000000000023
 31
0.0
  0
LINE
  5
2EC
100
AcDbEntity
  8
0
  6
CONTINUOUS
 62
               7
100
AcDbLine
 10
5.0
 20
21.900000000000034
 30
0.0
 11
3.5
 21
21.900000000000034
 31
0.0
  0
LINE
  5
2ED
100
AcDbEntity
  8
0
  6
CONTINUOUS
 62
               7
100
AcDbLine
 10
-1.8255136263528584
 20
21.449999999999989
 30
0.0
 11
0.0
 21
21.449999999999989
 31
0.0
  0
ARC
  5
2EE
100
AcDbEntity
  8
0
  6
CONTINUOUS
 62
               7
100
AcDbCircle
 10
0.0
 20
21.75
 30
0.0
 40
0.8
100
AcDbArc
 50
22.024312837042157
 51
157.97568716295754
  0
ARC
  5
2EF
100
AcDbEntity
  8
0
  6
CONTINUOUS
 62
               7
100
AcDbCircle
 10
0.0
 20
21.75
 30
0.0
 40
0.8
100
AcDbArc
 50
202.02431283704175
 51
337.97568716295712
  0
LINE
  5
2F0
100
AcDbEntity
  8
0
  6
CONTINUOUS
 62
               7
100
AcDbLine
 10
0.0
 20
21.449999999999989
 30
0.0
 11
1.8255136263528584
 21
21.449999999999989
 31
0.0
  0
LINE
  5
2F1
100
AcDbEntity
  8
0
  6
CONTINUOUS
 62
               7
100
AcDbLine
 10
-1.8255136263528584
 20
22.050000000000011
 30
0.0
 11
1.8255136263528584
 21
22.050000000000011
 31
0.0
  0
LINE
  5
2F2
100
AcDbEntity
  8
0
  6
CENTER
 62
               2
100
AcDbLine
 10
-2.5
 20
21.75
 30
0.0
 11
2.5
 21
21.75
 31
0.0
  0
LINE
  5
2F3
100
AcDbEntity
  8
0
  6
CONTINUOUS
 62
               7
100
AcDbLine
 10
1.5
 20
5.0
 30
0.0
 11
-1.5
 21
5.0
 31
0.0
  0
LINE
  5
2F4
100
AcDbEntity
  8
0
  6
CONTINUOUS
 62
               7
100
AcDbLine
 10
2.9000000000000909
 20
13.199999999999989
 30
0.0
 11
2.5
 21
13.199999999999989
 31
0.0
  0
LINE
  5
2F5
100
AcDbEntity
  8
0
  6
CONTINUOUS
 62
               7
100
AcDbLine
 10
2.9000000000000909
 20
13.199999999999989
 30
0.0
 11
2.9000000000000909
 21
12.199999999999989
 31
0.0
  0
LINE
  5
2F6
100
AcDbEntity
  8
0
  6
CONTINUOUS
 62
               7
100
AcDbLine
 10
-2.8999999999999773
 20
13.199999999999989
 30
0.0
 11
-2.8999999999999773
 21
12.199999999999989
 31
0.0
  0
LINE
  5
2F7
100
AcDbEntity
  8
0
  6
CONTINUOUS
 62
               7
100
AcDbLine
 10
2.9000000000000909
 20
12.699999999999989
 30
0.0
 11
-2.8999999999999773
 21
12.699999999999989
 31
0.0
  0
LINE
  5
2F8
100
AcDbEntity
  8
0
  6
CONTINUOUS
 62
               7
100
AcDbLine
 10
-2.5
 20
11.199999999999989
 30
0.0
 11
-2.5
 21
13.699999999999989
 31
0.0
  0
LINE
  5
2F9
100
AcDbEntity
  8
0
  6
CONTINUOUS
 62
               7
100
AcDbLine
 10
2.5
 20
11.199999999999989
 30
0.0
 11
2.5
 21
13.699999999999989
 31
0.0
  0
LINE
  5
2FA
100
AcDbEntity
  8
0
  6
CONTINUOUS
 62
               7
100
AcDbLine
 10
-3.4900000000000091
 20
14.199999999999989
 30
0.0
 11
-3.6140000000000327
 21
16.088000000000022
 31
0.0
  0
ARC
  5
2FB
100
AcDbEntity
  8
0
  6
CONTINUOUS
 62
               7
100
AcDbCircle
 10
-3.4147148526388946
 20
16.100334766640458
 30
0.0
 40
0.1996665130331531
100
AcDbArc
 50
89.79486732121282
 51
183.54180757537307
  0
LINE
  5
2FC
100
AcDbEntity
  8
0
  6
CONTINUOUS
 62
               7
100
AcDbLine
 10
-3.0900000000000318
 20
16.300000000000011
 30
0.0
 11
-3.0900000000000318
 21
16.800000000000011
 31
0.0
  0
LINE
  5
2FD
100
AcDbEntity
  8
0
  6
CONTINUOUS
 62
               7
100
AcDbLine
 10
-1.9900000000000091
 20
16.800000000000011
 30
0.0
 11
-3.0900000000000318
 21
16.800000000000011
 31
0.0
  0
LINE
  5
2FE
100
AcDbEntity
  8
0
  6
CONTINUOUS
 62
               7
100
AcDbLine
 10
-1.9900000000000091
 20
16.300000000000011
 30
0.0
 11
-1.9900000000000091
 21
16.800000000000011
 31
0.0
  0
LINE
  5
2FF
100
AcDbEntity
  8
0
  6
CONTINUOUS
 62
               7
100
AcDbLine
 10
-1.6639999999999873
 20
16.300000000000011
 30
0.0
 11
-3.4139999999999873
 21
16.300000000000011
 31
0.0
  0
ARC
  5
300
100
AcDbEntity
  8
0
  6
CONTINUOUS
 62
               7
100
AcDbCircle
 10
-1.6643441079743297
 20
16.099335747194061
 30
0.0
 40
0.2006645478515588
100
AcDbArc
 50
356.76157835491654
 51
89.901746748495754
  0
LINE
  5
301
100
AcDbEntity
  8
0
  6
CONTINUOUS
 62
               7
100
AcDbLine
 10
-1.4639999999999418
 20
16.088000000000022
 30
0.0
 11
-1.5900000000000318
 21
14.199999999999989
 31
0.0
  0
LINE
  5
302
100
AcDbEntity
  8
0
  6
CONTINUOUS
 62
               7
100
AcDbLine
 10
-1.5900000000000318
 20
14.199999999999989
 30
0.0
 11
-3.4900000000000091
 21
14.199999999999989
 31
0.0
  0
LINE
  5
303
100
AcDbEntity
  8
0
  6
CONTINUOUS
 62
               7
100
AcDbLine
 10
-0.3999999999999773
 20
15.599999999999966
 30
0.0
 11
0.3999999999999773
 21
15.599999999999966
 31
0.0
  0
LINE
  5
304
100
AcDbEntity
  8
0
  6
CONTINUOUS
 62
               7
100
AcDbLine
 10
-0.3999999999999773
 20
14.800000000000011
 30
0.0
 11
-0.3999999999999773
 21
15.599999999999966
 31
0.0
  0
LINE
  5
305
100
AcDbEntity
  8
0
  6
CONTINUOUS
 62
               7
100
AcDbLine
 10
-0.3999999999999773
 20
14.800000000000011
 30
0.0
 11
0.3999999999999773
 21
14.800000000000011
 31
0.0
  0
LINE
  5
306
100
AcDbEntity
  8
0
  6
CONTINUOUS
 62
               7
100
AcDbLine
 10
0.3999999999999773
 20
14.800000000000011
 30
0.0
 11
0.3999999999999773
 21
15.599999999999966
 31
0.0
  0
LINE
  5
307
100
AcDbEntity
  8
0
  6
CONTINUOUS
 62
               7
100
AcDbLine
 10
-0.9499999999999318
 20
14.199999999999989
 30
0.0
 11
-1.0739999999999554
 21
16.088000000000022
 31
0.0
  0
ARC
  5
308
100
AcDbEntity
  8
0
  6
CONTINUOUS
 62
               7
100
AcDbCircle
 10
-0.8747148526388173
 20
16.100334766640458
 30
0.0
 40
0.1996665130331531
100
AcDbArc
 50
89.79486732121282
 51
183.54180757537307
  0
LINE
  5
309
100
AcDbEntity
  8
0
  6
CONTINUOUS
 62
               7
100
AcDbLine
 10
-0.5499999999999545
 20
16.300000000000011
 30
0.0
 11
-0.5499999999999545
 21
16.800000000000011
 31
0.0
  0
LINE
  5
30A
100
AcDbEntity
  8
0
  6
CONTINUOUS
 62
               7
100
AcDbLine
 10
0.5500000000000682
 20
16.800000000000011
 30
0.0
 11
-0.5499999999999545
 21
16.800000000000011
 31
0.0
  0
LINE
  5
30B
100
AcDbEntity
  8
0
  6
CONTINUOUS
 62
               7
100
AcDbLine
 10
0.5500000000000682
 20
16.300000000000011
 30
0.0
 11
0.5500000000000682
 21
16.800000000000011
 31
0.0
  0
LINE
  5
30C
100
AcDbEntity
  8
0
  6
CONTINUOUS
 62
               7
100
AcDbLine
 10
0.8759999999999764
 20
16.300000000000011
 30
0.0
 11
-0.8740000000000237
 21
16.300000000000011
 31
0.0
  0
ARC
  5
30D
100
AcDbEntity
  8
0
  6
CONTINUOUS
 62
               7
100
AcDbCircle
 10
0.8756558920257476
 20
16.099335747194061
 30
0.0
 40
0.2006645478515588
100
AcDbArc
 50
356.76157835491654
 51
89.901746748495754
  0
LINE
  5
30E
100
AcDbEntity
  8
0
  6
CONTINUOUS
 62
               7
100
AcDbLine
 10
1.0760000000000218
 20
16.088000000000022
 30
0.0
 11
0.9500000000000455
 21
14.199999999999989
 31
0.0
  0
LINE
  5
30F
100
AcDbEntity
  8
0
  6
CONTINUOUS
 62
               7
100
AcDbLine
 10
0.9500000000000455
 20
14.199999999999989
 30
0.0
 11
-0.9499999999999318
 21
14.199999999999989
 31
0.0
  0
LINE
  5
310
100
AcDbEntity
  8
0
  6
CONTINUOUS
 62
               7
100
AcDbLine
 10
1.5900000000000318
 20
14.199999999999989
 30
0.0
 11
1.4660000000000082
 21
16.088000000000022
 31
0.0
  0
LINE
  5
311
100
AcDbEntity
  8
0
  6
CONTINUOUS
 62
               7
100
AcDbLine
 10
-3.6999999999999318
 20
13.699999999999989
 30
0.0
 11
-3.6999999999999318
 21
12.699999999999989
 31
0.0
  0
LINE
  5
312
100
AcDbEntity
  8
0
  6
CONTINUOUS
 62
               7
100
AcDbLine
 10
1.25
 20
12.699999999999989
 30
0.0
 11
1.25
 21
13.699999999999989
 31
0.0
  0
LINE
  5
313
100
AcDbEntity
  8
0
  6
CONTINUOUS
 62
               7
100
AcDbLine
 10
-1.25
 20
12.699999999999989
 30
0.0
 11
-1.25
 21
13.699999999999989
 31
0.0
  0
LINE
  5
314
100
AcDbEntity
  8
0
  6
CONTINUOUS
 62
               7
100
AcDbLine
 10
3.0900000000000318
 20
16.800000000000011
 30
0.0
 11
1.9900000000000091
 21
16.800000000000011
 31
0.0
  0
LINE
  5
315
100
AcDbEntity
  8
0
  6
CONTINUOUS
 62
               7
100
AcDbLine
 10
3.4160000000000537
 20
16.300000000000011
 30
0.0
 11
1.6660000000000537
 21
16.300000000000011
 31
0.0
  0
ARC
  5
316
100
AcDbEntity
  8
0
  6
CONTINUOUS
 62
               7
100
AcDbCircle
 10
1.6652851473611463
 20
16.100334766640458
 30
0.0
 40
0.1996665130331531
100
AcDbArc
 50
89.79486732121282
 51
183.54180757537307
  0
LINE
  5
317
100
AcDbEntity
  8
0
  6
CONTINUOUS
 62
               7
100
AcDbLine
 10
1.9900000000000091
 20
16.300000000000011
 30
0.0
 11
1.9900000000000091
 21
16.800000000000011
 31
0.0
  0
LINE
  5
318
100
AcDbEntity
  8
0
  6
CONTINUOUS
 62
               7
100
AcDbLine
 10
3.0900000000000318
 20
16.300000000000011
 30
0.0
 11
3.0900000000000318
 21
16.800000000000011
 31
0.0
  0
LINE
  5
319
100
AcDbEntity
  8
0
  6
CONTINUOUS
 62
               7
100
AcDbLine
 10
2.5000000005766196
 20
11.199999999999989
 30
0.0
 11
-2.4999999994233804
 21
11.199999999999989
 31
0.0
  0
LINE
  5
31A
100
AcDbEntity
  8
0
  6
CONTINUOUS
 62
               7
100
AcDbLine
 10
2.5
 20
12.400000000000034
 30
0.0
 11
-2.5
 21
12.400000000000034
 31
0.0
  0
CIRCLE
  5
31B
100
AcDbEntity
  8
0
  6
CONTINUOUS
 62
               7
100
AcDbCircle
 10
2.5399999999999636
 20
15.199999999999989
 30
0.0
 40
0.75
  0
CIRCLE
  5
31C
100
AcDbEntity
  8
0
  6
CONTINUOUS
 62
               7
100
AcDbCircle
 10
-2.5399999999999636
 20
15.199999999999989
 30
0.0
 40
0.75
  0
LINE
  5
31D
100
AcDbEntity
  8
0
  6
CONTINUOUS
 62
               7
100
AcDbLine
 10
-2.5
 20
13.199999999999989
 30
0.0
 11
-2.8999999999999773
 21
13.199999999999989
 31
0.0
  0
LINE
  5
31E
100
AcDbEntity
  8
0
  6
CONTINUOUS
 62
               7
100
AcDbLine
 10
-2.5
 20
12.199999999999989
 30
0.0
 11
-4.6999999999999318
 21
12.199999999999989
 31
0.0
  0
LINE
  5
31F
100
AcDbEntity
  8
0
  6
CONTINUOUS
 62
               7
100
AcDbLine
 10
3.7000000000000455
 20
13.699999999999989
 30
0.0
 11
-3.6999999999999318
 21
13.699999999999989
 31
0.0
  0
LINE
  5
320
100
AcDbEntity
  8
0
  6
CONTINUOUS
 62
               7
100
AcDbLine
 10
4.7000000000000455
 20
18.0
 30
0.0
 11
-4.7000000000000455
 21
18.0
 31
0.0
  0
ARC
  5
321
100
AcDbEntity
  8
0
  6
CONTINUOUS
 62
               7
100
AcDbCircle
 10
3.4156558920257112
 20
16.099335747194061
 30
0.0
 40
0.2006645478515588
100
AcDbArc
 50
356.76157835491654
 51
89.901746748495754
  0
LINE
  5
322
100
AcDbEntity
  8
0
  6
CONTINUOUS
 62
               7
100
AcDbLine
 10
3.4900000000000091
 20
14.199999999999989
 30
0.0
 11
1.5900000000000318
 21
14.199999999999989
 31
0.0
  0
LINE
  5
323
100
AcDbEntity
  8
0
  6
CONTINUOUS
 62
               7
100
AcDbLine
 10
-4.6999999999999318
 20
12.699999999999989
 30
0.0
 11
-3.6999999999999318
 21
12.699999999999989
 31
0.0
  0
LINE
  5
324
100
AcDbEntity
  8
0
  6
CONTINUOUS
 62
               7
100
AcDbLine
 10
4.7000000000000455
 20
12.199999999999989
 30
0.0
 11
2.5
 21
12.199999999999989
 31
0.0
  0
LINE
  5
325
100
AcDbEntity
  8
0
  6
CONTINUOUS
 62
               7
100
AcDbLine
 10
-1.5
 20
5.0
 30
0.0
 11
-1.5
 21
0.0
 31
0.0
  0
LINE
  5
326
100
AcDbEntity
  8
0
  6
CONTINUOUS
 62
               7
100
AcDbLine
 10
1.5
 20
5.0
 30
0.0
 11
1.5
 21
0.0
 31
0.0
  0
LINE
  5
327
100
AcDbEntity
  8
0
  6
CONTINUOUS
 62
               7
100
AcDbLine
 10
-5.0
 20
18.909182548228841
 30
0.0
 11
5.0
 21
18.909182548228841
 31
0.0
  0
LINE
  5
328
100
AcDbEntity
  8
0
  6
CONTINUOUS
 62
               7
100
AcDbLine
 10
2.6499999999999773
 20
25.600000000000023
 30
0.0
 11
5.0
 21
25.600000000000023
 31
0.0
  0
LINE
  5
329
100
AcDbEntity
  8
0
  6
CONTINUOUS
 62
               7
100
AcDbLine
 10
5.0
 20
18.098078436969899
 30
0.0
 11
-5.0
 21
18.098078436969899
 31
0.0
  0
LINE
  5
32A
100
AcDbEntity
  8
0
  6
CONTINUOUS
 62
               7
100
AcDbLine
 10
-3.5
 20
21.900000000000034
 30
0.0
 11
-5.0
 21
21.900000000000034
 31
0.0
  0
LINE
  5
32B
100
AcDbEntity
  8
0
  6
CONTINUOUS
 62
               7
100
AcDbLine
 10
4.2071067811865532
 20
24.207106781186553
 30
0.0
 11
2.7928932188134468
 21
22.792893218813504
 31
0.0
  0
LINE
  5
32C
100
AcDbEntity
  8
0
  6
CONTINUOUS
 62
               7
100
AcDbLine
 10
4.2071067811865532
 20
22.792893218813504
 30
0.0
 11
2.7928932188134468
 21
24.207106781186553
 31
0.0
  0
LINE
  5
32D
100
AcDbEntity
  8
0
  6
CONTINUOUS
 62
               7
100
AcDbLine
 10
-5.0
 20
25.100000000000023
 30
0.0
 11
-3.5
 21
25.100000000000023
 31
0.0
  0
LINE
  5
32E
100
AcDbEntity
  8
0
  6
CONTINUOUS
 62
               7
100
AcDbLine
 10
1.3999999999999773
 20
24.350000000000023
 30
0.0
 11
-1.3999999999999773
 21
24.350000000000023
 31
0.0
  0
LINE
  5
32F
100
AcDbEntity
  8
0
  6
CONTINUOUS
 62
               7
100
AcDbLine
 10
-2.6499999999999773
 20
25.600000000000023
 30
0.0
 11
-1.3999999999999773
 21
24.350000000000023
 31
0.0
  0
LINE
  5
330
100
AcDbEntity
  8
0
  6
CONTINUOUS
 62
               7
100
AcDbLine
 10
-5.0
 20
25.600000000000023
 30
0.0
 11
-2.6499999999999773
 21
25.600000000000023
 31
0.0
  0
LINE
  5
331
100
AcDbEntity
  8
0
  6
CONTINUOUS
 62
               7
100
AcDbLine
 10
1.1443704061239259
 20
24.790817451771147
 30
0.0
 11
-1.1443704061239259
 21
24.790817451771147
 31
0.0
  0
LINE
  5
332
100
AcDbEntity
  8
0
  6
CONTINUOUS
 62
               7
100
AcDbLine
 10
-5.0
 20
26.040817451771147
 30
0.0
 11
-2.3943704061239259
 21
26.040817451771147
 31
0.0
  0
LINE
  5
333
100
AcDbEntity
  8
0
  6
CONTINUOUS
 62
               7
100
AcDbLine
 10
-1.1443704061239259
 20
24.790817451771147
 30
0.0
 11
-2.3943704061239259
 21
26.040817451771147
 31
0.0
  0
LINE
  5
334
100
AcDbEntity
  8
0
  6
CONTINUOUS
 62
               7
100
AcDbLine
 10
-1.1443704061239259
 20
24.790817451771147
 30
0.0
 11
-1.3999999999999773
 21
24.350000000000023
 31
0.0
  0
LINE
  5
335
100
AcDbEntity
  8
0
  6
CONTINUOUS
 62
               7
100
AcDbLine
 10
1.1443704061239259
 20
24.790817451771147
 30
0.0
 11
2.3943704061239259
 21
26.040817451771147
 31
0.0
  0
LINE
  5
336
100
AcDbEntity
  8
0
  6
CONTINUOUS
 62
               7
100
AcDbLine
 10
1.1443704061239259
 20
24.790817451771147
 30
0.0
 11
1.3999999999999773
 21
24.350000000000023
 31
0.0
  0
LINE
  5
337
100
AcDbEntity
  8
0
  6
CONTINUOUS
 62
               7
100
AcDbLine
 10
-2.6499999999999773
 20
25.600000000000023
 30
0.0
 11
-2.3943704061239259
 21
26.040817451771147
 31
0.0
  0
LINE
  5
338
100
AcDbEntity
  8
0
  6
CONTINUOUS
 62
               7
100
AcDbLine
 10
5.0
 20
32.000000000000057
 30
0.0
 11
-5.0
 21
32.000000000000057
 31
0.0
  0
LINE
  5
339
100
AcDbEntity
  8
0
  6
CONTINUOUS
 62
               7
100
AcDbLine
 10
2.3943704061239259
 20
26.040817451771147
 30
0.0
 11
2.6499999999999773
 21
25.600000000000023
 31
0.0
  0
LINE
  5
33A
100
AcDbEntity
  8
0
  6
CONTINUOUS
 62
               7
100
AcDbLine
 10
2.6499999999999773
 20
25.600000000000023
 30
0.0
 11
1.3999999999999773
 21
24.350000000000023
 31
0.0
  0
LINE
  5
33B
100
AcDbEntity
  8
0
  6
CONTINUOUS
 62
               7
100
AcDbLine
 10
2.3943704061239259
 20
26.040817451771147
 30
0.0
 11
5.0
 21
26.040817451771147
 31
0.0
  0
CIRCLE
  5
33C
100
AcDbEntity
  8
0
  6
CONTINUOUS
 62
               7
100
AcDbCircle
 10
0.0
 20
21.75
 30
0.0
 40
2.0500000000000003
  0
ARC
  5
33D
100
AcDbEntity
  8
0
  6
CONTINUOUS
 62
               7
100
AcDbCircle
 10
3.5
 20
23.5
 30
0.0
 40
1.6000000000000001
100
AcDbArc
 50
89.999999999999815
 51
269.99999999999937
  0
ARC
  5
33E
100
AcDbEntity
  8
0
  6
CONTINUOUS
 62
               7
100
AcDbCircle
 10
-3.5
 20
23.5
 30
0.0
 40
1.6000000000000001
100
AcDbArc
 50
270.00000000000023
 51
89.999999999999801
  0
LINE
  5
33F
100
AcDbEntity
  8
0
  6
CONTINUOUS
 62
               7
100
AcDbLine
 10
-5.0
 20
0.3000000000000114
 30
0.0
 11
-5.0
 21
32.000000000000057
 31
0.0
  0
CIRCLE
  5
340
100
AcDbEntity
  8
0
  6
CONTINUOUS
 62
               7
100
AcDbCircle
 10
0.0
 20
21.75
 30
0.0
 40
1.9000000000000001
  0
CIRCLE
  5
341
100
AcDbEntity
  8
0
  6
CONTINUOUS
 62
               7
100
AcDbCircle
 10
0.0
 20
21.75
 30
0.0
 40
1.8500000000000001
  0
CIRCLE
  5
342
100
AcDbEntity
  8
0
  6
CONTINUOUS
 62
               7
100
AcDbCircle
 10
3.5
 20
23.5
 30
0.0
 40
1.5
  0
LINE
  5
343
100
AcDbEntity
  8
0
  6
CONTINUOUS
 62
               7
100
AcDbLine
 10
-4.2071067811865532
 20
22.792893218813504
 30
0.0
 11
-2.7928932188134468
 21
24.207106781186553
 31
0.0
  0
LINE
  5
344
100
AcDbEntity
  8
0
  6
CONTINUOUS
 62
               7
100
AcDbLine
 10
-4.2071067811865532
 20
24.207106781186553
 30
0.0
 11
-2.7928932188134468
 21
22.792893218813504
 31
0.0
  0
CIRCLE
  5
345
100
AcDbEntity
  8
0
  6
CONTINUOUS
 62
               7
100
AcDbCircle
 10
-3.5
 20
23.5
 30
0.0
 40
1.5
  0
LINE
  5
346
100
AcDbEntity
  8
0
  6
CONTINUOUS
 62
               7
100
AcDbLine
 10
2.5
 20
53.300000000000011
 30
0.0
 11
2.8999999999999773
 21
53.300000000000011
 31
0.0
  0
CIRCLE
  5
347
100
AcDbEntity
  8
0
  6
CONTINUOUS
 62
               7
100
AcDbCircle
 10
2.5399999999999636
 20
51.300000000000011
 30
0.0
 40
0.75
  0
CIRCLE
  5
348
100
AcDbEntity
  8
0
  6
CONTINUOUS
 62
               7
100
AcDbCircle
 10
-2.5399999999999636
 20
51.300000000000011
 30
0.0
 40
0.75
  0
LINE
  5
349
100
AcDbEntity
  8
0
  6
CONTINUOUS
 62
               7
100
AcDbLine
 10
-2.5
 20
54.099999999999966
 30
0.0
 11
2.5
 21
54.099999999999966
 31
0.0
  0
LINE
  5
34A
100
AcDbEntity
  8
0
  6
CONTINUOUS
 62
               7
100
AcDbLine
 10
-2.5000000005766196
 20
55.300000000000011
 30
0.0
 11
2.4999999994233804
 21
55.300000000000011
 31
0.0
  0
LINE
  5
34B
100
AcDbEntity
  8
0
  6
CONTINUOUS
 62
               7
100
AcDbLine
 10
-3.6999999999999318
 20
52.800000000000011
 30
0.0
 11
3.7000000000000455
 21
52.800000000000011
 31
0.0
  0
LINE
  5
34C
100
AcDbEntity
  8
0
  6
CONTINUOUS
 62
               7
100
AcDbLine
 10
-3.0900000000000318
 20
50.199999999999989
 30
0.0
 11
-3.0900000000000318
 21
49.699999999999989
 31
0.0
  0
ARC
  5
34D
100
AcDbEntity
  8
0
  6
CONTINUOUS
 62
               7
100
AcDbCircle
 10
-3.4156558920257112
 20
50.400664252805939
 30
0.0
 40
0.2006645478515588
100
AcDbArc
 50
176.76157835491691
 51
269.90174674849533
  0
LINE
  5
34E
100
AcDbEntity
  8
0
  6
CONTINUOUS
 62
               7
100
AcDbLine
 10
-1.9900000000000091
 20
50.199999999999989
 30
0.0
 11
-1.9900000000000091
 21
49.699999999999989
 31
0.0
  0
ARC
  5
34F
100
AcDbEntity
  8
0
  6
CONTINUOUS
 62
               7
100
AcDbCircle
 10
-1.6652851473611463
 20
50.399665233359485
 30
0.0
 40
0.1996665130331531
100
AcDbArc
 50
269.79486732121239
 51
3.5418075753734648
  0
LINE
  5
350
100
AcDbEntity
  8
0
  6
CONTINUOUS
 62
               7
100
AcDbLine
 10
-3.4900000000000091
 20
52.300000000000011
 30
0.0
 11
-1.5900000000000318
 21
52.300000000000011
 31
0.0
  0
LINE
  5
351
100
AcDbEntity
  8
0
  6
CONTINUOUS
 62
               7
100
AcDbLine
 10
-3.41599999999994
 20
50.199999999999989
 30
0.0
 11
-1.66599999999994
 21
50.199999999999989
 31
0.0
  0
LINE
  5
352
100
AcDbEntity
  8
0
  6
CONTINUOUS
 62
               7
100
AcDbLine
 10
-3.0900000000000318
 20
49.699999999999989
 30
0.0
 11
-1.9900000000000091
 21
49.699999999999989
 31
0.0
  0
LINE
  5
353
100
AcDbEntity
  8
0
  6
CONTINUOUS
 62
               7
100
AcDbLine
 10
1.25
 20
53.800000000000011
 30
0.0
 11
1.25
 21
52.800000000000011
 31
0.0
  0
LINE
  5
354
100
AcDbEntity
  8
0
  6
CONTINUOUS
 62
               7
100
AcDbLine
 10
-1.25
 20
53.800000000000011
 30
0.0
 11
-1.25
 21
52.800000000000011
 31
0.0
  0
LINE
  5
355
100
AcDbEntity
  8
0
  6
CONTINUOUS
 62
               7
100
AcDbLine
 10
-3.6999999999999318
 20
52.800000000000011
 30
0.0
 11
-3.6999999999999318
 21
53.800000000000011
 31
0.0
  0
LINE
  5
356
100
AcDbEntity
  8
0
  6
CONTINUOUS
 62
               7
100
AcDbLine
 10
3.7000000000000455
 20
52.800000000000011
 30
0.0
 11
3.7000000000000455
 21
53.800000000000011
 31
0.0
  0
LINE
  5
357
100
AcDbEntity
  8
0
  6
CONTINUOUS
 62
               7
100
AcDbLine
 10
-1.5900000000000318
 20
52.300000000000011
 30
0.0
 11
-1.4660000000000082
 21
50.411999999999978
 31
0.0
  0
LINE
  5
358
100
AcDbEntity
  8
0
  6
CONTINUOUS
 62
               7
100
AcDbLine
 10
-3.6159999999999854
 20
50.411999999999978
 30
0.0
 11
-3.4900000000000091
 21
52.300000000000011
 31
0.0
  0
LINE
  5
359
100
AcDbEntity
  8
0
  6
CONTINUOUS
 62
               7
100
AcDbLine
 10
-0.9499999999999318
 20
52.300000000000011
 30
0.0
 11
0.9500000000000455
 21
52.300000000000011
 31
0.0
  0
LINE
  5
35A
100
AcDbEntity
  8
0
  6
CONTINUOUS
 62
               7
100
AcDbLine
 10
-1.0760000000000218
 20
50.411999999999978
 30
0.0
 11
-0.9499999999999318
 21
52.300000000000011
 31
0.0
  0
ARC
  5
35B
100
AcDbEntity
  8
0
  6
CONTINUOUS
 62
               7
100
AcDbCircle
 10
-0.8756558920256339
 20
50.400664252805939
 30
0.0
 40
0.2006645478515588
100
AcDbArc
 50
176.76157835491691
 51
269.90174674849533
  0
LINE
  5
35C
100
AcDbEntity
  8
0
  6
CONTINUOUS
 62
               7
100
AcDbLine
 10
-0.8759999999999764
 20
50.199999999999989
 30
0.0
 11
0.8740000000000237
 21
50.199999999999989
 31
0.0
  0
LINE
  5
35D
100
AcDbEntity
  8
0
  6
CONTINUOUS
 62
               7
100
AcDbLine
 10
-0.5499999999999545
 20
50.199999999999989
 30
0.0
 11
-0.5499999999999545
 21
49.699999999999989
 31
0.0
  0
LINE
  5
35E
100
AcDbEntity
  8
0
  6
CONTINUOUS
 62
               7
100
AcDbLine
 10
-0.5499999999999545
 20
49.699999999999989
 30
0.0
 11
0.5500000000000682
 21
49.699999999999989
 31
0.0
  0
LINE
  5
35F
100
AcDbEntity
  8
0
  6
CONTINUOUS
 62
               7
100
AcDbLine
 10
0.5500000000000682
 20
50.199999999999989
 30
0.0
 11
0.5500000000000682
 21
49.699999999999989
 31
0.0
  0
ARC
  5
360
100
AcDbEntity
  8
0
  6
CONTINUOUS
 62
               7
100
AcDbCircle
 10
0.874714852638931
 20
50.399665233359485
 30
0.0
 40
0.1996665130331531
100
AcDbArc
 50
269.79486732121239
 51
3.5418075753734648
  0
LINE
  5
361
100
AcDbEntity
  8
0
  6
CONTINUOUS
 62
               7
100
AcDbLine
 10
0.9500000000000455
 20
52.300000000000011
 30
0.0
 11
1.0740000000000691
 21
50.411999999999978
 31
0.0
  0
LINE
  5
362
100
AcDbEntity
  8
0
  6
CONTINUOUS
 62
               7
100
AcDbLine
 10
-0.3999999999999773
 20
51.699999999999989
 30
0.0
 11
-0.3999999999999773
 21
50.900000000000034
 31
0.0
  0
LINE
  5
363
100
AcDbEntity
  8
0
  6
CONTINUOUS
 62
               7
100
AcDbLine
 10
0.3999999999999773
 20
51.699999999999989
 30
0.0
 11
-0.3999999999999773
 21
51.699999999999989
 31
0.0
  0
LINE
  5
364
100
AcDbEntity
  8
0
  6
CONTINUOUS
 62
               7
100
AcDbLine
 10
0.3999999999999773
 20
51.699999999999989
 30
0.0
 11
0.3999999999999773
 21
50.900000000000034
 31
0.0
  0
LINE
  5
365
100
AcDbEntity
  8
0
  6
CONTINUOUS
 62
               7
100
AcDbLine
 10
0.3999999999999773
 20
50.900000000000034
 30
0.0
 11
-0.3999999999999773
 21
50.900000000000034
 31
0.0
  0
LINE
  5
366
100
AcDbEntity
  8
0
  6
CONTINUOUS
 62
               7
100
AcDbLine
 10
1.5900000000000318
 20
52.300000000000011
 30
0.0
 11
3.4900000000000091
 21
52.300000000000011
 31
0.0
  0
LINE
  5
367
100
AcDbEntity
  8
0
  6
CONTINUOUS
 62
               7
100
AcDbLine
 10
1.4640000000000555
 20
50.411999999999978
 30
0.0
 11
1.5900000000000318
 21
52.300000000000011
 31
0.0
  0
ARC
  5
368
100
AcDbEntity
  8
0
  6
CONTINUOUS
 62
               7
100
AcDbCircle
 10
1.6643441079743297
 20
50.400664252805939
 30
0.0
 40
0.2006645478515588
100
AcDbArc
 50
176.76157835491691
 51
269.90174674849533
  0
LINE
  5
369
100
AcDbEntity
  8
0
  6
CONTINUOUS
 62
               7
100
AcDbLine
 10
1.6639999999999873
 20
50.199999999999989
 30
0.0
 11
3.4139999999999873
 21
50.199999999999989
 31
0.0
  0
LINE
  5
36A
100
AcDbEntity
  8
0
  6
CONTINUOUS
 62
               7
100
AcDbLine
 10
1.9900000000000091
 20
50.199999999999989
 30
0.0
 11
1.9900000000000091
 21
49.699999999999989
 31
0.0
  0
LINE
  5
36B
100
AcDbEntity
  8
0
  6
CONTINUOUS
 62
               7
100
AcDbLine
 10
1.9900000000000091
 20
49.699999999999989
 30
0.0
 11
3.0900000000000318
 21
49.699999999999989
 31
0.0
  0
LINE
  5
36C
100
AcDbEntity
  8
0
  6
CONTINUOUS
 62
               7
100
AcDbLine
 10
3.0900000000000318
 20
50.199999999999989
 30
0.0
 11
3.0900000000000318
 21
49.699999999999989
 31
0.0
  0
ARC
  5
36D
100
AcDbEntity
  8
0
  6
CONTINUOUS
 62
               7
100
AcDbCircle
 10
3.4147148526388946
 20
50.399665233359485
 30
0.0
 40
0.1996665130331531
100
AcDbArc
 50
269.79486732121239
 51
3.5418075753734648
  0
LINE
  5
36E
100
AcDbEntity
  8
0
  6
CONTINUOUS
 62
               7
100
AcDbLine
 10
3.4900000000000091
 20
52.300000000000011
 30
0.0
 11
3.6140000000000327
 21
50.411999999999978
 31
0.0
  0
LINE
  5
36F
100
AcDbEntity
  8
0
  6
CONTINUOUS
 62
               7
100
AcDbLine
 10
-2.5
 20
55.300000000000011
 30
0.0
 11
-2.5
 21
52.800000000000011
 31
0.0
  0
LINE
  5
370
100
AcDbEntity
  8
0
  6
CONTINUOUS
 62
               7
100
AcDbLine
 10
2.5
 20
55.300000000000011
 30
0.0
 11
2.5
 21
52.800000000000011
 31
0.0
  0
LINE
  5
371
100
AcDbEntity
  8
0
  6
CONTINUOUS
 62
               7
100
AcDbLine
 10
-2.8999999999999773
 20
53.800000000000011
 30
0.0
 11
2.8999999999999773
 21
53.800000000000011
 31
0.0
  0
LINE
  5
372
100
AcDbEntity
  8
0
  6
CONTINUOUS
 62
               7
100
AcDbLine
 10
2.8999999999999773
 20
53.300000000000011
 30
0.0
 11
2.8999999999999773
 21
54.300000000000011
 31
0.0
  0
LINE
  5
373
100
AcDbEntity
  8
0
  6
CONTINUOUS
 62
               7
100
AcDbLine
 10
-2.8999999999999773
 20
53.300000000000011
 30
0.0
 11
-2.8999999999999773
 21
54.300000000000011
 31
0.0
  0
LINE
  5
374
100
AcDbEntity
  8
0
  6
CONTINUOUS
 62
               7
100
AcDbLine
 10
-2.8999999999999773
 20
53.300000000000011
 30
0.0
 11
-2.5
 21
53.300000000000011
 31
0.0
  0
LINE
  5
375
100
AcDbEntity
  8
0
  6
CONTINUOUS
 62
               7
100
AcDbLine
 10
-2.3943704061239259
 20
40.459182548228853
 30
0.0
 11
-2.6499999999999773
 21
40.89999999999992
 31
0.0
  0
LINE
  5
376
100
AcDbEntity
  8
0
  6
CONTINUOUS
 62
               7
100
AcDbLine
 10
2.6499999999999773
 20
40.89999999999992
 30
0.0
 11
2.3943704061239259
 21
40.459182548228853
 31
0.0
  0
LINE
  5
377
100
AcDbEntity
  8
0
  6
CONTINUOUS
 62
               7
100
AcDbLine
 10
-1.1443704061239259
 20
41.709182548228853
 30
0.0
 11
-1.3999999999999773
 21
42.14999999999992
 31
0.0
  0
LINE
  5
378
100
AcDbEntity
  8
0
  6
CONTINUOUS
 62
               7
100
AcDbLine
 10
-2.6499999999999773
 20
40.89999999999992
 30
0.0
 11
-1.3999999999999773
 21
42.14999999999992
 31
0.0
  0
LINE
  5
379
100
AcDbEntity
  8
0
  6
CONTINUOUS
 62
               7
100
AcDbLine
 10
-1.1443704061239259
 20
41.709182548228853
 30
0.0
 11
-2.3943704061239259
 21
40.459182548228853
 31
0.0
  0
LINE
  5
37A
100
AcDbEntity
  8
0
  6
CONTINUOUS
 62
               7
100
AcDbLine
 10
1.1443704061239259
 20
41.709182548228853
 30
0.0
 11
1.3999999999999773
 21
42.14999999999992
 31
0.0
  0
LINE
  5
37B
100
AcDbEntity
  8
0
  6
CONTINUOUS
 62
               7
100
AcDbLine
 10
1.1443704061239259
 20
41.709182548228853
 30
0.0
 11
2.3943704061239259
 21
40.459182548228853
 31
0.0
  0
LINE
  5
37C
100
AcDbEntity
  8
0
  6
CONTINUOUS
 62
               7
100
AcDbLine
 10
-1.1443704061239259
 20
41.709182548228853
 30
0.0
 11
1.1443704061239259
 21
41.709182548228853
 31
0.0
  0
LINE
  5
37D
100
AcDbEntity
  8
0
  6
CONTINUOUS
 62
               7
100
AcDbLine
 10
2.6499999999999773
 20
40.89999999999992
 30
0.0
 11
1.3999999999999773
 21
42.14999999999992
 31
0.0
  0
LINE
  5
37E
100
AcDbEntity
  8
0
  6
CONTINUOUS
 62
               7
100
AcDbLine
 10
-1.3999999999999773
 20
42.14999999999992
 30
0.0
 11
1.3999999999999773
 21
42.14999999999992
 31
0.0
  0
CIRCLE
  5
37F
100
AcDbEntity
  8
0
  6
CONTINUOUS
 62
               7
100
AcDbCircle
 10
0.0
 20
44.749999999999943
 30
0.0
 40
2.0500000000000003
  0
ARC
  5
380
100
AcDbEntity
  8
0
  6
CONTINUOUS
 62
               7
100
AcDbCircle
 10
-3.5
 20
42.999999999999943
 30
0.0
 40
1.6000000000000001
100
AcDbArc
 50
270.00000000000023
 51
89.999999999999844
  0
ARC
  5
381
100
AcDbEntity
  8
0
  6
CONTINUOUS
 62
               7
100
AcDbCircle
 10
3.5
 20
42.999999999999943
 30
0.0
 40
1.6000000000000001
100
AcDbArc
 50
89.999999999999815
 51
269.99999999999937
  0
LINE
  5
382
100
AcDbEntity
  8
0
  6
CENTER
 62
               2
100
AcDbLine
 10
2.5
 20
44.749999999999943
 30
0.0
 11
-2.5
 21
44.749999999999943
 31
0.0
  0
CIRCLE
  5
383
100
AcDbEntity
  8
0
  6
CONTINUOUS
 62
               7
100
AcDbCircle
 10
0.0
 20
44.749999999999943
 30
0.0
 40
1.9000000000000001
  0
LINE
  5
384
100
AcDbEntity
  8
0
  6
CONTINUOUS
 62
               7
100
AcDbLine
 10
1.8255136263528584
 20
44.449999999999989
 30
0.0
 11
-1.8255136263528584
 21
44.449999999999989
 31
0.0
  0
LINE
  5
385
100
AcDbEntity
  8
0
  6
CONTINUOUS
 62
               7
100
AcDbLine
 10
0.0
 20
45.050000000000011
 30
0.0
 11
-1.8255136263528584
 21
45.050000000000011
 31
0.0
  0
CIRCLE
  5
386
100
AcDbEntity
  8
0
  6
CONTINUOUS
 62
               7
100
AcDbCircle
 10
0.0
 20
44.749999999999943
 30
0.0
 40
1.8500000000000001
  0
ARC
  5
387
100
AcDbEntity
  8
0
  6
CONTINUOUS
 62
               7
100
AcDbCircle
 10
0.0
 20
44.749999999999943
 30
0.0
 40
0.8
100
AcDbArc
 50
22.024312837042132
 51
157.97568716295751
  0
ARC
  5
388
100
AcDbEntity
  8
0
  6
CONTINUOUS
 62
               7
100
AcDbCircle
 10
0.0
 20
44.749999999999943
 30
0.0
 40
0.8
100
AcDbArc
 50
202.02431283704175
 51
337.97568716295712
  0
LINE
  5
389
100
AcDbEntity
  8
0
  6
CONTINUOUS
 62
               7
100
AcDbLine
 10
1.8255136263528584
 20
45.050000000000011
 30
0.0
 11
0.0
 21
45.050000000000011
 31
0.0
  0
LINE
  5
38A
100
AcDbEntity
  8
0
  6
CONTINUOUS
 62
               7
100
AcDbLine
 10
-4.2071067811865532
 20
42.29289321881339
 30
0.0
 11
-2.7928932188134468
 21
43.707106781186496
 31
0.0
  0
LINE
  5
38B
100
AcDbEntity
  8
0
  6
CONTINUOUS
 62
               7
100
AcDbLine
 10
-4.2071067811865532
 20
43.707106781186496
 30
0.0
 11
-2.7928932188134468
 21
42.29289321881339
 31
0.0
  0
LINE
  5
38C
100
AcDbEntity
  8
0
  6
CENTER
 62
               2
100
AcDbLine
 10
0.0
 20
74.044181962474866
 30
0.0
 11
0.0
 21
-2.5701803136998365
 31
0.0
  0
LINE
  5
38D
100
AcDbEntity
  8
0
  6
CONTINUOUS
 62
               7
100
AcDbLine
 10
5.0
 20
34.499999999999943
 30
0.0
 11
-5.0
 21
34.499999999999943
 31
0.0
  0
CIRCLE
  5
38E
100
AcDbEntity
  8
0
  6
CONTINUOUS
 62
               7
100
AcDbCircle
 10
3.5
 20
42.999999999999943
 30
0.0
 40
1.5
  0
LINE
  5
38F
100
AcDbEntity
  8
0
  6
CONTINUOUS
 62
               7
100
AcDbLine
 10
4.2071067811865532
 20
42.29289321881339
 30
0.0
 11
2.7928932188134468
 21
43.707106781186496
 31
0.0
  0
LINE
  5
390
100
AcDbEntity
  8
0
  6
CONTINUOUS
 62
               7
100
AcDbLine
 10
4.2071067811865532
 20
43.707106781186496
 30
0.0
 11
2.7928932188134468
 21
42.29289321881339
 31
0.0
  0
CIRCLE
  5
391
100
AcDbEntity
  8
0
  6
CONTINUOUS
 62
               7
100
AcDbCircle
 10
-3.5
 20
42.999999999999943
 30
0.0
 40
1.5
  0
LINE
  5
392
100
AcDbEntity
  8
0
  6
CONTINUOUS
 62
               7
100
AcDbLine
 10
-5.0
 20
44.599999999999966
 30
0.0
 11
-3.5
 21
44.599999999999966
 31
0.0
  0
LINE
  5
393
100
AcDbEntity
  8
0
  6
CONTINUOUS
 62
               7
100
AcDbLine
 10
-3.5
 20
41.39999999999992
 30
0.0
 11
-5.0
 21
41.39999999999992
 31
0.0
  0
LINE
  5
394
100
AcDbEntity
  8
0
  6
CONTINUOUS
 62
               7
100
AcDbLine
 10
5.0
 20
41.39999999999992
 30
0.0
 11
3.5
 21
41.39999999999992
 31
0.0
  0
LINE
  5
395
100
AcDbEntity
  8
0
  6
CONTINUOUS
 62
               7
100
AcDbLine
 10
3.5
 20
44.599999999999966
 30
0.0
 11
5.0
 21
44.599999999999966
 31
0.0
  0
LINE
  5
396
100
AcDbEntity
  8
0
  6
CONTINUOUS
 62
               7
100
AcDbLine
 10
-5.0
 20
48.401921563030044
 30
0.0
 11
5.0
 21
48.401921563030044
 31
0.0
  0
LINE
  5
397
100
AcDbEntity
  8
0
  6
CONTINUOUS
 62
               7
100
AcDbLine
 10
-2.6499999999999773
 20
40.89999999999992
 30
0.0
 11
-5.0
 21
40.89999999999992
 31
0.0
  0
LINE
  5
398
100
AcDbEntity
  8
0
  6
CONTINUOUS
 62
               7
100
AcDbLine
 10
5.0
 20
40.89999999999992
 30
0.0
 11
2.6499999999999773
 21
40.89999999999992
 31
0.0
  0
LINE
  5
399
100
AcDbEntity
  8
0
  6
CONTINUOUS
 62
               7
100
AcDbLine
 10
-2.3943704061239259
 20
40.459182548228853
 30
0.0
 11
-5.0
 21
40.459182548228853
 31
0.0
  0
LINE
  5
39A
100
AcDbEntity
  8
0
  6
CONTINUOUS
 62
               7
100
AcDbLine
 10
5.0
 20
40.459182548228853
 30
0.0
 11
2.3943704061239259
 21
40.459182548228853
 31
0.0
  0
LINE
  5
39B
100
AcDbEntity
  8
0
  6
CONTINUOUS
 62
               7
100
AcDbLine
 10
5.0
 20
47.590817451771102
 30
0.0
 11
-5.0
 21
47.590817451771102
 31
0.0
  0
LINE
  5
39C
100
AcDbEntity
  8
0
  6
CONTINUOUS
 62
               7
100
AcDbLine
 10
-4.7000000000000455
 20
54.300000000000011
 30
0.0
 11
-2.5
 21
54.300000000000011
 31
0.0
  0
LINE
  5
39D
100
AcDbEntity
  8
0
  6
CONTINUOUS
 62
               7
100
AcDbLine
 10
4.7000000000000455
 20
53.800000000000011
 30
0.0
 11
3.7000000000000455
 21
53.800000000000011
 31
0.0
  0
LINE
  5
39E
100
AcDbEntity
  8
0
  6
CONTINUOUS
 62
               7
100
AcDbLine
 10
-4.6999999999999318
 20
53.800000000000011
 30
0.0
 11
-3.6999999999999318
 21
53.800000000000011
 31
0.0
  0
LINE
  5
39F
100
AcDbEntity
  8
0
  6
CONTINUOUS
 62
               7
100
AcDbLine
 10
-4.6999999999999318
 20
48.500000000000057
 30
0.0
 11
4.7000000000000455
 21
48.500000000000057
 31
0.0
  0
LINE
  5
3A0
100
AcDbEntity
  8
0
  6
CONTINUOUS
 62
               7
100
AcDbLine
 10
2.5
 20
54.300000000000011
 30
0.0
 11
4.7000000000000455
 21
54.300000000000011
 31
0.0
  0
LINE
  5
3A1
100
AcDbEntity
  8
0
  6
CONTINUOUS
 62
               7
100
AcDbLine
 10
1.5
 20
61.499999999999943
 30
0.0
 11
1.5
 21
66.499999999999943
 31
0.0
  0
LINE
  5
3A2
100
AcDbEntity
  8
0
  6
CONTINUOUS
 62
               7
100
AcDbLine
 10
-1.5
 20
61.499999999999943
 30
0.0
 11
1.5
 21
61.499999999999943
 31
0.0
  0
LINE
  5
3A3
100
AcDbEntity
  8
0
  6
CONTINUOUS
 62
               7
100
AcDbLine
 10
-1.5
 20
61.499999999999943
 30
0.0
 11
-1.5
 21
66.499999999999943
 31
0.0
  0
ARC
  5
3A4
100
AcDbEntity
  8
0
  6
CONTINUOUS
 62
               7
100
AcDbCircle
 10
-4.6999999999999318
 20
66.199999999999989
 30
0.0
 40
0.3
100
AcDbArc
 50
89.999999999999815
 51
179.99999999999963
  0
LINE
  5
3A5
100
AcDbEntity
  8
0
  6
CONTINUOUS
 62
               7
100
AcDbLine
 10
-5.0
 20
66.199999999999989
 30
0.0
 11
-5.0
 21
34.499999999999943
 31
0.0
  0
LINE
  5
3A6
100
AcDbEntity
  8
0
  6
CONTINUOUS
 62
               7
100
AcDbLine
 10
4.7000000000000455
 20
66.499999999999943
 30
0.0
 11
-4.6999999999999318
 21
66.499999999999943
 31
0.0
  0
ENDBLK
  5
3A7
100
AcDbEntity
  8
0
100
AcDbBlockEnd
  0
BLOCK
  5
3A8
100
AcDbEntity
  8
0
100
AcDbBlockBegin
  2
MV030MA-11-9
 70
               0
 10
0.0
 20
0.0
 30
0.0
  3
MV030MA-11-9
  1

  0
LINE
  5
3A9
100
AcDbEntity
  8
0
  6
CENTER
 62
               2
100
AcDbLine
 10
0.0000000000000074
 20
74.044181962474809
 30
0.0
 11
-0.0000000000000002
 21
-2.1360529252351057
 31
0.0
  0
LINE
  5
3AA
100
AcDbEntity
  8
0
  6
CONTINUOUS
 62
               7
100
AcDbLine
 10
2.3943704061239046
 20
26.040817451771176
 30
0.0
 11
2.6500000000000128
 21
25.599999999999994
 31
0.0
  0
LINE
  5
3AB
100
AcDbEntity
  8
0
  6
CONTINUOUS
 62
               7
100
AcDbLine
 10
-2.6499999999999986
 20
25.599999999999994
 30
0.0
 11
-2.3943704061238904
 21
26.040817451771147
 31
0.0
  0
LINE
  5
3AC
100
AcDbEntity
  8
0
  6
CONTINUOUS
 62
               7
100
AcDbLine
 10
1.1443704061239044
 20
24.790817451771147
 30
0.0
 11
1.4000000000000126
 21
24.350000000000023
 31
0.0
  0
LINE
  5
3AD
100
AcDbEntity
  8
0
  6
CONTINUOUS
 62
               7
100
AcDbLine
 10
2.6500000000000128
 20
25.599999999999994
 30
0.0
 11
1.4000000000000126
 21
24.350000000000023
 31
0.0
  0
LINE
  5
3AE
100
AcDbEntity
  8
0
  6
CONTINUOUS
 62
               7
100
AcDbLine
 10
1.1443704061239044
 20
24.790817451771147
 30
0.0
 11
2.3943704061239046
 21
26.040817451771176
 31
0.0
  0
LINE
  5
3AF
100
AcDbEntity
  8
0
  6
CONTINUOUS
 62
               7
100
AcDbLine
 10
-1.1443704061238906
 20
24.790817451771147
 30
0.0
 11
-1.3999999999999988
 21
24.350000000000023
 31
0.0
  0
LINE
  5
3B0
100
AcDbEntity
  8
0
  6
CONTINUOUS
 62
               7
100
AcDbLine
 10
-4.9999999999999929
 20
18.909182548228841
 30
0.0
 11
5.0000000000000071
 21
18.909182548228841
 31
0.0
  0
LINE
  5
3B1
100
AcDbEntity
  8
0
  6
CONTINUOUS
 62
               7
100
AcDbLine
 10
-1.1443704061238906
 20
24.790817451771147
 30
0.0
 11
-2.3943704061238904
 21
26.040817451771147
 31
0.0
  0
LINE
  5
3B2
100
AcDbEntity
  8
0
  6
CONTINUOUS
 62
               7
100
AcDbLine
 10
-4.9999999999999929
 20
26.040817451771147
 30
0.0
 11
-2.3943704061238904
 21
26.040817451771147
 31
0.0
  0
LINE
  5
3B3
100
AcDbEntity
  8
0
  6
CONTINUOUS
 62
               7
100
AcDbLine
 10
2.3943704061239046
 20
26.040817451771176
 30
0.0
 11
5.0000000000000071
 21
26.040817451771176
 31
0.0
  0
LINE
  5
3B4
100
AcDbEntity
  8
0
  6
CONTINUOUS
 62
               7
100
AcDbLine
 10
1.1443704061239044
 20
24.790817451771147
 30
0.0
 11
-1.1443704061238906
 21
24.790817451771147
 31
0.0
  0
LINE
  5
3B5
100
AcDbEntity
  8
0
  6
CONTINUOUS
 62
               7
100
AcDbLine
 10
-5.0000000000000213
 20
25.599999999999994
 30
0.0
 11
-2.6499999999999986
 21
25.599999999999994
 31
0.0
  0
LINE
  5
3B6
100
AcDbEntity
  8
0
  6
CONTINUOUS
 62
               7
100
AcDbLine
 10
-2.6499999999999986
 20
25.599999999999994
 30
0.0
 11
-1.3999999999999988
 21
24.350000000000023
 31
0.0
  0
LINE
  5
3B7
100
AcDbEntity
  8
0
  6
CONTINUOUS
 62
               7
100
AcDbLine
 10
1.4000000000000126
 20
24.350000000000023
 30
0.0
 11
-1.3999999999999988
 21
24.350000000000023
 31
0.0
  0
LINE
  5
3B8
100
AcDbEntity
  8
0
  6
CONTINUOUS
 62
               7
100
AcDbLine
 10
2.6500000000000128
 20
25.599999999999994
 30
0.0
 11
5.0000000000000071
 21
25.599999999999994
 31
0.0
  0
CIRCLE
  5
3B9
100
AcDbEntity
  8
0
  6
CONTINUOUS
 62
               7
100
AcDbCircle
 10
0.0000000000000069
 20
21.75
 30
0.0
 40
2.0500000000000003
  0
LINE
  5
3BA
100
AcDbEntity
  8
0
  6
CONTINUOUS
 62
               7
100
AcDbLine
 10
5.0000000000000071
 20
18.098078436969899
 30
0.0
 11
-4.9999999999999929
 21
18.098078436969899
 31
0.0
  0
LINE
  5
3BB
100
AcDbEntity
  8
0
  6
CONTINUOUS
 62
               7
100
AcDbLine
 10
-4.9999999999999929
 20
17.600000000000023
 30
0.0
 11
5.0000000000000071
 21
17.600000000000023
 31
0.0
  0
LINE
  5
3BC
100
AcDbEntity
  8
0
  6
CONTINUOUS
 62
               7
100
AcDbLine
 10
-3.4999999999999929
 20
21.899999999999977
 30
0.0
 11
-4.9999999999999929
 21
21.899999999999977
 31
0.0
  0
LINE
  5
3BD
100
AcDbEntity
  8
0
  6
CONTINUOUS
 62
               7
100
AcDbLine
 10
-4.9999999999999929
 20
25.100000000000023
 30
0.0
 11
-3.4999999999999929
 21
25.100000000000023
 31
0.0
  0
LINE
  5
3BE
100
AcDbEntity
  8
0
  6
CONTINUOUS
 62
               7
100
AcDbLine
 10
3.5000000000000071
 20
25.100000000000023
 30
0.0
 11
5.0000000000000071
 21
25.100000000000023
 31
0.0
  0
LINE
  5
3BF
100
AcDbEntity
  8
0
  6
CONTINUOUS
 62
               7
100
AcDbLine
 10
5.0000000000000071
 20
21.899999999999977
 30
0.0
 11
3.5000000000000071
 21
21.899999999999977
 31
0.0
  0
ARC
  5
3C0
100
AcDbEntity
  8
0
  6
CONTINUOUS
 62
               7
100
AcDbCircle
 10
3.5000000000000071
 20
23.5
 30
0.0
 40
1.6000000000000001
100
AcDbArc
 50
89.999999999999815
 51
269.99999999999937
  0
ARC
  5
3C1
100
AcDbEntity
  8
0
  6
CONTINUOUS
 62
               7
100
AcDbCircle
 10
-3.4999999999999929
 20
23.5
 30
0.0
 40
1.6000000000000001
100
AcDbArc
 50
270.00000000000023
 51
89.999999999999801
  0
LINE
  5
3C2
100
AcDbEntity
  8
0
  6
CONTINUOUS
 62
               7
100
AcDbLine
 10
5.0000000000000071
 20
0.3000000000000114
 30
0.0
 11
5.0000000000000071
 21
17.5
 31
0.0
  0
LINE
  5
3C3
100
AcDbEntity
  8
0
  6
CENTER
 62
               2
100
AcDbLine
 10
-2.4999999999999929
 20
21.75
 30
0.0
 11
2.5000000000000071
 21
21.75
 31
0.0
  0
LINE
  5
3C4
100
AcDbEntity
  8
0
  6
CONTINUOUS
 62
               7
100
AcDbLine
 10
-4.9999999999999964
 20
0.3000000000000114
 30
0.0
 11
-4.9999999999999929
 21
17.5
 31
0.0
  0
CIRCLE
  5
3C5
100
AcDbEntity
  8
0
  6
CONTINUOUS
 62
               7
100
AcDbCircle
 10
0.0000000000000069
 20
21.75
 30
0.0
 40
1.9000000000000001
  0
LINE
  5
3C6
100
AcDbEntity
  8
0
  6
CONTINUOUS
 62
               7
100
AcDbLine
 10
5.0999999999999996
 20
0.0
 30
0.0
 11
-5.0999999999999996
 21
0.0
 31
0.0
  0
LINE
  5
3C7
100
AcDbEntity
  8
0
  6
CONTINUOUS
 62
               7
100
AcDbLine
 10
-5.0000000033237981
 20
17.5
 30
0.0
 11
4.9999999966762019
 21
17.5
 31
0.0
  0
ARC
  5
3C8
100
AcDbEntity
  8
0
  6
CONTINUOUS
 62
               7
100
AcDbCircle
 10
4.7000000000000242
 20
0.3000000000000114
 30
0.0
 40
0.3
100
AcDbArc
 50
269.99999999999937
 51
0.0
  0
ARC
  5
3C9
100
AcDbEntity
  8
0
  6
CONTINUOUS
 62
               7
100
AcDbCircle
 10
-4.6999999999999851
 20
0.3000000000000114
 30
0.0
 40
0.3
100
AcDbArc
 50
179.99999999999963
 51
269.99999999999937
  0
CIRCLE
  5
3CA
100
AcDbEntity
  8
0
  6
CONTINUOUS
 62
               7
100
AcDbCircle
 10
2.9000000000000128
 20
13.300000167936048
 30
0.0
 40
0.875
  0
CIRCLE
  5
3CB
100
AcDbEntity
  8
0
  6
CONTINUOUS
 62
               7
100
AcDbCircle
 10
-2.8999999999999879
 20
13.300000000000011
 30
0.0
 40
0.875
  0
LINE
  5
3CC
100
AcDbEntity
  8
0
  6
CONTINUOUS
 62
               7
100
AcDbLine
 10
-1.4999999999999967
 20
5.0
 30
0.0
 11
-1.4999999999999967
 21
0.0
 31
0.0
  0
LINE
  5
3CD
100
AcDbEntity
  8
0
  6
CONTINUOUS
 62
               7
100
AcDbLine
 10
1.5000000000000069
 20
5.0
 30
0.0
 11
1.4999999999999998
 21
0.0
 31
0.0
  0
LINE
  5
3CE
100
AcDbEntity
  8
0
  6
CONTINUOUS
 62
               7
100
AcDbLine
 10
1.5000000000000069
 20
5.0
 30
0.0
 11
-1.4999999999999967
 21
5.0
 31
0.0
  0
ARC
  5
3CF
100
AcDbEntity
  8
0
  6
CONTINUOUS
 62
               7
100
AcDbCircle
 10
-2.8999999999999879
 20
13.300000000000011
 30
0.0
 40
2.0000000881710069
100
AcDbArc
 50
89.999999999999815
 51
269.99999999999937
  0
ARC
  5
3D0
100
AcDbEntity
  8
0
  6
CONTINUOUS
 62
               7
100
AcDbCircle
 10
2.9000000000000128
 20
13.300000000000011
 30
0.0
 40
2.0000000881710069
100
AcDbArc
 50
270.00000000000023
 51
89.999999999999801
  0
LINE
  5
3D1
100
AcDbEntity
  8
0
  6
CONTINUOUS
 62
               7
100
AcDbLine
 10
-2.8999999999999879
 20
15.300000000000011
 30
0.0
 11
2.9000000000000128
 21
15.300000000000011
 31
0.0
  0
LINE
  5
3D2
100
AcDbEntity
  8
0
  6
CONTINUOUS
 62
               7
100
AcDbLine
 10
-2.8999999999999879
 20
11.300000000000011
 30
0.0
 11
2.9000000000000128
 21
11.300000000000011
 31
0.0
  0
LINE
  5
3D3
100
AcDbEntity
  8
0
  6
CONTINUOUS
 62
               7
100
AcDbLine
 10
-1.8255136263528657
 20
22.050000000000011
 30
0.0
 11
1.8255136263528795
 21
22.050000000000011
 31
0.0
  0
LINE
  5
3D4
100
AcDbEntity
  8
0
  6
CONTINUOUS
 62
               7
100
AcDbLine
 10
-1.8255136263528586
 20
21.449999999999989
 30
0.0
 11
1.8255136263528795
 21
21.449999999999989
 31
0.0
  0
CIRCLE
  5
3D5
100
AcDbEntity
  8
0
  6
CONTINUOUS
 62
               7
100
AcDbCircle
 10
0.0000000000000069
 20
21.75
 30
0.0
 40
1.8500000000000001
  0
ARC
  5
3D6
100
AcDbEntity
  8
0
  6
CONTINUOUS
 62
               7
100
AcDbCircle
 10
0.0000000000000069
 20
21.75
 30
0.0
 40
0.8
100
AcDbArc
 50
202.02431283704175
 51
337.97568716295712
  0
ARC
  5
3D7
100
AcDbEntity
  8
0
  6
CONTINUOUS
 62
               7
100
AcDbCircle
 10
0.0000000000000069
 20
21.75
 30
0.0
 40
0.8
100
AcDbArc
 50
22.024312837042157
 51
157.97568716295754
  0
CIRCLE
  5
3D8
100
AcDbEntity
  8
0
  6
CONTINUOUS
 62
               7
100
AcDbCircle
 10
3.5000000000000071
 20
23.5
 30
0.0
 40
1.5
  0
LINE
  5
3D9
100
AcDbEntity
  8
0
  6
CONTINUOUS
 62
               7
100
AcDbLine
 10
4.2071067811865603
 20
24.207106781186553
 30
0.0
 11
2.7928932188134539
 21
22.792893218813447
 31
0.0
  0
LINE
  5
3DA
100
AcDbEntity
  8
0
  6
CONTINUOUS
 62
               7
100
AcDbLine
 10
4.2071067811865603
 20
22.792893218813447
 30
0.0
 11
2.7928932188134539
 21
24.207106781186553
 31
0.0
  0
LINE
  5
3DB
100
AcDbEntity
  8
0
  6
CONTINUOUS
 62
               7
100
AcDbLine
 10
-4.2071067811865461
 20
22.792893218813447
 30
0.0
 11
-2.7928932188134397
 21
24.207106781186553
 31
0.0
  0
LINE
  5
3DC
100
AcDbEntity
  8
0
  6
CONTINUOUS
 62
               7
100
AcDbLine
 10
-4.2071067811865461
 20
24.207106781186553
 30
0.0
 11
-2.7928932188134397
 21
22.792893218813447
 31
0.0
  0
CIRCLE
  5
3DD
100
AcDbEntity
  8
0
  6
CONTINUOUS
 62
               7
100
AcDbCircle
 10
-3.4999999999999929
 20
23.5
 30
0.0
 40
1.5
  0
LINE
  5
3DE
100
AcDbEntity
  8
0
  6
CONTINUOUS
 62
               7
100
AcDbLine
 10
-4.9999999999999929
 20
32.0
 30
0.0
 11
5.0000000000000071
 21
32.0
 31
0.0
  0
LINE
  5
3DF
100
AcDbEntity
  8
0
  6
CONTINUOUS
 62
               7
100
AcDbLine
 10
5.0000000000000071
 20
17.5
 30
0.0
 11
5.0000000000000071
 21
32.0
 31
0.0
  0
LINE
  5
3E0
100
AcDbEntity
  8
0
  6
CONTINUOUS
 62
               7
100
AcDbLine
 10
-4.9999999999999929
 20
17.5
 30
0.0
 11
-4.9999999999999929
 21
32.0
 31
0.0
  0
LINE
  5
3E1
100
AcDbEntity
  8
0
  6
CONTINUOUS
 62
               7
100
AcDbLine
 10
-2.3943704061238904
 20
40.459182548228711
 30
0.0
 11
-2.6499999999999986
 21
40.899999999999892
 31
0.0
  0
LINE
  5
3E2
100
AcDbEntity
  8
0
  6
CONTINUOUS
 62
               7
100
AcDbLine
 10
2.6500000000000128
 20
40.899999999999892
 30
0.0
 11
2.3943704061239046
 21
40.459182548228739
 31
0.0
  0
LINE
  5
3E3
100
AcDbEntity
  8
0
  6
CONTINUOUS
 62
               7
100
AcDbLine
 10
-1.1443704061238906
 20
41.709182548228739
 30
0.0
 11
-1.3999999999999988
 21
42.149999999999864
 31
0.0
  0
LINE
  5
3E4
100
AcDbEntity
  8
0
  6
CONTINUOUS
 62
               7
100
AcDbLine
 10
-2.6499999999999986
 20
40.899999999999892
 30
0.0
 11
-1.3999999999999988
 21
42.149999999999864
 31
0.0
  0
LINE
  5
3E5
100
AcDbEntity
  8
0
  6
CONTINUOUS
 62
               7
100
AcDbLine
 10
-1.1443704061238906
 20
41.709182548228739
 30
0.0
 11
-2.3943704061238904
 21
40.459182548228711
 31
0.0
  0
LINE
  5
3E6
100
AcDbEntity
  8
0
  6
CONTINUOUS
 62
               7
100
AcDbLine
 10
1.1443704061239044
 20
41.709182548228739
 30
0.0
 11
1.4000000000000126
 21
42.149999999999864
 31
0.0
  0
LINE
  5
3E7
100
AcDbEntity
  8
0
  6
CONTINUOUS
 62
               7
100
AcDbLine
 10
5.0000000000000071
 20
47.590817451771045
 30
0.0
 11
-4.9999999999999929
 21
47.590817451771045
 31
0.0
  0
LINE
  5
3E8
100
AcDbEntity
  8
0
  6
CONTINUOUS
 62
               7
100
AcDbLine
 10
1.1443704061239044
 20
41.709182548228739
 30
0.0
 11
2.3943704061239046
 21
40.459182548228739
 31
0.0
  0
LINE
  5
3E9
100
AcDbEntity
  8
0
  6
CONTINUOUS
 62
               7
100
AcDbLine
 10
5.0000000000000071
 20
40.459182548228739
 30
0.0
 11
2.3943704061239046
 21
40.459182548228739
 31
0.0
  0
LINE
  5
3EA
100
AcDbEntity
  8
0
  6
CONTINUOUS
 62
               7
100
AcDbLine
 10
-2.3943704061238904
 20
40.459182548228711
 30
0.0
 11
-4.9999999999999929
 21
40.459182548228711
 31
0.0
  0
LINE
  5
3EB
100
AcDbEntity
  8
0
  6
CONTINUOUS
 62
               7
100
AcDbLine
 10
-1.1443704061238906
 20
41.709182548228739
 30
0.0
 11
1.1443704061239044
 21
41.709182548228739
 31
0.0
  0
LINE
  5
3EC
100
AcDbEntity
  8
0
  6
CONTINUOUS
 62
               7
100
AcDbLine
 10
5.0000000000000355
 20
40.899999999999892
 30
0.0
 11
2.6500000000000128
 21
40.899999999999892
 31
0.0
  0
LINE
  5
3ED
100
AcDbEntity
  8
0
  6
CONTINUOUS
 62
               7
100
AcDbLine
 10
2.6500000000000128
 20
40.899999999999892
 30
0.0
 11
1.4000000000000126
 21
42.149999999999864
 31
0.0
  0
LINE
  5
3EE
100
AcDbEntity
  8
0
  6
CONTINUOUS
 62
               7
100
AcDbLine
 10
-1.3999999999999988
 20
42.149999999999864
 30
0.0
 11
1.4000000000000126
 21
42.149999999999864
 31
0.0
  0
LINE
  5
3EF
100
AcDbEntity
  8
0
  6
CONTINUOUS
 62
               7
100
AcDbLine
 10
-2.6499999999999986
 20
40.899999999999892
 30
0.0
 11
-4.9999999999999929
 21
40.899999999999892
 31
0.0
  0
CIRCLE
  5
3F0
100
AcDbEntity
  8
0
  6
CONTINUOUS
 62
               7
100
AcDbCircle
 10
0.0000000000000069
 20
44.749999999999886
 30
0.0
 40
2.0500000000000003
  0
LINE
  5
3F1
100
AcDbEntity
  8
0
  6
CONTINUOUS
 62
               7
100
AcDbLine
 10
-4.9999999999999929
 20
48.401921563029987
 30
0.0
 11
5.0000000000000071
 21
48.401921563029987
 31
0.0
  0
LINE
  5
3F2
100
AcDbEntity
  8
0
  6
CONTINUOUS
 62
               7
100
AcDbLine
 10
5.0000000000000071
 20
48.899999999999864
 30
0.0
 11
-4.9999999999999929
 21
48.899999999999864
 31
0.0
  0
LINE
  5
3F3
100
AcDbEntity
  8
0
  6
CONTINUOUS
 62
               7
100
AcDbLine
 10
3.5000000000000071
 20
44.599999999999909
 30
0.0
 11
5.0000000000000071
 21
44.599999999999909
 31
0.0
  0
LINE
  5
3F4
100
AcDbEntity
  8
0
  6
CONTINUOUS
 62
               7
100
AcDbLine
 10
5.0000000000000071
 20
41.399999999999864
 30
0.0
 11
3.5000000000000071
 21
41.399999999999864
 31
0.0
  0
LINE
  5
3F5
100
AcDbEntity
  8
0
  6
CONTINUOUS
 62
               7
100
AcDbLine
 10
-3.4999999999999929
 20
41.399999999999864
 30
0.0
 11
-4.9999999999999929
 21
41.399999999999864
 31
0.0
  0
LINE
  5
3F6
100
AcDbEntity
  8
0
  6
CONTINUOUS
 62
               7
100
AcDbLine
 10
-4.9999999999999929
 20
44.599999999999909
 30
0.0
 11
-3.4999999999999929
 21
44.599999999999909
 31
0.0
  0
ARC
  5
3F7
100
AcDbEntity
  8
0
  6
CONTINUOUS
 62
               7
100
AcDbCircle
 10
-3.4999999999999929
 20
42.999999999999886
 30
0.0
 40
1.6000000000000001
100
AcDbArc
 50
270.00000000000023
 51
89.999999999999844
  0
ARC
  5
3F8
100
AcDbEntity
  8
0
  6
CONTINUOUS
 62
               7
100
AcDbCircle
 10
3.5000000000000071
 20
42.999999999999886
 30
0.0
 40
1.6000000000000001
100
AcDbArc
 50
89.999999999999815
 51
269.99999999999937
  0
LINE
  5
3F9
100
AcDbEntity
  8
0
  6
CONTINUOUS
 62
               7
100
AcDbLine
 10
-4.9999999999999929
 20
66.199999999999875
 30
0.0
 11
-4.9999999999999929
 21
48.999999999999886
 31
0.0
  0
LINE
  5
3FA
100
AcDbEntity
  8
0
  6
CENTER
 62
               2
100
AcDbLine
 10
2.5000000000000071
 20
44.749999999999886
 30
0.0
 11
-2.4999999999999929
 21
44.749999999999886
 31
0.0
  0
LINE
  5
3FB
100
AcDbEntity
  8
0
  6
CONTINUOUS
 62
               7
100
AcDbLine
 10
5.0000000000000071
 20
66.199999999999875
 30
0.0
 11
5.0000000000000071
 21
48.999999999999886
 31
0.0
  0
CIRCLE
  5
3FC
100
AcDbEntity
  8
0
  6
CONTINUOUS
 62
               7
100
AcDbCircle
 10
0.0000000000000069
 20
44.749999999999886
 30
0.0
 40
1.9000000000000001
  0
LINE
  5
3FD
100
AcDbEntity
  8
0
  6
CONTINUOUS
 62
               7
100
AcDbLine
 10
-4.7000000000000099
 20
66.499999999999886
 30
0.0
 11
4.6999999999999957
 21
66.499999999999886
 31
0.0
  0
LINE
  5
3FE
100
AcDbEntity
  8
0
  6
CONTINUOUS
 62
               7
100
AcDbLine
 10
5.0000000033238123
 20
48.999999999999886
 30
0.0
 11
-4.9999999966761877
 21
48.999999999999886
 31
0.0
  0
ARC
  5
3FF
100
AcDbEntity
  8
0
  6
CONTINUOUS
 62
               7
100
AcDbCircle
 10
-4.7000000000000099
 20
66.199999999999875
 30
0.0
 40
0.3
100
AcDbArc
 50
89.999999999999829
 51
179.99999999999963
  0
ARC
  5
400
100
AcDbEntity
  8
0
  6
CONTINUOUS
 62
               7
100
AcDbCircle
 10
4.6999999999999957
 20
66.199999999999875
 30
0.0
 40
0.3
100
AcDbArc
 50
0.0000000000000254
 51
89.999999999999829
  0
CIRCLE
  5
401
100
AcDbEntity
  8
0
  6
CONTINUOUS
 62
               7
100
AcDbCircle
 10
-2.8999999999999986
 20
53.199999832063838
 30
0.0
 40
0.875
  0
CIRCLE
  5
402
100
AcDbEntity
  8
0
  6
CONTINUOUS
 62
               7
100
AcDbCircle
 10
2.8999999999999986
 20
53.199999999999875
 30
0.0
 40
0.875
  0
LINE
  5
403
100
AcDbEntity
  8
0
  6
CONTINUOUS
 62
               7
100
AcDbLine
 10
1.5000000000000069
 20
61.499999999999886
 30
0.0
 11
1.5000000000000069
 21
66.499999999999886
 31
0.0
  0
LINE
  5
404
100
AcDbEntity
  8
0
  6
CONTINUOUS
 62
               7
100
AcDbLine
 10
-1.4999999999999931
 20
61.499999999999886
 30
0.0
 11
-1.4999999999999931
 21
66.499999999999886
 31
0.0
  0
LINE
  5
405
100
AcDbEntity
  8
0
  6
CONTINUOUS
 62
               7
100
AcDbLine
 10
-1.4999999999999931
 20
61.499999999999886
 30
0.0
 11
1.5000000000000069
 21
61.499999999999886
 31
0.0
  0
ARC
  5
406
100
AcDbEntity
  8
0
  6
CONTINUOUS
 62
               7
100
AcDbCircle
 10
2.8999999999999986
 20
53.199999999999875
 30
0.0
 40
2.0000000881710069
100
AcDbArc
 50
270.00000000000023
 51
89.999999999999844
  0
ARC
  5
407
100
AcDbEntity
  8
0
  6
CONTINUOUS
 62
               7
100
AcDbCircle
 10
-2.8999999999999986
 20
53.199999999999875
 30
0.0
 40
2.0000000881710069
100
AcDbArc
 50
89.999999999999815
 51
269.99999999999937
  0
LINE
  5
408
100
AcDbEntity
  8
0
  6
CONTINUOUS
 62
               7
100
AcDbLine
 10
2.8999999999999986
 20
51.199999999999875
 30
0.0
 11
-2.8999999999999986
 21
51.199999999999875
 31
0.0
  0
LINE
  5
409
100
AcDbEntity
  8
0
  6
CONTINUOUS
 62
               7
100
AcDbLine
 10
2.8999999999999986
 20
55.199999999999875
 30
0.0
 11
-2.8999999999999986
 21
55.199999999999875
 31
0.0
  0
LINE
  5
40A
100
AcDbEntity
  8
0
  6
CONTINUOUS
 62
               7
100
AcDbLine
 10
1.8255136263528795
 20
44.449999999999875
 30
0.0
 11
-1.8255136263528657
 21
44.449999999999875
 31
0.0
  0
LINE
  5
40B
100
AcDbEntity
  8
0
  6
CONTINUOUS
 62
               7
100
AcDbLine
 10
1.8255136263528724
 20
45.049999999999898
 30
0.0
 11
-1.8255136263528657
 21
45.049999999999898
 31
0.0
  0
CIRCLE
  5
40C
100
AcDbEntity
  8
0
  6
CONTINUOUS
 62
               7
100
AcDbCircle
 10
0.0000000000000069
 20
44.749999999999886
 30
0.0
 40
1.8500000000000001
  0
ARC
  5
40D
100
AcDbEntity
  8
0
  6
CONTINUOUS
 62
               7
100
AcDbCircle
 10
0.0000000000000069
 20
44.749999999999886
 30
0.0
 40
0.8
100
AcDbArc
 50
22.024312837042132
 51
157.97568716295751
  0
ARC
  5
40E
100
AcDbEntity
  8
0
  6
CONTINUOUS
 62
               7
100
AcDbCircle
 10
0.0000000000000069
 20
44.749999999999886
 30
0.0
 40
0.8
100
AcDbArc
 50
202.02431283704175
 51
337.97568716295712
  0
CIRCLE
  5
40F
100
AcDbEntity
  8
0
  6
CONTINUOUS
 62
               7
100
AcDbCircle
 10
-3.4999999999999929
 20
42.999999999999886
 30
0.0
 40
1.5
  0
LINE
  5
410
100
AcDbEntity
  8
0
  6
CONTINUOUS
 62
               7
100
AcDbLine
 10
-4.2071067811865461
 20
42.292893218813333
 30
0.0
 11
-2.7928932188134397
 21
43.70710678118644
 31
0.0
  0
LINE
  5
411
100
AcDbEntity
  8
0
  6
CONTINUOUS
 62
               7
100
AcDbLine
 10
-4.2071067811865461
 20
43.70710678118644
 30
0.0
 11
-2.7928932188134397
 21
42.292893218813333
 31
0.0
  0
LINE
  5
412
100
AcDbEntity
  8
0
  6
CONTINUOUS
 62
               7
100
AcDbLine
 10
4.2071067811865603
 20
43.70710678118644
 30
0.0
 11
2.7928932188134539
 21
42.292893218813333
 31
0.0
  0
LINE
  5
413
100
AcDbEntity
  8
0
  6
CONTINUOUS
 62
               7
100
AcDbLine
 10
4.2071067811865603
 20
42.292893218813333
 30
0.0
 11
2.7928932188134539
 21
43.70710678118644
 31
0.0
  0
CIRCLE
  5
414
100
AcDbEntity
  8
0
  6
CONTINUOUS
 62
               7
100
AcDbCircle
 10
3.5000000000000071
 20
42.999999999999886
 30
0.0
 40
1.5
  0
LINE
  5
415
100
AcDbEntity
  8
0
  6
CONTINUOUS
 62
               7
100
AcDbLine
 10
5.0000000000000071
 20
34.499999999999886
 30
0.0
 11
-4.9999999999999929
 21
34.499999999999886
 31
0.0
  0
LINE
  5
416
100
AcDbEntity
  8
0
  6
CONTINUOUS
 62
               7
100
AcDbLine
 10
-4.9999999999999929
 20
48.999999999999886
 30
0.0
 11
-4.9999999999999929
 21
34.499999999999886
 31
0.0
  0
LINE
  5
417
100
AcDbEntity
  8
0
  6
CONTINUOUS
 62
               7
100
AcDbLine
 10
5.0000000000000071
 20
48.999999999999886
 30
0.0
 11
5.0000000000000071
 21
34.499999999999886
 31
0.0
  0
LINE
  5
418
100
AcDbEntity
  8
0
  6
CONTINUOUS
 62
               7
100
AcDbLine
 10
-5.1000000238418579
 20
55.0
 30
0.0
 11
-4.9999999999999929
 21
55.0
 31
0.0
  0
LINE
  5
419
100
AcDbEntity
  8
0
  6
CONTINUOUS
 62
               7
100
AcDbLine
 10
5.0000000000000071
 20
55.0
 30
0.0
 11
5.1000000238418579
 21
55.0
 31
0.0
  0
LINE
  5
41A
100
AcDbEntity
  8
0
  6
CONTINUOUS
 62
               7
100
AcDbLine
 10
-3.1000000000000156
 20
68.544181962474809
 30
0.0
 11
-3.1000000000000156
 21
66.499999999999886
 31
0.0
  0
LINE
  5
41B
100
AcDbEntity
  8
0
  6
CONTINUOUS
 62
               7
100
AcDbLine
 10
1.8999999999999839
 20
68.544181962474809
 30
0.0
 11
-3.1000000000000156
 21
68.544181962474809
 31
0.0
  0
LINE
  5
41C
100
AcDbEntity
  8
0
  6
CONTINUOUS
 62
               7
100
AcDbLine
 10
-2.6000000000000156
 20
69.044181962474809
 30
0.0
 11
1.3999999999999839
 21
69.044181962474809
 31
0.0
  0
LINE
  5
41D
100
AcDbEntity
  8
0
  6
CONTINUOUS
 62
               7
100
AcDbLine
 10
-3.1000000000000156
 20
68.544181962474809
 30
0.0
 11
-2.6000000000000156
 21
69.044181962474809
 31
0.0
  0
LINE
  5
41E
100
AcDbEntity
  8
0
  6
CONTINUOUS
 62
               7
100
AcDbLine
 10
1.8999999999999839
 20
68.544181962474809
 30
0.0
 11
1.8999999999999839
 21
66.499999999999886
 31
0.0
  0
LINE
  5
41F
100
AcDbEntity
  8
0
  6
CONTINUOUS
 62
               7
100
AcDbLine
 10
1.8999999999999839
 20
68.544181962474809
 30
0.0
 11
1.3999999999999839
 21
69.044181962474809
 31
0.0
  0
ENDBLK
  5
420
100
AcDbEntity
  8
0
100
AcDbBlockEnd
  0
BLOCK
  5
432
100
AcDbEntity
  8
0
  6
ByBlock
 62
               0
100
AcDbBlockBegin
  2
*D9
 70
               1
 10
0.0
 20
0.0
 30
0.0
  3
*D9
  1

  0
LINE
  5
433
100
AcDbEntity
  8
0
  6
CONTINUOUS
 62
               2
100
AcDbLine
 10
71.00195472239767
 20
1.7080546558424601
 30
0.0
 11
166.40195472239759
 21
1.7080546558424601
 31
0.0
  0
LINE
  5
434
100
AcDbEntity
  8
0
  6
CONTINUOUS
 62
               2
100
AcDbLine
 10
71.00195472239767
 20
-33.887579804606759
 30
0.0
 11
71.00195472239767
 21
3.2080546558424601
 31
0.0
  0
LINE
  5
435
100
AcDbEntity
  8
0
  6
CONTINUOUS
 62
               2
100
AcDbLine
 10
166.40195472239759
 20
-33.887579804606759
 30
0.0
 11
166.40195472239759
 21
3.2080546558424601
 31
0.0
  0
INSERT
  5
43C
100
AcDbEntity
  8
0
  6
CONTINUOUS
 62
               2
100
AcDbBlockReference
  2
_OPEN30
 10
71.00195472239767
 20
1.7080546558424601
 30
0.0
 41
2.77
 42
2.77
 43
2.77
 50
180.0
  0
INSERT
  5
43D
100
AcDbEntity
  8
0
  6
CONTINUOUS
 62
               2
100
AcDbBlockReference
  2
_OPEN30
 10
166.40195472239759
 20
1.7080546558424601
 30
0.0
 41
2.77
 42
2.77
 43
2.77
  0
MTEXT
  5
43E
100
AcDbEntity
  8
0
  6
CONTINUOUS
 62
               2
100
AcDbMText
 10
118.70195548533712
 20
4.3080545604750284
 30
0.0
 40
3.1999998092651367
 41
0.0
 71
               5
 72
               1
  1
\A1;P
  0
POINT
  5
43F
100
AcDbEntity
  8
DEFPOINTS
  6
CONTINUOUS
 62
               0
100
AcDbPoint
 10
71.00195472239767
 20
-35.387579804606759
 30
0.0
  0
POINT
  5
440
100
AcDbEntity
  8
DEFPOINTS
  6
CONTINUOUS
 62
               0
100
AcDbPoint
 10
166.40195472239759
 20
-35.387579804606759
 30
0.0
  0
POINT
  5
441
100
AcDbEntity
  8
DEFPOINTS
  6
CONTINUOUS
 62
               0
100
AcDbPoint
 10
166.40195472239759
 20
1.7080546558424601
 30
0.0
  0
ENDBLK
  5
442
100
AcDbEntity
  8
0
  6
ByBlock
 62
               0
100
AcDbBlockEnd
  0
BLOCK
  5
437
100
AcDbEntity
  8
0
  6
ByBlock
 62
               0
100
AcDbBlockBegin
  2
_OPEN30
 70
               2
 10
0.0
 20
0.0
 30
0.0
  3
_OPEN30
  1

  0
LINE
  5
438
100
AcDbEntity
  8
0
  6
ByBlock
 62
               0
100
AcDbLine
 10
-1.0
 20
0.267949
 30
0.0
 11
0.0
 21
0.0
 31
0.0
  0
LINE
  5
439
100
AcDbEntity
  8
0
  6
ByBlock
 62
               0
100
AcDbLine
 10
0.0
 20
0.0
 30
0.0
 11
-1.0
 21
-0.267949
 31
0.0
  0
LINE
  5
43A
100
AcDbEntity
  8
0
  6
ByBlock
 62
               0
100
AcDbLine
 10
0.0
 20
0.0
 30
0.0
 11
-1.0
 21
0.0
 31
0.0
  0
ENDBLK
  5
43B
100
AcDbEntity
  8
0
  6
ByBlock
 62
               0
100
AcDbBlockEnd
  0
BLOCK
  5
445
100
AcDbEntity
  8
0
  6
ByBlock
 62
               0
100
AcDbBlockBegin
  2
*D11
 70
               1
 10
0.0
 20
0.0
 30
0.0
  3
*D11
  1

  0
LINE
  5
446
100
AcDbEntity
  8
0
  6
CONTINUOUS
 62
               2
100
AcDbLine
 10
166.40195472239759
 20
-8.8510565300846622
 30
0.0
 11
163.40195472239759
 21
-8.8510565300846622
 31
0.0
  0
LINE
  5
447
100
AcDbEntity
  8
0
  6
CONTINUOUS
 62
               2
100
AcDbLine
 10
174.90051169394758
 20
-8.8510565300846622
 30
0.0
 11
166.40195472239759
 21
-8.8510565300846622
 31
0.0
  0
LINE
  5
448
100
AcDbEntity
  8
0
  6
CONTINUOUS
 62
               2
100
AcDbLine
 10
166.40195472239759
 20
-8.8510565300846622
 30
0.0
 11
169.95795471667554
 21
-8.8510565300846622
 31
0.0
  0
LINE
  5
449
100
AcDbEntity
  8
0
  6
CONTINUOUS
 62
               2
100
AcDbLine
 10
163.40195472239759
 20
-8.8510565300846622
 30
0.0
 11
159.84595472811964
 21
-8.8510565300846622
 31
0.0
  0
INSERT
  5
44A
100
AcDbEntity
  8
0
  6
CONTINUOUS
 62
               2
100
AcDbBlockReference
  2
_OPEN30
 10
166.40195472239759
 20
-8.8510565300846622
 30
0.0
 41
2.77
 42
2.77
 43
2.77
 50
180.0
  0
INSERT
  5
44B
100
AcDbEntity
  8
0
  6
CONTINUOUS
 62
               2
100
AcDbBlockReference
  2
_OPEN30
 10
163.40195472239759
 20
-8.8510565300846622
 30
0.0
 41
2.77
 42
2.77
 43
2.77
  0
MTEXT
  5
44C
100
AcDbEntity
  8
0
  6
CONTINUOUS
 62
               2
100
AcDbMText
 10
171.16717822551038
 20
-6.2510565062428043
 30
0.0
 40
3.2000000476837158
 41
0.0
 71
               5
 72
               1
  1
\A1;(3)
 11
1.0
 21
-0.0000000000000001
 31
0.0
  0
POINT
  5
44D
100
AcDbEntity
  8
DEFPOINTS
  6
CONTINUOUS
 62
               0
100
AcDbPoint
 10
166.40195472239759
 20
1.7080550650691464
 30
0.0
  0
POINT
  5
44E
100
AcDbEntity
  8
DEFPOINTS
  6
CONTINUOUS
 62
               0
100
AcDbPoint
 10
163.40195472239759
 20
-8.8510565300846622
 30
0.0
  0
POINT
  5
44F
100
AcDbEntity
  8
DEFPOINTS
  6
CONTINUOUS
 62
               0
100
AcDbPoint
 10
163.40195472239759
 20
-8.8510565300846622
 30
0.0
  0
ENDBLK
  5
450
100
AcDbEntity
  8
0
  6
ByBlock
 62
               0
100
AcDbBlockEnd
  0
BLOCK
  5
453
100
AcDbEntity
  8
0
  6
ByBlock
 62
               0
100
AcDbBlockBegin
  2
*D12
 70
               1
 10
0.0
 20
0.0
 30
0.0
  3
*D12
  1

  0
LINE
  5
454
100
AcDbEntity
  8
0
  6
CONTINUOUS
 62
               2
100
AcDbLine
 10
71.00195472239767
 20
-8.8510565300846622
 30
0.0
 11
74.00195472239767
 21
-8.8510565300846622
 31
0.0
  0
LINE
  5
455
100
AcDbEntity
  8
0
  6
CONTINUOUS
 62
               2
100
AcDbLine
 10
74.00195472239767
 20
-50.887578441705756
 30
0.0
 11
74.00195472239767
 21
-7.3510565300846622
 31
0.0
  0
LINE
  5
456
100
AcDbEntity
  8
0
  6
CONTINUOUS
 62
               2
100
AcDbLine
 10
71.00195472239767
 20
-8.8510565300846622
 30
0.0
 11
67.445954728119716
 21
-8.8510565300846622
 31
0.0
  0
LINE
  5
457
100
AcDbEntity
  8
0
  6
CONTINUOUS
 62
               2
100
AcDbLine
 10
74.00195472239767
 20
-8.8510565300846622
 30
0.0
 11
77.557954716675624
 21
-8.8510565300846622
 31
0.0
  0
INSERT
  5
458
100
AcDbEntity
  8
0
  6
CONTINUOUS
 62
               2
100
AcDbBlockReference
  2
_OPEN30
 10
71.00195472239767
 20
-8.8510565300846622
 30
0.0
 41
2.77
 42
2.77
 43
2.77
  0
INSERT
  5
459
100
AcDbEntity
  8
0
  6
CONTINUOUS
 62
               2
100
AcDbBlockReference
  2
_OPEN30
 10
74.00195472239767
 20
-8.8510565300846622
 30
0.0
 41
2.77
 42
2.77
 43
2.77
 50
180.0
  0
MTEXT
  5
45A
100
AcDbEntity
  8
0
  6
CONTINUOUS
 62
               2
100
AcDbMText
 10
72.50195472239767
 20
-6.2510566254520938
 30
0.0
 40
3.1999998092651367
 41
0.0
 71
               5
 72
               1
  1
\A1;3
  0
POINT
  5
45B
100
AcDbEntity
  8
DEFPOINTS
  6
CONTINUOUS
 62
               0
100
AcDbPoint
 10
71.00195472239767
 20
-19.410168125238471
 30
0.0
  0
POINT
  5
45C
100
AcDbEntity
  8
DEFPOINTS
  6
CONTINUOUS
 62
               0
100
AcDbPoint
 10
74.00195472239767
 20
-52.387578441705756
 30
0.0
  0
POINT
  5
45D
100
AcDbEntity
  8
DEFPOINTS
  6
CONTINUOUS
 62
               0
100
AcDbPoint
 10
74.00195472239767
 20
-8.8510565300846622
 30
0.0
  0
ENDBLK
  5
45E
100
AcDbEntity
  8
0
  6
ByBlock
 62
               0
100
AcDbBlockEnd
  0
BLOCK
  5
461
100
AcDbEntity
  8
0
  6
ByBlock
 62
               0
100
AcDbBlockBegin
  2
*D13
 70
               1
 10
0.0
 20
0.0
 30
0.0
  3
*D13
  1

  0
LINE
  5
462
100
AcDbEntity
  8
0
  6
CONTINUOUS
 62
               2
100
AcDbLine
 10
74.00195472239767
 20
-8.8510565300846622
 30
0.0
 11
163.40195472239759
 21
-8.8510565300846622
 31
0.0
  0
LINE
  5
463
100
AcDbEntity
  8
0
  6
CONTINUOUS
 62
               2
100
AcDbLine
 10
74.00195472239767
 20
-48.387578441705756
 30
0.0
 11
74.00195472239767
 21
-7.3510565300846622
 31
0.0
  0
LINE
  5
464
100
AcDbEntity
  8
0
  6
CONTINUOUS
 62
               2
100
AcDbLine
 10
163.40195472239759
 20
-48.387578441705756
 30
0.0
 11
163.40195472239759
 21
-7.3510565300846622
 31
0.0
  0
INSERT
  5
465
100
AcDbEntity
  8
0
  6
CONTINUOUS
 62
               2
100
AcDbBlockReference
  2
_OPEN30
 10
74.00195472239767
 20
-8.8510565300846622
 30
0.0
 41
2.77
 42
2.77
 43
2.77
 50
180.0
  0
INSERT
  5
466
100
AcDbEntity
  8
0
  6
CONTINUOUS
 62
               2
100
AcDbBlockReference
  2
_OPEN30
 10
163.40195472239759
 20
-8.8510565300846622
 30
0.0
 41
2.77
 42
2.77
 43
2.77
  0
MTEXT
  5
467
100
AcDbEntity
  8
0
  6
CONTINUOUS
 62
               2
100
AcDbMText
 10
118.70195548533712
 20
-6.2510566254520938
 30
0.0
 40
3.1999998092651367
 41
0.0
 71
               5
 72
               1
  1
\A1;L
  0
POINT
  5
468
100
AcDbEntity
  8
DEFPOINTS
  6
CONTINUOUS
 62
               0
100
AcDbPoint
 10
74.00195472239767
 20
-49.887578441705756
 30
0.0
  0
POINT
  5
469
100
AcDbEntity
  8
DEFPOINTS
  6
CONTINUOUS
 62
               0
100
AcDbPoint
 10
163.40195472239759
 20
-49.887578441705756
 30
0.0
  0
POINT
  5
46A
100
AcDbEntity
  8
DEFPOINTS
  6
CONTINUOUS
 62
               0
100
AcDbPoint
 10
163.40195472239759
 20
-8.8510565300846622
 30
0.0
  0
ENDBLK
  5
46B
100
AcDbEntity
  8
0
  6
ByBlock
 62
               0
100
AcDbBlockEnd
  0
ENDSEC
  0
SECTION
  2
ENTITIES
  0
INSERT
  5
421
100
AcDbEntity
  8
0
  6
ByBlock
100
AcDbBlockReference
  2
MV030MA-11-1
 10
65.00195472239767
 20
-90.387579100373017
 30
0.0
  0
INSERT
  5
422
100
AcDbEntity
  8
0
  6
ByBlock
100
AcDbBlockReference
  2
MV030MA-11-2
 10
19.183846227815877
 20
-90.387579100373017
 30
0.0
  0
INSERT
  5
423
100
AcDbEntity
  8
0
  6
ByBlock
100
AcDbBlockReference
  2
MV030MA-11-3
 10
65.00195472239767
 20
53.112420899627011
 30
0.0
  0
INSERT
  5
424
100
AcDbEntity
  8
0
  6
ByBlock
100
AcDbBlockReference
  2
MV030MA-11-4
 10
-61.590829789849749
 20
-90.387579100373117
 30
0.0
  0
MTEXT
  5
425
100
AcDbEntity
  8
0
  6
CONTINUOUS
 62
               7
100
AcDbMText
 10
115.52672595002113
 20
-126.0
 30
0.0
 40
6.3000001907348633
 41
0.0
 71
               4
 72
               1
  1
\W1.121;\A1;KOGANEI CORP.
  0
MTEXT
  5
426
100
AcDbEntity
  8
0
  6
CONTINUOUS
 62
               7
100
AcDbMText
 10
135.31124253717977
 20
125.10000610351562
 30
0.0
 40
4.5
 41
0.0
 71
               4
 72
               1
  1
\W1.348;\A1;Ver. 1.1
  0
LINE
  5
427
100
AcDbEntity
  8
0
  6
CONTINUOUS
 62
               7
100
AcDbLine
 10
-109.25
 20
132.60000610351562
 30
0.0
 11
-109.25
 21
117.60000610351562
 31
0.0
  0
LINE
  5
428
100
AcDbEntity
  8
0
  6
CONTINUOUS
 62
               7
100
AcDbLine
 10
-194.25
 20
117.60000610351562
 30
0.0
 11
-109.25
 21
117.60000610351562
 31
0.0
  0
LINE
  5
429
100
AcDbEntity
  8
0
  6
CONTINUOUS
 62
               7
100
AcDbLine
 10
109.80000305175781
 20
117.60000610351562
 30
0.0
 11
194.80000305175781
 21
117.60000610351562
 31
0.0
  0
LINE
  5
42A
100
AcDbEntity
  8
0
  6
CONTINUOUS
 62
               7
100
AcDbLine
 10
109.80000305175781
 20
132.60000610351562
 30
0.0
 11
109.80000305175781
 21
117.60000610351562
 31
0.0
  0
LINE
  5
42B
100
AcDbEntity
  8
0
  6
CONTINUOUS
 62
               7
100
AcDbLine
 10
109.80000305175781
 20
-118.5
 30
0.0
 11
194.80000305175781
 21
-118.5
 31
0.0
  0
LINE
  5
42C
100
AcDbEntity
  8
0
  6
CONTINUOUS
 62
               7
100
AcDbLine
 10
109.80000305175781
 20
-118.5
 30
0.0
 11
109.80000305175781
 21
-133.5
 31
0.0
  0
LINE
  5
42D
100
AcDbEntity
  8
0
  6
CONTINUOUS
 62
               7
100
AcDbLine
 10
-194.25
 20
-133.5
 30
0.0
 11
194.80000305175781
 21
-133.5
 31
0.0
  0
LINE
  5
42E
100
AcDbEntity
  8
0
  6
CONTINUOUS
 62
               7
100
AcDbLine
 10
-194.25
 20
132.60000610351562
 30
0.0
 11
-194.25
 21
-133.5
 31
0.0
  0
LINE
  5
42F
100
AcDbEntity
  8
0
  6
CONTINUOUS
 62
               7
100
AcDbLine
 10
194.80000305175781
 20
132.60000610351562
 30
0.0
 11
194.80000305175781
 21
-133.5
 31
0.0
  0
LINE
  5
430
100
AcDbEntity
  8
0
  6
CONTINUOUS
 62
               7
100
AcDbLine
 10
-194.25
 20
132.60000610351562
 30
0.0
 11
194.80000305175781
 21
132.60000610351562
 31
0.0
  0
DIMENSION
  5
443
100
AcDbEntity
  8
0
  6
CONTINUOUS
 62
               2
100
AcDbDimension
  2
*D9
 10
166.40195472239759
 20
1.7080546558424601
 30
0.0
 11
118.70195548533712
 21
1.7080546558424601
 31
0.0
 70
             128
  1
P
  3
MXDIMSTYLE
100
AcDbAlignedDimension
 13
71.00195472239767
 23
-35.387579804606759
 33
0.0
 14
166.40195472239759
 24
-35.387579804606759
 34
0.0
100
AcDbRotatedDimension
1001
ACAD
1000
DSTYLE
1002
{
1070
               6
1000
_OPEN30
1070
               7
1000
_OPEN30
1070
              41
1040
2.77
1070
             173
1070
               1
1070
             271
1070
               2
1070
             341
1005
436
1002
}
  0
DIMENSION
  5
451
100
AcDbEntity
  8
0
  6
CONTINUOUS
 62
               2
100
AcDbDimension
  2
*D11
 10
163.40195472239759
 20
-8.8510565300846622
 30
0.0
 11
171.16717822551038
 21
-8.8510565300846622
 31
0.0
 70
             128
  1
(<>)
  3
MXDIMSTYLE
100
AcDbAlignedDimension
 13
166.40195472239759
 23
1.7080550650691464
 33
0.0
 14
163.40195472239759
 24
-8.8510565300846622
 34
0.0
100
AcDbRotatedDimension
1001
ACAD
1000
DSTYLE
1002
{
1070
               6
1000
_OPEN30
1070
               7
1000
_OPEN30
1070
              41
1040
2.77
1070
              75
1070
               1
1070
              76
1070
               1
1070
             173
1070
               1
1070
             271
1070
               2
1070
             284
1070
               8
1070
             341
1005
436
1002
}
  0
DIMENSION
  5
45F
100
AcDbEntity
  8
0
  6
CONTINUOUS
 62
               2
100
AcDbDimension
  2
*D12
 10
74.00195472239767
 20
-8.8510565300846622
 30
0.0
 11
72.50195472239767
 21
-8.8510565300846622
 31
0.0
 70
             128
  1
<>
  3
MXDIMSTYLE
100
AcDbAlignedDimension
 13
71.00195472239767
 23
-19.410168125238471
 33
0.0
 14
74.00195472239767
 24
-52.387578441705756
 34
0.0
100
AcDbRotatedDimension
1001
ACAD
1000
DSTYLE
1002
{
1070
               6
1000
_OPEN30
1070
               7
1000
_OPEN30
1070
              41
1040
2.77
1070
              75
1070
               1
1070
             173
1070
               1
1070
             271
1070
               2
1070
             284
1070
               8
1070
             341
1005
436
1002
}
  0
DIMENSION
  5
46C
100
AcDbEntity
  8
0
  6
CONTINUOUS
 62
               2
100
AcDbDimension
  2
*D13
 10
163.40195472239759
 20
-8.8510565300846622
 30
0.0
 11
118.70195548533712
 21
-8.8510565300846622
 31
0.0
 70
             128
  1
L
  3
MXDIMSTYLE
100
AcDbAlignedDimension
 13
74.00195472239767
 23
-49.887578441705756
 33
0.0
 14
163.40195472239759
 24
-49.887578441705756
 34
0.0
100
AcDbRotatedDimension
1001
ACAD
1000
DSTYLE
1002
{
1070
               6
1000
_OPEN30
1070
               7
1000
_OPEN30
1070
              41
1040
2.77
1070
             173
1070
               1
1070
             271
1070
               2
1070
             341
1005
436
1002
}
  0
MTEXT
  5
46D
100
AcDbEntity
  8
0
  6
CONTINUOUS
 62
               7
100
AcDbMText
 10
-158.66666664790222
 20
75.600006103515625
 30
0.0
 40
4.5
 41
0.0
 71
               4
 72
               1
  1
\W1.111;\A1;STN.7,8:AMV030-02-PL
  0
MTEXT
  5
46E
100
AcDbEntity
  8
0
  6
CONTINUOUS
 62
               7
100
AcDbMText
 10
-158.66666664790222
 20
83.600006103515625
 30
0.0
 40
4.5
 41
0.0
 71
               4
 72
               1
  1
\W1.111;\A1;STN.5,6:AMV030-02-PL
  0
MTEXT
  5
46F
100
AcDbEntity
  8
0
  6
CONTINUOUS
 62
               7
100
AcDbMText
 10
-158.65000004437235
 20
91.600006103515625
 30
0.0
 40
4.5
 41
0.0
 71
               4
 72
               1
  1
\W1.133;\A1;STN.3,4:AMV030-04
  0
LINE
  5
470
100
AcDbEntity
  8
0
  6
CONTINUOUS
 62
               7
100
AcDbLine
 10
-184.25
 20
64.5
 30
0.0
 11
-113.84999999999999
 21
64.5
 31
0.0
  0
LINE
  5
471
100
AcDbEntity
  8
0
  6
CONTINUOUS
 62
               7
100
AcDbLine
 10
-184.25
 20
58.5
 30
0.0
 11
-113.84999999999999
 21
58.5
 31
0.0
  0
LINE
  5
472
100
AcDbEntity
  8
0
  6
CONTINUOUS
 62
               7
100
AcDbLine
 10
-184.25
 20
52.5
 30
0.0
 11
-113.84999999999999
 21
52.5
 31
0.0
  0
LINE
  5
473
100
AcDbEntity
  8
0
  6
CONTINUOUS
 62
               7
100
AcDbLine
 10
-184.25
 20
46.5
 30
0.0
 11
-113.84999999999999
 21
46.5
 31
0.0
  0
LINE
  5
474
100
AcDbEntity
  8
0
  6
CONTINUOUS
 62
               7
100
AcDbLine
 10
-184.25
 20
40.5
 30
0.0
 11
-113.84999999999999
 21
40.5
 31
0.0
  0
LINE
  5
475
100
AcDbEntity
  8
0
  6
CONTINUOUS
 62
               7
100
AcDbLine
 10
-184.25
 20
34.5
 30
0.0
 11
-113.84999999999999
 21
34.5
 31
0.0
  0
LINE
  5
476
100
AcDbEntity
  8
0
  6
CONTINUOUS
 62
               7
100
AcDbLine
 10
-184.25
 20
28.5
 30
0.0
 11
-113.84999999999999
 21
28.5
 31
0.0
  0
LINE
  5
477
100
AcDbEntity
  8
0
  6
CONTINUOUS
 62
               7
100
AcDbLine
 10
-184.25
 20
22.5
 30
0.0
 11
-113.84999999999999
 21
22.5
 31
0.0
  0
LINE
  5
478
100
AcDbEntity
  8
0
  6
CONTINUOUS
 62
               7
100
AcDbLine
 10
-184.25
 20
16.5
 30
0.0
 11
-113.84999999999999
 21
16.5
 31
0.0
  0
MTEXT
  5
479
100
AcDbEntity
  8
0
  6
CONTINUOUS
 62
               7
100
AcDbMText
 10
-170.85740867045007
 20
67.5
 30
0.0
 40
3.1999950408935547
 41
0.0
 71
               4
 72
               1
  1
\W1.111;\A1;DIMENSION LIST
  0
MTEXT
  5
47A
100
AcDbEntity
  8
0
  6
CONTINUOUS
 62
               7
100
AcDbMText
 10
-158.63068183408348
 20
99.600006103515625
 30
0.0
 40
4.5
 41
0.0
 71
               4
 72
               1
  1
\W1.159;\A1;STN.1,2:AMV030-02
  0
MTEXT
  5
47B
100
AcDbEntity
  8
0
  6
CONTINUOUS
 62
               7
100
AcDbMText
 10
-182.08225919099294
 20
25.5
 30
0.0
 40
3.1999950408935547
 41
0.0
 71
               4
 72
               1
  1
\W1.065;\A1;MV030M7A-11
  0
MTEXT
  5
47C
100
AcDbEntity
  8
0
  6
CONTINUOUS
 62
               7
100
AcDbMText
 10
-182.08225919099294
 20
31.5
 30
0.0
 40
3.1999950408935547
 41
0.0
 71
               4
 72
               1
  1
\W1.065;\A1;MV030M6A-11
  0
MTEXT
  5
47D
100
AcDbEntity
  8
0
  6
CONTINUOUS
 62
               7
100
AcDbMText
 10
-122.91666672229766
 20
61.5
 30
0.0
 40
3.1999998092651367
 41
0.0
 71
               4
 72
               1
  1
\A1;P
  0
MTEXT
  5
47E
100
AcDbEntity
  8
0
  6
CONTINUOUS
 62
               7
100
AcDbMText
 10
-182.08225919099294
 20
55.5
 30
0.0
 40
3.1999950408935547
 41
0.0
 71
               4
 72
               1
  1
\W1.065;\A1;MV030M2A-11
  0
MTEXT
  5
47F
100
AcDbEntity
  8
0
  6
CONTINUOUS
 62
               7
100
AcDbMText
 10
-182.08225919099294
 20
49.5
 30
0.0
 40
3.1999950408935547
 41
0.0
 71
               4
 72
               1
  1
\W1.065;\A1;MV030M3A-11
  0
MTEXT
  5
480
100
AcDbEntity
  8
0
  6
CONTINUOUS
 62
               7
100
AcDbMText
 10
-182.08225919099294
 20
43.5
 30
0.0
 40
3.1999950408935547
 41
0.0
 71
               4
 72
               1
  1
\W1.065;\A1;MV030M4A-11
  0
MTEXT
  5
481
100
AcDbEntity
  8
0
  6
CONTINUOUS
 62
               7
100
AcDbMText
 10
-182.08225919099294
 20
37.5
 30
0.0
 40
3.1999950408935547
 41
0.0
 71
               4
 72
               1
  1
\W1.065;\A1;MV030M5A-11
  0
MTEXT
  5
482
100
AcDbEntity
  8
0
  6
CONTINUOUS
 62
               7
100
AcDbMText
 10
-170.91666679382325
 20
61.5
 30
0.0
 40
3.1999998092651367
 41
0.0
 71
               4
 72
               1
  1
\A1;TYPE
  0
MTEXT
  5
483
100
AcDbEntity
  8
0
  6
CONTINUOUS
 62
               7
100
AcDbMText
 10
-138.91666672229766
 20
61.5
 30
0.0
 40
3.1999998092651367
 41
0.0
 71
               4
 72
               1
  1
\A1;L
  0
MTEXT
  5
484
100
AcDbEntity
  8
0
  6
CONTINUOUS
 62
               7
100
AcDbMText
 10
-143.61000016276043
 20
55.5
 30
0.0
 40
3.1999998092651367
 41
0.0
 71
               4
 72
               1
  1
\W1.200;\A1;28.2
  0
MTEXT
  5
485
100
AcDbEntity
  8
0
  6
CONTINUOUS
 62
               7
100
AcDbMText
 10
-143.61000016276043
 20
49.5
 30
0.0
 40
3.1999998092651367
 41
0.0
 71
               4
 72
               1
  1
\W1.200;\A1;38.4
  0
MTEXT
  5
486
100
AcDbEntity
  8
0
  6
CONTINUOUS
 62
               7
100
AcDbMText
 10
-143.61000016276043
 20
43.5
 30
0.0
 40
3.1999998092651367
 41
0.0
 71
               4
 72
               1
  1
\W1.200;\A1;48.6
  0
MTEXT
  5
487
100
AcDbEntity
  8
0
  6
CONTINUOUS
 62
               7
100
AcDbMText
 10
-143.61000016276043
 20
37.5
 30
0.0
 40
3.1999998092651367
 41
0.0
 71
               4
 72
               1
  1
\W1.200;\A1;58.8
  0
MTEXT
  5
488
100
AcDbEntity
  8
0
  6
CONTINUOUS
 62
               7
100
AcDbMText
 10
-143.57631694471308
 20
31.5
 30
0.0
 40
3.1999950408935547
 41
0.0
 71
               4
 72
               1
  1
\W1.263;\A1;69.0
  0
MTEXT
  5
489
100
AcDbEntity
  8
0
  6
CONTINUOUS
 62
               7
100
AcDbMText
 10
-143.61000016276043
 20
25.5
 30
0.0
 40
3.1999998092651367
 41
0.0
 71
               4
 72
               1
  1
\W1.200;\A1;79.2
  0
MTEXT
  5
48A
100
AcDbEntity
  8
0
  6
CONTINUOUS
 62
               7
100
AcDbMText
 10
-127.61000016276041
 20
25.5
 30
0.0
 40
3.1999998092651367
 41
0.0
 71
               4
 72
               1
  1
\W1.200;\A1;85.2
  0
MTEXT
  5
48B
100
AcDbEntity
  8
0
  6
CONTINUOUS
 62
               7
100
AcDbMText
 10
-127.57631694471306
 20
31.5
 30
0.0
 40
3.1999950408935547
 41
0.0
 71
               4
 72
               1
  1
\W1.263;\A1;75.0
  0
MTEXT
  5
48C
100
AcDbEntity
  8
0
  6
CONTINUOUS
 62
               7
100
AcDbMText
 10
-127.61000016276041
 20
37.5
 30
0.0
 40
3.1999998092651367
 41
0.0
 71
               4
 72
               1
  1
\W1.200;\A1;64.8
  0
MTEXT
  5
48D
100
AcDbEntity
  8
0
  6
CONTINUOUS
 62
               7
100
AcDbMText
 10
-127.61000016276041
 20
43.5
 30
0.0
 40
3.1999998092651367
 41
0.0
 71
               4
 72
               1
  1
\W1.200;\A1;54.6
  0
MTEXT
  5
48E
100
AcDbEntity
  8
0
  6
CONTINUOUS
 62
               7
100
AcDbMText
 10
-127.61000016276041
 20
49.5
 30
0.0
 40
3.1999998092651367
 41
0.0
 71
               4
 72
               1
  1
\W1.200;\A1;44.4
  0
MTEXT
  5
48F
100
AcDbEntity
  8
0
  6
CONTINUOUS
 62
               7
100
AcDbMText
 10
-127.61000016276041
 20
55.5
 30
0.0
 40
3.1999998092651367
 41
0.0
 71
               4
 72
               1
  1
\W1.200;\A1;34.2
  0
MTEXT
  5
490
100
AcDbEntity
  8
0
  6
CONTINUOUS
 62
               7
100
AcDbMText
 10
-127.61000016276041
 20
19.5
 30
0.0
 40
3.1999998092651367
 41
0.0
 71
               4
 72
               1
  1
\W1.200;\A1;95.4
  0
MTEXT
  5
491
100
AcDbEntity
  8
0
  6
CONTINUOUS
 62
               7
100
AcDbMText
 10
-143.61000016276043
 20
19.5
 30
0.0
 40
3.1999998092651367
 41
0.0
 71
               4
 72
               1
  1
\W1.200;\A1;89.4
  0
LINE
  5
492
100
AcDbEntity
  8
0
  6
CONTINUOUS
 62
               7
100
AcDbLine
 10
-129.84999999999999
 20
64.5
 30
0.0
 11
-129.84999999999999
 21
16.5
 31
0.0
  0
LINE
  5
493
100
AcDbEntity
  8
0
  6
CONTINUOUS
 62
               7
100
AcDbLine
 10
-145.84999999999999
 20
64.5
 30
0.0
 11
-145.84999999999999
 21
16.5
 31
0.0
  0
LINE
  5
494
100
AcDbEntity
  8
0
  6
CONTINUOUS
 62
               7
100
AcDbLine
 10
-184.25
 20
64.5
 30
0.0
 11
-184.25
 21
16.5
 31
0.0
  0
LINE
  5
495
100
AcDbEntity
  8
0
  6
CONTINUOUS
 62
               7
100
AcDbLine
 10
-113.84999999999999
 20
64.5
 30
0.0
 11
-113.84999999999999
 21
16.5
 31
0.0
  0
MTEXT
  5
496
100
AcDbEntity
  8
0
  6
CONTINUOUS
 62
               7
100
AcDbMText
 10
-182.08225919099294
 20
19.5
 30
0.0
 40
3.1999950408935547
 41
0.0
 71
               4
 72
               1
  1
\W1.065;\A1;MV030M8A-11
  0
MTEXT
  5
497
100
AcDbEntity
  8
0
  6
CONTINUOUS
 62
               7
100
AcDbMText
 10
-185.68617186656525
 20
107.60000610351562
 30
0.0
 40
4.5
 41
0.0
 71
               4
 72
               1
  1
\W1.085;\A1;MODEL:MV030M8A-11
  0
MTEXT
  5
498
100
AcDbEntity
  8
0
  6
CONTINUOUS
 62
               1
100
AcDbMText
 10
-189.24406324130686
 20
125.10000610351562
 30
0.0
 40
4.5
 41
0.0
 71
               4
 72
               1
  1
\W1.008;\A1;VACUUM VALVE UNIT
  0
ENDSEC
  0
SECTION
  2
OBJECTS
  0
DICTIONARY
  5
19
100
AcDbDictionary
  3
ACAD_GROUP
350
1A
  3
ACAD_MLINESTYLE
350
1B
  0
DICTIONARY
  5
1A
102
{ACAD_REACTORS
330
19
102
}
100
AcDbDictionary
  0
DICTIONARY
  5
1B
102
{ACAD_REACTORS
330
19
102
}
100
AcDbDictionary
  3
STANDARD
350
1C
  0
MLINESTYLE
  5
1C
102
{ACAD_REACTORS
330
1B
102
}
100
AcDbMlineStyle
  2
Standard
 70
               0
  3

 62
               0
 51
90.0
 52
90.0
 71
               2
 49
0.5
 62
             256
  6
ByLayer
 49
-0.5
 62
             256
  6
ByLayer
  0
ENDSEC
  0
EOF
